osu file format v14

[General]
AudioFilename: audio.mp3
AudioLeadIn: 0
PreviewTime: 101347
Countdown: 0
SampleSet: Normal
StackLeniency: 0.7
Mode: 2
LetterboxInBreaks: 0
WidescreenStoryboard: 1

[Editor]
DistanceSpacing: 1.5
BeatDivisor: 8
GridSize: 16
TimelineZoom: 2.1

[Metadata]
Title:Hotel Moonside
TitleUnicode:Hotel Moonside
Artist:Hayami Kanade (CV: Iida Yuuko)
ArtistUnicode:速水奏(CV:飯田友子)
Creator:CLSW
Version:MASTER+
Source:アイドルマスター シンデレラガールズ
Tags:THE iDOLM@STER CINDERELLA GIRLS MASTER 034 STARLIGHT STAGE im@s BNSI MC TC Inoue Taku 井上拓
BeatmapID:1220977
BeatmapSetID:576779

[Difficulty]
HPDrainRate:6
CircleSize:4
OverallDifficulty:9.5
ApproachRate:9.5
SliderMultiplier:2.56
SliderTickRate:4

[Events]
//Background and Video events
0,0,"seqat.png",0,0
//Break Periods
//Storyboard Layer 0 (Background)
//Storyboard Layer 1 (Fail)
//Storyboard Layer 2 (Pass)
//Storyboard Layer 3 (Foreground)
//Storyboard Sound Samples

[TimingPoints]
882,465.116279069767,4,1,2,50,1,0
39021,-25,4,1,2,50,0,0
40416,-50,4,1,2,50,0,0
62277,-100,4,1,2,50,0,0
69254,-50,4,1,2,50,0,0
69719,-100,4,1,2,50,0,0
86463,-25,4,1,2,50,0,0
93905,-100,4,1,2,50,0,0
101347,-25,4,1,2,50,0,1
131114,-25,4,1,2,50,0,0

[Colours]
Combo1 : 0,0,77
Combo2 : 0,75,151
Combo3 : 0,0,249

[HitObjects]
256,192,6928,12,0,8323,0:0:0:0:
368,272,8788,6,0,P|384:240|352:16,1,256
112,112,9719,1,0,0:0:0:0:
368,192,10184,5,0,0:0:0:0:
144,272,10649,2,0,P|128:240|160:16,1,256
400,112,11579,1,8,0:2:0:0:
144,192,12044,5,0,0:0:0:0:
384,128,12509,2,0,L|128:128,1,256
368,192,13440,1,0,0:0:0:0:
144,192,13905,5,0,0:0:0:0:
384,128,14370,2,0,L|128:128,1,256
368,192,15301,5,0,0:0:0:0:
96,112,15765,6,0,P|64:160|160:256,1,192
336,256,16230,2,0,L|352:176,1,64
224,192,16463,2,0,L|208:112,1,64
352,160,16695,6,0,L|368:80,1,64
240,96,16928,2,0,L|224:16,1,64
336,256,17161,2,0,L|352:176,1,64
224,192,17394,2,0,L|208:112,1,64
416,112,17626,6,0,P|448:160|352:256,1,192
176,256,18091,2,0,L|160:176,1,64
288,192,18324,2,0,L|304:112,1,64
160,160,18556,6,0,L|144:80,1,64
272,96,18789,2,0,L|288:16,1,64
176,256,19021,2,0,L|160:176,1,64
288,192,19255,2,0,L|304:112,1,64
64,144,19486,6,0,L|272:144,1,192
448,192,19951,2,0,L|384:192,1,64
256,192,20184,2,0,L|192:192,1,64
64,240,20416,6,0,L|128:240,1,64
256,240,20649,2,0,L|320:240,1,64
448,192,20881,2,0,L|384:192,1,64
256,192,21114,2,0,L|192:192,1,64
448,144,21347,6,0,L|240:144,1,192
64,192,21812,2,0,L|128:192,1,64
256,192,22045,2,0,L|320:192,1,64
448,240,22277,6,0,L|384:240,1,64
256,240,22510,2,0,L|192:240,1,64
448,240,22742,6,0,P|464:192|448:48,1,192,8|0,0:2|0:0,0:0:0:0:
112,48,23207,6,0,P|96:96|208:160,1,192,4|0,0:2|0:0,0:0:0:0:
112,160,23672,2,0,P|96:208|208:272,1,192
112,48,24137,2,0,P|96:96|208:160,1,192
112,48,24602,2,0,P|96:96|208:160,1,192,8|0,0:0|0:0,0:0:0:0:
400,48,25068,6,0,P|416:96|304:160,1,192
400,160,25533,2,0,P|416:208|304:272,1,192
400,48,25998,2,0,P|416:96|304:160,1,192
400,48,26463,2,0,P|416:96|304:160,1,192
64,144,26928,6,0,L|272:144,1,192
64,80,27393,2,0,L|272:80,1,192
64,144,27858,2,0,L|272:144,1,192
64,144,28323,2,0,L|272:144,1,192
448,144,28788,6,0,L|240:144,1,192
448,80,29253,2,0,L|240:80,1,192
448,144,29719,2,0,L|240:144,1,192
448,144,30184,2,0,L|240:144,1,192
64,144,30649,5,2,0:2:0:0:
448,144,31114,1,2,0:2:0:0:
160,208,31579,1,2,0:2:0:0:
352,208,31928,1,2,0:2:0:0:
160,208,32277,1,2,0:2:0:0:
400,128,32509,5,2,0:2:0:0:
112,128,32975,1,2,0:2:0:0:
336,128,33207,2,2,L|352:192,1,42.6666666666667,2|2,0:2|0:2,0:2:0:0:
176,128,33362,2,2,L|160:192,1,42.6666666666667,2|2,0:2|0:2,0:2:0:0:
368,224,33788,1,2,0:2:0:0:
144,224,34137,1,2,0:2:0:0:
368,80,34370,5,2,0:2:0:0:
144,80,34602,1,2,0:2:0:0:
384,144,34835,1,2,0:2:0:0:
128,144,35068,1,2,0:2:0:0:
480,208,35300,5,2,0:2:0:0:
32,208,35533,1,2,0:2:0:0:
496,272,35765,1,2,0:2:0:0:
16,272,35998,1,2,0:2:0:0:
320,96,36230,6,2,L|384:96,1,64,2|2,0:2|0:2,0:2:0:0:
192,96,36463,2,2,L|128:96,1,64,2|2,0:2|0:2,0:2:0:0:
336,160,36695,2,2,L|400:160,1,64,2|2,0:2|0:2,0:2:0:0:
176,160,36928,2,2,L|112:160,1,64,2|2,0:2|0:2,0:2:0:0:
352,208,37161,6,2,L|400:208,1,32,2|2,0:2|0:2,0:2:0:0:
160,208,37277,2,2,L|112:208,1,32,2|2,0:2|0:2,0:2:0:0:
368,256,37393,2,2,L|416:256,1,32,2|2,0:2|0:2,0:2:0:0:
144,256,37509,2,2,L|96:256,1,32,2|2,0:2|0:2,0:2:0:0:
384,304,37626,6,2,L|432:304,1,32,2|2,0:2|0:2,0:2:0:0:
128,304,37742,2,2,L|80:304,1,32,2|2,0:2|0:2,0:2:0:0:
400,352,37858,2,2,L|448:352,1,32,2|2,0:2|0:2,0:2:0:0:
112,352,37975,2,2,L|64:352,1,32,2|2,0:2|0:2,0:2:0:0:
416,304,38091,1,8,0:2:0:0:
240,192,39021,6,0,L|320:192,1,64
272,144,39486,6,0,L|208:144,1,64
416,176,39951,6,0,L|496:176,12,64
256,336,40416,6,0,B|0:336|0:80|254:80,1,384
256,48,40881,2,0,B|0:48|0:304|254:304,1,384
256,336,41347,2,0,B|0:336|0:80|254:80,1,384
448,384,41812,6,0,P|480:256|444:0,1,384
256,336,42277,6,0,B|512:336|512:80|258:80,1,384
256,48,42742,2,0,B|512:48|512:304|258:304,1,384
256,336,43208,2,0,B|512:336|512:80|258:80,1,384
128,64,43672,6,0,L|391:355,1,384
256,336,44137,6,0,B|0:336|0:80|254:80,1,384
256,48,44602,2,0,B|0:48|0:304|254:304,1,384
256,336,45068,2,0,B|0:336|0:80|254:80,1,384
384,176,45533,5,0,0:0:0:0:
128,176,45998,1,0,0:0:0:0:
320,128,46230,2,0,L|160:128,2,128
192,256,46695,2,0,L|352:256,1,128
96,128,46928,6,0,L|432:352,1,384
232,32,47393,6,0,L|232:112,1,64
248,32,47509,2,0,L|248:112,1,64
264,32,47626,2,0,L|264:112,1,64
280,32,47742,2,0,L|280:112,1,64
64,336,47858,6,0,B|320:336|320:80|66:80,1,384
64,48,48323,2,0,B|320:48|320:304|66:304,1,384
64,336,48788,2,0,B|320:336|320:80|66:80,1,384
64,64,49254,6,0,L|448:64,1,384
323,106,49719,6,0,B|192:194|253:338|468:336,1,384
323,277,50184,2,0,B|192:190|253:46|468:48,1,384
323,106,50649,2,0,B|192:194|253:338|468:336,1,384
160,256,51114,6,0,B|160:64|352:64|352:272,1,384
64,336,51579,6,0,B|320:336|320:80|66:80,1,384
64,64,52044,2,0,L|448:64,1,384
323,106,52509,2,0,B|192:194|253:338|468:336,1,384
64,336,52975,5,0,0:0:0:0:
256,320,53440,2,0,B|512:320|512:64|258:64,1,384
256,64,53905,2,0,B|0:64|0:320|254:320,1,384
416,128,54370,6,0,L|80:352,1,384,8|0,0:2|0:0,0:0:0:0:
480,336,54835,6,0,B|480:16|480:16|480:160,1,448
384,336,55300,2,0,B|384:16|384:16|384:160,1,448,8|0,0:0|0:0,0:0:0:0:
288,336,55765,2,0,B|288:16|288:16|288:160,1,448,8|0,0:0|0:0,0:0:0:0:
192,144,56230,1,8,0:0:0:0:
448,144,56463,1,0,0:0:0:0:
32,336,56695,6,0,B|32:16|32:16|32:160,1,448
128,336,57161,2,0,B|128:16|128:16|128:160,1,448,8|0,0:0|0:0,0:0:0:0:
224,336,57626,2,0,B|224:16|224:16|224:160,1,448,8|0,0:0|0:0,0:0:0:0:
320,144,58090,1,8,0:0:0:0:
64,144,58323,1,0,0:0:0:0:
480,336,58556,6,0,B|480:16|480:16|480:160,1,448
384,336,59021,2,0,B|384:16|384:16|384:160,1,448,8|0,0:0|0:0,0:0:0:0:
288,336,59486,2,0,B|288:16|288:16|288:160,1,448,8|0,0:0|0:0,0:0:0:0:
192,144,59951,1,8,0:0:0:0:
464,144,60184,1,0,0:0:0:0:
144,96,60416,6,0,L|32:336,1,256
368,320,60881,2,0,L|480:80,1,256,8|0,0:0|0:0,0:0:0:0:
176,80,61347,2,0,B|-16:80|-16:272|176:272,1,384,8|0,0:0|0:0,0:0:0:0:
416,128,61812,6,0,L|80:352,1,384,8|0,0:0|0:0,0:0:0:0:
496,272,62277,6,0,L|288:144,1,224
208,160,62742,2,0,L|416:32,1,224,8|0,0:0|0:0,0:0:0:0:
304,32,63207,2,0,L|96:160,1,224,8|0,0:0|0:0,0:0:0:0:
16,160,63672,1,8,0:0:0:0:
464,112,63905,1,0,0:0:0:0:
16,272,64137,6,0,L|224:144,1,224
304,160,64602,2,0,L|96:32,1,224,8|0,0:0|0:0,0:0:0:0:
208,32,65067,2,0,L|416:160,1,224,8|0,0:0|0:0,0:0:0:0:
496,160,65532,1,8,0:0:0:0:
256,160,65765,1,0,0:0:0:0:
496,272,65998,6,0,L|288:144,1,224
208,160,66463,2,0,L|416:32,1,224,8|0,0:0|0:0,0:0:0:0:
304,32,66928,2,0,L|96:160,1,224,8|0,0:0|0:0,0:0:0:0:
16,160,67393,1,8,0:0:0:0:
256,128,67626,1,0,0:0:0:0:
32,192,67858,6,0,L|160:192,1,128
480,192,68323,2,0,L|352:192,1,128,8|0,0:0|0:0,0:0:0:0:
160,80,68788,2,0,L|352:80,1,192,8|0,0:0|0:0,0:0:0:0:
96,128,69254,6,0,L|432:352,1,384,8|0,0:0|0:0,0:0:0:0:
160,304,69719,5,0,0:0:0:0:
352,192,69951,2,0,L|256:192,1,64
416,160,70184,2,0,L|320:160,1,64,8|0,0:0|0:0,0:0:0:0:
480,128,70416,2,0,L|384:128,1,64
288,96,70649,6,0,L|432:96,1,128,8|0,0:0|0:0,0:0:0:0:
288,64,70998,2,0,L|144:64,1,128
288,128,71347,2,0,L|192:128,1,64
352,112,71579,5,0,0:0:0:0:
160,192,71812,2,0,L|256:192,1,64
96,160,72045,2,0,L|192:160,1,64,8|0,0:0|0:0,0:0:0:0:
32,128,72277,2,0,L|128:128,1,64
224,96,72509,6,0,L|80:96,1,128,8|0,0:0|0:0,0:0:0:0:
224,64,72858,2,0,L|368:64,1,128
224,128,73207,2,0,L|320:128,1,64
160,160,73440,5,0,0:0:0:0:
352,160,73672,2,0,L|272:160,1,64
160,128,73905,2,0,L|240:128,1,64,8|0,0:0|0:0,0:0:0:0:
352,112,74137,2,0,L|272:112,1,64
160,80,74370,6,0,L|304:80,1,128,8|0,0:0|0:0,0:0:0:0:
160,48,74719,2,0,L|32:48,1,128
160,80,75068,2,0,L|240:80,1,64
352,80,75300,6,0,L|368:208,1,128
160,80,75765,2,0,L|144:208,1,128,8|0,0:0|0:0,0:0:0:0:
256,208,76114,1,0,0:0:0:0:
464,176,76230,2,0,L|480:304,1,128,8|0,0:0|0:0,0:0:0:0:
48,176,76695,6,0,L|32:304,1,128,8|0,0:0|0:0,0:0:0:0:
352,176,77161,5,0,0:0:0:0:
160,144,77393,1,0,0:0:0:0:
256,144,77509,1,0,0:0:0:0:
144,176,77626,1,8,0:0:0:0:
272,176,77742,1,0,0:0:0:0:
160,208,77858,1,0,0:0:0:0:
256,208,77975,1,0,0:0:0:0:
144,176,78091,6,0,L|304:176,1,128,8|0,0:0|0:0,0:0:0:0:
144,144,78440,2,0,L|288:144,1,128
144,96,78788,2,0,L|240:96,2,64
352,144,79254,5,0,0:0:0:0:
256,144,79370,1,0,0:0:0:0:
368,176,79487,1,8,0:0:0:0:
240,176,79603,1,0,0:0:0:0:
352,208,79719,1,0,0:0:0:0:
256,208,79836,1,0,0:0:0:0:
368,176,79952,6,0,L|208:176,1,128,8|0,0:0|0:0,0:0:0:0:
368,144,80301,2,0,L|224:144,1,128
368,96,80649,2,0,L|272:96,2,64
192,112,81114,5,0,0:0:0:0:
320,112,81230,1,0,0:0:0:0:
192,176,81347,2,0,L|336:176,1,128,8|0,0:0|0:0,0:0:0:0:
128,144,81812,6,0,L|256:144,1,128,8|0,0:0|0:0,0:0:0:0:
384,144,82161,2,0,L|256:144,1,128
128,144,82509,1,0,0:0:0:0:
464,144,82742,6,0,L|480:272,1,128
48,144,83207,2,0,L|32:272,1,128,8|0,0:0|0:0,0:0:0:0:
352,144,83672,2,0,L|368:272,1,128,8|0,0:0|0:0,0:0:0:0:
160,144,84137,6,0,L|144:272,1,128,8|0,0:0|0:0,0:0:0:0:
256,256,84602,1,0,0:0:0:0:
320,192,85765,6,0,L|192:192,2,128
96,208,86463,6,0,L|26:170,1,64,4|0,0:2|0:0,0:0:0:0:
224,208,86928,2,0,L|154:170,1,64
352,208,87393,2,0,L|282:170,1,64
480,208,87858,2,0,L|410:170,1,64
39,177,88323,6,0,L|96:208,1,64
167,177,88788,2,0,L|224:208,1,64
295,177,89253,2,0,L|352:208,1,64
423,177,89718,2,0,L|480:208,1,64
96,208,90184,6,0,L|26:170,1,64
167,177,90649,2,0,L|224:208,1,64
352,208,91114,2,0,L|282:170,1,64
423,177,91579,2,0,L|480:208,1,64
39,177,92044,6,0,L|96:208,1,64
224,208,92509,2,0,L|167:177,1,64
295,177,92974,2,0,L|352:208,1,64
480,208,93439,2,0,L|423:177,1,64
64,144,93905,5,2,0:2:0:0:
448,144,94370,1,2,0:2:0:0:
160,208,94835,1,2,0:2:0:0:
352,208,95184,1,2,0:2:0:0:
160,208,95533,1,2,0:2:0:0:
400,128,95765,5,2,0:2:0:0:
192,96,95998,1,2,0:2:0:0:
320,96,96114,1,2,0:2:0:0:
112,112,96463,2,2,L|96:176,1,42.6666666666667,2|2,0:2|0:2,0:2:0:0:
400,128,96618,2,2,L|416:192,1,42.6666666666667,2|2,0:2|0:2,0:2:0:0:
144,224,97044,1,2,0:2:0:0:
368,224,97393,1,2,0:2:0:0:
144,80,97626,5,2,0:2:0:0:
368,80,97858,1,2,0:2:0:0:
32,128,98091,1,2,0:2:0:0:
480,128,98324,1,2,0:2:0:0:
176,160,98556,6,2,L|112:160,1,64,2|2,0:2|0:2,0:2:0:0:
336,160,98788,2,2,L|400:160,1,64,2|2,0:2|0:2,0:2:0:0:
160,208,99021,6,2,L|128:208,1,32,2|2,0:2|0:2,0:2:0:0:
352,208,99137,2,2,L|384:208,1,32,2|2,0:2|0:2,0:2:0:0:
144,256,99254,2,2,L|112:256,1,32,2|2,0:2|0:2,0:2:0:0:
368,256,99370,2,2,L|400:256,1,32,2|2,0:2|0:2,0:2:0:0:
96,288,100416,6,0,P|64:256|160:176,1,192
416,288,100881,6,0,P|448:256|352:176,1,192
176,224,101347,6,0,L|112:212,1,64,4|0,0:0|0:0,0:0:0:0:
336,208,101812,2,0,L|399:196,1,64,4|0,0:0|0:0,0:0:0:0:
65,148,102277,2,0,L|128:160,1,64,4|0,0:0|0:0,0:0:0:0:
447,148,102742,2,0,L|384:160,1,64,4|0,0:0|0:0,0:0:0:0:
96,192,103207,6,0,L|33:204,1,64,4|0,0:0|0:0,0:0:0:0:
224,176,103672,2,0,L|161:188,1,64,4|0,0:0|0:0,0:0:0:0:
416,192,104137,2,0,L|479:180,1,64,4|0,0:0|0:0,0:0:0:0:
288,208,104602,2,0,L|351:196,1,64,4|0,0:0|0:0,0:0:0:0:
112,192,105068,6,0,L|175:204,1,64,4|0,0:0|0:0,0:0:0:0:
400,192,105533,2,0,L|337:204,1,64,4|0,0:0|0:0,0:0:0:0:
128,160,105998,2,0,L|65:148,1,64,4|0,0:0|0:0,0:0:0:0:
384,160,106463,2,0,L|446:148,1,64,4|0,0:0|0:0,0:0:0:0:
224,192,106928,6,0,L|287:180,1,64,4|0,0:0|0:0,0:0:0:0:
32,192,107393,2,0,L|95:204,1,64,4|0,0:0|0:0,0:0:0:0:
288,224,107858,2,0,L|225:212,1,64,12|0,0:0|0:0,0:0:0:0:
480,208,108323,2,0,L|417:220,1,64,12|0,0:0|0:0,0:0:0:0:
192,128,108788,6,0,L|255:140,1,64,4|0,0:0|0:0,0:0:0:0:
32,160,109254,2,0,L|95:172,1,64,4|0,0:0|0:0,0:0:0:0:
319,236,109719,2,0,L|256:224,1,64,4|0,0:0|0:0,0:0:0:0:
159,268,110185,2,0,L|96:256,1,64,4|0,0:0|0:0,0:0:0:0:
320,256,110649,6,0,L|257:244,1,64,4|0,0:0|0:0,0:0:0:0:
480,224,111115,2,0,L|417:212,1,64,4|0,0:0|0:0,0:0:0:0:
193,148,111580,2,0,L|256:160,1,64,4|0,0:0|0:0,0:0:0:0:
353,116,112044,2,0,L|416:128,1,64,4|0,0:0|0:0,0:0:0:0:
65,140,112509,6,0,L|128:128,1,64,4|0,0:0|0:0,0:0:0:0:
447,140,112975,2,0,L|384:128,1,64,4|0,0:0|0:0,0:0:0:0:
32,192,113440,2,0,L|95:180,1,64,4|0,0:0|0:0,0:0:0:0:
480,192,113905,2,0,L|417:180,1,64,4|0,0:0|0:0,0:0:0:0:
96,176,114370,6,0,L|33:164,1,64,4|0,0:0|0:0,0:0:0:0:
160,160,114835,2,0,L|223:172,1,64,4|0,0:0|0:0,0:0:0:0:
352,160,115300,2,0,L|289:172,1,64,4|0,0:0|0:0,0:0:0:0:
416,176,115765,2,0,L|479:164,1,64,8|0,0:0|0:0,0:0:0:0:
113,212,116230,6,0,L|176:224,1,64,4|0,0:0|0:0,0:0:0:0:
399,196,116695,2,0,L|336:208,1,64,4|0,0:0|0:0,0:0:0:0:
128,160,117160,2,0,L|65:148,1,64,4|0,0:0|0:0,0:0:0:0:
384,160,117625,2,0,L|447:148,1,64,4|0,0:0|0:0,0:0:0:0:
33,204,118090,6,0,L|96:192,1,64,4|0,0:0|0:0,0:0:0:0:
161,188,118555,2,0,L|224:176,1,64,4|0,0:0|0:0,0:0:0:0:
479,180,119020,2,0,L|416:192,1,64,4|0,0:0|0:0,0:0:0:0:
351,196,119485,2,0,L|288:208,1,64,4|0,0:0|0:0,0:0:0:0:
175,204,119951,6,0,L|112:192,1,64,4|0,0:0|0:0,0:0:0:0:
337,204,120416,2,0,L|400:192,1,64,4|0,0:0|0:0,0:0:0:0:
65,148,120881,2,0,L|128:160,1,64,4|0,0:0|0:0,0:0:0:0:
448,144,121346,2,0,L|386:156,1,64,4|0,0:0|0:0,0:0:0:0:
287,180,121811,6,0,L|224:192,1,64,4|0,0:0|0:0,0:0:0:0:
95,204,122276,2,0,L|32:192,1,64,4|0,0:0|0:0,0:0:0:0:
225,212,122741,2,0,L|288:224,1,64,4|0,0:0|0:0,0:0:0:0:
417,220,123206,2,0,L|480:208,1,64,8|0,0:0|0:0,0:0:0:0:
255,140,123671,6,0,L|192:128,1,64,4|0,0:0|0:0,0:0:0:0:
95,172,124137,2,0,L|32:160,1,64,4|0,0:0|0:0,0:0:0:0:
256,224,124602,2,0,L|319:236,1,64,4|0,0:0|0:0,0:0:0:0:
96,256,125068,2,0,L|159:268,1,64,4|0,0:0|0:0,0:0:0:0:
257,244,125532,6,0,L|320:256,1,64,4|0,0:0|0:0,0:0:0:0:
417,212,125998,2,0,L|480:224,1,64,4|0,0:0|0:0,0:0:0:0:
256,160,126463,2,0,L|193:148,1,64,4|0,0:0|0:0,0:0:0:0:
416,128,126929,2,0,L|353:116,1,64,4|0,0:0|0:0,0:0:0:0:
128,128,127392,6,0,L|65:140,1,64,4|0,0:0|0:0,0:0:0:0:
384,128,127858,2,0,L|447:140,1,64,4|0,0:0|0:0,0:0:0:0:
95,180,128323,2,0,L|32:192,1,64,4|0,0:0|0:0,0:0:0:0:
417,180,128788,2,0,L|480:192,1,64,4|0,0:0|0:0,0:0:0:0:
33,164,129253,6,0,L|96:176,1,64,4|0,0:0|0:0,0:0:0:0:
223,172,129718,2,0,L|160:160,1,64,4|0,0:0|0:0,0:0:0:0:
289,172,130183,2,0,L|352:160,1,64,4|0,0:0|0:0,0:0:0:0:
479,164,130648,2,0,L|416:176,1,64,8|0,0:0|0:0,0:0:0:0:
80,128,131114,5,4,0:0:0:0:
16,144,131143,2,0,B|16:320|16:320|16:80|16:80|16:256|16:256|16:176,1,640
352,64,131579,1,4,0:0:0:0:
416,112,131608,2,0,B|416:288|416:288|416:48|416:48|416:224|416:224|416:144,1,640
160,64,132044,5,4,0:0:0:0:
96,112,132073,2,0,B|96:288|96:288|96:48|96:48|96:224|96:224|96:144,1,640
432,128,132509,1,4,0:0:0:0:
496,144,132538,2,0,B|496:320|496:320|496:80|496:80|496:256|496:256|496:176,1,640
288,128,132975,5,4,0:0:0:0:
224,144,133004,2,0,B|224:320|224:320|224:80|224:80|224:256|224:256|224:176,1,640
80,128,133440,1,4,0:0:0:0:
16,144,133469,2,0,B|16:320|16:320|16:80|16:80|16:256|16:256|16:176,1,640
224,128,133905,5,4,0:0:0:0:
288,144,133934,2,0,B|288:320|288:320|288:80|288:80|288:256|288:256|288:176,1,640
432,128,134370,1,4,0:0:0:0:
496,144,134399,2,0,B|496:320|496:320|496:80|496:80|496:256|496:256|496:176,1,640
224,96,134835,5,4,0:0:0:0:
160,112,134864,2,0,B|160:288|160:288|160:48|160:48|160:224|160:224|160:144,1,640
288,128,135300,1,4,0:0:0:0:
352,144,135329,2,0,B|352:320|352:320|352:80|352:80|352:256|352:256|352:176,1,640
96,128,135765,5,4,0:0:0:0:
32,144,135794,2,0,B|32:320|32:320|32:80|32:80|32:256|32:256|32:176,1,640
416,128,136230,1,4,0:0:0:0:
480,144,136259,2,0,B|480:320|480:320|480:80|480:80|480:256|480:256|480:176,1,640
96,128,136695,5,4,0:0:0:0:
32,144,136724,2,0,B|32:320|32:320|32:80|32:80|32:256|32:256|32:176,1,640
320,128,137161,1,4,0:0:0:0:
384,144,137190,2,0,B|384:320|384:320|384:80|384:80|384:256|384:256|384:176,1,640
176,128,137626,5,4,0:0:0:0:
112,144,137655,2,0,B|112:320|112:320|112:80|112:80|112:256|112:256|112:176,1,640
480,192,138091,1,8,0:0:0:0:
160,96,138556,5,2,0:2:0:0:
352,96,139021,1,2,0:2:0:0:
192,144,139370,1,0,0:0:0:0:
320,144,139486,1,2,0:2:0:0:
208,192,139719,1,0,0:0:0:0:
304,192,139835,1,2,0:2:0:0:
96,224,140184,1,2,0:2:0:0:
416,224,140416,5,2,0:2:0:0:
160,128,140765,1,0,0:0:0:0:
352,128,140881,1,2,0:2:0:0:
128,176,141114,1,0,0:0:0:0:
384,176,141347,1,2,0:2:0:0:
208,112,141579,1,0,0:0:0:0:
304,112,141695,1,2,0:2:0:0:
200,160,141812,1,0,0:0:0:0:
312,160,141928,1,2,0:2:0:0:
192,208,142044,1,0,0:0:0:0:
320,208,142161,1,2,0:2:0:0:
128,256,142277,5,2,0:2:0:0:
352,256,142509,1,2,0:2:0:0:
16,176,142742,1,2,0:2:0:0:
464,176,142975,1,2,0:2:0:0:
160,176,143207,1,2,0:2:0:0:
384,176,143439,1,2,0:2:0:0:
48,96,143672,1,2,0:2:0:0:
496,96,143905,1,2,0:2:0:0:
144,288,144137,5,2,0:2:0:0:
368,288,144369,1,2,0:2:0:0:
48,208,144602,1,2,0:2:0:0:
464,208,144835,1,2,0:2:0:0:
96,208,145067,1,2,0:2:0:0:
416,208,145299,1,2,0:2:0:0:
16,144,145532,1,2,0:2:0:0:
496,128,145765,1,2,0:2:0:0:
128,80,145998,5,2,0:2:0:0:
192,80,146114,1,2,0:2:0:0:
256,80,146230,1,2,0:2:0:0:
320,80,146347,1,2,0:2:0:0:
384,80,146463,1,2,0:2:0:0:
320,80,146579,1,2,0:2:0:0:
256,80,146695,1,2,0:2:0:0:
192,80,146812,1,2,0:2:0:0:
96,80,146928,5,2,0:2:0:0:
176,80,147044,1,2,0:2:0:0:
256,80,147160,1,2,0:2:0:0:
336,80,147277,1,2,0:2:0:0:
416,144,147393,1,2,0:2:0:0:
336,144,147509,1,2,0:2:0:0:
256,144,147625,1,2,0:2:0:0:
176,144,147742,1,2,0:2:0:0:
64,112,147858,5,2,0:2:0:0:
160,112,147974,1,2,0:2:0:0:
256,112,148090,1,2,0:2:0:0:
352,112,148207,1,2,0:2:0:0:
448,192,148323,1,2,0:2:0:0:
352,192,148439,1,2,0:2:0:0:
256,192,148555,1,2,0:2:0:0:
160,192,148672,1,2,0:2:0:0:
32,144,148788,5,2,0:2:0:0:
144,144,148905,1,2,0:2:0:0:
256,144,149021,1,2,0:2:0:0:
368,144,149137,1,2,0:2:0:0:
480,240,149254,1,2,0:2:0:0:
368,240,149371,1,2,0:2:0:0:
256,240,149487,1,2,0:2:0:0:
144,240,149603,1,2,0:2:0:0:
0,192,149719,6,2,L|75:320,1,128,2|2,0:2|0:2,0:2:0:0:
256,304,149835,1,2,0:2:0:0:
447,302,149893,6,2,L|512:192,2,128,2|2|2,0:2|0:2|0:2,0:2:0:0:
256,304,150068,1,2,0:2:0:0:
64,302,150126,6,2,L|0:192,2,128,2|2|2,0:2|0:2|0:2,0:2:0:0:
256,304,150301,1,2,0:2:0:0:
447,302,150358,6,2,L|512:192,2,128,2|2|2,0:2|0:2|0:2,0:2:0:0:
256,304,150533,1,2,0:2:0:0:
64,302,150591,6,2,L|0:192,2,128,2|2|2,0:2|0:2|0:2,0:2:0:0:
256,304,150766,1,2,0:2:0:0:
447,302,150823,6,2,L|512:192,2,128,2|2|2,0:2|0:2|0:2,0:2:0:0:
256,304,150998,1,2,0:2:0:0:
64,302,151056,6,2,L|0:192,2,128,2|2|2,0:2|0:2|0:2,0:2:0:0:
256,304,151231,1,2,0:2:0:0:
447,302,151288,6,2,L|512:192,2,128,2|2|2,0:2|0:2|0:2,0:2:0:0:
256,304,151463,1,2,0:2:0:0:
64,302,151521,6,2,L|0:192,1,128,2|4,0:2|0:2,0:2:0:0:
256,192,151695,12,4,153440,0:0:0:0:
