osu file format v14

[General]
AudioFilename: audio.mp3
AudioLeadIn: 0
PreviewTime: 208055
Countdown: 0
SampleSet: Normal
StackLeniency: 0.7
Mode: 1
LetterboxInBreaks: 0
WidescreenStoryboard: 0

[Editor]
Bookmarks: 480,19680,38880,53280,67680,82080,96480,113280,127680,142080,157680,168480,182880,193680,208080,258480
DistanceSpacing: 1.2
BeatDivisor: 8
GridSize: 32
TimelineZoom: 2.8

[Metadata]
Title:UmaUma200
TitleUnicode:UmaUma200
Artist:Hayakore Tatsumi
ArtistUnicode:Hayakore Tatsumi
Creator:Invisible O
Version:Swedish Brainrot
Source:
Tags:caramelldansen caramell dansen karamell karamelldansen Karamella Caramella girls Swedish Svenska Electronic 速核巽 tamolarm j-core jcore hardcore remix bootleg mashup Vad Heter Du? Diskotek Här E Är Jag Spelar Ingen roll Vild och Galen Kom Håll Om Mig Doktorn I Drömmarnas Land Ooa Hela natten Ett & Två I Min Mobil
BeatmapID:4303446
BeatmapSetID:2058968

[Difficulty]
HPDrainRate:4
CircleSize:5
OverallDifficulty:7.2
ApproachRate:5
SliderMultiplier:1.4
SliderTickRate:1

[Events]
//Background and Video events
0,0,"Cow.jpg",0,80
//Break Periods
2,208276,211526
2,213076,216326
//Storyboard Layer 0 (Background)
//Storyboard Layer 1 (Fail)
//Storyboard Layer 2 (Pass)
//Storyboard Layer 3 (Foreground)
//Storyboard Layer 4 (Overlay)
//Storyboard Sound Samples

[TimingPoints]
476,300,4,1,0,65,1,0
476,-100,4,1,0,65,0,0
19638,-100,4,1,0,85,0,0
38838,-100,4,1,0,100,0,0
82038,-100,4,1,0,85,0,0
96138,-100,4,1,0,100,0,0
110838,-100,4,1,0,85,0,0
113238,-100,4,1,0,100,0,0
127638,-100,4,1,0,75,0,0
137238,-100,4,1,0,85,0,0
142038,-100,4,1,0,100,0,0
151638,-100,4,1,0,60,0,0
152838,-100,4,1,0,85,0,0
157638,-100,4,1,0,100,0,0
167238,-100,4,1,0,85,0,0
182838,-100,4,1,0,100,0,0
192588,-100,4,1,0,60,0,0
193638,-100,4,1,0,80,0,0
208038,-100,4,1,0,100,0,0
208151,-100,4,1,0,5,0,0
212688,-100,4,1,0,100,0,0
212951,-100,4,1,0,5,0,0
217488,-100,4,1,0,85,0,0
220038,-100,4,1,0,100,0,0
229676,-100,4,1,0,100,0,1
239276,-100,4,1,0,100,0,0
258438,-100,4,1,0,85,0,0
276588,-100,4,1,0,25,0,0
277638,-100,4,1,0,75,0,0
296838,-100,4,1,0,100,0,0
296951,-100,4,1,0,5,0,0

[HitObjects]
256,192,476,5,12,0:0:0:0:
256,192,776,1,0,0:0:0:0:
256,192,1076,1,0,0:0:0:0:
256,192,1376,1,0,0:0:0:0:
256,192,1676,1,0,0:0:0:0:
256,192,1976,1,0,0:0:0:0:
256,192,2276,1,0,0:0:0:0:
256,192,2576,1,0,0:0:0:0:
256,192,2876,1,0,0:0:0:0:
256,192,3176,1,0,0:0:0:0:
256,192,3476,1,0,0:0:0:0:
256,192,3776,1,0,0:0:0:0:
256,192,4076,1,0,0:0:0:0:
256,192,4376,1,0,0:0:0:0:
256,192,4676,1,0,0:0:0:0:
256,192,5276,1,0,0:0:0:0:
256,192,5576,1,8,0:0:0:0:
256,192,5876,1,0,0:0:0:0:
256,192,6176,1,8,0:0:0:0:
256,192,6476,1,0,0:0:0:0:
256,192,6776,1,8,0:0:0:0:
256,192,7076,1,0,0:0:0:0:
256,192,7226,1,8,0:0:0:0:
256,192,7376,1,8,0:0:0:0:
256,192,7676,1,0,0:0:0:0:
256,192,7976,1,8,0:0:0:0:
256,192,8276,1,0,0:0:0:0:
256,192,8576,1,8,0:0:0:0:
256,192,8876,1,0,0:0:0:0:
256,192,9176,1,8,0:0:0:0:
256,192,9476,1,0,0:0:0:0:
256,192,9626,1,8,0:0:0:0:
256,192,9776,1,8,0:0:0:0:
256,192,10076,1,4,0:0:0:0:
256,192,10226,1,8,0:0:0:0:
256,192,10376,1,0,0:0:0:0:
256,192,10676,1,8,0:0:0:0:
256,192,10826,1,8,0:0:0:0:
256,192,10976,1,0,0:0:0:0:
256,192,11276,1,0,0:0:0:0:
256,192,11426,1,8,0:0:0:0:
256,192,11576,1,0,0:0:0:0:
256,192,11876,1,8,0:0:0:0:
256,192,12026,1,8,0:0:0:0:
256,192,12176,1,0,0:0:0:0:
256,192,12326,1,8,0:0:0:0:
256,192,12476,1,0,0:0:0:0:
256,192,12626,1,8,0:0:0:0:
256,192,12776,1,0,0:0:0:0:
256,192,13076,1,8,0:0:0:0:
256,192,13226,1,8,0:0:0:0:
256,192,13376,1,0,0:0:0:0:
256,192,13676,1,0,0:0:0:0:
256,192,13826,1,8,0:0:0:0:
256,192,13976,1,0,0:0:0:0:
256,192,14276,1,0,0:0:0:0:
256,192,14426,1,8,0:0:0:0:
256,192,14726,1,8,0:0:0:0:
256,192,14876,1,0,0:0:0:0:
256,192,14951,1,0,0:0:0:0:
256,192,15026,1,8,0:0:0:0:
256,192,15101,1,0,0:0:0:0:
256,192,15176,1,8,0:0:0:0:
256,192,15251,1,8,0:0:0:0:
256,192,15326,1,8,0:0:0:0:
256,192,15401,1,8,0:0:0:0:
256,192,15476,1,0,0:0:0:0:
256,192,15551,1,0,0:0:0:0:
256,192,15626,1,8,0:0:0:0:
256,192,15701,1,8,0:0:0:0:
256,192,15776,1,0,0:0:0:0:
256,192,15851,1,0,0:0:0:0:
256,192,15926,1,0,0:0:0:0:
256,192,16001,1,0,0:0:0:0:
256,192,16076,1,8,0:0:0:0:
256,192,16151,1,8,0:0:0:0:
256,192,16226,1,0,0:0:0:0:
256,192,16301,1,8,0:0:0:0:
256,192,16376,1,0,0:0:0:0:
256,192,16451,1,0,0:0:0:0:
256,192,16526,1,0,0:0:0:0:
256,192,16601,1,0,0:0:0:0:
256,192,16676,1,8,0:0:0:0:
256,192,16751,1,8,0:0:0:0:
256,192,16826,1,0,0:0:0:0:
256,192,16901,1,0,0:0:0:0:
256,192,16976,1,8,0:0:0:0:
256,192,17051,1,0,0:0:0:0:
256,192,17126,1,8,0:0:0:0:
256,192,17201,1,8,0:0:0:0:
256,192,17276,1,0,0:0:0:0:
256,192,17351,1,8,0:0:0:0:
256,192,17426,1,0,0:0:0:0:
256,192,17501,1,0,0:0:0:0:
256,192,17576,1,8,0:0:0:0:
256,192,17651,1,8,0:0:0:0:
256,192,17726,1,0,0:0:0:0:
256,192,17801,1,0,0:0:0:0:
256,192,17876,1,8,0:0:0:0:
256,192,17951,1,0,0:0:0:0:
256,192,18026,1,0,0:0:0:0:
256,192,18101,1,0,0:0:0:0:
256,192,18176,1,8,0:0:0:0:
256,192,18251,1,0,0:0:0:0:
256,192,18326,1,8,0:0:0:0:
256,192,18401,1,8,0:0:0:0:
256,192,18476,1,4,0:0:0:0:
256,192,18776,1,8,0:0:0:0:
256,192,19076,1,8,0:0:0:0:
256,192,19376,1,8,0:0:0:0:
256,192,19676,1,4,0:0:0:0:
256,192,19826,1,8,0:0:0:0:
256,192,19901,1,0,0:0:0:0:
256,192,19976,1,8,0:0:0:0:
256,192,20051,1,8,0:0:0:0:
256,192,20126,1,0,0:0:0:0:
256,192,20276,1,8,0:0:0:0:
256,192,20351,1,8,0:0:0:0:
256,192,20426,1,0,0:0:0:0:
256,192,20501,1,0,0:0:0:0:
256,192,20576,1,8,0:0:0:0:
256,192,20726,1,0,0:0:0:0:
256,192,20876,1,8,0:0:0:0:
256,192,21026,1,0,0:0:0:0:
256,192,21101,1,8,0:0:0:0:
256,192,21176,1,0,0:0:0:0:
256,192,21251,1,0,0:0:0:0:
256,192,21326,1,8,0:0:0:0:
256,192,21476,1,0,0:0:0:0:
256,192,21551,1,0,0:0:0:0:
256,192,21626,1,8,0:0:0:0:
256,192,21776,1,0,0:0:0:0:
256,192,21851,1,8,0:0:0:0:
256,192,21926,1,8,0:0:0:0:
256,192,22001,1,0,0:0:0:0:
256,192,22076,1,8,0:0:0:0:
256,192,22226,1,0,0:0:0:0:
256,192,22301,1,0,0:0:0:0:
256,192,22376,1,0,0:0:0:0:
256,192,22526,1,8,0:0:0:0:
256,192,22676,1,0,0:0:0:0:
256,192,22751,1,0,0:0:0:0:
256,192,22826,1,8,0:0:0:0:
256,192,22901,1,0,0:0:0:0:
256,192,22976,1,8,0:0:0:0:
256,192,23126,1,0,0:0:0:0:
256,192,23276,1,8,0:0:0:0:
256,192,23426,1,8,0:0:0:0:
256,192,23576,1,0,0:0:0:0:
256,192,23651,1,0,0:0:0:0:
256,192,23726,1,8,0:0:0:0:
256,192,23876,1,0,0:0:0:0:
256,192,23951,1,8,0:0:0:0:
256,192,24026,1,0,0:0:0:0:
256,192,24176,1,8,0:0:0:0:
256,192,24251,1,0,0:0:0:0:
256,192,24326,1,8,0:0:0:0:
256,192,24401,1,8,0:0:0:0:
256,192,24476,1,0,0:0:0:0:
256,192,24626,1,8,0:0:0:0:
256,192,24701,1,0,0:0:0:0:
256,192,24776,1,0,0:0:0:0:
256,192,24851,1,8,0:0:0:0:
256,192,24926,1,8,0:0:0:0:
256,192,25076,1,0,0:0:0:0:
256,192,25151,1,0,0:0:0:0:
256,192,25226,1,8,0:0:0:0:
256,192,25301,1,0,0:0:0:0:
256,192,25376,1,8,0:0:0:0:
256,192,25526,1,0,0:0:0:0:
256,192,25676,1,8,0:0:0:0:
256,192,25826,1,8,0:0:0:0:
256,192,25976,1,0,0:0:0:0:
256,192,26051,1,8,0:0:0:0:
256,192,26126,1,8,0:0:0:0:
256,192,26276,1,0,0:0:0:0:
256,192,26351,1,0,0:0:0:0:
256,192,26426,1,0,0:0:0:0:
256,192,26576,1,8,0:0:0:0:
256,192,26651,1,0,0:0:0:0:
256,192,26726,1,8,0:0:0:0:
256,192,26801,1,8,0:0:0:0:
256,192,26876,1,0,0:0:0:0:
256,192,27026,1,8,0:0:0:0:
256,192,27101,1,0,0:0:0:0:
256,192,27176,1,0,0:0:0:0:
256,192,27251,1,0,0:0:0:0:
256,192,27326,1,8,0:0:0:0:
256,192,27476,1,0,0:0:0:0:
256,192,27551,1,0,0:0:0:0:
256,192,27626,1,8,0:0:0:0:
256,192,27701,1,0,0:0:0:0:
256,192,27776,1,8,0:0:0:0:
256,192,27926,1,0,0:0:0:0:
256,192,28076,1,8,0:0:0:0:
256,192,28226,1,8,0:0:0:0:
256,192,28376,1,0,0:0:0:0:
256,192,28451,1,0,0:0:0:0:
256,192,28526,1,8,0:0:0:0:
256,192,28676,1,0,0:0:0:0:
256,192,28751,1,0,0:0:0:0:
256,192,28826,1,0,0:0:0:0:
256,192,28976,1,8,0:0:0:0:
256,192,29276,1,4,0:0:0:0:
256,192,29426,1,8,0:0:0:0:
256,192,29501,1,8,0:0:0:0:
256,192,29576,1,0,0:0:0:0:
256,192,29651,1,0,0:0:0:0:
256,192,29726,1,0,0:0:0:0:
256,192,29801,1,0,0:0:0:0:
256,192,29876,1,8,0:0:0:0:
256,192,30026,1,0,0:0:0:0:
256,192,30101,1,0,0:0:0:0:
256,192,30176,1,8,0:0:0:0:
256,192,30251,1,0,0:0:0:0:
256,192,30326,1,8,0:0:0:0:
256,192,30401,1,8,0:0:0:0:
256,192,30476,1,0,0:0:0:0:
256,192,30626,1,8,0:0:0:0:
256,192,30701,1,0,0:0:0:0:
256,192,30776,1,8,0:0:0:0:
256,192,30851,1,8,0:0:0:0:
256,192,30926,1,0,0:0:0:0:
256,192,31001,1,8,0:0:0:0:
256,192,31076,1,0,0:0:0:0:
256,192,31226,1,8,0:0:0:0:
256,192,31301,1,8,0:0:0:0:
256,192,31376,1,0,0:0:0:0:
256,192,31451,1,8,0:0:0:0:
256,192,31526,1,8,0:0:0:0:
256,192,31601,1,8,0:0:0:0:
256,192,31676,1,0,0:0:0:0:
256,192,31826,1,0,0:0:0:0:
256,192,31901,1,8,0:0:0:0:
256,192,31976,1,8,0:0:0:0:
256,192,32051,1,0,0:0:0:0:
256,192,32126,1,8,0:0:0:0:
256,192,32201,1,8,0:0:0:0:
256,192,32276,1,0,0:0:0:0:
256,192,32426,1,8,0:0:0:0:
256,192,32501,1,8,0:0:0:0:
256,192,32576,1,0,0:0:0:0:
256,192,32651,1,0,0:0:0:0:
256,192,32726,1,8,0:0:0:0:
256,192,32801,1,8,0:0:0:0:
256,192,32876,1,0,0:0:0:0:
256,192,33026,1,8,0:0:0:0:
256,192,33101,1,0,0:0:0:0:
256,192,33176,1,8,0:0:0:0:
256,192,33251,1,8,0:0:0:0:
256,192,33326,1,0,0:0:0:0:
256,192,33401,1,8,0:0:0:0:
256,192,33476,1,0,0:0:0:0:
256,192,33626,1,8,0:0:0:0:
256,192,33701,1,0,0:0:0:0:
256,192,33776,1,0,0:0:0:0:
256,192,33851,1,0,0:0:0:0:
256,192,33926,1,8,0:0:0:0:
256,192,34001,1,8,0:0:0:0:
256,192,34076,1,0,0:0:0:0:
256,192,34226,1,8,0:0:0:0:
256,192,34301,1,0,0:0:0:0:
256,192,34376,1,8,0:0:0:0:
256,192,34451,1,8,0:0:0:0:
256,192,34526,1,8,0:0:0:0:
256,192,34601,1,8,0:0:0:0:
256,192,34676,1,0,0:0:0:0:
256,192,34826,1,8,0:0:0:0:
256,192,34901,1,8,0:0:0:0:
256,192,34976,1,0,0:0:0:0:
256,192,35051,1,0,0:0:0:0:
256,192,35126,1,0,0:0:0:0:
256,192,35201,1,0,0:0:0:0:
256,192,35276,1,8,0:0:0:0:
256,192,35426,1,0,0:0:0:0:
256,192,35501,1,8,0:0:0:0:
256,192,35576,1,8,0:0:0:0:
256,192,35651,1,8,0:0:0:0:
256,192,35726,1,0,0:0:0:0:
256,192,35801,1,0,0:0:0:0:
256,192,35876,1,8,0:0:0:0:
256,192,36026,1,0,0:0:0:0:
256,192,36101,1,0,0:0:0:0:
256,192,36176,1,8,0:0:0:0:
256,192,36251,1,0,0:0:0:0:
256,192,36326,1,8,0:0:0:0:
256,192,36401,1,8,0:0:0:0:
256,192,36476,1,0,0:0:0:0:
256,192,36626,1,8,0:0:0:0:
256,192,36701,1,0,0:0:0:0:
256,192,36776,1,8,0:0:0:0:
256,192,36851,1,8,0:0:0:0:
256,192,36926,1,0,0:0:0:0:
256,192,37001,1,8,0:0:0:0:
256,192,37076,1,0,0:0:0:0:
256,192,37226,1,8,0:0:0:0:
256,192,37301,1,8,0:0:0:0:
256,192,37376,1,0,0:0:0:0:
256,192,37451,1,0,0:0:0:0:
256,192,37526,1,8,0:0:0:0:
256,192,37601,1,8,0:0:0:0:
256,192,37676,1,4,0:0:0:0:
256,192,37976,1,8,0:0:0:0:
256,192,38276,1,8,0:0:0:0:
256,192,38576,1,8,0:0:0:0:
256,192,38876,1,4,0:0:0:0:
256,192,39026,1,8,0:0:0:0:
256,192,39101,1,8,0:0:0:0:
256,192,39176,1,0,0:0:0:0:
256,192,39326,1,8,0:0:0:0:
256,192,39476,1,0,0:0:0:0:
256,192,39551,1,0,0:0:0:0:
256,192,39626,1,8,0:0:0:0:
256,192,39701,1,0,0:0:0:0:
256,192,39776,1,8,0:0:0:0:
256,192,39926,1,0,0:0:0:0:
256,192,40001,1,8,0:0:0:0:
256,192,40076,1,0,0:0:0:0:
256,192,40226,1,8,0:0:0:0:
256,192,40301,1,8,0:0:0:0:
256,192,40376,1,0,0:0:0:0:
256,192,40451,1,0,0:0:0:0:
256,192,40526,1,8,0:0:0:0:
256,192,40676,1,0,0:0:0:0:
256,192,40751,1,0,0:0:0:0:
256,192,40826,1,0,0:0:0:0:
256,192,40976,1,8,0:0:0:0:
256,192,41051,1,8,0:0:0:0:
256,192,41126,1,8,0:0:0:0:
256,192,41276,1,0,0:0:0:0:
256,192,41351,1,0,0:0:0:0:
256,192,41426,1,8,0:0:0:0:
256,192,41576,1,0,0:0:0:0:
256,192,41651,1,8,0:0:0:0:
256,192,41726,1,0,0:0:0:0:
256,192,41876,1,8,0:0:0:0:
256,192,41951,1,0,0:0:0:0:
256,192,42026,1,0,0:0:0:0:
256,192,42101,1,0,0:0:0:0:
256,192,42176,1,8,0:0:0:0:
256,192,42326,1,0,0:0:0:0:
256,192,42401,1,8,0:0:0:0:
256,192,42476,1,8,0:0:0:0:
256,192,42551,1,0,0:0:0:0:
256,192,42626,1,8,0:0:0:0:
256,192,42776,1,0,0:0:0:0:
256,192,42851,1,0,0:0:0:0:
256,192,42926,1,8,0:0:0:0:
256,192,43076,1,0,0:0:0:0:
256,192,43151,1,0,0:0:0:0:
256,192,43226,1,0,0:0:0:0:
256,192,43376,1,8,0:0:0:0:
256,192,43451,1,8,0:0:0:0:
256,192,43526,1,8,0:0:0:0:
256,192,43676,1,0,0:0:0:0:
256,192,43751,1,0,0:0:0:0:
256,192,43826,1,8,0:0:0:0:
256,192,43901,1,0,0:0:0:0:
256,192,43976,1,8,0:0:0:0:
256,192,44126,1,0,0:0:0:0:
256,192,44276,1,8,0:0:0:0:
256,192,44351,1,8,0:0:0:0:
256,192,44426,1,8,0:0:0:0:
256,192,44576,1,0,0:0:0:0:
256,192,44726,1,8,0:0:0:0:
256,192,44801,1,8,0:0:0:0:
256,192,44876,1,0,0:0:0:0:
256,192,45026,1,8,0:0:0:0:
256,192,45101,1,8,0:0:0:0:
256,192,45176,1,0,0:0:0:0:
256,192,45251,1,0,0:0:0:0:
256,192,45326,1,8,0:0:0:0:
256,192,45476,1,0,0:0:0:0:
256,192,45551,1,0,0:0:0:0:
256,192,45626,1,0,0:0:0:0:
256,192,45776,1,8,0:0:0:0:
256,192,45851,1,8,0:0:0:0:
256,192,45926,1,8,0:0:0:0:
256,192,46076,1,0,0:0:0:0:
256,192,46151,1,0,0:0:0:0:
256,192,46226,1,0,0:0:0:0:
256,192,46301,1,0,0:0:0:0:
256,192,46376,1,8,0:0:0:0:
256,192,46451,1,0,0:0:0:0:
256,192,46526,1,8,0:0:0:0:
256,192,46601,1,8,0:0:0:0:
256,192,46676,1,0,0:0:0:0:
256,192,46751,1,8,0:0:0:0:
256,192,46826,1,8,0:0:0:0:
256,192,46901,1,8,0:0:0:0:
256,192,46976,1,0,0:0:0:0:
256,192,47051,1,0,0:0:0:0:
256,192,47126,1,8,0:0:0:0:
256,192,47201,1,8,0:0:0:0:
256,192,47276,1,4,0:0:0:0:
256,192,47426,1,8,0:0:0:0:
256,192,47501,1,8,0:0:0:0:
256,192,47576,1,4,0:0:0:0:
256,192,47726,1,8,0:0:0:0:
256,192,47801,1,8,0:0:0:0:
256,192,47876,1,4,0:0:0:0:
256,192,48026,1,8,0:0:0:0:
256,192,48101,1,8,0:0:0:0:
256,192,48176,1,4,0:0:0:0:
256,192,48326,1,8,0:0:0:0:
256,192,48401,1,8,0:0:0:0:
256,192,48476,1,4,0:0:0:0:
256,192,48626,1,8,0:0:0:0:
256,192,48776,1,0,0:0:0:0:
256,192,48851,1,0,0:0:0:0:
256,192,48926,1,8,0:0:0:0:
256,192,49076,1,0,0:0:0:0:
256,192,49151,1,0,0:0:0:0:
256,192,49226,1,8,0:0:0:0:
256,192,49301,1,0,0:0:0:0:
256,192,49376,1,8,0:0:0:0:
256,192,49451,1,8,0:0:0:0:
256,192,49526,1,0,0:0:0:0:
256,192,49676,1,8,0:0:0:0:
256,192,49826,1,0,0:0:0:0:
256,192,49901,1,8,0:0:0:0:
256,192,49976,1,0,0:0:0:0:
256,192,50126,1,8,0:0:0:0:
256,192,50201,1,8,0:0:0:0:
256,192,50276,1,0,0:0:0:0:
256,192,50426,1,8,0:0:0:0:
256,192,50501,1,0,0:0:0:0:
256,192,50576,1,8,0:0:0:0:
256,192,50726,1,0,0:0:0:0:
256,192,50876,1,8,0:0:0:0:
256,192,50951,1,8,0:0:0:0:
256,192,51026,1,8,0:0:0:0:
256,192,51101,1,0,0:0:0:0:
256,192,51176,1,8,0:0:0:0:
256,192,51251,1,8,0:0:0:0:
256,192,51326,1,8,0:0:0:0:
256,192,51401,1,0,0:0:0:0:
256,192,51476,1,8,0:0:0:0:
256,192,51551,1,8,0:0:0:0:
256,192,51626,1,0,0:0:0:0:
256,192,51701,1,0,0:0:0:0:
256,192,51776,1,8,0:0:0:0:
256,192,51851,1,8,0:0:0:0:
256,192,51926,1,0,0:0:0:0:
256,192,52076,1,12,0:0:0:0:
256,192,52226,1,0,0:0:0:0:
256,192,52301,1,0,0:0:0:0:
256,192,52376,1,8,0:0:0:0:
256,192,52526,1,0,0:0:0:0:
256,192,52676,1,8,0:0:0:0:
256,192,52751,1,8,0:0:0:0:
256,192,52826,1,0,0:0:0:0:
256,192,52976,1,8,0:0:0:0:
256,192,53051,1,0,0:0:0:0:
256,192,53126,1,8,0:0:0:0:
256,192,53201,1,8,0:0:0:0:
256,192,53276,1,4,0:0:0:0:
256,192,53426,1,8,0:0:0:0:
256,192,53576,1,0,0:0:0:0:
256,192,53726,1,8,0:0:0:0:
256,192,53801,1,0,0:0:0:0:
256,192,53876,1,8,0:0:0:0:
256,192,53951,1,8,0:0:0:0:
256,192,54026,1,0,0:0:0:0:
256,192,54101,1,0,0:0:0:0:
256,192,54176,1,8,0:0:0:0:
256,192,54326,1,0,0:0:0:0:
256,192,54476,1,8,0:0:0:0:
256,192,54551,1,8,0:0:0:0:
256,192,54626,1,0,0:0:0:0:
256,192,54776,1,8,0:0:0:0:
256,192,54851,1,8,0:0:0:0:
256,192,54926,1,8,0:0:0:0:
256,192,55076,1,0,0:0:0:0:
256,192,55151,1,0,0:0:0:0:
256,192,55226,1,8,0:0:0:0:
256,192,55376,1,0,0:0:0:0:
256,192,55451,1,0,0:0:0:0:
256,192,55526,1,0,0:0:0:0:
256,192,55601,1,0,0:0:0:0:
256,192,55676,1,8,0:0:0:0:
256,192,55826,1,0,0:0:0:0:
256,192,55976,1,8,0:0:0:0:
256,192,56126,1,0,0:0:0:0:
256,192,56201,1,8,0:0:0:0:
256,192,56276,1,8,0:0:0:0:
256,192,56351,1,0,0:0:0:0:
256,192,56426,1,8,0:0:0:0:
256,192,56501,1,8,0:0:0:0:
256,192,56576,1,0,0:0:0:0:
256,192,56726,1,8,0:0:0:0:
256,192,56876,1,0,0:0:0:0:
256,192,56951,1,0,0:0:0:0:
256,192,57026,1,8,0:0:0:0:
256,192,57176,1,0,0:0:0:0:
256,192,57251,1,0,0:0:0:0:
256,192,57326,1,0,0:0:0:0:
256,192,57401,1,8,0:0:0:0:
256,192,57476,1,0,0:0:0:0:
256,192,57626,1,8,0:0:0:0:
256,192,57776,1,0,0:0:0:0:
256,192,57851,1,0,0:0:0:0:
256,192,57926,1,8,0:0:0:0:
256,192,58076,1,0,0:0:0:0:
256,192,58226,1,8,0:0:0:0:
256,192,58376,1,0,0:0:0:0:
256,192,58526,1,8,0:0:0:0:
256,192,58601,1,0,0:0:0:0:
256,192,58676,1,0,0:0:0:0:
256,192,58751,1,8,0:0:0:0:
256,192,58826,1,0,0:0:0:0:
256,192,58901,1,0,0:0:0:0:
256,192,58976,1,8,0:0:0:0:
256,192,59126,1,0,0:0:0:0:
256,192,59276,1,8,0:0:0:0:
256,192,59351,1,8,0:0:0:0:
256,192,59426,1,0,0:0:0:0:
256,192,59501,1,8,0:0:0:0:
256,192,59576,1,0,0:0:0:0:
256,192,59726,1,8,0:0:0:0:
256,192,59876,1,0,0:0:0:0:
256,192,59951,1,0,0:0:0:0:
256,192,60026,1,8,0:0:0:0:
256,192,60176,1,0,0:0:0:0:
256,192,60251,1,0,0:0:0:0:
256,192,60326,1,0,0:0:0:0:
256,192,60401,1,0,0:0:0:0:
256,192,60476,1,8,0:0:0:0:
256,192,60626,1,0,0:0:0:0:
256,192,60776,1,8,0:0:0:0:
256,192,60926,1,0,0:0:0:0:
256,192,61076,1,8,0:0:0:0:
256,192,61151,1,8,0:0:0:0:
256,192,61226,1,0,0:0:0:0:
256,192,61301,1,8,0:0:0:0:
256,192,61376,1,0,0:0:0:0:
256,192,61526,1,8,0:0:0:0:
256,192,61676,1,4,0:0:0:0:
256,192,61826,1,8,0:0:0:0:
256,192,61901,1,8,0:0:0:0:
256,192,61976,1,8,0:0:0:0:
256,192,62126,1,0,0:0:0:0:
256,192,62276,1,0,0:0:0:0:
256,192,62351,1,0,0:0:0:0:
256,192,62426,1,8,0:0:0:0:
256,192,62576,1,0,0:0:0:0:
256,192,62651,1,0,0:0:0:0:
256,192,62726,1,8,0:0:0:0:
256,192,62801,1,8,0:0:0:0:
256,192,62876,1,4,0:0:0:0:
256,192,63026,1,8,0:0:0:0:
256,192,63101,1,0,0:0:0:0:
256,192,63251,1,0,0:0:0:0:
256,192,63326,1,8,0:0:0:0:
256,192,63476,1,0,0:0:0:0:
256,192,63626,1,8,0:0:0:0:
256,192,63701,1,8,0:0:0:0:
256,192,63851,1,0,0:0:0:0:
256,192,63926,1,8,0:0:0:0:
256,192,64076,1,0,0:0:0:0:
256,192,64226,1,8,0:0:0:0:
256,192,64301,1,0,0:0:0:0:
256,192,64451,1,8,0:0:0:0:
256,192,64526,1,0,0:0:0:0:
256,192,64676,1,8,0:0:0:0:
256,192,64826,1,0,0:0:0:0:
256,192,64901,1,0,0:0:0:0:
256,192,65051,1,8,0:0:0:0:
256,192,65126,1,8,0:0:0:0:
256,192,65276,1,0,0:0:0:0:
256,192,65351,1,8,0:0:0:0:
256,192,65426,1,8,0:0:0:0:
256,192,65501,1,8,0:0:0:0:
256,192,65576,1,0,0:0:0:0:
256,192,65651,1,8,0:0:0:0:
256,192,65726,1,0,0:0:0:0:
256,192,65801,1,0,0:0:0:0:
256,192,65876,1,8,0:0:0:0:
256,192,65951,1,8,0:0:0:0:
256,192,66026,1,0,0:0:0:0:
256,192,66101,1,0,0:0:0:0:
256,192,66176,1,8,0:0:0:0:
256,192,66251,1,0,0:0:0:0:
256,192,66326,1,8,0:0:0:0:
256,192,66401,1,8,0:0:0:0:
256,192,66476,1,4,0:0:0:0:
256,192,66626,1,8,0:0:0:0:
256,192,66701,1,8,0:0:0:0:
256,192,66776,1,0,0:0:0:0:
256,192,66851,1,8,0:0:0:0:
256,192,66926,1,0,0:0:0:0:
256,192,67001,1,8,0:0:0:0:
256,192,67076,1,0,0:0:0:0:
256,192,67151,1,0,0:0:0:0:
256,192,67226,1,8,0:0:0:0:
256,192,67301,1,8,0:0:0:0:
256,192,67376,1,0,0:0:0:0:
256,192,67451,1,0,0:0:0:0:
256,192,67526,1,8,0:0:0:0:
256,192,67676,1,4,0:0:0:0:
256,192,67826,1,8,0:0:0:0:
256,192,67976,1,0,0:0:0:0:
256,192,68051,1,8,0:0:0:0:
256,192,68126,1,0,0:0:0:0:
256,192,68276,1,8,0:0:0:0:
256,192,68351,1,0,0:0:0:0:
256,192,68426,1,8,0:0:0:0:
256,192,68576,1,0,0:0:0:0:
256,192,68651,1,0,0:0:0:0:
256,192,68726,1,8,0:0:0:0:
256,192,68876,1,0,0:0:0:0:
256,192,68951,1,8,0:0:0:0:
256,192,69026,1,8,0:0:0:0:
256,192,69176,1,0,0:0:0:0:
256,192,69251,1,8,0:0:0:0:
256,192,69326,1,0,0:0:0:0:
256,192,69401,1,0,0:0:0:0:
256,192,69476,1,8,0:0:0:0:
256,192,69626,1,0,0:0:0:0:
256,192,69776,1,8,0:0:0:0:
256,192,69926,1,0,0:0:0:0:
256,192,70001,1,0,0:0:0:0:
256,192,70076,1,8,0:0:0:0:
256,192,70151,1,8,0:0:0:0:
256,192,70226,1,0,0:0:0:0:
256,192,70376,1,8,0:0:0:0:
256,192,70451,1,8,0:0:0:0:
256,192,70526,1,8,0:0:0:0:
256,192,70676,1,0,0:0:0:0:
256,192,70751,1,0,0:0:0:0:
256,192,70826,1,8,0:0:0:0:
256,192,70976,1,0,0:0:0:0:
256,192,71051,1,0,0:0:0:0:
256,192,71126,1,0,0:0:0:0:
256,192,71276,1,8,0:0:0:0:
256,192,71351,1,8,0:0:0:0:
256,192,71426,1,8,0:0:0:0:
256,192,71501,1,8,0:0:0:0:
256,192,71576,1,0,0:0:0:0:
256,192,71726,1,8,0:0:0:0:
256,192,71876,1,0,0:0:0:0:
256,192,72026,1,8,0:0:0:0:
256,192,72176,1,0,0:0:0:0:
256,192,72251,1,0,0:0:0:0:
256,192,72326,1,8,0:0:0:0:
256,192,72476,1,0,0:0:0:0:
256,192,72551,1,0,0:0:0:0:
256,192,72626,1,0,0:0:0:0:
256,192,72776,1,8,0:0:0:0:
256,192,72851,1,8,0:0:0:0:
256,192,72926,1,0,0:0:0:0:
256,192,73076,1,8,0:0:0:0:
256,192,73151,1,0,0:0:0:0:
256,192,73226,1,8,0:0:0:0:
256,192,73376,1,0,0:0:0:0:
256,192,73451,1,8,0:0:0:0:
256,192,73526,1,0,0:0:0:0:
256,192,73676,1,8,0:0:0:0:
256,192,73751,1,8,0:0:0:0:
256,192,73826,1,0,0:0:0:0:
256,192,73901,1,0,0:0:0:0:
256,192,73976,1,8,0:0:0:0:
256,192,74126,1,0,0:0:0:0:
256,192,74201,1,0,0:0:0:0:
256,192,74276,1,8,0:0:0:0:
256,192,74351,1,8,0:0:0:0:
256,192,74426,1,0,0:0:0:0:
256,192,74576,1,8,0:0:0:0:
256,192,74726,1,0,0:0:0:0:
256,192,74801,1,0,0:0:0:0:
256,192,74876,1,8,0:0:0:0:
256,192,74951,1,8,0:0:0:0:
256,192,75026,1,8,0:0:0:0:
256,192,75176,1,0,0:0:0:0:
256,192,75251,1,0,0:0:0:0:
256,192,75326,1,8,0:0:0:0:
256,192,75476,1,0,0:0:0:0:
256,192,75551,1,8,0:0:0:0:
256,192,75626,1,0,0:0:0:0:
256,192,75776,1,8,0:0:0:0:
256,192,75851,1,8,0:0:0:0:
256,192,75926,1,8,0:0:0:0:
256,192,76001,1,8,0:0:0:0:
256,192,76076,1,4,0:0:0:0:
256,192,76226,1,8,0:0:0:0:
256,192,76301,1,0,0:0:0:0:
256,192,76451,1,0,0:0:0:0:
256,192,76526,1,8,0:0:0:0:
256,192,76676,1,0,0:0:0:0:
256,192,76826,1,0,0:0:0:0:
256,192,76976,1,8,0:0:0:0:
256,192,77051,1,0,0:0:0:0:
256,192,77126,1,8,0:0:0:0:
256,192,77201,1,8,0:0:0:0:
256,192,77276,1,4,0:0:0:0:
256,192,77426,1,8,0:0:0:0:
256,192,77501,1,0,0:0:0:0:
256,192,77651,1,0,0:0:0:0:
256,192,77726,1,8,0:0:0:0:
256,192,77876,1,0,0:0:0:0:
256,192,78026,1,8,0:0:0:0:
256,192,78101,1,8,0:0:0:0:
256,192,78251,1,0,0:0:0:0:
256,192,78326,1,0,0:0:0:0:
256,192,78476,1,8,0:0:0:0:
256,192,78626,1,0,0:0:0:0:
256,192,78701,1,8,0:0:0:0:
256,192,78851,1,8,0:0:0:0:
256,192,78926,1,0,0:0:0:0:
256,192,79076,1,8,0:0:0:0:
256,192,79151,1,8,0:0:0:0:
256,192,79226,1,0,0:0:0:0:
256,192,79301,1,0,0:0:0:0:
256,192,79376,1,8,0:0:0:0:
256,192,79526,1,0,0:0:0:0:
256,192,79676,1,8,0:0:0:0:
256,192,79751,1,8,0:0:0:0:
256,192,79826,1,0,0:0:0:0:
256,192,79901,1,0,0:0:0:0:
256,192,79976,1,8,0:0:0:0:
256,192,80051,1,0,0:0:0:0:
256,192,80126,1,8,0:0:0:0:
256,192,80201,1,8,0:0:0:0:
256,192,80276,1,0,0:0:0:0:
256,192,80351,1,8,0:0:0:0:
256,192,80426,1,0,0:0:0:0:
256,192,80501,1,0,0:0:0:0:
256,192,80576,1,8,0:0:0:0:
256,192,80651,1,0,0:0:0:0:
256,192,80726,1,8,0:0:0:0:
256,192,80801,1,8,0:0:0:0:
256,192,80876,1,4,0:0:0:0:
256,192,81026,1,8,0:0:0:0:
256,192,81101,1,8,0:0:0:0:
256,192,81176,1,0,0:0:0:0:
256,192,81251,1,0,0:0:0:0:
256,192,81326,1,8,0:0:0:0:
256,192,81401,1,0,0:0:0:0:
256,192,81476,1,8,0:0:0:0:
256,192,81551,1,8,0:0:0:0:
256,192,81626,1,0,0:0:0:0:
256,192,81701,1,8,0:0:0:0:
256,192,81776,1,0,0:0:0:0:
256,192,81851,1,0,0:0:0:0:
256,192,81926,1,8,0:0:0:0:
256,192,82001,1,8,0:0:0:0:
256,192,82076,1,4,0:0:0:0:
256,192,82226,1,8,0:0:0:0:
256,192,82376,1,0,0:0:0:0:
256,192,82451,1,0,0:0:0:0:
256,192,82526,1,8,0:0:0:0:
256,192,82676,1,0,0:0:0:0:
256,192,82751,1,0,0:0:0:0:
256,192,82826,1,0,0:0:0:0:
256,192,82976,1,8,0:0:0:0:
256,192,83126,1,0,0:0:0:0:
256,192,83201,1,8,0:0:0:0:
256,192,83276,1,0,0:0:0:0:
256,192,83426,1,8,0:0:0:0:
256,192,83501,1,0,0:0:0:0:
256,192,83576,1,8,0:0:0:0:
256,192,83651,1,8,0:0:0:0:
256,192,83726,1,0,0:0:0:0:
256,192,83876,1,8,0:0:0:0:
256,192,83951,1,8,0:0:0:0:
256,192,84026,1,8,0:0:0:0:
256,192,84176,1,0,0:0:0:0:
256,192,84251,1,0,0:0:0:0:
256,192,84326,1,0,0:0:0:0:
256,192,84401,1,0,0:0:0:0:
256,192,84476,1,8,0:0:0:0:
256,192,84551,1,8,0:0:0:0:
256,192,84626,1,0,0:0:0:0:
256,192,84701,1,0,0:0:0:0:
256,192,84776,1,8,0:0:0:0:
256,192,84926,1,0,0:0:0:0:
256,192,85001,1,0,0:0:0:0:
256,192,85076,1,8,0:0:0:0:
256,192,85151,1,0,0:0:0:0:
256,192,85226,1,8,0:0:0:0:
256,192,85301,1,8,0:0:0:0:
256,192,85376,1,0,0:0:0:0:
256,192,85526,1,8,0:0:0:0:
256,192,85601,1,8,0:0:0:0:
256,192,85676,1,0,0:0:0:0:
256,192,85826,1,8,0:0:0:0:
256,192,85976,1,0,0:0:0:0:
256,192,86051,1,0,0:0:0:0:
256,192,86126,1,8,0:0:0:0:
256,192,86276,1,0,0:0:0:0:
256,192,86351,1,0,0:0:0:0:
256,192,86426,1,8,0:0:0:0:
256,192,86501,1,8,0:0:0:0:
256,192,86576,1,0,0:0:0:0:
256,192,86726,1,8,0:0:0:0:
256,192,86801,1,8,0:0:0:0:
256,192,86876,1,4,0:0:0:0:
256,192,87026,1,8,0:0:0:0:
256,192,87176,1,0,0:0:0:0:
256,192,87251,1,0,0:0:0:0:
256,192,87326,1,8,0:0:0:0:
256,192,87476,1,0,0:0:0:0:
256,192,87551,1,8,0:0:0:0:
256,192,87626,1,0,0:0:0:0:
256,192,87776,1,8,0:0:0:0:
256,192,87926,1,0,0:0:0:0:
256,192,88001,1,0,0:0:0:0:
256,192,88076,1,0,0:0:0:0:
256,192,88226,1,8,0:0:0:0:
256,192,88301,1,8,0:0:0:0:
256,192,88376,1,0,0:0:0:0:
256,192,88451,1,8,0:0:0:0:
256,192,88526,1,0,0:0:0:0:
256,192,88676,1,8,0:0:0:0:
256,192,88751,1,8,0:0:0:0:
256,192,88826,1,8,0:0:0:0:
256,192,88976,1,0,0:0:0:0:
256,192,89051,1,0,0:0:0:0:
256,192,89126,1,0,0:0:0:0:
256,192,89201,1,0,0:0:0:0:
256,192,89276,1,8,0:0:0:0:
256,192,89351,1,8,0:0:0:0:
256,192,89426,1,0,0:0:0:0:
256,192,89501,1,0,0:0:0:0:
256,192,89576,1,8,0:0:0:0:
256,192,89726,1,0,0:0:0:0:
256,192,89801,1,0,0:0:0:0:
256,192,89876,1,8,0:0:0:0:
256,192,89951,1,0,0:0:0:0:
256,192,90026,1,8,0:0:0:0:
256,192,90101,1,8,0:0:0:0:
256,192,90176,1,0,0:0:0:0:
256,192,90326,1,8,0:0:0:0:
256,192,90401,1,8,0:0:0:0:
256,192,90476,1,0,0:0:0:0:
256,192,90551,1,0,0:0:0:0:
256,192,90626,1,0,0:0:0:0:
256,192,90701,1,0,0:0:0:0:
256,192,90776,1,8,0:0:0:0:
256,192,90851,1,8,0:0:0:0:
256,192,90926,1,0,0:0:0:0:
256,192,91001,1,0,0:0:0:0:
256,192,91076,1,8,0:0:0:0:
256,192,91151,1,0,0:0:0:0:
256,192,91226,1,0,0:0:0:0:
256,192,91301,1,0,0:0:0:0:
256,192,91376,1,8,0:0:0:0:
256,192,91451,1,0,0:0:0:0:
256,192,91526,1,8,0:0:0:0:
256,192,91601,1,8,0:0:0:0:
256,192,91676,1,4,0:0:0:0:
256,192,91826,1,8,0:0:0:0:
256,192,91901,1,8,0:0:0:0:
256,192,91976,1,0,0:0:0:0:
256,192,92051,1,8,0:0:0:0:
256,192,92126,1,0,0:0:0:0:
256,192,92201,1,0,0:0:0:0:
256,192,92276,1,8,0:0:0:0:
256,192,92351,1,0,0:0:0:0:
256,192,92426,1,8,0:0:0:0:
256,192,92501,1,8,0:0:0:0:
256,192,92576,1,0,0:0:0:0:
256,192,92651,1,0,0:0:0:0:
256,192,92726,1,8,0:0:0:0:
256,192,92801,1,0,0:0:0:0:
256,192,92876,1,8,0:0:0:0:
256,192,93026,1,0,0:0:0:0:
256,192,93101,1,0,0:0:0:0:
256,192,93176,1,8,0:0:0:0:
256,192,93326,1,0,0:0:0:0:
256,192,93476,1,8,0:0:0:0:
256,192,93626,1,0,0:0:0:0:
256,192,93776,1,8,0:0:0:0:
256,192,93926,1,0,0:0:0:0:
256,192,94001,1,8,0:0:0:0:
256,192,94076,1,0,0:0:0:0:
256,192,94151,1,0,0:0:0:0:
256,192,94226,1,8,0:0:0:0:
256,192,94301,1,0,0:0:0:0:
256,192,94376,1,8,0:0:0:0:
256,192,94451,1,8,0:0:0:0:
256,192,94526,1,8,0:0:0:0:
256,192,94601,1,8,0:0:0:0:
256,192,94676,1,0,0:0:0:0:
256,192,94751,1,0,0:0:0:0:
256,192,94826,1,8,0:0:0:0:
256,192,94901,1,8,0:0:0:0:
256,192,94976,1,0,0:0:0:0:
256,192,95051,1,8,0:0:0:0:
256,192,95126,1,0,0:0:0:0:
256,192,95201,1,8,0:0:0:0:
256,192,95276,1,0,0:0:0:0:
256,192,95351,1,0,0:0:0:0:
256,192,95426,1,8,0:0:0:0:
256,192,95501,1,8,0:0:0:0:
256,192,95576,1,0,0:0:0:0:
256,192,95651,1,8,0:0:0:0:
256,192,95726,1,8,0:0:0:0:
256,192,95801,1,8,0:0:0:0:
256,192,95876,1,0,0:0:0:0:
256,192,95951,1,8,0:0:0:0:
256,192,96026,1,0,0:0:0:0:
256,192,96101,1,0,0:0:0:0:
256,192,96176,1,12,0:0:0:0:
256,192,96476,1,4,0:0:0:0:
256,192,96626,1,8,0:0:0:0:
256,192,96776,1,0,0:0:0:0:
256,192,96851,1,0,0:0:0:0:
256,192,96926,1,8,0:0:0:0:
256,192,97076,1,0,0:0:0:0:
256,192,97151,1,0,0:0:0:0:
256,192,97226,1,8,0:0:0:0:
256,192,97301,1,8,0:0:0:0:
256,192,97376,1,0,0:0:0:0:
256,192,97526,1,8,0:0:0:0:
256,192,97601,1,0,0:0:0:0:
256,192,97676,1,0,0:0:0:0:
256,192,97751,1,0,0:0:0:0:
256,192,97826,1,8,0:0:0:0:
256,192,97901,1,8,0:0:0:0:
256,192,97976,1,0,0:0:0:0:
256,192,98126,1,8,0:0:0:0:
256,192,98276,1,0,0:0:0:0:
256,192,98426,1,8,0:0:0:0:
256,192,98576,1,0,0:0:0:0:
256,192,98726,1,8,0:0:0:0:
256,192,98801,1,0,0:0:0:0:
256,192,98876,1,0,0:0:0:0:
256,192,99026,1,8,0:0:0:0:
256,192,99176,1,0,0:0:0:0:
256,192,99251,1,0,0:0:0:0:
256,192,99326,1,8,0:0:0:0:
256,192,99401,1,0,0:0:0:0:
256,192,99476,1,8,0:0:0:0:
256,192,99551,1,8,0:0:0:0:
256,192,99626,1,0,0:0:0:0:
256,192,99776,1,8,0:0:0:0:
256,192,99926,1,0,0:0:0:0:
256,192,100001,1,0,0:0:0:0:
256,192,100076,1,0,0:0:0:0:
256,192,100226,1,8,0:0:0:0:
256,192,100301,1,8,0:0:0:0:
256,192,100376,1,0,0:0:0:0:
256,192,100526,1,8,0:0:0:0:
256,192,100601,1,0,0:0:0:0:
256,192,100676,1,8,0:0:0:0:
256,192,100826,1,0,0:0:0:0:
256,192,100901,1,0,0:0:0:0:
256,192,100976,1,8,0:0:0:0:
256,192,101051,1,0,0:0:0:0:
256,192,101126,1,8,0:0:0:0:
256,192,101201,1,8,0:0:0:0:
256,192,101276,1,0,0:0:0:0:
256,192,101426,1,8,0:0:0:0:
256,192,101576,1,0,0:0:0:0:
256,192,101726,1,8,0:0:0:0:
256,192,101801,1,8,0:0:0:0:
256,192,101876,1,0,0:0:0:0:
256,192,102026,1,8,0:0:0:0:
256,192,102101,1,0,0:0:0:0:
256,192,102176,1,8,0:0:0:0:
256,192,102326,1,0,0:0:0:0:
256,192,102401,1,0,0:0:0:0:
256,192,102476,1,8,0:0:0:0:
256,192,102551,1,0,0:0:0:0:
256,192,102626,1,0,0:0:0:0:
256,192,102701,1,0,0:0:0:0:
256,192,102776,1,8,0:0:0:0:
256,192,102926,1,0,0:0:0:0:
256,192,103076,1,8,0:0:0:0:
256,192,103226,1,0,0:0:0:0:
256,192,103376,1,8,0:0:0:0:
256,192,103526,1,0,0:0:0:0:
256,192,103601,1,0,0:0:0:0:
256,192,103676,1,8,0:0:0:0:
256,192,103751,1,8,0:0:0:0:
256,192,103826,1,0,0:0:0:0:
256,192,103901,1,8,0:0:0:0:
256,192,103976,1,0,0:0:0:0:
256,192,104126,1,8,0:0:0:0:
256,192,104201,1,0,0:0:0:0:
256,192,104276,1,8,0:0:0:0:
256,192,104426,1,0,0:0:0:0:
256,192,104501,1,8,0:0:0:0:
256,192,104576,1,0,0:0:0:0:
256,192,104726,1,8,0:0:0:0:
256,192,104801,1,8,0:0:0:0:
256,192,104876,1,4,0:0:0:0:
256,192,105026,1,8,0:0:0:0:
256,192,105101,1,8,0:0:0:0:
256,192,105176,1,0,0:0:0:0:
256,192,105251,1,0,0:0:0:0:
256,192,105326,1,0,0:0:0:0:
256,192,105401,1,0,0:0:0:0:
256,192,105476,1,8,0:0:0:0:
256,192,105551,1,0,0:0:0:0:
256,192,105626,1,8,0:0:0:0:
256,192,105701,1,8,0:0:0:0:
256,192,105776,1,0,0:0:0:0:
256,192,105851,1,0,0:0:0:0:
256,192,105926,1,8,0:0:0:0:
256,192,106076,1,4,0:0:0:0:
256,192,106226,1,8,0:0:0:0:
256,192,106301,1,8,0:0:0:0:
256,192,106376,1,8,0:0:0:0:
256,192,106526,1,0,0:0:0:0:
256,192,106601,1,0,0:0:0:0:
256,192,106676,1,0,0:0:0:0:
256,192,106751,1,0,0:0:0:0:
256,192,106826,1,8,0:0:0:0:
256,192,106976,1,0,0:0:0:0:
256,192,107051,1,0,0:0:0:0:
256,192,107126,1,8,0:0:0:0:
256,192,107276,1,0,0:0:0:0:
256,192,107426,1,8,0:0:0:0:
256,192,107501,1,0,0:0:0:0:
256,192,107576,1,0,0:0:0:0:
256,192,107726,1,8,0:0:0:0:
256,192,107801,1,8,0:0:0:0:
256,192,107876,1,0,0:0:0:0:
256,192,108026,1,8,0:0:0:0:
256,192,108101,1,8,0:0:0:0:
256,192,108176,1,0,0:0:0:0:
256,192,108326,1,8,0:0:0:0:
256,192,108476,1,0,0:0:0:0:
256,192,108551,1,0,0:0:0:0:
256,192,108626,1,8,0:0:0:0:
256,192,108776,1,0,0:0:0:0:
256,192,108851,1,8,0:0:0:0:
256,192,108926,1,0,0:0:0:0:
256,192,109001,1,0,0:0:0:0:
256,192,109076,1,8,0:0:0:0:
256,192,109226,1,0,0:0:0:0:
256,192,109301,1,0,0:0:0:0:
256,192,109376,1,0,0:0:0:0:
256,192,109526,1,8,0:0:0:0:
256,192,109676,1,4,0:0:0:0:
256,192,109826,1,8,0:0:0:0:
256,192,109901,1,8,0:0:0:0:
256,192,109976,1,0,0:0:0:0:
256,192,110126,1,8,0:0:0:0:
256,192,110201,1,8,0:0:0:0:
256,192,110276,1,8,0:0:0:0:
256,192,110426,1,0,0:0:0:0:
256,192,110501,1,8,0:0:0:0:
256,192,110576,1,8,0:0:0:0:
256,192,110726,1,0,0:0:0:0:
256,192,110801,1,0,0:0:0:0:
256,192,110876,1,12,0:0:0:0:
256,192,111026,12,0,111926,0:0:0:0:
128,192,112076,6,0,L|576:160,1,420
256,192,113276,5,12,0:0:0:0:
256,192,113426,1,0,0:0:0:0:
256,192,113501,1,0,0:0:0:0:
256,192,113576,1,0,0:0:0:0:
256,192,113726,1,8,0:0:0:0:
256,192,113876,1,0,0:0:0:0:
256,192,113951,1,0,0:0:0:0:
256,192,114026,1,8,0:0:0:0:
256,192,114176,1,0,0:0:0:0:
256,192,114326,1,8,0:0:0:0:
256,192,114401,1,8,0:0:0:0:
256,192,114476,1,0,0:0:0:0:
256,192,114626,1,8,0:0:0:0:
256,192,114701,1,8,0:0:0:0:
256,192,114776,1,8,0:0:0:0:
256,192,114926,1,0,0:0:0:0:
256,192,115001,1,0,0:0:0:0:
256,192,115076,1,0,0:0:0:0:
256,192,115226,1,8,0:0:0:0:
256,192,115301,1,8,0:0:0:0:
256,192,115376,1,0,0:0:0:0:
256,192,115451,1,0,0:0:0:0:
256,192,115526,1,8,0:0:0:0:
256,192,115676,1,0,0:0:0:0:
256,192,115751,1,0,0:0:0:0:
256,192,115826,1,0,0:0:0:0:
256,192,115976,1,8,0:0:0:0:
256,192,116051,1,0,0:0:0:0:
256,192,116126,1,8,0:0:0:0:
256,192,116201,1,8,0:0:0:0:
256,192,116276,1,0,0:0:0:0:
256,192,116426,1,8,0:0:0:0:
256,192,116576,1,0,0:0:0:0:
256,192,116726,1,8,0:0:0:0:
256,192,116801,1,8,0:0:0:0:
256,192,116876,1,0,0:0:0:0:
256,192,117026,1,8,0:0:0:0:
256,192,117101,1,8,0:0:0:0:
256,192,117176,1,8,0:0:0:0:
256,192,117326,1,0,0:0:0:0:
256,192,117401,1,0,0:0:0:0:
256,192,117476,1,8,0:0:0:0:
256,192,117626,1,0,0:0:0:0:
256,192,117701,1,0,0:0:0:0:
256,192,117776,1,8,0:0:0:0:
256,192,117926,1,0,0:0:0:0:
256,192,118076,5,8,0:0:0:0:
256,192,118151,1,8,0:0:0:0:
256,192,118226,1,0,0:0:0:0:
256,192,118301,1,0,0:0:0:0:
256,192,118376,1,0,0:0:0:0:
256,192,118526,1,8,0:0:0:0:
256,192,118676,1,0,0:0:0:0:
256,192,118751,1,0,0:0:0:0:
256,192,118826,1,8,0:0:0:0:
256,192,118976,1,0,0:0:0:0:
256,192,119126,1,8,0:0:0:0:
256,192,119201,1,0,0:0:0:0:
256,192,119276,1,8,0:0:0:0:
256,192,119426,1,0,0:0:0:0:
256,192,119501,1,8,0:0:0:0:
256,192,119576,1,8,0:0:0:0:
256,192,119726,1,0,0:0:0:0:
256,192,119801,1,0,0:0:0:0:
256,192,119876,1,0,0:0:0:0:
256,192,120026,1,8,0:0:0:0:
256,192,120101,1,8,0:0:0:0:
256,192,120176,1,0,0:0:0:0:
256,192,120251,1,0,0:0:0:0:
256,192,120326,1,8,0:0:0:0:
256,192,120476,1,0,0:0:0:0:
256,192,120551,1,8,0:0:0:0:
256,192,120626,1,0,0:0:0:0:
256,192,120776,1,8,0:0:0:0:
256,192,120851,1,0,0:0:0:0:
256,192,120926,1,8,0:0:0:0:
256,192,121076,1,0,0:0:0:0:
256,192,121151,1,0,0:0:0:0:
256,192,121226,1,8,0:0:0:0:
256,192,121301,1,8,0:0:0:0:
256,192,121376,1,0,0:0:0:0:
256,192,121526,1,8,0:0:0:0:
256,192,121601,1,8,0:0:0:0:
256,192,121676,1,0,0:0:0:0:
256,192,121751,1,0,0:0:0:0:
256,192,121826,1,8,0:0:0:0:
256,192,121901,1,8,0:0:0:0:
256,192,121976,1,8,0:0:0:0:
256,192,122051,1,8,0:0:0:0:
256,192,122126,1,0,0:0:0:0:
256,192,122201,1,0,0:0:0:0:
256,192,122276,1,8,0:0:0:0:
256,192,122351,1,8,0:0:0:0:
256,192,122426,1,0,0:0:0:0:
256,192,122501,1,0,0:0:0:0:
256,192,122576,1,8,0:0:0:0:
256,192,122651,1,0,0:0:0:0:
256,192,122726,1,8,0:0:0:0:
256,192,122801,1,8,0:0:0:0:
256,192,122876,1,4,0:0:0:0:
256,192,123026,1,8,0:0:0:0:
256,192,123176,1,0,0:0:0:0:
256,192,123251,1,0,0:0:0:0:
256,192,123326,1,8,0:0:0:0:
256,192,123476,1,0,0:0:0:0:
256,192,123626,1,8,0:0:0:0:
256,192,123701,1,0,0:0:0:0:
256,192,123776,1,8,0:0:0:0:
256,192,123926,1,0,0:0:0:0:
256,192,124001,1,0,0:0:0:0:
256,192,124076,1,0,0:0:0:0:
256,192,124226,1,8,0:0:0:0:
256,192,124301,1,8,0:0:0:0:
256,192,124376,1,0,0:0:0:0:
256,192,124451,1,8,0:0:0:0:
256,192,124526,1,0,0:0:0:0:
256,192,124676,1,8,0:0:0:0:
256,192,124751,1,8,0:0:0:0:
256,192,124826,1,0,0:0:0:0:
256,192,124901,1,0,0:0:0:0:
256,192,124976,1,8,0:0:0:0:
256,192,125051,1,8,0:0:0:0:
256,192,125126,1,0,0:0:0:0:
256,192,125276,1,8,0:0:0:0:
256,192,125351,1,8,0:0:0:0:
256,192,125426,1,0,0:0:0:0:
256,192,125576,1,8,0:0:0:0:
256,192,125651,1,0,0:0:0:0:
256,192,125726,1,8,0:0:0:0:
256,192,125876,1,0,0:0:0:0:
256,192,126026,1,8,0:0:0:0:
256,192,126101,1,8,0:0:0:0:
256,192,126176,1,0,0:0:0:0:
256,192,126326,1,8,0:0:0:0:
256,192,126401,1,8,0:0:0:0:
256,192,126476,1,4,0:0:0:0:
256,192,126626,12,0,127526,0:0:0:0:
256,192,127676,5,4,0:0:0:0:
256,192,127976,1,8,0:0:0:0:
256,192,128126,1,0,0:0:0:0:
256,192,128426,1,0,0:0:0:0:
256,192,128576,1,8,0:0:0:0:
256,192,128726,1,0,0:0:0:0:
256,192,129026,1,8,0:0:0:0:
256,192,129176,1,0,0:0:0:0:
256,192,129326,1,8,0:0:0:0:
256,192,129476,1,0,0:0:0:0:
256,192,129551,1,0,0:0:0:0:
256,192,129626,1,8,0:0:0:0:
256,192,129701,1,8,0:0:0:0:
256,192,129776,1,0,0:0:0:0:
256,192,129851,1,0,0:0:0:0:
256,192,129926,1,8,0:0:0:0:
256,192,130076,1,0,0:0:0:0:
256,192,130151,1,0,0:0:0:0:
256,192,130226,1,8,0:0:0:0:
256,192,130376,1,0,0:0:0:0:
256,192,130526,1,8,0:0:0:0:
256,192,130601,1,8,0:0:0:0:
256,192,130676,1,0,0:0:0:0:
256,192,130751,1,0,0:0:0:0:
256,192,130826,1,8,0:0:0:0:
256,192,130976,1,0,0:0:0:0:
256,192,131126,1,8,0:0:0:0:
256,192,131201,1,8,0:0:0:0:
256,192,131276,1,0,0:0:0:0:
256,192,131426,1,8,0:0:0:0:
256,192,131501,1,8,0:0:0:0:
256,192,131576,1,0,0:0:0:0:
256,192,131651,1,0,0:0:0:0:
256,192,131726,1,8,0:0:0:0:
256,192,131876,1,0,0:0:0:0:
256,192,131951,1,0,0:0:0:0:
256,192,132026,1,8,0:0:0:0:
256,192,132101,1,0,0:0:0:0:
256,192,132176,1,0,0:0:0:0:
256,192,132251,1,0,0:0:0:0:
256,192,132326,1,8,0:0:0:0:
256,192,132476,1,0,0:0:0:0:
256,192,132626,1,8,0:0:0:0:
256,192,132776,1,0,0:0:0:0:
256,192,132851,1,0,0:0:0:0:
256,192,132926,1,8,0:0:0:0:
256,192,133076,1,0,0:0:0:0:
256,192,133151,1,0,0:0:0:0:
256,192,133226,1,8,0:0:0:0:
256,192,133301,1,0,0:0:0:0:
256,192,133376,1,8,0:0:0:0:
256,192,133526,1,0,0:0:0:0:
256,192,133601,1,0,0:0:0:0:
256,192,133676,1,0,0:0:0:0:
256,192,133826,1,8,0:0:0:0:
256,192,133976,1,0,0:0:0:0:
256,192,134126,1,8,0:0:0:0:
256,192,134276,1,0,0:0:0:0:
256,192,134351,1,0,0:0:0:0:
256,192,134426,1,8,0:0:0:0:
256,192,134501,1,8,0:0:0:0:
256,192,134576,1,0,0:0:0:0:
256,192,134651,1,0,0:0:0:0:
256,192,134726,1,8,0:0:0:0:
256,192,134876,1,0,0:0:0:0:
256,192,134951,1,0,0:0:0:0:
256,192,135026,1,0,0:0:0:0:
256,192,135101,1,0,0:0:0:0:
256,192,135176,1,8,0:0:0:0:
256,192,135251,1,8,0:0:0:0:
256,192,135326,1,0,0:0:0:0:
256,192,135401,1,0,0:0:0:0:
256,192,135476,1,8,0:0:0:0:
256,192,135551,1,8,0:0:0:0:
256,192,135626,1,0,0:0:0:0:
256,192,135701,1,0,0:0:0:0:
256,192,135776,1,0,0:0:0:0:
256,192,135851,1,0,0:0:0:0:
256,192,135926,1,8,0:0:0:0:
256,192,136001,1,8,0:0:0:0:
256,192,136076,1,0,0:0:0:0:
256,192,136151,1,8,0:0:0:0:
256,192,136226,1,0,0:0:0:0:
256,192,136301,1,0,0:0:0:0:
256,192,136376,1,8,0:0:0:0:
256,192,136451,1,0,0:0:0:0:
256,192,136526,1,8,0:0:0:0:
256,192,136601,1,8,0:0:0:0:
256,192,136676,1,0,0:0:0:0:
256,192,136751,1,0,0:0:0:0:
256,192,136826,1,8,0:0:0:0:
256,192,136901,1,8,0:0:0:0:
256,192,136976,1,0,0:0:0:0:
256,192,137051,1,8,0:0:0:0:
256,192,137126,1,8,0:0:0:0:
256,192,137201,1,8,0:0:0:0:
256,192,137276,1,4,0:0:0:0:
256,192,137426,1,8,0:0:0:0:
256,192,137501,1,8,0:0:0:0:
256,192,137576,1,0,0:0:0:0:
256,192,137726,1,8,0:0:0:0:
256,192,137876,1,0,0:0:0:0:
256,192,138026,1,8,0:0:0:0:
256,192,138101,1,0,0:0:0:0:
256,192,138176,1,0,0:0:0:0:
256,192,138326,1,8,0:0:0:0:
256,192,138476,1,0,0:0:0:0:
256,192,138626,1,8,0:0:0:0:
256,192,138701,1,0,0:0:0:0:
256,192,138776,1,0,0:0:0:0:
256,192,138851,1,0,0:0:0:0:
256,192,138926,1,8,0:0:0:0:
256,192,139001,1,8,0:0:0:0:
256,192,139076,1,0,0:0:0:0:
256,192,139226,1,8,0:0:0:0:
256,192,139301,1,8,0:0:0:0:
256,192,139376,1,8,0:0:0:0:
256,192,139451,1,0,0:0:0:0:
256,192,139526,1,8,0:0:0:0:
256,192,139676,1,0,0:0:0:0:
256,192,139751,1,0,0:0:0:0:
256,192,139826,1,8,0:0:0:0:
256,192,139901,1,8,0:0:0:0:
256,192,139976,1,0,0:0:0:0:
256,192,140051,1,0,0:0:0:0:
256,192,140126,1,8,0:0:0:0:
256,192,140201,1,0,0:0:0:0:
256,192,140276,1,8,0:0:0:0:
256,192,140351,1,8,0:0:0:0:
256,192,140426,1,0,0:0:0:0:
256,192,140501,1,0,0:0:0:0:
256,192,140576,1,8,0:0:0:0:
256,192,140651,1,8,0:0:0:0:
256,192,140726,1,8,0:0:0:0:
256,192,140801,1,8,0:0:0:0:
256,192,140876,1,4,0:0:0:0:
256,192,141026,1,8,0:0:0:0:
256,192,141101,1,8,0:0:0:0:
256,192,141176,1,0,0:0:0:0:
256,192,141326,1,8,0:0:0:0:
256,192,141476,1,0,0:0:0:0:
256,192,141626,1,8,0:0:0:0:
256,192,141701,1,0,0:0:0:0:
256,192,141776,1,8,0:0:0:0:
256,192,141851,1,0,0:0:0:0:
256,192,141926,1,8,0:0:0:0:
256,192,142001,1,8,0:0:0:0:
256,192,142076,1,4,0:0:0:0:
256,192,142226,1,8,0:0:0:0:
256,192,142376,1,0,0:0:0:0:
256,192,142451,1,0,0:0:0:0:
256,192,142526,1,0,0:0:0:0:
256,192,142676,1,8,0:0:0:0:
256,192,142751,1,8,0:0:0:0:
256,192,142826,1,0,0:0:0:0:
256,192,142901,1,0,0:0:0:0:
256,192,142976,1,8,0:0:0:0:
256,192,143126,1,0,0:0:0:0:
256,192,143201,1,0,0:0:0:0:
256,192,143276,1,8,0:0:0:0:
256,192,143426,1,0,0:0:0:0:
256,192,143576,1,8,0:0:0:0:
256,192,143651,1,0,0:0:0:0:
256,192,143726,1,8,0:0:0:0:
256,192,143876,1,0,0:0:0:0:
256,192,144026,1,8,0:0:0:0:
256,192,144176,1,0,0:0:0:0:
256,192,144251,1,0,0:0:0:0:
256,192,144326,1,8,0:0:0:0:
256,192,144476,1,0,0:0:0:0:
256,192,144551,1,8,0:0:0:0:
256,192,144626,1,0,0:0:0:0:
256,192,144776,1,8,0:0:0:0:
256,192,144851,1,0,0:0:0:0:
256,192,144926,1,8,0:0:0:0:
256,192,145001,1,8,0:0:0:0:
256,192,145076,1,0,0:0:0:0:
256,192,145226,1,8,0:0:0:0:
256,192,145376,1,0,0:0:0:0:
256,192,145451,1,0,0:0:0:0:
256,192,145526,1,8,0:0:0:0:
256,192,145676,1,0,0:0:0:0:
256,192,145751,1,8,0:0:0:0:
256,192,145826,1,8,0:0:0:0:
256,192,145976,1,0,0:0:0:0:
256,192,146126,1,8,0:0:0:0:
256,192,146201,1,8,0:0:0:0:
256,192,146276,1,0,0:0:0:0:
256,192,146426,1,8,0:0:0:0:
256,192,146501,1,8,0:0:0:0:
256,192,146576,1,0,0:0:0:0:
256,192,146726,1,8,0:0:0:0:
256,192,146876,1,0,0:0:0:0:
256,192,146951,1,0,0:0:0:0:
256,192,147026,1,8,0:0:0:0:
256,192,147176,1,0,0:0:0:0:
256,192,147251,1,8,0:0:0:0:
256,192,147326,1,8,0:0:0:0:
256,192,147476,1,0,0:0:0:0:
256,192,147551,1,0,0:0:0:0:
256,192,147626,1,8,0:0:0:0:
256,192,147701,1,8,0:0:0:0:
256,192,147776,1,0,0:0:0:0:
256,192,147926,1,8,0:0:0:0:
256,192,148001,1,8,0:0:0:0:
256,192,148076,1,0,0:0:0:0:
256,192,148226,1,8,0:0:0:0:
256,192,148376,1,0,0:0:0:0:
256,192,148451,1,0,0:0:0:0:
256,192,148526,1,8,0:0:0:0:
256,192,148676,1,0,0:0:0:0:
256,192,148826,1,8,0:0:0:0:
256,192,148976,1,0,0:0:0:0:
256,192,149126,1,8,0:0:0:0:
256,192,149201,1,8,0:0:0:0:
256,192,149276,1,0,0:0:0:0:
256,192,149351,1,0,0:0:0:0:
256,192,149426,1,8,0:0:0:0:
256,192,149501,1,0,0:0:0:0:
256,192,149576,1,8,0:0:0:0:
256,192,149651,1,0,0:0:0:0:
256,192,149726,1,8,0:0:0:0:
256,192,149801,1,8,0:0:0:0:
256,192,149876,1,0,0:0:0:0:
256,192,149951,1,0,0:0:0:0:
256,192,150026,1,0,0:0:0:0:
256,192,150101,1,0,0:0:0:0:
256,192,150176,1,8,0:0:0:0:
256,192,150251,1,8,0:0:0:0:
256,192,150326,1,0,0:0:0:0:
256,192,150401,1,0,0:0:0:0:
256,192,150476,1,12,0:0:0:0:
256,192,150626,1,0,0:0:0:0:
256,192,150701,1,0,0:0:0:0:
256,192,150776,1,12,0:0:0:0:
256,192,150926,1,0,0:0:0:0:
256,192,151001,1,0,0:0:0:0:
256,192,151076,1,12,0:0:0:0:
256,192,151226,1,0,0:0:0:0:
256,192,151301,1,0,0:0:0:0:
256,192,151376,1,12,0:0:0:0:
256,192,151526,1,0,0:0:0:0:
256,192,151676,12,0,152726,0:0:0:0:
256,192,152876,5,4,0:0:0:0:
256,192,153026,1,8,0:0:0:0:
256,192,153101,1,8,0:0:0:0:
256,192,153176,1,0,0:0:0:0:
256,192,153251,1,8,0:0:0:0:
256,192,153401,1,0,0:0:0:0:
256,192,153476,1,8,0:0:0:0:
256,192,153626,1,0,0:0:0:0:
256,192,153701,1,8,0:0:0:0:
256,192,153851,1,0,0:0:0:0:
256,192,153926,1,0,0:0:0:0:
256,192,154076,1,8,0:0:0:0:
256,192,154226,1,0,0:0:0:0:
256,192,154301,1,0,0:0:0:0:
256,192,154376,1,8,0:0:0:0:
256,192,154451,1,0,0:0:0:0:
256,192,154601,1,8,0:0:0:0:
256,192,154676,1,0,0:0:0:0:
256,192,154826,1,8,0:0:0:0:
256,192,154901,1,0,0:0:0:0:
256,192,155051,1,8,0:0:0:0:
256,192,155126,1,8,0:0:0:0:
256,192,155276,1,0,0:0:0:0:
256,192,155351,1,0,0:0:0:0:
256,192,155426,1,8,0:0:0:0:
256,192,155501,1,8,0:0:0:0:
256,192,155576,1,0,0:0:0:0:
256,192,155651,1,0,0:0:0:0:
256,192,155726,1,8,0:0:0:0:
256,192,155801,1,0,0:0:0:0:
256,192,155876,1,8,0:0:0:0:
256,192,155951,1,8,0:0:0:0:
256,192,156026,1,0,0:0:0:0:
256,192,156101,1,8,0:0:0:0:
256,192,156176,1,8,0:0:0:0:
256,192,156251,1,8,0:0:0:0:
256,192,156326,1,0,0:0:0:0:
256,192,156401,1,0,0:0:0:0:
256,192,156476,1,12,0:0:0:0:
256,192,156626,1,0,0:0:0:0:
256,192,156776,1,0,0:0:0:0:
256,192,156851,1,8,0:0:0:0:
256,192,156926,1,0,0:0:0:0:
256,192,157076,1,12,0:0:0:0:
256,192,157301,1,0,0:0:0:0:
256,192,157376,1,0,0:0:0:0:
256,192,157676,1,12,0:0:0:0:
256,192,157826,1,0,0:0:0:0:
256,192,157976,1,8,0:0:0:0:
256,192,158126,1,0,0:0:0:0:
256,192,158201,1,0,0:0:0:0:
256,192,158276,1,8,0:0:0:0:
256,192,158426,1,0,0:0:0:0:
256,192,158576,1,8,0:0:0:0:
256,192,158651,1,8,0:0:0:0:
256,192,158726,1,8,0:0:0:0:
256,192,158876,1,0,0:0:0:0:
256,192,158951,1,8,0:0:0:0:
256,192,159026,1,0,0:0:0:0:
256,192,159176,1,8,0:0:0:0:
256,192,159326,1,0,0:0:0:0:
256,192,159401,1,0,0:0:0:0:
256,192,159476,1,8,0:0:0:0:
256,192,159626,1,0,0:0:0:0:
256,192,159776,1,8,0:0:0:0:
256,192,159851,1,0,0:0:0:0:
256,192,159926,1,8,0:0:0:0:
256,192,160076,1,0,0:0:0:0:
256,192,160151,1,0,0:0:0:0:
256,192,160226,1,8,0:0:0:0:
256,192,160301,1,8,0:0:0:0:
256,192,160376,1,0,0:0:0:0:
256,192,160526,1,8,0:0:0:0:
256,192,160601,1,8,0:0:0:0:
256,192,160676,1,0,0:0:0:0:
256,192,160826,1,8,0:0:0:0:
256,192,160901,1,8,0:0:0:0:
256,192,160976,1,8,0:0:0:0:
256,192,161126,1,0,0:0:0:0:
256,192,161276,1,8,0:0:0:0:
256,192,161426,1,0,0:0:0:0:
256,192,161576,1,8,0:0:0:0:
256,192,161651,1,8,0:0:0:0:
256,192,161726,1,8,0:0:0:0:
256,192,161876,1,0,0:0:0:0:
256,192,162026,1,8,0:0:0:0:
256,192,162176,1,0,0:0:0:0:
256,192,162251,1,0,0:0:0:0:
256,192,162326,1,8,0:0:0:0:
256,192,162476,1,0,0:0:0:0:
256,192,162551,1,8,0:0:0:0:
256,192,162626,1,8,0:0:0:0:
256,192,162701,1,8,0:0:0:0:
256,192,162776,1,0,0:0:0:0:
256,192,162926,1,8,0:0:0:0:
256,192,163001,1,8,0:0:0:0:
256,192,163076,1,0,0:0:0:0:
256,192,163226,1,8,0:0:0:0:
256,192,163376,1,0,0:0:0:0:
256,192,163451,1,0,0:0:0:0:
256,192,163526,1,8,0:0:0:0:
256,192,163676,1,0,0:0:0:0:
256,192,163826,1,8,0:0:0:0:
256,192,163976,1,0,0:0:0:0:
256,192,164126,1,8,0:0:0:0:
256,192,164276,1,0,0:0:0:0:
256,192,164351,1,0,0:0:0:0:
256,192,164426,1,8,0:0:0:0:
256,192,164501,1,8,0:0:0:0:
256,192,164576,1,0,0:0:0:0:
256,192,164726,1,8,0:0:0:0:
256,192,164801,1,8,0:0:0:0:
256,192,164876,1,0,0:0:0:0:
256,192,164951,1,0,0:0:0:0:
256,192,165026,1,8,0:0:0:0:
256,192,165101,1,8,0:0:0:0:
256,192,165176,1,0,0:0:0:0:
256,192,165251,1,0,0:0:0:0:
256,192,165326,1,8,0:0:0:0:
256,192,165401,1,0,0:0:0:0:
256,192,165476,1,0,0:0:0:0:
256,192,165551,1,0,0:0:0:0:
256,192,165626,1,8,0:0:0:0:
256,192,165701,1,0,0:0:0:0:
256,192,165776,1,8,0:0:0:0:
256,192,165851,1,8,0:0:0:0:
256,192,165926,1,0,0:0:0:0:
256,192,166001,1,0,0:0:0:0:
256,192,166076,1,12,0:0:0:0:
256,192,166226,1,0,0:0:0:0:
256,192,166301,1,0,0:0:0:0:
256,192,166376,1,8,0:0:0:0:
256,192,166451,1,8,0:0:0:0:
256,192,166526,1,0,0:0:0:0:
256,192,166601,1,0,0:0:0:0:
256,192,166676,1,8,0:0:0:0:
256,192,166751,1,8,0:0:0:0:
256,192,166826,1,0,0:0:0:0:
256,192,166901,1,0,0:0:0:0:
256,192,166976,1,8,0:0:0:0:
256,192,167126,1,0,0:0:0:0:
256,192,167276,1,12,0:0:0:0:
256,192,167876,1,0,0:0:0:0:
256,192,168076,1,8,0:0:0:0:
256,192,168176,1,0,0:0:0:0:
256,192,168376,1,0,0:0:0:0:
256,192,168476,1,12,0:0:0:0:
256,192,168676,1,0,0:0:0:0:
256,192,168776,1,8,0:0:0:0:
256,192,168976,1,0,0:0:0:0:
256,192,169076,1,8,0:0:0:0:
256,192,169276,1,0,0:0:0:0:
256,192,169376,1,8,0:0:0:0:
256,192,169576,1,8,0:0:0:0:
256,192,169676,1,0,0:0:0:0:
256,192,169876,1,8,0:0:0:0:
256,192,169976,1,8,0:0:0:0:
256,192,170176,1,0,0:0:0:0:
256,192,170276,1,8,0:0:0:0:
256,192,170476,1,8,0:0:0:0:
256,192,170576,1,0,0:0:0:0:
256,192,170776,1,8,0:0:0:0:
256,192,170876,1,8,0:0:0:0:
256,192,171076,1,0,0:0:0:0:
256,192,171176,1,8,0:0:0:0:
256,192,171376,1,0,0:0:0:0:
256,192,171476,1,0,0:0:0:0:
256,192,171676,1,8,0:0:0:0:
256,192,171776,1,0,0:0:0:0:
256,192,171976,1,8,0:0:0:0:
256,192,172076,1,0,0:0:0:0:
256,192,172276,1,0,0:0:0:0:
256,192,172376,1,8,0:0:0:0:
256,192,172576,1,0,0:0:0:0:
256,192,172676,1,8,0:0:0:0:
256,192,172776,1,0,0:0:0:0:
256,192,172876,1,0,0:0:0:0:
256,192,172976,1,8,0:0:0:0:
256,192,173176,1,0,0:0:0:0:
256,192,173276,1,8,0:0:0:0:
256,192,173476,1,0,0:0:0:0:
256,192,173576,1,0,0:0:0:0:
256,192,173776,1,8,0:0:0:0:
256,192,173876,1,0,0:0:0:0:
256,192,174076,1,0,0:0:0:0:
256,192,174176,1,8,0:0:0:0:
256,192,174376,1,8,0:0:0:0:
256,192,174476,1,0,0:0:0:0:
256,192,174676,1,0,0:0:0:0:
256,192,174776,1,8,0:0:0:0:
256,192,174976,1,0,0:0:0:0:
256,192,175076,1,0,0:0:0:0:
256,192,175276,1,8,0:0:0:0:
256,192,175376,1,0,0:0:0:0:
256,192,175576,1,8,0:0:0:0:
256,192,175676,1,8,0:0:0:0:
256,192,175876,1,0,0:0:0:0:
256,192,175976,1,8,0:0:0:0:
256,192,176176,1,0,0:0:0:0:
256,192,176276,1,0,0:0:0:0:
256,192,176476,1,8,0:0:0:0:
256,192,176576,1,0,0:0:0:0:
256,192,176776,1,0,0:0:0:0:
256,192,176876,1,12,0:0:0:0:
256,192,177076,1,0,0:0:0:0:
256,192,177176,1,8,0:0:0:0:
256,192,177376,1,0,0:0:0:0:
256,192,177476,1,8,0:0:0:0:
256,192,177576,1,0,0:0:0:0:
256,192,177676,1,0,0:0:0:0:
256,192,177776,1,8,0:0:0:0:
256,192,177876,1,8,0:0:0:0:
256,192,177976,1,0,0:0:0:0:
256,192,178076,1,12,0:0:0:0:
256,192,178376,1,0,0:0:0:0:
256,192,178576,1,8,0:0:0:0:
256,192,178676,1,0,0:0:0:0:
256,192,178876,1,8,0:0:0:0:
256,192,178976,1,8,0:0:0:0:
256,192,179176,1,0,0:0:0:0:
256,192,179276,1,8,0:0:0:0:
256,192,179476,1,0,0:0:0:0:
256,192,179576,1,0,0:0:0:0:
256,192,179776,1,8,0:0:0:0:
256,192,179876,1,8,0:0:0:0:
256,192,179976,1,0,0:0:0:0:
256,192,180076,1,0,0:0:0:0:
256,192,180176,1,8,0:0:0:0:
256,192,180476,1,0,0:0:0:0:
256,192,180676,1,0,0:0:0:0:
256,192,180776,1,8,0:0:0:0:
256,192,180976,1,8,0:0:0:0:
256,192,181076,1,0,0:0:0:0:
256,192,181276,1,0,0:0:0:0:
256,192,181376,1,8,0:0:0:0:
256,192,181576,1,8,0:0:0:0:
256,192,181676,1,4,0:0:0:0:
256,192,181876,1,8,0:0:0:0:
256,192,181976,1,0,0:0:0:0:
256,192,182176,1,8,0:0:0:0:
256,192,182276,1,0,0:0:0:0:
256,192,182376,1,8,0:0:0:0:
256,192,182476,1,8,0:0:0:0:
256,192,182576,1,0,0:0:0:0:
256,192,182651,1,0,0:0:0:0:
256,192,182726,1,0,0:0:0:0:
256,192,182801,1,0,0:0:0:0:
256,192,182876,1,12,0:0:0:0:
256,192,183026,1,0,0:0:0:0:
256,192,183176,1,8,0:0:0:0:
256,192,183251,1,8,0:0:0:0:
256,192,183326,1,8,0:0:0:0:
256,192,183476,1,0,0:0:0:0:
256,192,183551,1,0,0:0:0:0:
256,192,183626,1,8,0:0:0:0:
256,192,183776,1,0,0:0:0:0:
256,192,183926,1,8,0:0:0:0:
256,192,184001,1,8,0:0:0:0:
256,192,184076,1,0,0:0:0:0:
256,192,184151,1,0,0:0:0:0:
256,192,184226,1,8,0:0:0:0:
256,192,184376,1,0,0:0:0:0:
256,192,184451,1,0,0:0:0:0:
256,192,184526,1,8,0:0:0:0:
256,192,184676,1,0,0:0:0:0:
256,192,184751,1,0,0:0:0:0:
256,192,184826,1,0,0:0:0:0:
256,192,184976,1,8,0:0:0:0:
256,192,185051,1,8,0:0:0:0:
256,192,185126,1,0,0:0:0:0:
256,192,185276,1,8,0:0:0:0:
256,192,185351,1,8,0:0:0:0:
256,192,185426,1,0,0:0:0:0:
256,192,185501,1,0,0:0:0:0:
256,192,185576,1,8,0:0:0:0:
256,192,185726,1,0,0:0:0:0:
256,192,185801,1,0,0:0:0:0:
256,192,185876,1,8,0:0:0:0:
256,192,186026,1,0,0:0:0:0:
256,192,186176,1,8,0:0:0:0:
256,192,186326,1,0,0:0:0:0:
256,192,186401,1,0,0:0:0:0:
256,192,186476,1,8,0:0:0:0:
256,192,186626,1,0,0:0:0:0:
256,192,186776,1,8,0:0:0:0:
256,192,186926,1,0,0:0:0:0:
256,192,187001,1,0,0:0:0:0:
256,192,187076,1,8,0:0:0:0:
256,192,187151,1,8,0:0:0:0:
256,192,187226,1,0,0:0:0:0:
256,192,187376,1,8,0:0:0:0:
256,192,187526,1,0,0:0:0:0:
256,192,187601,1,8,0:0:0:0:
256,192,187676,1,0,0:0:0:0:
256,192,187751,1,0,0:0:0:0:
256,192,187826,1,8,0:0:0:0:
256,192,187976,1,0,0:0:0:0:
256,192,188126,1,8,0:0:0:0:
256,192,188276,1,0,0:0:0:0:
256,192,188426,1,8,0:0:0:0:
256,192,188501,1,8,0:0:0:0:
256,192,188576,1,8,0:0:0:0:
256,192,188726,1,0,0:0:0:0:
256,192,188801,1,0,0:0:0:0:
256,192,188876,1,8,0:0:0:0:
256,192,189026,1,0,0:0:0:0:
256,192,189176,1,0,0:0:0:0:
256,192,189326,1,8,0:0:0:0:
256,192,189476,1,8,0:0:0:0:
256,192,189626,1,0,0:0:0:0:
256,192,189701,1,0,0:0:0:0:
256,192,189776,1,8,0:0:0:0:
256,192,189926,1,0,0:0:0:0:
256,192,190076,1,8,0:0:0:0:
256,192,190151,1,8,0:0:0:0:
256,192,190226,1,8,0:0:0:0:
256,192,190301,1,8,0:0:0:0:
256,192,190376,1,0,0:0:0:0:
256,192,190526,1,8,0:0:0:0:
256,192,190676,1,0,0:0:0:0:
256,192,190751,1,0,0:0:0:0:
256,192,190826,1,8,0:0:0:0:
256,192,190901,1,8,0:0:0:0:
256,192,190976,1,0,0:0:0:0:
256,192,191126,1,8,0:0:0:0:
256,192,191276,1,4,0:0:0:0:
256,192,191426,1,8,0:0:0:0:
256,192,191501,1,8,0:0:0:0:
256,192,191576,1,4,0:0:0:0:
256,192,191726,1,8,0:0:0:0:
256,192,191801,1,8,0:0:0:0:
256,192,191876,1,4,0:0:0:0:
256,192,192026,1,8,0:0:0:0:
256,192,192101,1,8,0:0:0:0:
256,192,192176,1,4,0:0:0:0:
256,192,192326,1,8,0:0:0:0:
256,192,192401,1,8,0:0:0:0:
256,192,192476,1,4,0:0:0:0:
256,192,192626,12,0,193226,0:0:0:0:
256,192,193376,5,8,0:0:0:0:
256,192,193526,1,8,0:0:0:0:
256,192,193676,1,4,0:0:0:0:
256,192,193826,1,8,0:0:0:0:
256,192,193976,1,0,0:0:0:0:
256,192,194126,1,8,0:0:0:0:
256,192,194201,1,0,0:0:0:0:
256,192,194276,1,0,0:0:0:0:
256,192,194351,1,0,0:0:0:0:
256,192,194426,1,8,0:0:0:0:
256,192,194576,1,0,0:0:0:0:
256,192,194726,1,8,0:0:0:0:
256,192,194801,1,8,0:0:0:0:
256,192,194876,1,0,0:0:0:0:
256,192,194951,1,0,0:0:0:0:
256,192,195026,1,8,0:0:0:0:
256,192,195176,1,0,0:0:0:0:
256,192,195326,1,8,0:0:0:0:
256,192,195476,1,0,0:0:0:0:
256,192,195626,1,8,0:0:0:0:
256,192,195701,1,8,0:0:0:0:
256,192,195776,1,0,0:0:0:0:
256,192,195926,1,8,0:0:0:0:
256,192,196001,1,8,0:0:0:0:
256,192,196076,1,8,0:0:0:0:
256,192,196226,1,0,0:0:0:0:
256,192,196301,1,0,0:0:0:0:
256,192,196376,1,0,0:0:0:0:
256,192,196526,1,8,0:0:0:0:
256,192,196601,1,8,0:0:0:0:
256,192,196676,1,0,0:0:0:0:
256,192,196826,1,8,0:0:0:0:
256,192,196901,1,8,0:0:0:0:
256,192,196976,1,0,0:0:0:0:
256,192,197051,1,8,0:0:0:0:
256,192,197126,1,0,0:0:0:0:
256,192,197201,1,0,0:0:0:0:
256,192,197276,1,8,0:0:0:0:
256,192,197426,1,0,0:0:0:0:
256,192,197576,1,8,0:0:0:0:
256,192,197726,1,0,0:0:0:0:
256,192,197876,1,8,0:0:0:0:
256,192,197951,1,0,0:0:0:0:
256,192,198026,1,8,0:0:0:0:
256,192,198176,1,0,0:0:0:0:
256,192,198251,1,8,0:0:0:0:
256,192,198326,1,0,0:0:0:0:
256,192,198476,1,8,0:0:0:0:
256,192,198551,1,8,0:0:0:0:
256,192,198626,1,0,0:0:0:0:
256,192,198776,1,8,0:0:0:0:
256,192,198926,1,0,0:0:0:0:
256,192,199001,1,0,0:0:0:0:
256,192,199076,1,8,0:0:0:0:
256,192,199151,1,8,0:0:0:0:
256,192,199226,1,0,0:0:0:0:
256,192,199376,1,8,0:0:0:0:
256,192,199526,1,0,0:0:0:0:
256,192,199601,1,8,0:0:0:0:
256,192,199676,1,8,0:0:0:0:
256,192,199751,1,8,0:0:0:0:
256,192,199826,1,0,0:0:0:0:
256,192,199976,1,8,0:0:0:0:
256,192,200126,1,0,0:0:0:0:
256,192,200276,1,8,0:0:0:0:
256,192,200426,1,0,0:0:0:0:
256,192,200576,1,8,0:0:0:0:
256,192,200651,1,8,0:0:0:0:
256,192,200726,1,0,0:0:0:0:
256,192,200876,1,8,0:0:0:0:
256,192,200951,1,0,0:0:0:0:
256,192,201026,1,8,0:0:0:0:
256,192,201176,1,0,0:0:0:0:
256,192,201326,1,8,0:0:0:0:
256,192,201401,1,8,0:0:0:0:
256,192,201476,1,0,0:0:0:0:
256,192,201626,1,8,0:0:0:0:
256,192,201776,1,0,0:0:0:0:
256,192,201851,1,0,0:0:0:0:
256,192,201926,1,8,0:0:0:0:
256,192,202076,1,0,0:0:0:0:
256,192,202151,1,0,0:0:0:0:
256,192,202226,1,0,0:0:0:0:
256,192,202301,1,0,0:0:0:0:
256,192,202376,1,12,0:0:0:0:
256,192,202526,1,0,0:0:0:0:
256,192,202601,1,0,0:0:0:0:
256,192,202676,1,12,0:0:0:0:
256,192,202826,1,0,0:0:0:0:
256,192,202901,1,0,0:0:0:0:
256,192,202976,1,12,0:0:0:0:
256,192,203126,1,0,0:0:0:0:
256,192,203201,1,0,0:0:0:0:
256,192,203276,1,12,0:0:0:0:
256,192,203426,1,0,0:0:0:0:
256,192,203501,1,8,0:0:0:0:
256,192,203651,1,0,0:0:0:0:
256,192,203726,1,8,0:0:0:0:
256,192,203876,1,0,0:0:0:0:
256,192,203951,1,0,0:0:0:0:
256,192,204026,1,8,0:0:0:0:
256,192,204101,1,8,0:0:0:0:
256,192,204176,1,0,0:0:0:0:
256,192,204326,1,8,0:0:0:0:
256,192,204476,1,0,0:0:0:0:
256,192,204626,1,8,0:0:0:0:
256,192,204701,1,0,0:0:0:0:
256,192,204851,1,8,0:0:0:0:
256,192,204926,1,0,0:0:0:0:
256,192,205076,1,8,0:0:0:0:
256,192,205151,1,8,0:0:0:0:
256,192,205226,1,0,0:0:0:0:
256,192,205301,1,0,0:0:0:0:
256,192,205376,1,8,0:0:0:0:
256,192,205526,1,0,0:0:0:0:
256,192,205676,1,8,0:0:0:0:
256,192,205751,1,8,0:0:0:0:
256,192,205826,1,0,0:0:0:0:
256,192,205901,1,8,0:0:0:0:
256,192,205976,1,0,0:0:0:0:
256,192,206051,1,0,0:0:0:0:
256,192,206126,1,8,0:0:0:0:
256,192,206201,1,0,0:0:0:0:
256,192,206276,1,8,0:0:0:0:
256,192,206351,1,8,0:0:0:0:
256,192,206426,1,0,0:0:0:0:
256,192,206501,1,0,0:0:0:0:
256,192,206576,1,8,0:0:0:0:
256,192,206651,1,8,0:0:0:0:
256,192,206726,1,0,0:0:0:0:
256,192,206801,1,0,0:0:0:0:
256,192,206876,1,12,0:0:0:0:
256,192,207026,1,0,0:0:0:0:
256,192,207101,1,0,0:0:0:0:
256,192,207176,1,8,0:0:0:0:
256,192,207251,1,0,0:0:0:0:
256,192,207326,1,8,0:0:0:0:
256,192,207401,1,8,0:0:0:0:
256,192,207476,1,0,0:0:0:0:
256,192,207626,12,0,207926,0:0:0:0:
256,192,208076,5,12,0:0:0:0:
256,192,212726,5,0,0:0:0:0:
256,192,212876,1,12,0:0:0:0:
256,192,217526,5,0,0:0:0:0:
256,192,217676,1,12,0:0:0:0:
256,192,217826,1,0,0:0:0:0:
256,192,217901,1,0,0:0:0:0:
256,192,217976,1,8,0:0:0:0:
256,192,218051,1,0,0:0:0:0:
256,192,218126,1,8,0:0:0:0:
256,192,218201,1,8,0:0:0:0:
256,192,218276,1,0,0:0:0:0:
256,192,218351,1,0,0:0:0:0:
256,192,218426,1,8,0:0:0:0:
256,192,218501,1,0,0:0:0:0:
256,192,218576,1,8,0:0:0:0:
256,192,218651,1,8,0:0:0:0:
256,192,218726,1,0,0:0:0:0:
256,192,218801,1,0,0:0:0:0:
256,192,218876,1,12,0:0:0:0:
256,192,219026,1,0,0:0:0:0:
256,192,219101,1,0,0:0:0:0:
256,192,219176,1,12,0:0:0:0:
256,192,219326,1,0,0:0:0:0:
256,192,219401,1,0,0:0:0:0:
256,192,219476,1,12,0:0:0:0:
256,192,219626,1,0,0:0:0:0:
256,192,219701,1,0,0:0:0:0:
256,192,219776,1,8,0:0:0:0:
256,192,219851,1,0,0:0:0:0:
256,192,219926,1,0,0:0:0:0:
256,192,220001,1,0,0:0:0:0:
256,192,220076,1,12,0:0:0:0:
256,192,220226,1,0,0:0:0:0:
256,192,220301,1,0,0:0:0:0:
256,192,220376,1,8,0:0:0:0:
256,192,220451,1,8,0:0:0:0:
256,192,220526,1,0,0:0:0:0:
256,192,220601,1,0,0:0:0:0:
256,192,220676,1,8,0:0:0:0:
256,192,220751,1,0,0:0:0:0:
256,192,220826,1,8,0:0:0:0:
256,192,220901,1,8,0:0:0:0:
256,192,220976,1,0,0:0:0:0:
256,192,221051,1,0,0:0:0:0:
256,192,221126,1,8,0:0:0:0:
256,192,221276,1,0,0:0:0:0:
256,192,221426,1,8,0:0:0:0:
256,192,221501,1,8,0:0:0:0:
256,192,221576,1,8,0:0:0:0:
256,192,221726,1,0,0:0:0:0:
256,192,221801,1,0,0:0:0:0:
256,192,221876,1,8,0:0:0:0:
256,192,222026,1,0,0:0:0:0:
256,192,222101,1,8,0:0:0:0:
256,192,222176,1,0,0:0:0:0:
256,192,222326,1,8,0:0:0:0:
256,192,222476,1,0,0:0:0:0:
256,192,222551,1,0,0:0:0:0:
256,192,222626,1,8,0:0:0:0:
256,192,222701,1,8,0:0:0:0:
256,192,222776,1,0,0:0:0:0:
256,192,222851,1,8,0:0:0:0:
256,192,222926,1,0,0:0:0:0:
256,192,223001,1,0,0:0:0:0:
256,192,223076,1,8,0:0:0:0:
256,192,223151,1,0,0:0:0:0:
256,192,223226,1,8,0:0:0:0:
256,192,223301,1,8,0:0:0:0:
256,192,223376,1,0,0:0:0:0:
256,192,223451,1,0,0:0:0:0:
256,192,223526,1,8,0:0:0:0:
256,192,223601,1,8,0:0:0:0:
256,192,223676,1,0,0:0:0:0:
256,192,223826,1,8,0:0:0:0:
256,192,223901,1,8,0:0:0:0:
256,192,223976,1,0,0:0:0:0:
256,192,224126,1,8,0:0:0:0:
256,192,224276,1,0,0:0:0:0:
256,192,224426,1,8,0:0:0:0:
256,192,224501,1,0,0:0:0:0:
256,192,224576,1,8,0:0:0:0:
256,192,224726,1,8,0:0:0:0:
256,192,224876,1,0,0:0:0:0:
256,192,224951,1,0,0:0:0:0:
256,192,225026,1,8,0:0:0:0:
256,192,225101,1,0,0:0:0:0:
256,192,225176,1,8,0:0:0:0:
256,192,225251,1,8,0:0:0:0:
256,192,225326,1,0,0:0:0:0:
256,192,225401,1,0,0:0:0:0:
256,192,225476,1,8,0:0:0:0:
256,192,225551,1,0,0:0:0:0:
256,192,225626,1,8,0:0:0:0:
256,192,225701,1,8,0:0:0:0:
256,192,225776,1,0,0:0:0:0:
256,192,225851,1,0,0:0:0:0:
256,192,225926,1,8,0:0:0:0:
256,192,226001,1,8,0:0:0:0:
256,192,226076,1,0,0:0:0:0:
256,192,226226,1,8,0:0:0:0:
256,192,226301,1,8,0:0:0:0:
256,192,226376,1,8,0:0:0:0:
256,192,226526,1,0,0:0:0:0:
256,192,226601,1,0,0:0:0:0:
256,192,226676,1,8,0:0:0:0:
256,192,226826,1,0,0:0:0:0:
256,192,226901,1,8,0:0:0:0:
256,192,226976,1,0,0:0:0:0:
256,192,227126,1,8,0:0:0:0:
256,192,227276,1,0,0:0:0:0:
256,192,227351,1,0,0:0:0:0:
256,192,227426,1,8,0:0:0:0:
256,192,227501,1,0,0:0:0:0:
256,192,227576,1,8,0:0:0:0:
256,192,227651,1,8,0:0:0:0:
256,192,227726,1,0,0:0:0:0:
256,192,227801,1,8,0:0:0:0:
256,192,227876,1,0,0:0:0:0:
256,192,227951,1,0,0:0:0:0:
256,192,228026,1,8,0:0:0:0:
256,192,228101,1,8,0:0:0:0:
256,192,228176,1,0,0:0:0:0:
256,192,228326,1,8,0:0:0:0:
256,192,228401,1,8,0:0:0:0:
256,192,228476,1,4,0:0:0:0:
256,192,228626,1,8,0:0:0:0:
256,192,228701,1,8,0:0:0:0:
256,192,228776,1,4,0:0:0:0:
256,192,228926,1,8,0:0:0:0:
256,192,229001,1,8,0:0:0:0:
256,192,229076,1,4,0:0:0:0:
256,192,229226,1,8,0:0:0:0:
256,192,229376,1,4,0:0:0:0:
256,192,229526,1,8,0:0:0:0:
256,192,229676,1,4,0:0:0:0:
256,192,229826,1,8,0:0:0:0:
256,192,229901,1,8,0:0:0:0:
256,192,229976,1,0,0:0:0:0:
256,192,230051,1,0,0:0:0:0:
256,192,230126,1,8,0:0:0:0:
256,192,230201,1,8,0:0:0:0:
256,192,230276,1,0,0:0:0:0:
256,192,230351,1,0,0:0:0:0:
256,192,230426,1,8,0:0:0:0:
256,192,230501,1,0,0:0:0:0:
256,192,230576,1,8,0:0:0:0:
256,192,230651,1,8,0:0:0:0:
256,192,230726,1,0,0:0:0:0:
256,192,230801,1,0,0:0:0:0:
256,192,230876,1,8,0:0:0:0:
256,192,230951,1,0,0:0:0:0:
256,192,231026,1,8,0:0:0:0:
256,192,231101,1,8,0:0:0:0:
256,192,231176,1,0,0:0:0:0:
256,192,231251,1,8,0:0:0:0:
256,192,231326,1,0,0:0:0:0:
256,192,231401,1,0,0:0:0:0:
256,192,231476,1,8,0:0:0:0:
256,192,231551,1,8,0:0:0:0:
256,192,231626,1,8,0:0:0:0:
256,192,231701,1,0,0:0:0:0:
256,192,231776,1,8,0:0:0:0:
256,192,231851,1,8,0:0:0:0:
256,192,231926,1,8,0:0:0:0:
256,192,232001,1,0,0:0:0:0:
256,192,232076,1,8,0:0:0:0:
256,192,232151,1,8,0:0:0:0:
256,192,232226,1,0,0:0:0:0:
256,192,232301,1,0,0:0:0:0:
256,192,232376,1,8,0:0:0:0:
256,192,232451,1,0,0:0:0:0:
256,192,232526,1,8,0:0:0:0:
256,192,232601,1,8,0:0:0:0:
256,192,232676,1,0,0:0:0:0:
256,192,232751,1,0,0:0:0:0:
256,192,232826,1,0,0:0:0:0:
256,192,232901,1,0,0:0:0:0:
256,192,232976,1,8,0:0:0:0:
256,192,233051,1,0,0:0:0:0:
256,192,233126,1,8,0:0:0:0:
256,192,233201,1,8,0:0:0:0:
256,192,233276,1,8,0:0:0:0:
256,192,233351,1,8,0:0:0:0:
256,192,233426,1,0,0:0:0:0:
256,192,233501,1,0,0:0:0:0:
256,192,233576,1,8,0:0:0:0:
256,192,233651,1,8,0:0:0:0:
256,192,233726,1,0,0:0:0:0:
256,192,233801,1,8,0:0:0:0:
256,192,233876,1,0,0:0:0:0:
256,192,233951,1,0,0:0:0:0:
256,192,234026,1,8,0:0:0:0:
256,192,234101,1,8,0:0:0:0:
256,192,234176,1,0,0:0:0:0:
256,192,234251,1,0,0:0:0:0:
256,192,234326,1,8,0:0:0:0:
256,192,234476,1,0,0:0:0:0:
256,192,234551,1,0,0:0:0:0:
256,192,234626,1,8,0:0:0:0:
256,192,234701,1,0,0:0:0:0:
256,192,234776,1,0,0:0:0:0:
256,192,234851,1,0,0:0:0:0:
256,192,234926,1,8,0:0:0:0:
256,192,235001,1,8,0:0:0:0:
256,192,235076,1,0,0:0:0:0:
256,192,235151,1,0,0:0:0:0:
256,192,235226,1,0,0:0:0:0:
256,192,235301,1,0,0:0:0:0:
256,192,235376,1,8,0:0:0:0:
256,192,235451,1,8,0:0:0:0:
256,192,235526,1,0,0:0:0:0:
256,192,235601,1,8,0:0:0:0:
256,192,235676,1,0,0:0:0:0:
256,192,235751,1,0,0:0:0:0:
256,192,235826,1,8,0:0:0:0:
256,192,235901,1,8,0:0:0:0:
256,192,235976,1,0,0:0:0:0:
256,192,236051,1,8,0:0:0:0:
256,192,236126,1,0,0:0:0:0:
256,192,236201,1,0,0:0:0:0:
256,192,236276,1,8,0:0:0:0:
256,192,236351,1,8,0:0:0:0:
256,192,236426,1,8,0:0:0:0:
256,192,236501,1,0,0:0:0:0:
256,192,236576,1,8,0:0:0:0:
256,192,236651,1,8,0:0:0:0:
256,192,236726,1,8,0:0:0:0:
256,192,236801,1,0,0:0:0:0:
256,192,236876,1,8,0:0:0:0:
256,192,236951,1,8,0:0:0:0:
256,192,237026,1,0,0:0:0:0:
256,192,237101,1,0,0:0:0:0:
256,192,237176,1,8,0:0:0:0:
256,192,237251,1,0,0:0:0:0:
256,192,237326,1,8,0:0:0:0:
256,192,237401,1,8,0:0:0:0:
256,192,237476,1,0,0:0:0:0:
256,192,237551,1,0,0:0:0:0:
256,192,237626,1,0,0:0:0:0:
256,192,237701,1,0,0:0:0:0:
256,192,237776,1,8,0:0:0:0:
256,192,237851,1,8,0:0:0:0:
256,192,237926,1,0,0:0:0:0:
256,192,238001,1,0,0:0:0:0:
256,192,238076,1,12,0:0:0:0:
256,192,238226,1,0,0:0:0:0:
256,192,238301,1,0,0:0:0:0:
256,192,238376,1,12,0:0:0:0:
256,192,238526,1,0,0:0:0:0:
256,192,238601,1,0,0:0:0:0:
256,192,238676,1,12,0:0:0:0:
256,192,238826,1,0,0:0:0:0:
256,192,238901,1,0,0:0:0:0:
256,192,238976,1,12,0:0:0:0:
256,192,239126,1,0,0:0:0:0:
256,192,239276,1,12,0:0:0:0:
256,192,239426,1,0,0:0:0:0:
256,192,239576,1,8,0:0:0:0:
256,192,239651,1,8,0:0:0:0:
256,192,239726,1,0,0:0:0:0:
256,192,239876,1,8,0:0:0:0:
256,192,239951,1,0,0:0:0:0:
256,192,240026,1,0,0:0:0:0:
256,192,240176,1,8,0:0:0:0:
256,192,240251,1,8,0:0:0:0:
256,192,240326,1,8,0:0:0:0:
256,192,240476,1,0,0:0:0:0:
256,192,240626,1,8,0:0:0:0:
256,192,240701,1,0,0:0:0:0:
256,192,240776,1,0,0:0:0:0:
256,192,240926,1,8,0:0:0:0:
256,192,241001,1,0,0:0:0:0:
256,192,241076,1,0,0:0:0:0:
256,192,241226,1,8,0:0:0:0:
256,192,241301,1,0,0:0:0:0:
256,192,241376,1,8,0:0:0:0:
256,192,241526,1,0,0:0:0:0:
256,192,241676,1,8,0:0:0:0:
256,192,241751,1,8,0:0:0:0:
256,192,241826,1,8,0:0:0:0:
256,192,241976,1,0,0:0:0:0:
256,192,242051,1,0,0:0:0:0:
256,192,242126,1,0,0:0:0:0:
256,192,242276,1,8,0:0:0:0:
256,192,242351,1,8,0:0:0:0:
256,192,242426,1,0,0:0:0:0:
256,192,242501,1,0,0:0:0:0:
256,192,242576,1,8,0:0:0:0:
256,192,242651,1,8,0:0:0:0:
256,192,242726,1,0,0:0:0:0:
256,192,242801,1,8,0:0:0:0:
256,192,242876,1,0,0:0:0:0:
256,192,243026,1,0,0:0:0:0:
256,192,243101,1,0,0:0:0:0:
256,192,243176,1,8,0:0:0:0:
256,192,243326,1,0,0:0:0:0:
256,192,243476,1,8,0:0:0:0:
256,192,243626,1,0,0:0:0:0:
256,192,243701,1,0,0:0:0:0:
256,192,243776,1,8,0:0:0:0:
256,192,243926,1,0,0:0:0:0:
256,192,244076,1,12,0:0:0:0:
256,192,244226,1,0,0:0:0:0:
256,192,244376,1,8,0:0:0:0:
256,192,244451,1,8,0:0:0:0:
256,192,244526,1,8,0:0:0:0:
256,192,244676,1,0,0:0:0:0:
256,192,244751,1,0,0:0:0:0:
256,192,244826,1,8,0:0:0:0:
256,192,244976,1,0,0:0:0:0:
256,192,245051,1,8,0:0:0:0:
256,192,245126,1,8,0:0:0:0:
256,192,245276,1,0,0:0:0:0:
256,192,245426,1,8,0:0:0:0:
256,192,245501,1,8,0:0:0:0:
256,192,245576,1,8,0:0:0:0:
256,192,245726,1,0,0:0:0:0:
256,192,245801,1,0,0:0:0:0:
256,192,245876,1,0,0:0:0:0:
256,192,246026,1,8,0:0:0:0:
256,192,246101,1,0,0:0:0:0:
256,192,246176,1,8,0:0:0:0:
256,192,246326,1,0,0:0:0:0:
256,192,246476,1,8,0:0:0:0:
256,192,246551,1,8,0:0:0:0:
256,192,246626,1,0,0:0:0:0:
256,192,246776,1,8,0:0:0:0:
256,192,246851,1,0,0:0:0:0:
256,192,246926,1,8,0:0:0:0:
256,192,247076,1,0,0:0:0:0:
256,192,247151,1,0,0:0:0:0:
256,192,247226,1,8,0:0:0:0:
256,192,247301,1,0,0:0:0:0:
256,192,247376,1,0,0:0:0:0:
256,192,247451,1,0,0:0:0:0:
256,192,247526,1,8,0:0:0:0:
256,192,247601,1,0,0:0:0:0:
256,192,247676,1,8,0:0:0:0:
256,192,247826,1,0,0:0:0:0:
256,192,247901,1,0,0:0:0:0:
256,192,247976,1,8,0:0:0:0:
256,192,248126,1,0,0:0:0:0:
256,192,248276,1,8,0:0:0:0:
256,192,248426,1,0,0:0:0:0:
256,192,248501,1,0,0:0:0:0:
256,192,248576,1,0,0:0:0:0:
256,192,248726,1,0,0:0:0:0:
256,192,248876,1,12,0:0:0:0:
256,192,249026,1,0,0:0:0:0:
256,192,249176,1,8,0:0:0:0:
256,192,249251,1,8,0:0:0:0:
256,192,249326,1,0,0:0:0:0:
256,192,249476,1,8,0:0:0:0:
256,192,249551,1,0,0:0:0:0:
256,192,249626,1,0,0:0:0:0:
256,192,249776,1,8,0:0:0:0:
256,192,249851,1,8,0:0:0:0:
256,192,249926,1,8,0:0:0:0:
256,192,250076,1,0,0:0:0:0:
256,192,250226,1,8,0:0:0:0:
256,192,250301,1,0,0:0:0:0:
256,192,250376,1,0,0:0:0:0:
256,192,250526,1,8,0:0:0:0:
256,192,250601,1,0,0:0:0:0:
256,192,250676,1,0,0:0:0:0:
256,192,250826,1,8,0:0:0:0:
256,192,250901,1,0,0:0:0:0:
256,192,250976,1,8,0:0:0:0:
256,192,251126,1,0,0:0:0:0:
256,192,251276,1,8,0:0:0:0:
256,192,251351,1,8,0:0:0:0:
256,192,251426,1,8,0:0:0:0:
256,192,251576,1,0,0:0:0:0:
256,192,251651,1,0,0:0:0:0:
256,192,251726,1,0,0:0:0:0:
256,192,251876,1,8,0:0:0:0:
256,192,251951,1,8,0:0:0:0:
256,192,252026,1,0,0:0:0:0:
256,192,252101,1,0,0:0:0:0:
256,192,252176,1,8,0:0:0:0:
256,192,252251,1,8,0:0:0:0:
256,192,252326,1,0,0:0:0:0:
256,192,252401,1,8,0:0:0:0:
256,192,252476,1,0,0:0:0:0:
256,192,252626,1,0,0:0:0:0:
256,192,252701,1,0,0:0:0:0:
256,192,252776,1,8,0:0:0:0:
256,192,252926,1,0,0:0:0:0:
256,192,253076,1,8,0:0:0:0:
256,192,253226,1,0,0:0:0:0:
256,192,253301,1,0,0:0:0:0:
256,192,253376,1,8,0:0:0:0:
256,192,253526,1,0,0:0:0:0:
256,192,253676,1,12,0:0:0:0:
256,192,253826,1,0,0:0:0:0:
256,192,253976,1,8,0:0:0:0:
256,192,254051,1,8,0:0:0:0:
256,192,254126,1,8,0:0:0:0:
256,192,254276,1,0,0:0:0:0:
256,192,254351,1,0,0:0:0:0:
256,192,254426,1,8,0:0:0:0:
256,192,254576,1,0,0:0:0:0:
256,192,254651,1,8,0:0:0:0:
256,192,254726,1,8,0:0:0:0:
256,192,254876,1,0,0:0:0:0:
256,192,255026,1,8,0:0:0:0:
256,192,255101,1,8,0:0:0:0:
256,192,255176,1,8,0:0:0:0:
256,192,255326,1,0,0:0:0:0:
256,192,255401,1,0,0:0:0:0:
256,192,255476,1,0,0:0:0:0:
256,192,255626,1,8,0:0:0:0:
256,192,255701,1,0,0:0:0:0:
256,192,255776,1,8,0:0:0:0:
256,192,255926,1,0,0:0:0:0:
256,192,256076,1,8,0:0:0:0:
256,192,256151,1,8,0:0:0:0:
256,192,256226,1,0,0:0:0:0:
256,192,256376,1,8,0:0:0:0:
256,192,256451,1,0,0:0:0:0:
256,192,256526,1,8,0:0:0:0:
256,192,256676,1,0,0:0:0:0:
256,192,256751,1,0,0:0:0:0:
256,192,256826,1,8,0:0:0:0:
256,192,256901,1,0,0:0:0:0:
256,192,256976,1,0,0:0:0:0:
256,192,257051,1,0,0:0:0:0:
256,192,257126,1,8,0:0:0:0:
256,192,257201,1,8,0:0:0:0:
256,192,257276,1,4,0:0:0:0:
256,192,257426,12,0,258326,0:0:0:0:
256,192,258476,5,4,0:0:0:0:
256,192,258626,1,8,0:0:0:0:
256,192,258701,1,0,0:0:0:0:
256,192,258776,1,8,0:0:0:0:
256,192,258851,1,8,0:0:0:0:
256,192,258926,1,0,0:0:0:0:
256,192,259076,1,8,0:0:0:0:
256,192,259151,1,8,0:0:0:0:
256,192,259226,1,0,0:0:0:0:
256,192,259301,1,0,0:0:0:0:
256,192,259376,1,8,0:0:0:0:
256,192,259526,1,0,0:0:0:0:
256,192,259676,1,8,0:0:0:0:
256,192,259826,1,0,0:0:0:0:
256,192,259901,1,8,0:0:0:0:
256,192,259976,1,0,0:0:0:0:
256,192,260051,1,0,0:0:0:0:
256,192,260126,1,8,0:0:0:0:
256,192,260276,1,0,0:0:0:0:
256,192,260351,1,0,0:0:0:0:
256,192,260426,1,8,0:0:0:0:
256,192,260576,1,0,0:0:0:0:
256,192,260651,1,8,0:0:0:0:
256,192,260726,1,8,0:0:0:0:
256,192,260801,1,0,0:0:0:0:
256,192,260876,1,8,0:0:0:0:
256,192,261026,1,0,0:0:0:0:
256,192,261101,1,0,0:0:0:0:
256,192,261176,1,0,0:0:0:0:
256,192,261326,1,8,0:0:0:0:
256,192,261476,1,0,0:0:0:0:
256,192,261551,1,0,0:0:0:0:
256,192,261626,1,8,0:0:0:0:
256,192,261701,1,0,0:0:0:0:
256,192,261776,1,8,0:0:0:0:
256,192,261926,1,0,0:0:0:0:
256,192,262076,1,8,0:0:0:0:
256,192,262226,1,8,0:0:0:0:
256,192,262376,1,0,0:0:0:0:
256,192,262451,1,0,0:0:0:0:
256,192,262526,1,8,0:0:0:0:
256,192,262676,1,0,0:0:0:0:
256,192,262751,1,8,0:0:0:0:
256,192,262826,1,0,0:0:0:0:
256,192,262976,1,8,0:0:0:0:
256,192,263051,1,0,0:0:0:0:
256,192,263126,1,8,0:0:0:0:
256,192,263201,1,8,0:0:0:0:
256,192,263276,1,0,0:0:0:0:
256,192,263426,1,8,0:0:0:0:
256,192,263501,1,0,0:0:0:0:
256,192,263576,1,0,0:0:0:0:
256,192,263651,1,8,0:0:0:0:
256,192,263726,1,8,0:0:0:0:
256,192,263876,1,0,0:0:0:0:
256,192,263951,1,0,0:0:0:0:
256,192,264026,1,8,0:0:0:0:
256,192,264101,1,0,0:0:0:0:
256,192,264176,1,8,0:0:0:0:
256,192,264326,1,0,0:0:0:0:
256,192,264476,1,8,0:0:0:0:
256,192,264626,1,8,0:0:0:0:
256,192,264776,1,0,0:0:0:0:
256,192,264851,1,8,0:0:0:0:
256,192,264926,1,8,0:0:0:0:
256,192,265076,1,0,0:0:0:0:
256,192,265151,1,0,0:0:0:0:
256,192,265226,1,0,0:0:0:0:
256,192,265376,1,8,0:0:0:0:
256,192,265451,1,0,0:0:0:0:
256,192,265526,1,8,0:0:0:0:
256,192,265601,1,8,0:0:0:0:
256,192,265676,1,0,0:0:0:0:
256,192,265826,1,8,0:0:0:0:
256,192,265901,1,0,0:0:0:0:
256,192,265976,1,0,0:0:0:0:
256,192,266051,1,0,0:0:0:0:
256,192,266126,1,8,0:0:0:0:
256,192,266276,1,0,0:0:0:0:
256,192,266351,1,0,0:0:0:0:
256,192,266426,1,8,0:0:0:0:
256,192,266501,1,0,0:0:0:0:
256,192,266576,1,8,0:0:0:0:
256,192,266726,1,0,0:0:0:0:
256,192,266876,1,8,0:0:0:0:
256,192,267026,1,8,0:0:0:0:
256,192,267176,1,0,0:0:0:0:
256,192,267251,1,0,0:0:0:0:
256,192,267326,1,8,0:0:0:0:
256,192,267476,1,0,0:0:0:0:
256,192,267551,1,0,0:0:0:0:
256,192,267626,1,0,0:0:0:0:
256,192,267776,1,8,0:0:0:0:
256,192,268076,1,4,0:0:0:0:
256,192,268226,1,8,0:0:0:0:
256,192,268301,1,8,0:0:0:0:
256,192,268376,1,0,0:0:0:0:
256,192,268451,1,0,0:0:0:0:
256,192,268526,1,0,0:0:0:0:
256,192,268601,1,0,0:0:0:0:
256,192,268676,1,8,0:0:0:0:
256,192,268826,1,0,0:0:0:0:
256,192,268901,1,0,0:0:0:0:
256,192,268976,1,8,0:0:0:0:
256,192,269051,1,0,0:0:0:0:
256,192,269126,1,8,0:0:0:0:
256,192,269201,1,8,0:0:0:0:
256,192,269276,1,0,0:0:0:0:
256,192,269426,1,8,0:0:0:0:
256,192,269501,1,0,0:0:0:0:
256,192,269576,1,8,0:0:0:0:
256,192,269651,1,8,0:0:0:0:
256,192,269726,1,0,0:0:0:0:
256,192,269801,1,8,0:0:0:0:
256,192,269876,1,0,0:0:0:0:
256,192,270026,1,8,0:0:0:0:
256,192,270101,1,8,0:0:0:0:
256,192,270176,1,0,0:0:0:0:
256,192,270251,1,8,0:0:0:0:
256,192,270326,1,8,0:0:0:0:
256,192,270401,1,8,0:0:0:0:
256,192,270476,1,0,0:0:0:0:
256,192,270626,1,0,0:0:0:0:
256,192,270701,1,8,0:0:0:0:
256,192,270776,1,8,0:0:0:0:
256,192,270851,1,0,0:0:0:0:
256,192,270926,1,8,0:0:0:0:
256,192,271001,1,8,0:0:0:0:
256,192,271076,1,0,0:0:0:0:
256,192,271226,1,8,0:0:0:0:
256,192,271301,1,8,0:0:0:0:
256,192,271376,1,0,0:0:0:0:
256,192,271451,1,0,0:0:0:0:
256,192,271526,1,8,0:0:0:0:
256,192,271601,1,8,0:0:0:0:
256,192,271676,1,0,0:0:0:0:
256,192,271826,1,8,0:0:0:0:
256,192,271901,1,0,0:0:0:0:
256,192,271976,1,8,0:0:0:0:
256,192,272051,1,8,0:0:0:0:
256,192,272126,1,0,0:0:0:0:
256,192,272201,1,8,0:0:0:0:
256,192,272276,1,0,0:0:0:0:
256,192,272426,1,8,0:0:0:0:
256,192,272501,1,0,0:0:0:0:
256,192,272576,1,0,0:0:0:0:
256,192,272651,1,0,0:0:0:0:
256,192,272726,1,8,0:0:0:0:
256,192,272801,1,8,0:0:0:0:
256,192,272876,1,0,0:0:0:0:
256,192,273026,1,8,0:0:0:0:
256,192,273101,1,0,0:0:0:0:
256,192,273176,1,8,0:0:0:0:
256,192,273251,1,8,0:0:0:0:
256,192,273326,1,8,0:0:0:0:
256,192,273401,1,8,0:0:0:0:
256,192,273476,1,0,0:0:0:0:
256,192,273626,1,8,0:0:0:0:
256,192,273701,1,8,0:0:0:0:
256,192,273776,1,0,0:0:0:0:
256,192,273851,1,0,0:0:0:0:
256,192,273926,1,0,0:0:0:0:
256,192,274001,1,0,0:0:0:0:
256,192,274076,1,8,0:0:0:0:
256,192,274226,1,0,0:0:0:0:
256,192,274301,1,8,0:0:0:0:
256,192,274376,1,8,0:0:0:0:
256,192,274451,1,8,0:0:0:0:
256,192,274526,1,0,0:0:0:0:
256,192,274601,1,0,0:0:0:0:
256,192,274676,1,8,0:0:0:0:
256,192,274826,1,0,0:0:0:0:
256,192,274901,1,0,0:0:0:0:
256,192,274976,1,8,0:0:0:0:
256,192,275051,1,0,0:0:0:0:
256,192,275126,1,8,0:0:0:0:
256,192,275201,1,8,0:0:0:0:
256,192,275276,1,0,0:0:0:0:
256,192,275426,1,8,0:0:0:0:
256,192,275501,1,0,0:0:0:0:
256,192,275576,1,8,0:0:0:0:
256,192,275651,1,8,0:0:0:0:
256,192,275726,1,0,0:0:0:0:
256,192,275801,1,8,0:0:0:0:
256,192,275876,1,0,0:0:0:0:
256,192,276026,1,8,0:0:0:0:
256,192,276101,1,8,0:0:0:0:
256,192,276176,1,0,0:0:0:0:
256,192,276251,1,0,0:0:0:0:
256,192,276326,1,8,0:0:0:0:
256,192,276401,1,8,0:0:0:0:
256,192,276476,1,4,0:0:0:0:
256,192,276626,12,0,277526,0:0:0:0:
256,192,277676,5,4,0:0:0:0:
256,192,277826,1,8,0:0:0:0:
256,192,277901,1,8,0:0:0:0:
256,192,277976,1,8,0:0:0:0:
256,192,278126,1,0,0:0:0:0:
256,192,278201,1,8,0:0:0:0:
256,192,278276,1,0,0:0:0:0:
256,192,278426,1,8,0:0:0:0:
256,192,278501,1,8,0:0:0:0:
256,192,278576,1,0,0:0:0:0:
256,192,278726,1,8,0:0:0:0:
256,192,278801,1,8,0:0:0:0:
256,192,278876,1,8,0:0:0:0:
256,192,279026,1,0,0:0:0:0:
256,192,279101,1,0,0:0:0:0:
256,192,279176,1,0,0:0:0:0:
256,192,279326,1,8,0:0:0:0:
256,192,279401,1,8,0:0:0:0:
256,192,279476,1,8,0:0:0:0:
256,192,279626,1,0,0:0:0:0:
256,192,279701,1,0,0:0:0:0:
256,192,279776,1,8,0:0:0:0:
256,192,280076,1,0,0:0:0:0:
256,192,280226,1,8,0:0:0:0:
256,192,280301,1,8,0:0:0:0:
256,192,280376,1,0,0:0:0:0:
256,192,280526,1,8,0:0:0:0:
256,192,280601,1,0,0:0:0:0:
256,192,280676,1,8,0:0:0:0:
256,192,280826,1,0,0:0:0:0:
256,192,280901,1,8,0:0:0:0:
256,192,280976,1,0,0:0:0:0:
256,192,281126,1,8,0:0:0:0:
256,192,281201,1,8,0:0:0:0:
256,192,281276,1,0,0:0:0:0:
256,192,281426,1,8,0:0:0:0:
256,192,281501,1,8,0:0:0:0:
256,192,281576,1,8,0:0:0:0:
256,192,281726,1,0,0:0:0:0:
256,192,281801,1,0,0:0:0:0:
256,192,281876,1,0,0:0:0:0:
256,192,282026,1,8,0:0:0:0:
256,192,282101,1,0,0:0:0:0:
256,192,282176,1,8,0:0:0:0:
256,192,282476,1,8,0:0:0:0:
256,192,282626,1,0,0:0:0:0:
256,192,282701,1,0,0:0:0:0:
256,192,282776,1,0,0:0:0:0:
256,192,282926,1,8,0:0:0:0:
256,192,283001,1,8,0:0:0:0:
256,192,283076,1,0,0:0:0:0:
256,192,283226,1,8,0:0:0:0:
256,192,283301,1,0,0:0:0:0:
256,192,283376,1,0,0:0:0:0:
256,192,283526,1,8,0:0:0:0:
256,192,283601,1,0,0:0:0:0:
256,192,283676,1,8,0:0:0:0:
256,192,283826,1,0,0:0:0:0:
256,192,283901,1,0,0:0:0:0:
256,192,283976,1,8,0:0:0:0:
256,192,284126,1,0,0:0:0:0:
256,192,284201,1,0,0:0:0:0:
256,192,284276,1,0,0:0:0:0:
256,192,284426,1,8,0:0:0:0:
256,192,284501,1,8,0:0:0:0:
256,192,284576,1,0,0:0:0:0:
256,192,284876,1,8,0:0:0:0:
256,192,285026,1,0,0:0:0:0:
256,192,285101,1,8,0:0:0:0:
256,192,285176,1,8,0:0:0:0:
256,192,285326,1,0,0:0:0:0:
256,192,285401,1,0,0:0:0:0:
256,192,285476,1,0,0:0:0:0:
256,192,285626,1,8,0:0:0:0:
256,192,285701,1,8,0:0:0:0:
256,192,285776,1,0,0:0:0:0:
256,192,285926,1,8,0:0:0:0:
256,192,286001,1,8,0:0:0:0:
256,192,286076,1,8,0:0:0:0:
256,192,286226,5,0,0:0:0:0:
256,192,286301,1,0,0:0:0:0:
256,192,286376,1,8,0:0:0:0:
256,192,286526,1,0,0:0:0:0:
256,192,286601,1,8,0:0:0:0:
256,192,286676,1,0,0:0:0:0:
256,192,286826,1,8,0:0:0:0:
256,192,286901,1,0,0:0:0:0:
256,192,286976,1,8,0:0:0:0:
256,192,287276,1,4,0:0:0:0:
256,192,287426,1,8,0:0:0:0:
256,192,287501,1,8,0:0:0:0:
256,192,287576,1,0,0:0:0:0:
256,192,287651,1,8,0:0:0:0:
256,192,287726,1,0,0:0:0:0:
256,192,287801,1,0,0:0:0:0:
256,192,287876,1,8,0:0:0:0:
256,192,288026,1,0,0:0:0:0:
256,192,288101,1,0,0:0:0:0:
256,192,288176,1,8,0:0:0:0:
256,192,288251,1,0,0:0:0:0:
256,192,288326,1,0,0:0:0:0:
256,192,288401,1,0,0:0:0:0:
256,192,288476,1,8,0:0:0:0:
256,192,288626,1,0,0:0:0:0:
256,192,288701,1,0,0:0:0:0:
256,192,288776,1,8,0:0:0:0:
256,192,288851,1,8,0:0:0:0:
256,192,288926,1,0,0:0:0:0:
256,192,289001,1,8,0:0:0:0:
256,192,289076,1,0,0:0:0:0:
256,192,289226,1,8,0:0:0:0:
256,192,289301,1,0,0:0:0:0:
256,192,289376,1,0,0:0:0:0:
256,192,289451,1,0,0:0:0:0:
256,192,289526,1,8,0:0:0:0:
256,192,289601,1,8,0:0:0:0:
256,192,289676,1,0,0:0:0:0:
256,192,289826,1,0,0:0:0:0:
256,192,289901,1,0,0:0:0:0:
256,192,289976,1,8,0:0:0:0:
256,192,290051,1,0,0:0:0:0:
256,192,290126,1,8,0:0:0:0:
256,192,290201,1,8,0:0:0:0:
256,192,290276,1,0,0:0:0:0:
256,192,290426,1,8,0:0:0:0:
256,192,290501,1,8,0:0:0:0:
256,192,290576,1,0,0:0:0:0:
256,192,290651,1,0,0:0:0:0:
256,192,290726,1,8,0:0:0:0:
256,192,290801,1,8,0:0:0:0:
256,192,290876,1,0,0:0:0:0:
256,192,291026,1,8,0:0:0:0:
256,192,291101,1,0,0:0:0:0:
256,192,291176,1,8,0:0:0:0:
256,192,291251,1,8,0:0:0:0:
256,192,291326,1,0,0:0:0:0:
256,192,291401,1,8,0:0:0:0:
256,192,291476,1,0,0:0:0:0:
256,192,291626,1,8,0:0:0:0:
256,192,291701,1,0,0:0:0:0:
256,192,291776,1,0,0:0:0:0:
256,192,291851,1,8,0:0:0:0:
256,192,291926,1,0,0:0:0:0:
256,192,292001,1,0,0:0:0:0:
256,192,292076,1,8,0:0:0:0:
256,192,292226,1,0,0:0:0:0:
256,192,292301,1,0,0:0:0:0:
256,192,292376,1,8,0:0:0:0:
256,192,292451,1,8,0:0:0:0:
256,192,292526,1,8,0:0:0:0:
256,192,292601,1,8,0:0:0:0:
256,192,292676,1,0,0:0:0:0:
256,192,292826,1,8,0:0:0:0:
256,192,292901,1,8,0:0:0:0:
256,192,292976,1,0,0:0:0:0:
256,192,293051,1,0,0:0:0:0:
256,192,293126,1,8,0:0:0:0:
256,192,293201,1,0,0:0:0:0:
256,192,293276,1,8,0:0:0:0:
256,192,293426,1,0,0:0:0:0:
256,192,293501,1,8,0:0:0:0:
256,192,293576,1,8,0:0:0:0:
256,192,293651,1,8,0:0:0:0:
256,192,293726,1,0,0:0:0:0:
256,192,293801,1,0,0:0:0:0:
256,192,293876,1,8,0:0:0:0:
256,192,294026,1,0,0:0:0:0:
256,192,294101,1,8,0:0:0:0:
256,192,294176,1,8,0:0:0:0:
256,192,294251,1,0,0:0:0:0:
256,192,294326,1,8,0:0:0:0:
256,192,294401,1,8,0:0:0:0:
256,192,294476,1,0,0:0:0:0:
256,192,294626,1,8,0:0:0:0:
256,192,294701,1,0,0:0:0:0:
256,192,294776,1,8,0:0:0:0:
256,192,294851,1,8,0:0:0:0:
256,192,294926,1,0,0:0:0:0:
256,192,295001,1,8,0:0:0:0:
256,192,295076,1,0,0:0:0:0:
256,192,295226,1,8,0:0:0:0:
256,192,295301,1,8,0:0:0:0:
256,192,295376,1,0,0:0:0:0:
256,192,295451,1,0,0:0:0:0:
256,192,295526,1,8,0:0:0:0:
256,192,295601,1,8,0:0:0:0:
256,192,295676,1,4,0:0:0:0:
256,192,296876,5,4,0:0:0:0:
256,192,297026,12,0,300476,0:0:0:0:
