osu file format v14

[General]
AudioFilename: audio.mp3
AudioLeadIn: 0
PreviewTime: 240030
Countdown: 0
SampleSet: Normal
StackLeniency: 0.7
Mode: 1
LetterboxInBreaks: 0
WidescreenStoryboard: 1

[Editor]
Bookmarks: 21780,31380,74580,84180,94980,104580,114180,123780,133380,152580,162180,171780,181380,190980,200580,210180,219780,249780
DistanceSpacing: 0.8
BeatDivisor: 4
GridSize: 8
TimelineZoom: 1.8

[Metadata]
Title:TatsumiyaTEK #02
TitleUnicode:TatsumiyaTEK #02
Artist:Hayakore Tatsumi
ArtistUnicode:Hayakore Tatsumi
Creator:-Kazuha
Version:Inner Oni
Source:
Tags:japanese electronic anime tamolarm 速核巽 hardcore nerdcore jcore j-core jaycore remix bootleg techno ultimatemegas mashup
BeatmapID:4256007
BeatmapSetID:2028627

[Difficulty]
HPDrainRate:5
CircleSize:5
OverallDifficulty:7
ApproachRate:5
SliderMultiplier:1.4
SliderTickRate:1

[Events]
//Background and Video events
0,0,"black_wing.jpg",0,100
//Break Periods
2,51980,60180
//Storyboard Layer 0 (Background)
//Storyboard Layer 1 (Fail)
//Storyboard Layer 2 (Pass)
//Storyboard Layer 3 (Foreground)
//Storyboard Layer 4 (Overlay)
//Storyboard Sound Samples

[TimingPoints]
9780,300,4,1,0,40,1,0
10830,-100,4,1,0,40,0,0
12180,300,4,1,0,70,1,0
12180,-76.9230769230769,4,1,0,70,0,0
12330,-100,4,1,0,70,0,0
51780,300,4,1,0,70,1,0
51780,-80,4,1,0,70,0,0
51817,-80,4,1,0,30,0,0
52980,-90.9090909090909,4,1,0,30,0,0
54180,-95.2380952380952,4,1,0,30,0,0
55380,-100,4,1,0,30,0,0
56580,-105.263157894737,4,1,0,30,0,0
57780,-111.111111111111,4,1,0,30,0,0
58980,-117.647058823529,4,1,0,30,0,0
60180,-125,4,1,0,30,0,0
61377,-133.333333333333,4,1,0,70,0,0
63777,-124.137931034483,4,1,0,70,0,0
66177,-116.129032258065,4,1,0,70,0,0
67377,-112.5,4,1,0,70,0,0
68577,-109.090909090909,4,1,0,70,0,0
69177,-107.462686567164,4,1,0,70,0,0
69777,-105.882352941176,4,1,0,70,0,0
70077,-105.109489051095,4,1,0,70,0,0
70377,-104.347826086957,4,1,0,70,0,0
70677,-103.597122302158,4,1,0,70,0,0
70977,-102.857142857143,4,1,0,70,0,0
71052,-102.673796791444,4,1,0,70,0,0
71127,-102.491103202847,4,1,0,70,0,0
71277,-102.127659574468,4,1,0,70,0,0
71352,-101.946902654867,4,1,0,70,0,0
71427,-101.766784452297,4,1,0,70,0,0
71577,-101.408450704225,4,1,0,70,0,0
71652,-101.230228471002,4,1,0,70,0,0
71727,-101.052631578947,4,1,0,70,0,0
71802,-100.875656742557,4,1,0,70,0,0
71877,-100.699300699301,4,1,0,70,0,0
71952,-100.523560209424,4,1,0,70,0,0
72027,-100.348432055749,4,1,0,70,0,0
72102,-100.173913043478,4,1,0,70,0,0
72177,-100,4,1,0,70,0,0
74580,300,4,1,0,70,1,0
74580,-100,4,1,0,70,0,0
94980,300,4,1,0,65,1,0
94980,-100,4,1,0,65,0,0
128580,-100,4,1,0,75,0,0
129780,-133.333333333333,4,1,0,75,0,0
130977,-125,4,1,0,75,0,0
131577,-117.647058823529,4,1,0,75,0,0
132177,-111.111111111111,4,1,0,75,0,0
132327,-109.58904109589,4,1,0,75,0,0
132477,-108.108108108108,4,1,0,75,0,0
132777,-105.263157894737,4,1,0,75,0,0
132852,-104.575163398693,4,1,0,75,0,0
132927,-103.896103896104,4,1,0,75,0,0
133002,-103.225806451613,4,1,0,75,0,0
133077,-102.564102564103,4,1,0,75,0,0
133152,-101.910828025478,4,1,0,75,0,0
133227,-101.26582278481,4,1,0,75,0,0
133302,-100.62893081761,4,1,0,75,0,0
133380,-100,4,1,0,85,0,1
151380,-100,4,1,0,70,0,0
210180,-100,4,1,0,85,0,1
229380,-100,4,1,0,70,0,0
234180,-117.647058823529,4,1,0,60,0,0
240180,300,4,1,0,85,1,1
240180,-100,4,1,0,85,0,1
259380,-100,4,1,0,70,0,0
298980,300,4,1,0,70,1,0
298980,-80,4,1,0,70,0,0
299055,-12.8700128700129,4,1,0,70,0,0
299280,-100,4,1,0,70,0,0
300180,-100,4,1,0,60,0,0
301380,-100,4,1,0,50,0,0
302580,-100,4,1,0,40,0,0
303780,-100,4,1,0,30,0,0
304980,-100,4,1,0,20,0,0
306180,-100,4,1,0,10,0,0
307380,-100,4,1,0,7,0,0
309780,-100,4,1,0,5,0,0

[HitObjects]
256,192,10830,12,0,12030,0:0:0:0:
96,317,12180,5,12,0:0:0:0:
80,82,12330,1,0,0:0:0:0:
80,82,12480,1,8,0:0:0:0:
173,68,12630,1,0,0:0:0:0:
173,68,12705,1,0,0:0:0:0:
173,68,12780,1,8,0:0:0:0:
186,74,12930,1,0,0:0:0:0:
186,74,13080,1,8,0:0:0:0:
131,37,13155,1,8,0:0:0:0:
186,74,13230,1,0,0:0:0:0:
192,1,13380,1,8,0:0:0:0:
192,1,13530,1,0,0:0:0:0:
192,1,13680,1,8,0:0:0:0:
192,1,13755,1,0,0:0:0:0:
192,1,13830,1,0,0:0:0:0:
192,1,13980,1,8,0:0:0:0:
121,210,14055,1,0,0:0:0:0:
192,1,14130,1,8,0:0:0:0:
192,1,14205,1,8,0:0:0:0:
192,1,14280,1,0,0:0:0:0:
192,1,14430,1,8,0:0:0:0:
160,15,14580,1,0,0:0:0:0:
160,15,14655,1,0,0:0:0:0:
160,15,14730,1,8,0:0:0:0:
160,15,14880,1,0,0:0:0:0:
160,15,15030,1,8,0:0:0:0:
181,13,15105,1,8,0:0:0:0:
160,15,15180,1,0,0:0:0:0:
193,56,15255,1,0,0:0:0:0:
160,15,15330,1,8,0:0:0:0:
160,15,15480,1,0,0:0:0:0:
127,33,15630,1,8,0:0:0:0:
169,78,15780,1,0,0:0:0:0:
169,78,15855,1,0,0:0:0:0:
173,42,15930,1,8,0:0:0:0:
169,78,16080,1,8,0:0:0:0:
169,78,16230,1,0,0:0:0:0:
169,78,16380,1,0,0:0:0:0:
169,78,16455,1,0,0:0:0:0:
169,78,16530,1,8,0:0:0:0:
169,78,16605,1,0,0:0:0:0:
169,78,16680,1,8,0:0:0:0:
169,78,16755,1,8,0:0:0:0:
169,78,16830,1,8,0:0:0:0:
169,78,16905,1,0,0:0:0:0:
169,78,16980,1,8,0:0:0:0:
80,82,17130,1,0,0:0:0:0:
80,82,17280,1,8,0:0:0:0:
173,68,17430,1,0,0:0:0:0:
173,68,17505,1,0,0:0:0:0:
173,68,17580,1,8,0:0:0:0:
186,74,17730,1,0,0:0:0:0:
186,74,17880,1,8,0:0:0:0:
131,37,17955,1,8,0:0:0:0:
186,74,18030,1,0,0:0:0:0:
192,1,18180,1,8,0:0:0:0:
192,1,18330,1,0,0:0:0:0:
192,1,18480,1,8,0:0:0:0:
192,1,18555,1,0,0:0:0:0:
192,1,18630,1,0,0:0:0:0:
192,1,18780,1,8,0:0:0:0:
192,1,18855,1,0,0:0:0:0:
192,1,18930,1,8,0:0:0:0:
192,1,19005,1,8,0:0:0:0:
192,1,19080,1,0,0:0:0:0:
192,1,19230,1,8,0:0:0:0:
160,15,19380,1,0,0:0:0:0:
160,15,19455,1,0,0:0:0:0:
160,15,19530,1,8,0:0:0:0:
160,15,19680,1,0,0:0:0:0:
160,15,19830,1,8,0:0:0:0:
181,13,19905,1,8,0:0:0:0:
160,15,19980,1,0,0:0:0:0:
193,56,20055,1,0,0:0:0:0:
160,15,20130,1,8,0:0:0:0:
160,15,20280,1,0,0:0:0:0:
127,33,20430,1,8,0:0:0:0:
169,78,20580,1,0,0:0:0:0:
169,78,20655,1,0,0:0:0:0:
173,42,20730,1,8,0:0:0:0:
169,78,20880,1,8,0:0:0:0:
169,78,21030,1,0,0:0:0:0:
169,78,21180,1,8,0:0:0:0:
169,78,21330,1,8,0:0:0:0:
169,78,21405,1,0,0:0:0:0:
169,78,21480,1,8,0:0:0:0:
169,78,21630,1,8,0:0:0:0:
96,317,21780,5,4,0:0:0:0:
80,82,21930,1,0,0:0:0:0:
80,82,22080,1,8,0:0:0:0:
173,68,22230,1,0,0:0:0:0:
173,68,22305,1,0,0:0:0:0:
173,68,22380,1,8,0:0:0:0:
186,74,22530,1,0,0:0:0:0:
186,74,22680,1,8,0:0:0:0:
131,37,22755,1,8,0:0:0:0:
186,74,22830,1,0,0:0:0:0:
192,1,22980,1,8,0:0:0:0:
192,1,23130,1,0,0:0:0:0:
192,1,23280,1,8,0:0:0:0:
192,1,23355,1,0,0:0:0:0:
192,1,23430,1,0,0:0:0:0:
192,1,23505,1,0,0:0:0:0:
192,1,23580,1,8,0:0:0:0:
192,1,23730,1,8,0:0:0:0:
192,1,23805,1,8,0:0:0:0:
192,1,23880,1,0,0:0:0:0:
192,1,24030,1,8,0:0:0:0:
160,15,24180,1,0,0:0:0:0:
160,15,24255,1,0,0:0:0:0:
160,15,24330,1,8,0:0:0:0:
160,15,24480,1,0,0:0:0:0:
160,15,24630,1,8,0:0:0:0:
181,13,24705,1,8,0:0:0:0:
160,15,24780,1,0,0:0:0:0:
193,56,24855,1,0,0:0:0:0:
160,15,24930,1,8,0:0:0:0:
160,15,25080,1,0,0:0:0:0:
127,33,25230,1,8,0:0:0:0:
169,78,25380,1,0,0:0:0:0:
169,78,25455,1,0,0:0:0:0:
173,42,25530,1,8,0:0:0:0:
169,78,25680,1,8,0:0:0:0:
169,78,25830,1,0,0:0:0:0:
169,78,25980,1,8,0:0:0:0:
169,78,26055,1,8,0:0:0:0:
169,78,26130,1,0,0:0:0:0:
169,78,26205,1,8,0:0:0:0:
169,78,26280,1,0,0:0:0:0:
169,78,26355,1,0,0:0:0:0:
169,78,26430,1,8,0:0:0:0:
169,78,26580,1,4,0:0:0:0:
80,82,26730,1,0,0:0:0:0:
80,82,26880,1,8,0:0:0:0:
173,68,27030,1,0,0:0:0:0:
173,68,27105,1,0,0:0:0:0:
173,68,27180,1,8,0:0:0:0:
186,74,27330,1,0,0:0:0:0:
186,74,27480,1,8,0:0:0:0:
131,37,27555,1,8,0:0:0:0:
186,74,27630,1,0,0:0:0:0:
192,1,27780,1,4,0:0:0:0:
192,1,27930,1,0,0:0:0:0:
192,1,28080,1,8,0:0:0:0:
192,1,28155,1,0,0:0:0:0:
192,1,28230,1,0,0:0:0:0:
192,1,28305,1,0,0:0:0:0:
192,1,28380,1,8,0:0:0:0:
192,1,28530,1,8,0:0:0:0:
192,1,28605,1,8,0:0:0:0:
192,1,28680,1,0,0:0:0:0:
192,1,28830,1,8,0:0:0:0:
160,15,28980,1,0,0:0:0:0:
160,15,29055,1,0,0:0:0:0:
160,15,29130,1,8,0:0:0:0:
160,15,29280,1,0,0:0:0:0:
160,15,29430,1,8,0:0:0:0:
160,15,29580,1,0,0:0:0:0:
193,56,29655,1,0,0:0:0:0:
160,15,29730,1,8,0:0:0:0:
181,13,29805,1,8,0:0:0:0:
160,15,29880,1,0,0:0:0:0:
127,33,30030,1,8,0:0:0:0:
169,78,30180,1,0,0:0:0:0:
169,78,30255,1,0,0:0:0:0:
173,42,30330,1,8,0:0:0:0:
223,100,30405,1,0,0:0:0:0:
169,78,30480,1,8,0:0:0:0:
223,100,30555,1,8,0:0:0:0:
169,78,30630,1,0,0:0:0:0:
223,100,30705,1,0,0:0:0:0:
169,78,30780,1,8,0:0:0:0:
223,100,30855,1,0,0:0:0:0:
169,78,30930,1,8,0:0:0:0:
169,78,31005,1,8,0:0:0:0:
169,78,31080,1,8,0:0:0:0:
223,100,31155,1,0,0:0:0:0:
169,78,31230,1,8,0:0:0:0:
96,317,31380,5,4,0:0:0:0:
80,82,31530,1,0,0:0:0:0:
80,82,31680,1,8,0:0:0:0:
173,68,31830,1,0,0:0:0:0:
173,68,31905,1,0,0:0:0:0:
173,68,31980,1,8,0:0:0:0:
186,74,32130,1,0,0:0:0:0:
186,74,32280,1,8,0:0:0:0:
131,37,32355,1,8,0:0:0:0:
186,74,32430,1,0,0:0:0:0:
192,1,32580,1,8,0:0:0:0:
192,1,32730,1,0,0:0:0:0:
192,1,32880,1,8,0:0:0:0:
192,1,32955,1,0,0:0:0:0:
192,1,33030,1,0,0:0:0:0:
345,4,33105,1,0,0:0:0:0:
192,1,33180,1,8,0:0:0:0:
121,210,33255,1,0,0:0:0:0:
192,1,33330,1,8,0:0:0:0:
192,1,33405,1,8,0:0:0:0:
192,1,33480,1,0,0:0:0:0:
192,1,33630,1,8,0:0:0:0:
160,15,33780,1,0,0:0:0:0:
160,15,33855,1,0,0:0:0:0:
160,15,33930,1,8,0:0:0:0:
160,15,34080,1,0,0:0:0:0:
160,15,34230,1,8,0:0:0:0:
181,13,34305,1,8,0:0:0:0:
160,15,34380,1,0,0:0:0:0:
193,56,34455,1,0,0:0:0:0:
160,15,34530,1,8,0:0:0:0:
160,15,34680,1,0,0:0:0:0:
127,33,34830,1,8,0:0:0:0:
169,78,34980,1,0,0:0:0:0:
169,78,35055,1,0,0:0:0:0:
173,42,35130,1,8,0:0:0:0:
169,78,35280,1,8,0:0:0:0:
144,98,35355,1,0,0:0:0:0:
169,78,35430,1,0,0:0:0:0:
169,78,35580,1,0,0:0:0:0:
169,78,35730,1,8,0:0:0:0:
169,78,35805,1,0,0:0:0:0:
169,78,35880,1,8,0:0:0:0:
169,78,35955,1,8,0:0:0:0:
169,78,36030,1,0,0:0:0:0:
169,78,36180,1,8,0:0:0:0:
133,20,36255,1,0,0:0:0:0:
80,82,36330,1,0,0:0:0:0:
80,82,36480,1,8,0:0:0:0:
173,68,36630,1,0,0:0:0:0:
173,68,36705,1,0,0:0:0:0:
173,68,36780,1,8,0:0:0:0:
186,74,36930,1,0,0:0:0:0:
186,74,37080,1,8,0:0:0:0:
131,37,37155,1,8,0:0:0:0:
186,74,37230,1,0,0:0:0:0:
192,1,37380,1,8,0:0:0:0:
192,1,37530,1,0,0:0:0:0:
192,1,37680,1,8,0:0:0:0:
192,1,37755,1,8,0:0:0:0:
192,1,37830,1,0,0:0:0:0:
161,23,37905,1,0,0:0:0:0:
192,1,37980,1,8,0:0:0:0:
192,1,38055,1,8,0:0:0:0:
192,1,38130,1,0,0:0:0:0:
192,1,38205,1,8,0:0:0:0:
192,1,38280,1,0,0:0:0:0:
192,1,38430,1,8,0:0:0:0:
160,15,38580,1,0,0:0:0:0:
160,15,38655,1,0,0:0:0:0:
160,15,38730,1,8,0:0:0:0:
160,15,38880,1,0,0:0:0:0:
160,15,39030,1,8,0:0:0:0:
181,13,39105,1,8,0:0:0:0:
160,15,39180,1,0,0:0:0:0:
193,56,39255,1,0,0:0:0:0:
160,15,39330,1,8,0:0:0:0:
160,15,39480,1,0,0:0:0:0:
127,33,39630,1,8,0:0:0:0:
169,78,39780,1,0,0:0:0:0:
169,78,39855,1,0,0:0:0:0:
173,42,39930,1,8,0:0:0:0:
169,78,40080,1,8,0:0:0:0:
161,23,40155,1,0,0:0:0:0:
169,78,40230,1,0,0:0:0:0:
169,78,40380,1,8,0:0:0:0:
169,78,40530,1,8,0:0:0:0:
169,78,40605,1,0,0:0:0:0:
169,78,40680,1,8,0:0:0:0:
169,78,40830,1,8,0:0:0:0:
96,317,40980,5,4,0:0:0:0:
80,82,41130,1,0,0:0:0:0:
80,82,41280,1,8,0:0:0:0:
173,68,41430,1,0,0:0:0:0:
173,68,41505,1,0,0:0:0:0:
173,68,41580,1,8,0:0:0:0:
186,74,41730,1,0,0:0:0:0:
186,74,41880,1,8,0:0:0:0:
131,37,41955,1,8,0:0:0:0:
186,74,42030,1,0,0:0:0:0:
192,1,42180,1,8,0:0:0:0:
192,1,42330,1,0,0:0:0:0:
192,1,42480,1,8,0:0:0:0:
192,1,42555,1,0,0:0:0:0:
192,1,42630,1,8,0:0:0:0:
192,1,42705,1,0,0:0:0:0:
192,1,42780,1,8,0:0:0:0:
160,20,42855,1,8,0:0:0:0:
192,1,42930,1,0,0:0:0:0:
192,1,43005,1,0,0:0:0:0:
192,1,43080,1,8,0:0:0:0:
192,1,43230,1,8,0:0:0:0:
160,15,43380,1,0,0:0:0:0:
160,15,43455,1,0,0:0:0:0:
160,15,43530,1,8,0:0:0:0:
160,15,43680,1,0,0:0:0:0:
160,15,43830,1,8,0:0:0:0:
181,13,43905,1,8,0:0:0:0:
160,15,43980,1,0,0:0:0:0:
193,56,44055,1,0,0:0:0:0:
160,15,44130,1,8,0:0:0:0:
160,15,44280,1,0,0:0:0:0:
127,33,44430,1,8,0:0:0:0:
169,78,44580,1,0,0:0:0:0:
169,78,44655,1,0,0:0:0:0:
173,42,44730,1,8,0:0:0:0:
169,78,44880,1,8,0:0:0:0:
160,20,44955,1,0,0:0:0:0:
169,78,45030,1,0,0:0:0:0:
169,78,45180,1,8,0:0:0:0:
169,78,45255,1,8,0:0:0:0:
169,78,45330,1,0,0:0:0:0:
169,78,45405,1,8,0:0:0:0:
169,78,45480,1,0,0:0:0:0:
169,78,45555,1,0,0:0:0:0:
169,78,45630,1,8,0:0:0:0:
169,78,45780,1,4,0:0:0:0:
80,82,45930,1,0,0:0:0:0:
80,82,46080,1,8,0:0:0:0:
173,68,46230,1,0,0:0:0:0:
173,68,46305,1,0,0:0:0:0:
173,68,46380,1,8,0:0:0:0:
194,148,46455,1,8,0:0:0:0:
186,74,46530,1,0,0:0:0:0:
186,74,46680,1,8,0:0:0:0:
131,37,46755,1,8,0:0:0:0:
186,74,46830,1,0,0:0:0:0:
192,1,46980,1,4,0:0:0:0:
192,1,47130,1,0,0:0:0:0:
192,1,47280,1,8,0:0:0:0:
192,1,47355,1,8,0:0:0:0:
192,1,47430,1,8,0:0:0:0:
192,1,47505,1,0,0:0:0:0:
192,1,47580,1,8,0:0:0:0:
160,20,47655,1,8,0:0:0:0:
192,1,47730,1,8,0:0:0:0:
192,1,47805,1,8,0:0:0:0:
192,1,47880,1,0,0:0:0:0:
192,1,48030,1,8,0:0:0:0:
160,15,48180,1,8,0:0:0:0:
160,15,48255,1,8,0:0:0:0:
160,15,48330,1,0,0:0:0:0:
188,19,48405,1,0,0:0:0:0:
160,15,48480,1,8,0:0:0:0:
188,19,48555,1,0,0:0:0:0:
160,15,48630,1,8,0:0:0:0:
181,13,48705,1,0,0:0:0:0:
160,15,48780,1,8,0:0:0:0:
193,56,48855,1,8,0:0:0:0:
160,15,48930,1,0,0:0:0:0:
188,19,49005,1,0,0:0:0:0:
160,15,49080,1,8,0:0:0:0:
188,19,49155,1,0,0:0:0:0:
127,33,49230,1,8,0:0:0:0:
188,19,49305,1,0,0:0:0:0:
169,78,49380,1,8,0:0:0:0:
169,78,49455,1,8,0:0:0:0:
173,42,49530,1,8,0:0:0:0:
223,100,49605,1,0,0:0:0:0:
169,78,49680,1,8,0:0:0:0:
223,100,49755,1,8,0:0:0:0:
169,78,49830,1,0,0:0:0:0:
223,100,49905,1,0,0:0:0:0:
169,78,49980,1,8,0:0:0:0:
223,100,50055,1,0,0:0:0:0:
169,78,50130,1,8,0:0:0:0:
169,78,50205,1,8,0:0:0:0:
169,78,50280,1,0,0:0:0:0:
223,100,50355,1,0,0:0:0:0:
169,78,50430,1,8,0:0:0:0:
160,20,50505,1,8,0:0:0:0:
146,51,50880,1,8,0:0:0:0:
146,51,51030,1,8,0:0:0:0:
146,51,51180,1,0,0:0:0:0:
203,5,51330,1,8,0:0:0:0:
203,5,51405,1,0,0:0:0:0:
203,5,51480,1,8,0:0:0:0:
203,5,51555,1,8,0:0:0:0:
203,5,51630,1,0,0:0:0:0:
184,68,51780,1,4,0:0:0:0:
195,67,61380,5,4,0:0:0:0:
218,45,63780,1,0,0:0:0:0:
158,243,66180,1,4,0:0:0:0:
180,124,67380,1,4,0:0:0:0:
112,41,68580,1,4,0:0:0:0:
183,43,69180,1,4,0:0:0:0:
183,43,69780,1,4,0:0:0:0:
169,57,70080,1,8,0:0:0:0:
183,43,70380,1,4,0:0:0:0:
169,57,70680,1,8,0:0:0:0:
183,43,70980,1,0,0:0:0:0:
169,57,71055,1,8,0:0:0:0:
169,57,71130,1,0,0:0:0:0:
183,43,71280,1,8,0:0:0:0:
169,57,71355,1,0,0:0:0:0:
169,57,71430,1,0,0:0:0:0:
183,43,71580,1,8,0:0:0:0:
141,38,71655,1,8,0:0:0:0:
141,38,71730,1,0,0:0:0:0:
141,38,71805,1,0,0:0:0:0:
183,43,71880,1,8,0:0:0:0:
141,38,71955,1,0,0:0:0:0:
141,38,72030,1,8,0:0:0:0:
141,38,72105,1,8,0:0:0:0:
183,43,72180,1,0,0:0:0:0:
256,192,72330,12,0,74430,0:0:0:0:
158,43,74580,5,4,0:0:0:0:
170,104,74730,1,0,0:0:0:0:
292,178,74805,1,8,0:0:0:0:
292,178,74880,1,0,0:0:0:0:
100,41,75030,1,0,0:0:0:0:
213,104,75180,1,8,0:0:0:0:
213,104,75255,1,8,0:0:0:0:
213,104,75330,1,0,0:0:0:0:
147,24,75405,1,0,0:0:0:0:
213,104,75480,1,8,0:0:0:0:
166,72,75630,1,0,0:0:0:0:
166,72,75780,1,8,0:0:0:0:
166,72,75930,1,0,0:0:0:0:
166,72,76005,1,0,0:0:0:0:
166,72,76080,1,8,0:0:0:0:
166,72,76230,1,0,0:0:0:0:
166,72,76380,1,8,0:0:0:0:
166,72,76455,1,8,0:0:0:0:
166,72,76530,1,0,0:0:0:0:
166,72,76605,1,0,0:0:0:0:
166,72,76680,1,8,0:0:0:0:
166,72,76830,1,0,0:0:0:0:
137,14,76980,1,8,0:0:0:0:
151,28,77130,1,0,0:0:0:0:
151,28,77205,1,0,0:0:0:0:
151,28,77280,1,8,0:0:0:0:
151,28,77430,1,0,0:0:0:0:
151,28,77580,1,8,0:0:0:0:
151,28,77655,1,8,0:0:0:0:
151,28,77730,1,8,0:0:0:0:
151,28,77805,1,0,0:0:0:0:
151,28,77880,1,8,0:0:0:0:
151,28,78030,1,0,0:0:0:0:
149,45,78180,1,8,0:0:0:0:
149,45,78330,1,0,0:0:0:0:
149,45,78405,1,0,0:0:0:0:
149,45,78480,1,8,0:0:0:0:
149,45,78555,1,8,0:0:0:0:
149,45,78630,1,0,0:0:0:0:
149,45,78780,1,8,0:0:0:0:
149,45,78855,1,8,0:0:0:0:
149,45,78930,1,0,0:0:0:0:
149,45,79005,1,0,0:0:0:0:
149,45,79080,1,8,0:0:0:0:
149,45,79155,1,0,0:0:0:0:
149,45,79230,1,8,0:0:0:0:
149,66,79380,1,0,0:0:0:0:
189,77,79530,1,8,0:0:0:0:
189,77,79605,1,8,0:0:0:0:
189,77,79680,1,0,0:0:0:0:
189,77,79830,1,0,0:0:0:0:
189,77,79980,1,8,0:0:0:0:
189,77,80055,1,8,0:0:0:0:
189,77,80130,1,8,0:0:0:0:
189,77,80205,1,0,0:0:0:0:
189,77,80280,1,8,0:0:0:0:
149,107,80430,1,0,0:0:0:0:
273,24,80580,1,8,0:0:0:0:
135,16,80730,1,0,0:0:0:0:
135,16,80805,1,0,0:0:0:0:
135,16,80880,1,8,0:0:0:0:
135,16,81030,1,0,0:0:0:0:
135,16,81105,1,0,0:0:0:0:
273,24,81180,1,8,0:0:0:0:
273,24,81255,1,8,0:0:0:0:
273,24,81330,1,0,0:0:0:0:
273,24,81480,1,8,0:0:0:0:
184,35,81630,1,0,0:0:0:0:
174,24,81780,1,8,0:0:0:0:
174,24,81855,1,8,0:0:0:0:
174,24,81930,1,0,0:0:0:0:
174,24,82005,1,0,0:0:0:0:
174,24,82080,1,8,0:0:0:0:
174,24,82230,1,0,0:0:0:0:
174,24,82380,1,8,0:0:0:0:
174,24,82455,1,8,0:0:0:0:
174,24,82530,1,8,0:0:0:0:
174,24,82605,1,0,0:0:0:0:
174,24,82680,1,8,0:0:0:0:
174,24,82830,1,0,0:0:0:0:
161,23,82980,1,8,0:0:0:0:
161,23,83055,1,0,0:0:0:0:
161,23,83130,1,0,0:0:0:0:
59,7,83205,1,0,0:0:0:0:
161,23,83280,1,8,0:0:0:0:
161,23,83430,1,0,0:0:0:0:
113,29,83505,1,0,0:0:0:0:
161,23,83580,1,8,0:0:0:0:
161,23,83655,1,8,0:0:0:0:
161,23,83730,1,0,0:0:0:0:
161,21,83805,1,0,0:0:0:0:
192,65,83880,1,8,0:0:0:0:
194,165,83955,1,0,0:0:0:0:
201,72,84030,1,8,0:0:0:0:
132,155,84180,1,4,0:0:0:0:
284,267,84330,1,8,0:0:0:0:
260,190,84480,1,0,0:0:0:0:
159,48,84555,1,0,0:0:0:0:
260,190,84630,1,8,0:0:0:0:
137,95,84705,1,8,0:0:0:0:
137,95,84780,1,0,0:0:0:0:
137,95,84930,1,8,0:0:0:0:
137,95,85080,1,8,0:0:0:0:
137,95,85155,1,0,0:0:0:0:
137,95,85230,1,0,0:0:0:0:
208,124,85380,1,8,0:0:0:0:
208,124,85530,1,0,0:0:0:0:
208,124,85605,1,0,0:0:0:0:
208,124,85680,1,8,0:0:0:0:
208,124,85830,1,0,0:0:0:0:
208,124,85980,1,8,0:0:0:0:
172,76,86055,1,8,0:0:0:0:
208,124,86130,1,0,0:0:0:0:
208,124,86205,1,0,0:0:0:0:
208,124,86280,1,8,0:0:0:0:
172,76,86430,1,0,0:0:0:0:
154,73,86580,1,8,0:0:0:0:
154,73,86655,1,8,0:0:0:0:
154,73,86730,1,0,0:0:0:0:
154,73,86880,1,8,0:0:0:0:
154,73,87030,1,0,0:0:0:0:
154,73,87180,1,8,0:0:0:0:
175,56,87255,1,0,0:0:0:0:
154,73,87330,1,0,0:0:0:0:
154,73,87405,1,8,0:0:0:0:
154,73,87480,1,0,0:0:0:0:
154,73,87630,1,8,0:0:0:0:
229,105,87780,1,0,0:0:0:0:
229,105,87930,1,8,0:0:0:0:
229,105,88005,1,8,0:0:0:0:
229,105,88155,1,8,0:0:0:0:
229,105,88230,1,0,0:0:0:0:
207,45,88380,1,8,0:0:0:0:
184,20,88455,1,8,0:0:0:0:
207,45,88530,1,0,0:0:0:0:
207,45,88605,1,0,0:0:0:0:
207,45,88680,1,8,0:0:0:0:
207,45,88755,1,0,0:0:0:0:
207,45,88830,1,8,0:0:0:0:
207,45,88980,1,4,0:0:0:0:
206,131,89130,1,8,0:0:0:0:
177,79,89280,1,0,0:0:0:0:
177,79,89430,1,0,0:0:0:0:
177,79,89505,1,0,0:0:0:0:
178,67,89580,1,8,0:0:0:0:
178,67,89655,1,0,0:0:0:0:
181,69,89730,1,0,0:0:0:0:
178,67,89880,1,8,0:0:0:0:
178,67,90030,1,8,0:0:0:0:
197,71,90180,1,4,0:0:0:0:
197,71,90330,1,0,0:0:0:0:
197,71,90405,1,0,0:0:0:0:
197,71,90480,1,8,0:0:0:0:
197,71,90630,1,0,0:0:0:0:
197,71,90780,1,8,0:0:0:0:
189,34,90855,1,8,0:0:0:0:
197,71,90930,1,0,0:0:0:0:
197,71,91005,1,0,0:0:0:0:
197,71,91080,1,8,0:0:0:0:
168,81,91230,1,8,0:0:0:0:
168,81,91380,1,8,0:0:0:0:
168,81,91455,1,0,0:0:0:0:
168,81,91530,1,0,0:0:0:0:
168,81,91680,1,8,0:0:0:0:
168,81,91830,1,0,0:0:0:0:
168,81,91980,1,8,0:0:0:0:
168,81,92055,1,8,0:0:0:0:
168,81,92130,1,0,0:0:0:0:
168,81,92205,1,8,0:0:0:0:
168,81,92280,1,0,0:0:0:0:
168,81,92430,1,8,0:0:0:0:
168,81,92580,1,0,0:0:0:0:
180,158,92655,1,0,0:0:0:0:
168,81,92730,1,0,0:0:0:0:
168,81,92805,1,8,0:0:0:0:
168,81,92880,1,0,0:0:0:0:
168,81,93030,1,0,0:0:0:0:
166,59,93180,1,8,0:0:0:0:
180,158,93255,1,8,0:0:0:0:
165,59,93330,1,0,0:0:0:0:
165,59,93405,1,0,0:0:0:0:
165,59,93480,1,8,0:0:0:0:
165,59,93630,1,0,0:0:0:0:
165,59,93780,1,0,0:0:0:0:
165,59,93855,1,0,0:0:0:0:
165,59,93930,1,8,0:0:0:0:
165,59,94005,1,0,0:0:0:0:
165,59,94080,1,8,0:0:0:0:
165,59,94155,1,8,0:0:0:0:
165,59,94230,1,0,0:0:0:0:
165,59,94305,1,8,0:0:0:0:
165,59,94380,1,0,0:0:0:0:
165,59,94455,1,0,0:0:0:0:
165,59,94530,1,8,0:0:0:0:
165,59,94605,1,0,0:0:0:0:
165,59,94680,1,8,0:0:0:0:
165,59,94755,1,8,0:0:0:0:
165,59,94830,1,0,0:0:0:0:
173,57,94905,1,8,0:0:0:0:
137,118,94980,1,0,0:0:0:0:
221,169,95130,1,8,0:0:0:0:
221,169,95205,1,8,0:0:0:0:
221,169,95280,1,0,0:0:0:0:
221,169,95430,1,8,0:0:0:0:
221,169,95580,1,0,0:0:0:0:
221,169,95730,1,8,0:0:0:0:
221,169,95805,1,0,0:0:0:0:
221,169,95880,1,0,0:0:0:0:
221,169,96030,1,8,0:0:0:0:
192,115,96180,1,0,0:0:0:0:
192,115,96330,1,8,0:0:0:0:
150,59,96405,1,8,0:0:0:0:
192,115,96480,1,0,0:0:0:0:
192,115,96630,1,8,0:0:0:0:
192,115,96780,1,0,0:0:0:0:
192,115,96855,1,0,0:0:0:0:
192,115,96930,1,8,0:0:0:0:
155,5,97005,1,8,0:0:0:0:
192,115,97080,1,0,0:0:0:0:
192,115,97230,1,8,0:0:0:0:
145,50,97380,1,0,0:0:0:0:
145,50,97530,1,8,0:0:0:0:
145,50,97605,1,8,0:0:0:0:
166,57,97680,1,0,0:0:0:0:
166,57,97830,1,8,0:0:0:0:
166,57,97980,1,0,0:0:0:0:
166,57,98130,1,0,0:0:0:0:
166,57,98205,1,8,0:0:0:0:
166,57,98280,1,0,0:0:0:0:
166,57,98430,1,8,0:0:0:0:
276,89,98580,1,0,0:0:0:0:
276,89,98730,1,8,0:0:0:0:
276,89,98805,1,8,0:0:0:0:
276,89,98880,1,0,0:0:0:0:
276,89,99030,1,0,0:0:0:0:
276,89,99105,1,0,0:0:0:0:
276,89,99180,1,8,0:0:0:0:
153,47,99255,1,0,0:0:0:0:
172,27,99330,1,8,0:0:0:0:
273,65,99405,1,8,0:0:0:0:
276,89,99480,1,0,0:0:0:0:
75,59,99555,1,0,0:0:0:0:
154,115,99630,1,8,0:0:0:0:
179,134,99780,1,0,0:0:0:0:
187,112,99930,1,0,0:0:0:0:
187,112,100005,1,8,0:0:0:0:
187,112,100080,1,0,0:0:0:0:
187,112,100230,1,8,0:0:0:0:
187,112,100380,1,0,0:0:0:0:
187,112,100530,1,8,0:0:0:0:
187,112,100605,1,0,0:0:0:0:
187,112,100680,1,0,0:0:0:0:
187,112,100830,1,8,0:0:0:0:
192,113,100980,1,0,0:0:0:0:
198,112,101130,1,8,0:0:0:0:
198,112,101205,1,8,0:0:0:0:
198,112,101280,1,0,0:0:0:0:
198,112,101430,1,8,0:0:0:0:
198,112,101580,1,0,0:0:0:0:
198,112,101730,1,8,0:0:0:0:
198,112,101805,1,0,0:0:0:0:
198,112,101880,1,8,0:0:0:0:
198,112,102030,1,8,0:0:0:0:
176,59,102180,1,0,0:0:0:0:
176,59,102330,1,8,0:0:0:0:
176,59,102405,1,0,0:0:0:0:
176,59,102480,1,0,0:0:0:0:
176,59,102630,1,8,0:0:0:0:
176,59,102780,1,0,0:0:0:0:
176,59,102930,1,8,0:0:0:0:
176,59,103005,1,0,0:0:0:0:
176,59,103080,1,0,0:0:0:0:
176,59,103155,1,0,0:0:0:0:
176,59,103230,1,8,0:0:0:0:
176,59,103380,1,0,0:0:0:0:
207,46,103530,1,0,0:0:0:0:
207,46,103605,1,0,0:0:0:0:
207,46,103680,1,8,0:0:0:0:
207,46,103755,1,0,0:0:0:0:
207,46,103830,1,8,0:0:0:0:
207,46,103905,1,8,0:0:0:0:
207,46,103980,1,0,0:0:0:0:
207,46,104055,1,0,0:0:0:0:
207,46,104130,1,8,0:0:0:0:
207,46,104205,1,0,0:0:0:0:
207,46,104280,1,8,0:0:0:0:
207,46,104580,1,0,0:0:0:0:
412,120,104730,1,0,0:0:0:0:
180,322,104805,1,8,0:0:0:0:
180,322,104880,1,0,0:0:0:0:
184,317,105030,1,8,0:0:0:0:
184,317,105180,1,0,0:0:0:0:
162,149,105330,1,0,0:0:0:0:
162,149,105405,1,0,0:0:0:0:
162,149,105480,1,8,0:0:0:0:
181,111,105630,1,0,0:0:0:0:
138,74,105780,1,8,0:0:0:0:
138,74,105930,1,8,0:0:0:0:
138,74,106005,1,0,0:0:0:0:
138,74,106080,1,8,0:0:0:0:
138,74,106230,1,0,0:0:0:0:
138,74,106380,1,8,0:0:0:0:
138,74,106530,1,0,0:0:0:0:
138,74,106605,1,0,0:0:0:0:
138,74,106680,1,8,0:0:0:0:
205,78,106830,1,0,0:0:0:0:
202,57,106980,1,8,0:0:0:0:
202,57,107130,1,8,0:0:0:0:
202,57,107205,1,0,0:0:0:0:
202,57,107280,1,0,0:0:0:0:
202,57,107430,1,8,0:0:0:0:
501,119,107505,1,0,0:0:0:0:
202,57,107580,1,8,0:0:0:0:
202,57,107730,1,0,0:0:0:0:
202,57,107805,1,0,0:0:0:0:
202,57,107880,1,8,0:0:0:0:
243,72,108030,1,0,0:0:0:0:
141,75,108180,1,8,0:0:0:0:
250,48,108330,1,8,0:0:0:0:
250,48,108405,1,0,0:0:0:0:
250,48,108480,1,8,0:0:0:0:
250,48,108555,1,8,0:0:0:0:
250,48,108630,1,0,0:0:0:0:
250,48,108780,1,8,0:0:0:0:
250,48,108930,1,8,0:0:0:0:
250,48,109005,1,0,0:0:0:0:
250,48,109080,1,8,0:0:0:0:
250,48,109230,1,0,0:0:0:0:
124,71,109380,1,4,0:0:0:0:
124,71,109530,1,0,0:0:0:0:
124,71,109605,1,8,0:0:0:0:
124,71,109680,1,0,0:0:0:0:
124,71,109830,1,0,0:0:0:0:
136,35,109980,1,8,0:0:0:0:
136,35,110055,1,0,0:0:0:0:
136,35,110130,1,0,0:0:0:0:
167,71,110280,1,8,0:0:0:0:
167,71,110355,1,8,0:0:0:0:
167,71,110430,1,0,0:0:0:0:
202,50,110580,1,4,0:0:0:0:
202,50,110730,1,0,0:0:0:0:
202,50,110805,1,0,0:0:0:0:
202,50,110880,1,8,0:0:0:0:
202,50,110955,1,8,0:0:0:0:
202,50,111030,1,0,0:0:0:0:
202,50,111180,1,8,0:0:0:0:
202,50,111255,1,8,0:0:0:0:
202,50,111330,1,0,0:0:0:0:
202,50,111480,1,8,0:0:0:0:
202,50,111630,1,0,0:0:0:0:
205,52,111780,1,8,0:0:0:0:
205,52,111855,1,0,0:0:0:0:
205,52,111930,1,0,0:0:0:0:
205,52,112005,1,8,0:0:0:0:
205,52,112080,1,0,0:0:0:0:
205,52,112230,1,0,0:0:0:0:
205,52,112380,1,8,0:0:0:0:
205,52,112455,1,8,0:0:0:0:
198,21,112530,1,0,0:0:0:0:
205,52,112605,1,0,0:0:0:0:
205,52,112680,1,8,0:0:0:0:
205,52,112830,1,0,0:0:0:0:
205,52,112980,1,8,0:0:0:0:
205,52,113055,1,8,0:0:0:0:
205,52,113130,1,0,0:0:0:0:
198,21,113205,1,0,0:0:0:0:
205,52,113280,1,8,0:0:0:0:
205,52,113355,1,0,0:0:0:0:
205,52,113430,1,0,0:0:0:0:
205,52,113505,1,0,0:0:0:0:
205,52,113580,1,8,0:0:0:0:
205,52,113655,1,8,0:0:0:0:
205,52,113730,1,8,0:0:0:0:
205,52,113805,1,0,0:0:0:0:
205,52,113880,1,8,0:0:0:0:
205,52,113955,1,8,0:0:0:0:
205,52,114030,1,0,0:0:0:0:
205,52,114105,1,8,0:0:0:0:
205,52,114180,1,0,0:0:0:0:
378,210,114330,1,8,0:0:0:0:
378,210,114480,1,8,0:0:0:0:
378,210,114555,1,0,0:0:0:0:
378,210,114705,1,0,0:0:0:0:
277,40,114780,1,8,0:0:0:0:
261,82,114930,1,0,0:0:0:0:
261,82,115080,1,8,0:0:0:0:
261,82,115155,1,0,0:0:0:0:
261,82,115230,1,8,0:0:0:0:
278,82,115380,1,0,0:0:0:0:
278,82,115530,1,8,0:0:0:0:
278,82,115680,1,0,0:0:0:0:
278,82,115755,1,0,0:0:0:0:
278,82,115830,1,8,0:0:0:0:
332,80,115980,1,0,0:0:0:0:
332,80,116130,1,8,0:0:0:0:
332,80,116205,1,0,0:0:0:0:
332,80,116280,1,0,0:0:0:0:
332,80,116430,1,8,0:0:0:0:
313,81,116580,1,0,0:0:0:0:
313,81,116730,1,0,0:0:0:0:
313,81,116880,1,8,0:0:0:0:
186,14,116955,1,8,0:0:0:0:
186,14,117030,1,0,0:0:0:0:
252,45,117180,1,8,0:0:0:0:
252,45,117330,1,0,0:0:0:0:
252,45,117480,1,8,0:0:0:0:
252,45,117555,1,8,0:0:0:0:
252,45,117630,1,0,0:0:0:0:
196,48,117780,1,8,0:0:0:0:
196,48,117930,1,0,0:0:0:0:
196,48,118005,1,0,0:0:0:0:
196,48,118080,1,8,0:0:0:0:
196,48,118230,1,0,0:0:0:0:
196,48,118380,1,8,0:0:0:0:
196,48,118455,1,0,0:0:0:0:
196,48,118530,1,0,0:0:0:0:
196,48,118605,1,0,0:0:0:0:
196,48,118680,1,8,0:0:0:0:
182,52,118830,1,0,0:0:0:0:
170,58,118980,1,8,0:0:0:0:
170,58,119055,1,8,0:0:0:0:
170,58,119130,1,0,0:0:0:0:
170,58,119280,1,8,0:0:0:0:
170,58,119430,1,0,0:0:0:0:
170,58,119580,1,8,0:0:0:0:
170,58,119655,1,0,0:0:0:0:
170,58,119730,1,0,0:0:0:0:
170,58,119880,1,8,0:0:0:0:
170,58,120030,1,0,0:0:0:0:
163,53,120180,1,8,0:0:0:0:
163,53,120255,1,0,0:0:0:0:
163,53,120330,1,0,0:0:0:0:
163,53,120405,1,0,0:0:0:0:
163,53,120480,1,8,0:0:0:0:
164,45,120630,1,0,0:0:0:0:
164,45,120780,1,8,0:0:0:0:
164,45,120855,1,8,0:0:0:0:
164,45,120930,1,0,0:0:0:0:
164,45,121080,1,8,0:0:0:0:
166,46,121230,1,0,0:0:0:0:
157,48,121380,1,8,0:0:0:0:
163,52,121530,1,0,0:0:0:0:
163,52,121605,1,0,0:0:0:0:
159,50,121680,1,8,0:0:0:0:
157,48,121830,1,0,0:0:0:0:
174,56,121980,1,8,0:0:0:0:
169,54,122130,1,0,0:0:0:0:
174,56,122205,1,0,0:0:0:0:
175,93,122280,1,8,0:0:0:0:
169,54,122430,1,0,0:0:0:0:
234,84,122580,1,8,0:0:0:0:
234,84,122730,1,0,0:0:0:0:
234,84,122880,1,8,0:0:0:0:
234,84,122955,1,0,0:0:0:0:
234,84,123030,1,8,0:0:0:0:
234,84,123105,1,8,0:0:0:0:
234,84,123180,1,0,0:0:0:0:
234,84,123255,1,8,0:0:0:0:
234,84,123330,1,8,0:0:0:0:
234,84,123405,1,8,0:0:0:0:
234,84,123480,1,0,0:0:0:0:
164,41,123780,1,4,0:0:0:0:
112,141,123930,1,0,0:0:0:0:
112,141,124080,1,8,0:0:0:0:
112,141,124155,1,0,0:0:0:0:
112,141,124230,1,0,0:0:0:0:
321,163,124380,1,8,0:0:0:0:
321,163,124530,1,0,0:0:0:0:
321,163,124605,1,0,0:0:0:0:
321,163,124680,1,8,0:0:0:0:
321,163,124830,1,0,0:0:0:0:
284,161,124980,1,8,0:0:0:0:
284,161,125130,1,0,0:0:0:0:
284,161,125280,1,8,0:0:0:0:
284,161,125355,1,8,0:0:0:0:
177,54,125430,1,0,0:0:0:0:
177,54,125580,1,8,0:0:0:0:
177,54,125655,1,0,0:0:0:0:
177,54,125730,1,0,0:0:0:0:
177,54,125805,1,0,0:0:0:0:
177,54,125880,1,8,0:0:0:0:
177,54,126030,1,0,0:0:0:0:
205,85,126180,1,8,0:0:0:0:
205,85,126330,1,0,0:0:0:0:
143,95,126480,1,8,0:0:0:0:
205,85,126555,1,8,0:0:0:0:
194,101,126630,1,0,0:0:0:0:
195,92,126780,1,8,0:0:0:0:
195,92,126930,1,0,0:0:0:0:
195,92,127005,1,8,0:0:0:0:
195,92,127080,1,0,0:0:0:0:
205,91,127230,1,8,0:0:0:0:
154,61,127380,1,0,0:0:0:0:
154,61,127455,1,0,0:0:0:0:
154,61,127530,1,8,0:0:0:0:
154,61,127680,1,8,0:0:0:0:
181,56,127830,1,0,0:0:0:0:
154,61,127980,1,8,0:0:0:0:
154,61,128055,1,8,0:0:0:0:
154,61,128130,1,0,0:0:0:0:
154,61,128205,1,0,0:0:0:0:
154,61,128280,1,8,0:0:0:0:
154,61,128355,1,0,0:0:0:0:
154,61,128430,1,8,0:0:0:0:
154,61,128580,1,4,0:0:0:0:
181,227,130980,1,0,0:0:0:0:
181,227,131580,1,0,0:0:0:0:
181,227,132180,1,0,0:0:0:0:
112,68,132780,1,8,0:0:0:0:
112,68,132855,1,0,0:0:0:0:
112,68,132930,1,8,0:0:0:0:
112,68,133005,1,0,0:0:0:0:
112,68,133080,1,8,0:0:0:0:
112,68,133155,1,8,0:0:0:0:
112,68,133230,1,0,0:0:0:0:
166,18,133305,1,0,0:0:0:0:
114,72,133380,1,8,0:0:0:0:
235,75,133530,1,0,0:0:0:0:
235,75,133605,1,0,0:0:0:0:
235,75,133680,1,8,0:0:0:0:
235,75,133755,1,8,0:0:0:0:
235,75,133830,1,0,0:0:0:0:
235,75,133980,1,8,0:0:0:0:
235,75,134055,1,0,0:0:0:0:
235,75,134130,1,0,0:0:0:0:
235,75,134280,1,8,0:0:0:0:
234,62,134430,1,0,0:0:0:0:
205,82,134580,1,8,0:0:0:0:
205,82,134655,1,0,0:0:0:0:
205,82,134730,1,8,0:0:0:0:
205,82,134880,1,0,0:0:0:0:
232,68,135030,1,0,0:0:0:0:
232,68,135105,1,0,0:0:0:0:
232,68,135180,1,8,0:0:0:0:
232,68,135255,1,8,0:0:0:0:
232,68,135330,1,0,0:0:0:0:
232,68,135405,1,8,0:0:0:0:
232,68,135480,1,0,0:0:0:0:
181,65,135630,1,8,0:0:0:0:
181,65,135780,1,0,0:0:0:0:
149,59,135930,1,8,0:0:0:0:
149,59,136080,1,0,0:0:0:0:
149,59,136155,1,8,0:0:0:0:
149,59,136305,1,0,0:0:0:0:
149,59,136380,1,8,0:0:0:0:
181,23,136455,1,8,0:0:0:0:
149,59,136530,1,0,0:0:0:0:
149,59,136605,1,0,0:0:0:0:
149,59,136680,1,8,0:0:0:0:
149,59,136830,1,0,0:0:0:0:
149,59,136980,1,8,0:0:0:0:
149,59,137055,1,0,0:0:0:0:
149,59,137130,1,8,0:0:0:0:
149,59,137205,1,0,0:0:0:0:
149,59,137280,1,8,0:0:0:0:
149,59,137355,1,8,0:0:0:0:
149,59,137430,1,0,0:0:0:0:
149,59,137580,1,8,0:0:0:0:
149,59,137655,1,8,0:0:0:0:
149,59,137730,1,8,0:0:0:0:
217,130,137805,1,0,0:0:0:0:
149,59,137880,1,0,0:0:0:0:
149,64,138030,1,8,0:0:0:0:
229,7,138105,1,8,0:0:0:0:
125,50,138180,1,0,0:0:0:0:
125,50,138330,1,8,0:0:0:0:
125,50,138405,1,0,0:0:0:0:
125,50,138480,1,0,0:0:0:0:
125,50,138630,1,8,0:0:0:0:
125,50,138780,1,0,0:0:0:0:
125,50,138930,1,0,0:0:0:0:
125,50,139005,1,0,0:0:0:0:
125,50,139080,1,8,0:0:0:0:
125,50,139230,1,8,0:0:0:0:
125,50,139305,1,0,0:0:0:0:
177,54,139380,1,0,0:0:0:0:
179,62,139455,1,0,0:0:0:0:
186,67,139530,1,8,0:0:0:0:
179,62,139680,1,0,0:0:0:0:
179,62,139830,1,8,0:0:0:0:
232,40,139905,1,0,0:0:0:0:
179,62,139980,1,0,0:0:0:0:
179,62,140130,1,8,0:0:0:0:
158,61,140205,1,8,0:0:0:0:
179,62,140280,1,0,0:0:0:0:
179,62,140355,1,0,0:0:0:0:
179,62,140430,1,8,0:0:0:0:
213,97,140580,1,0,0:0:0:0:
213,97,140730,1,8,0:0:0:0:
213,97,140805,1,0,0:0:0:0:
213,97,140880,1,8,0:0:0:0:
213,97,141030,1,0,0:0:0:0:
213,97,141180,1,8,0:0:0:0:
213,97,141255,1,0,0:0:0:0:
213,97,141330,1,8,0:0:0:0:
213,97,141405,1,8,0:0:0:0:
213,97,141480,1,0,0:0:0:0:
213,97,141630,1,8,0:0:0:0:
183,74,141780,1,0,0:0:0:0:
183,74,141855,1,0,0:0:0:0:
183,74,141930,1,0,0:0:0:0:
183,74,142080,1,8,0:0:0:0:
183,74,142230,1,8,0:0:0:0:
183,74,142305,1,8,0:0:0:0:
183,74,142380,1,0,0:0:0:0:
183,74,142455,1,0,0:0:0:0:
183,74,142530,1,8,0:0:0:0:
182,69,142605,1,0,0:0:0:0:
182,69,142680,1,8,0:0:0:0:
114,72,142980,1,8,0:0:0:0:
211,65,143055,1,8,0:0:0:0:
235,75,143130,1,0,0:0:0:0:
235,75,143205,1,0,0:0:0:0:
235,75,143280,1,8,0:0:0:0:
235,75,143355,1,0,0:0:0:0:
235,75,143430,1,0,0:0:0:0:
170,69,143505,1,0,0:0:0:0:
235,75,143580,1,8,0:0:0:0:
235,75,143730,1,0,0:0:0:0:
235,75,143880,1,8,0:0:0:0:
195,63,143955,1,8,0:0:0:0:
234,62,144030,1,0,0:0:0:0:
205,82,144180,1,8,0:0:0:0:
205,82,144255,1,0,0:0:0:0:
205,82,144330,1,8,0:0:0:0:
175,58,144405,1,8,0:0:0:0:
205,82,144480,1,8,0:0:0:0:
232,68,144630,1,0,0:0:0:0:
232,68,144705,1,0,0:0:0:0:
232,68,144780,1,0,0:0:0:0:
232,68,144855,1,0,0:0:0:0:
232,68,144930,1,8,0:0:0:0:
232,68,145005,1,8,0:0:0:0:
232,68,145080,1,0,0:0:0:0:
181,65,145230,1,8,0:0:0:0:
181,65,145380,1,0,0:0:0:0:
149,59,145530,1,8,0:0:0:0:
149,59,145680,1,0,0:0:0:0:
149,59,145755,1,8,0:0:0:0:
149,59,145905,1,0,0:0:0:0:
149,59,145980,1,8,0:0:0:0:
149,59,146055,1,8,0:0:0:0:
149,59,146130,1,0,0:0:0:0:
149,59,146205,1,0,0:0:0:0:
149,59,146280,1,8,0:0:0:0:
149,59,146430,1,0,0:0:0:0:
149,59,146580,1,8,0:0:0:0:
149,59,146655,1,0,0:0:0:0:
149,59,146730,1,8,0:0:0:0:
149,59,146805,1,0,0:0:0:0:
149,59,146880,1,8,0:0:0:0:
149,59,146955,1,8,0:0:0:0:
149,59,147030,1,0,0:0:0:0:
193,32,147105,1,0,0:0:0:0:
149,59,147180,1,8,0:0:0:0:
149,59,147330,1,0,0:0:0:0:
149,59,147480,1,8,0:0:0:0:
149,59,147555,1,8,0:0:0:0:
149,64,147630,1,0,0:0:0:0:
125,50,147780,1,4,0:0:0:0:
125,50,147930,1,8,0:0:0:0:
125,50,148005,1,0,0:0:0:0:
125,50,148080,1,0,0:0:0:0:
125,50,148230,1,0,0:0:0:0:
125,50,148380,1,8,0:0:0:0:
125,50,148530,1,0,0:0:0:0:
125,50,148605,1,0,0:0:0:0:
125,50,148680,1,8,0:0:0:0:
125,50,148830,1,8,0:0:0:0:
177,54,148980,1,4,0:0:0:0:
186,67,149130,1,8,0:0:0:0:
179,62,149205,1,0,0:0:0:0:
179,62,149280,1,0,0:0:0:0:
232,40,149355,1,0,0:0:0:0:
179,62,149430,1,8,0:0:0:0:
179,62,149580,1,0,0:0:0:0:
189,85,149655,1,0,0:0:0:0:
179,62,149730,1,8,0:0:0:0:
158,61,149805,1,0,0:0:0:0:
179,62,149880,1,8,0:0:0:0:
179,62,149955,1,8,0:0:0:0:
179,62,150030,1,0,0:0:0:0:
213,97,150180,1,8,0:0:0:0:
171,27,150255,1,0,0:0:0:0:
213,97,150330,1,8,0:0:0:0:
213,97,150405,1,0,0:0:0:0:
213,97,150480,1,8,0:0:0:0:
213,97,150630,1,0,0:0:0:0:
213,97,150780,1,8,0:0:0:0:
213,97,150855,1,0,0:0:0:0:
213,97,150930,1,8,0:0:0:0:
213,97,151005,1,8,0:0:0:0:
213,97,151080,1,0,0:0:0:0:
213,97,151230,1,8,0:0:0:0:
183,74,151380,1,8,0:0:0:0:
183,74,151455,1,8,0:0:0:0:
183,74,151530,1,0,0:0:0:0:
183,74,151605,1,0,0:0:0:0:
183,74,151680,1,8,0:0:0:0:
183,74,151755,1,8,0:0:0:0:
183,74,151830,1,8,0:0:0:0:
126,23,151905,1,0,0:0:0:0:
183,74,151980,1,8,0:0:0:0:
183,74,152055,1,8,0:0:0:0:
183,74,152130,1,0,0:0:0:0:
182,69,152205,1,0,0:0:0:0:
182,69,152280,1,8,0:0:0:0:
248,108,152580,1,4,0:0:0:0:
248,108,152730,1,8,0:0:0:0:
248,108,152805,1,8,0:0:0:0:
248,108,152880,1,0,0:0:0:0:
248,108,153030,1,8,0:0:0:0:
248,108,153105,1,0,0:0:0:0:
248,108,153180,1,8,0:0:0:0:
248,108,153255,1,8,0:0:0:0:
248,108,153330,1,0,0:0:0:0:
248,108,153480,1,8,0:0:0:0:
258,110,153630,1,0,0:0:0:0:
258,110,153780,1,8,0:0:0:0:
258,110,153855,1,8,0:0:0:0:
258,110,153930,1,0,0:0:0:0:
258,110,154080,1,8,0:0:0:0:
258,110,154230,1,0,0:0:0:0:
258,110,154305,1,0,0:0:0:0:
258,110,154380,1,8,0:0:0:0:
258,110,154455,1,8,0:0:0:0:
258,110,154530,1,0,0:0:0:0:
258,110,154680,1,8,0:0:0:0:
154,124,154830,1,0,0:0:0:0:
258,110,154980,1,0,0:0:0:0:
258,110,155130,1,8,0:0:0:0:
258,110,155205,1,8,0:0:0:0:
258,110,155280,1,0,0:0:0:0:
258,110,155430,1,8,0:0:0:0:
258,110,155505,1,8,0:0:0:0:
258,110,155580,1,8,0:0:0:0:
258,110,155655,1,0,0:0:0:0:
207,163,155730,1,8,0:0:0:0:
258,110,155805,1,0,0:0:0:0:
258,110,155880,1,8,0:0:0:0:
258,110,156030,1,0,0:0:0:0:
217,157,156180,1,8,0:0:0:0:
217,157,156255,1,8,0:0:0:0:
217,157,156330,1,0,0:0:0:0:
217,157,156480,1,8,0:0:0:0:
217,157,156630,1,0,0:0:0:0:
217,157,156705,1,0,0:0:0:0:
217,157,156780,1,8,0:0:0:0:
217,157,156855,1,8,0:0:0:0:
217,157,156930,1,0,0:0:0:0:
217,157,157005,1,0,0:0:0:0:
217,157,157080,1,8,0:0:0:0:
217,157,157155,1,8,0:0:0:0:
217,157,157230,1,8,0:0:0:0:
138,44,157305,1,8,0:0:0:0:
135,67,157380,1,0,0:0:0:0:
135,67,157530,1,8,0:0:0:0:
135,67,157605,1,8,0:0:0:0:
135,67,157680,1,0,0:0:0:0:
191,51,157830,1,8,0:0:0:0:
191,51,157980,1,8,0:0:0:0:
191,51,158055,1,0,0:0:0:0:
191,51,158130,1,0,0:0:0:0:
174,42,158280,1,8,0:0:0:0:
135,67,158430,1,0,0:0:0:0:
171,42,158580,1,8,0:0:0:0:
171,42,158655,1,8,0:0:0:0:
171,42,158730,1,0,0:0:0:0:
171,42,158805,1,0,0:0:0:0:
171,42,158880,1,8,0:0:0:0:
171,42,159030,1,8,0:0:0:0:
171,42,159105,1,0,0:0:0:0:
174,42,159180,1,8,0:0:0:0:
171,42,159330,1,0,0:0:0:0:
171,42,159480,1,8,0:0:0:0:
336,61,159780,1,8,0:0:0:0:
336,61,159855,1,0,0:0:0:0:
336,61,159930,1,8,0:0:0:0:
336,61,160005,1,8,0:0:0:0:
336,61,160080,1,0,0:0:0:0:
336,61,160230,1,0,0:0:0:0:
336,61,160380,1,8,0:0:0:0:
336,61,160455,1,8,0:0:0:0:
336,61,160530,1,0,0:0:0:0:
336,61,160605,1,0,0:0:0:0:
336,61,160680,1,8,0:0:0:0:
162,33,160755,1,8,0:0:0:0:
336,61,160830,1,0,0:0:0:0:
305,82,160980,1,4,0:0:0:0:
305,82,161130,1,4,0:0:0:0:
305,82,161430,1,4,0:0:0:0:
305,82,161580,1,4,0:0:0:0:
308,85,161730,1,0,0:0:0:0:
308,85,161805,1,0,0:0:0:0:
308,85,161880,1,8,0:0:0:0:
308,85,161955,1,8,0:0:0:0:
308,85,162030,1,8,0:0:0:0:
308,85,162105,1,8,0:0:0:0:
308,85,162180,1,0,0:0:0:0:
231,251,162330,1,0,0:0:0:0:
448,140,162405,1,0,0:0:0:0:
231,251,162480,1,8,0:0:0:0:
253,284,162630,1,0,0:0:0:0:
253,284,162780,1,8,0:0:0:0:
253,284,162930,1,0,0:0:0:0:
253,284,163005,1,0,0:0:0:0:
253,284,163080,1,8,0:0:0:0:
253,284,163230,1,0,0:0:0:0:
253,284,163380,1,8,0:0:0:0:
241,144,163605,1,0,0:0:0:0:
241,144,163680,1,8,0:0:0:0:
246,137,163830,1,8,0:0:0:0:
246,137,163980,1,8,0:0:0:0:
222,124,164130,1,0,0:0:0:0:
222,124,164205,1,8,0:0:0:0:
222,124,164280,1,0,0:0:0:0:
141,58,164580,1,8,0:0:0:0:
137,44,164730,1,0,0:0:0:0:
137,44,164805,1,0,0:0:0:0:
137,44,164880,1,8,0:0:0:0:
164,68,165030,1,0,0:0:0:0:
164,68,165180,1,8,0:0:0:0:
164,68,165330,1,8,0:0:0:0:
164,68,165480,1,8,0:0:0:0:
164,68,165555,1,0,0:0:0:0:
164,68,165630,1,0,0:0:0:0:
164,68,165780,1,8,0:0:0:0:
164,68,165930,1,8,0:0:0:0:
149,115,166080,1,0,0:0:0:0:
155,54,166230,1,8,0:0:0:0:
155,54,166380,1,8,0:0:0:0:
155,54,166530,1,8,0:0:0:0:
155,54,166605,1,0,0:0:0:0:
155,54,166680,1,8,0:0:0:0:
251,50,166980,1,0,0:0:0:0:
251,50,167130,1,8,0:0:0:0:
251,50,167205,1,8,0:0:0:0:
251,50,167280,1,0,0:0:0:0:
251,50,167430,1,0,0:0:0:0:
251,50,167505,1,8,0:0:0:0:
251,50,167580,1,0,0:0:0:0:
251,50,167730,1,8,0:0:0:0:
251,50,167880,1,8,0:0:0:0:
251,50,167955,1,0,0:0:0:0:
251,50,168030,1,0,0:0:0:0:
151,2,168180,1,8,0:0:0:0:
211,2,168480,1,8,0:0:0:0:
238,6,168630,1,8,0:0:0:0:
238,6,168780,1,8,0:0:0:0:
187,61,168930,1,0,0:0:0:0:
187,61,169005,1,8,0:0:0:0:
187,61,169080,1,0,0:0:0:0:
166,50,169380,1,8,0:0:0:0:
166,50,169455,1,0,0:0:0:0:
166,50,169530,1,0,0:0:0:0:
164,44,169605,1,0,0:0:0:0:
164,44,169680,1,8,0:0:0:0:
211,43,169830,1,0,0:0:0:0:
166,50,169980,1,8,0:0:0:0:
166,50,170055,1,0,0:0:0:0:
166,50,170130,1,8,0:0:0:0:
164,44,170205,1,0,0:0:0:0:
164,44,170280,1,8,0:0:0:0:
210,61,170430,1,0,0:0:0:0:
171,55,170580,1,8,0:0:0:0:
171,55,170730,1,8,0:0:0:0:
172,63,170880,1,0,0:0:0:0:
163,59,171030,1,8,0:0:0:0:
163,58,171105,1,0,0:0:0:0:
163,58,171180,1,8,0:0:0:0:
169,95,171330,1,8,0:0:0:0:
169,95,171405,1,0,0:0:0:0:
166,50,171480,1,8,0:0:0:0:
166,50,171555,1,0,0:0:0:0:
166,50,171630,1,8,0:0:0:0:
164,44,171705,1,8,0:0:0:0:
164,44,171780,1,0,0:0:0:0:
221,74,171930,1,8,0:0:0:0:
221,74,172005,1,8,0:0:0:0:
221,74,172080,1,0,0:0:0:0:
221,74,172230,1,8,0:0:0:0:
235,77,172380,1,0,0:0:0:0:
235,77,172455,1,0,0:0:0:0:
235,77,172530,1,8,0:0:0:0:
235,77,172680,1,8,0:0:0:0:
235,77,172755,1,0,0:0:0:0:
235,77,172830,1,0,0:0:0:0:
235,77,172980,1,8,0:0:0:0:
235,77,173055,1,8,0:0:0:0:
235,77,173130,1,0,0:0:0:0:
235,77,173205,1,0,0:0:0:0:
235,77,173280,1,8,0:0:0:0:
235,77,173430,1,0,0:0:0:0:
235,77,173580,1,8,0:0:0:0:
235,77,173655,1,0,0:0:0:0:
235,77,173730,1,0,0:0:0:0:
235,77,173805,1,0,0:0:0:0:
235,77,173880,1,8,0:0:0:0:
240,97,174030,1,0,0:0:0:0:
250,81,174180,1,8,0:0:0:0:
250,81,174330,1,0,0:0:0:0:
156,52,174405,1,0,0:0:0:0:
250,81,174480,1,8,0:0:0:0:
250,81,174555,1,0,0:0:0:0:
250,81,174630,1,0,0:0:0:0:
250,81,174780,1,8,0:0:0:0:
250,81,174930,1,0,0:0:0:0:
250,81,175005,1,8,0:0:0:0:
250,82,175080,1,0,0:0:0:0:
240,97,175230,1,0,0:0:0:0:
172,29,175380,1,8,0:0:0:0:
172,29,175455,1,8,0:0:0:0:
172,29,175530,1,0,0:0:0:0:
172,29,175605,1,0,0:0:0:0:
172,29,175680,1,8,0:0:0:0:
172,29,175755,1,0,0:0:0:0:
172,29,175830,1,0,0:0:0:0:
166,28,175905,1,0,0:0:0:0:
159,30,175980,1,8,0:0:0:0:
159,30,176130,1,0,0:0:0:0:
276,70,176280,1,8,0:0:0:0:
146,24,176355,1,8,0:0:0:0:
276,70,176430,1,8,0:0:0:0:
276,70,176505,1,8,0:0:0:0:
276,70,176580,1,0,0:0:0:0:
261,60,176730,1,0,0:0:0:0:
261,60,176805,1,8,0:0:0:0:
261,60,176880,1,0,0:0:0:0:
261,60,177030,1,8,0:0:0:0:
261,60,177105,1,0,0:0:0:0:
261,60,177180,1,0,0:0:0:0:
261,60,177330,1,0,0:0:0:0:
261,60,177480,1,8,0:0:0:0:
261,60,177555,1,8,0:0:0:0:
261,60,177630,1,0,0:0:0:0:
281,46,177780,1,8,0:0:0:0:
281,46,177855,1,0,0:0:0:0:
281,46,177930,1,0,0:0:0:0:
281,46,178080,1,8,0:0:0:0:
281,46,178230,1,8,0:0:0:0:
281,46,178305,1,0,0:0:0:0:
281,46,178380,1,8,0:0:0:0:
281,46,178455,1,8,0:0:0:0:
281,46,178530,1,0,0:0:0:0:
281,46,178605,1,0,0:0:0:0:
281,46,178680,1,8,0:0:0:0:
271,50,178830,1,0,0:0:0:0:
273,45,178980,1,8,0:0:0:0:
273,45,179130,1,0,0:0:0:0:
273,45,179205,1,0,0:0:0:0:
273,45,179280,1,8,0:0:0:0:
273,45,179430,1,0,0:0:0:0:
273,45,179505,1,0,0:0:0:0:
273,45,179580,1,8,0:0:0:0:
243,45,179655,1,8,0:0:0:0:
273,45,179730,1,0,0:0:0:0:
272,50,179880,1,8,0:0:0:0:
261,47,180030,1,0,0:0:0:0:
261,47,180180,1,8,0:0:0:0:
261,47,180330,1,0,0:0:0:0:
261,47,180480,1,8,0:0:0:0:
218,39,180555,1,8,0:0:0:0:
261,47,180630,1,0,0:0:0:0:
261,47,180705,1,0,0:0:0:0:
261,47,180780,1,8,0:0:0:0:
261,47,180855,1,8,0:0:0:0:
261,47,180930,1,8,0:0:0:0:
261,47,181005,1,0,0:0:0:0:
261,47,181080,1,8,0:0:0:0:
261,47,181155,1,8,0:0:0:0:
261,47,181230,1,8,0:0:0:0:
261,47,181305,1,8,0:0:0:0:
261,47,181380,1,0,0:0:0:0:
160,108,181530,1,0,0:0:0:0:
160,108,181605,1,8,0:0:0:0:
160,108,181680,1,0,0:0:0:0:
160,108,181830,1,0,0:0:0:0:
154,89,181905,1,0,0:0:0:0:
160,108,181980,1,8,0:0:0:0:
160,108,182055,1,8,0:0:0:0:
160,108,182130,1,8,0:0:0:0:
160,108,182205,1,0,0:0:0:0:
160,108,182280,1,8,0:0:0:0:
201,82,182355,1,8,0:0:0:0:
160,108,182430,1,0,0:0:0:0:
141,70,182580,1,0,0:0:0:0:
160,108,182730,1,0,0:0:0:0:
160,108,182805,1,0,0:0:0:0:
160,108,182880,1,8,0:0:0:0:
160,108,182955,1,8,0:0:0:0:
160,108,183030,1,0,0:0:0:0:
207,103,183180,1,8,0:0:0:0:
160,108,183255,1,0,0:0:0:0:
207,103,183330,1,0,0:0:0:0:
160,108,183480,1,8,0:0:0:0:
160,108,183630,1,0,0:0:0:0:
191,62,183780,1,8,0:0:0:0:
160,108,183930,1,0,0:0:0:0:
160,108,184005,1,0,0:0:0:0:
160,108,184080,1,8,0:0:0:0:
160,108,184155,1,8,0:0:0:0:
160,108,184230,1,0,0:0:0:0:
160,108,184380,1,8,0:0:0:0:
160,108,184455,1,0,0:0:0:0:
160,108,184530,1,0,0:0:0:0:
160,108,184680,1,0,0:0:0:0:
160,108,184755,1,0,0:0:0:0:
160,108,184830,1,8,0:0:0:0:
174,18,184980,1,8,0:0:0:0:
174,18,185055,1,0,0:0:0:0:
174,18,185130,1,0,0:0:0:0:
174,18,185205,1,8,0:0:0:0:
174,18,185280,1,0,0:0:0:0:
174,18,185430,1,0,0:0:0:0:
174,18,185505,1,8,0:0:0:0:
160,108,185580,1,8,0:0:0:0:
160,108,185730,1,0,0:0:0:0:
160,108,185880,1,0,0:0:0:0:
160,108,185955,1,0,0:0:0:0:
108,90,186030,1,0,0:0:0:0:
132,53,186105,1,8,0:0:0:0:
178,61,186180,1,0,0:0:0:0:
178,61,186330,1,0,0:0:0:0:
178,61,186405,1,8,0:0:0:0:
178,61,186480,1,0,0:0:0:0:
178,61,186630,1,8,0:0:0:0:
160,108,186780,1,8,0:0:0:0:
160,108,186855,1,8,0:0:0:0:
160,108,186930,1,0,0:0:0:0:
160,108,187080,1,8,0:0:0:0:
160,108,187155,1,0,0:0:0:0:
160,108,187230,1,0,0:0:0:0:
160,108,187380,1,8,0:0:0:0:
160,108,187455,1,8,0:0:0:0:
160,108,187530,1,0,0:0:0:0:
160,108,187605,1,0,0:0:0:0:
160,108,187680,1,8,0:0:0:0:
160,108,187830,1,0,0:0:0:0:
160,108,187980,1,8,0:0:0:0:
160,108,188055,1,8,0:0:0:0:
160,108,188130,1,8,0:0:0:0:
160,108,188205,1,0,0:0:0:0:
160,108,188280,1,8,0:0:0:0:
205,62,188430,1,0,0:0:0:0:
160,108,188580,1,8,0:0:0:0:
160,108,188655,1,0,0:0:0:0:
160,108,188730,1,0,0:0:0:0:
200,75,188880,1,8,0:0:0:0:
160,108,189030,1,0,0:0:0:0:
160,108,189105,1,0,0:0:0:0:
160,108,189180,1,8,0:0:0:0:
160,108,189255,1,0,0:0:0:0:
160,108,189330,1,8,0:0:0:0:
160,108,189405,1,8,0:0:0:0:
160,108,189480,1,0,0:0:0:0:
233,95,189630,1,8,0:0:0:0:
160,108,189780,1,0,0:0:0:0:
160,108,189855,1,0,0:0:0:0:
160,108,189930,1,0,0:0:0:0:
160,108,190005,1,0,0:0:0:0:
160,108,190080,1,8,0:0:0:0:
160,108,190155,1,0,0:0:0:0:
160,108,190230,1,0,0:0:0:0:
160,108,190305,1,0,0:0:0:0:
160,108,190380,1,8,0:0:0:0:
160,108,190455,1,8,0:0:0:0:
160,108,190530,1,0,0:0:0:0:
160,108,190605,1,0,0:0:0:0:
160,108,190680,1,8,0:0:0:0:
160,108,190755,1,8,0:0:0:0:
160,108,190830,1,8,0:0:0:0:
160,108,190905,1,8,0:0:0:0:
160,108,190980,1,0,0:0:0:0:
265,90,191130,1,8,0:0:0:0:
265,90,191205,1,8,0:0:0:0:
265,90,191280,1,0,0:0:0:0:
265,90,191430,1,8,0:0:0:0:
265,90,191505,1,0,0:0:0:0:
265,90,191580,1,0,0:0:0:0:
265,90,191730,1,0,0:0:0:0:
265,90,191805,1,8,0:0:0:0:
265,90,191880,1,0,0:0:0:0:
229,7,192030,1,8,0:0:0:0:
229,7,192180,1,0,0:0:0:0:
265,90,192255,1,8,0:0:0:0:
265,90,192330,1,8,0:0:0:0:
265,90,192405,1,8,0:0:0:0:
265,90,192480,1,0,0:0:0:0:
265,90,192630,1,0,0:0:0:0:
209,8,192780,1,8,0:0:0:0:
265,90,192930,1,0,0:0:0:0:
265,90,193005,1,0,0:0:0:0:
265,90,193080,1,8,0:0:0:0:
197,24,193230,1,0,0:0:0:0:
197,24,193380,1,8,0:0:0:0:
265,90,193530,1,8,0:0:0:0:
265,90,193605,1,8,0:0:0:0:
265,90,193680,1,0,0:0:0:0:
265,90,193830,1,0,0:0:0:0:
265,90,193905,1,0,0:0:0:0:
265,90,193980,1,8,0:0:0:0:
260,98,194130,1,0,0:0:0:0:
265,90,194280,1,8,0:0:0:0:
265,90,194355,1,8,0:0:0:0:
265,90,194430,1,0,0:0:0:0:
265,90,194580,1,8,0:0:0:0:
265,90,194655,1,8,0:0:0:0:
265,90,194730,1,0,0:0:0:0:
265,90,194805,1,0,0:0:0:0:
265,90,194880,1,8,0:0:0:0:
272,46,195030,1,0,0:0:0:0:
265,90,195180,1,8,0:0:0:0:
265,90,195255,1,0,0:0:0:0:
265,90,195330,1,0,0:0:0:0:
265,90,195480,1,8,0:0:0:0:
265,90,195555,1,8,0:0:0:0:
265,90,195630,1,8,0:0:0:0:
265,90,195705,1,8,0:0:0:0:
265,90,195780,1,0,0:0:0:0:
173,83,195930,1,0,0:0:0:0:
173,83,196005,1,0,0:0:0:0:
173,83,196080,1,8,0:0:0:0:
187,65,196230,1,0,0:0:0:0:
169,72,196380,1,8,0:0:0:0:
173,83,196530,1,8,0:0:0:0:
173,83,196605,1,8,0:0:0:0:
173,83,196680,1,0,0:0:0:0:
186,76,196830,1,0,0:0:0:0:
173,83,196980,1,0,0:0:0:0:
173,83,197055,1,0,0:0:0:0:
173,83,197130,1,0,0:0:0:0:
173,83,197205,1,0,0:0:0:0:
173,83,197280,1,8,0:0:0:0:
229,61,197430,1,0,0:0:0:0:
173,83,197580,1,8,0:0:0:0:
173,83,197655,1,0,0:0:0:0:
173,83,197730,1,0,0:0:0:0:
216,106,197880,1,8,0:0:0:0:
216,106,198030,1,0,0:0:0:0:
216,106,198180,1,8,0:0:0:0:
173,83,198255,1,8,0:0:0:0:
173,83,198330,1,0,0:0:0:0:
173,83,198405,1,0,0:0:0:0:
173,83,198480,1,8,0:0:0:0:
173,83,198630,1,0,0:0:0:0:
173,83,198780,1,8,0:0:0:0:
173,83,198855,1,8,0:0:0:0:
173,83,198930,1,0,0:0:0:0:
173,83,199080,1,8,0:0:0:0:
173,83,199155,1,0,0:0:0:0:
173,83,199230,1,8,0:0:0:0:
173,83,199380,1,0,0:0:0:0:
173,83,199455,1,0,0:0:0:0:
173,83,199530,1,8,0:0:0:0:
173,83,199605,1,8,0:0:0:0:
173,83,199680,1,8,0:0:0:0:
173,83,199755,1,0,0:0:0:0:
173,83,199830,1,8,0:0:0:0:
173,83,199905,1,0,0:0:0:0:
173,83,199980,1,8,0:0:0:0:
173,83,200055,1,8,0:0:0:0:
173,83,200130,1,0,0:0:0:0:
173,83,200280,1,0,0:0:0:0:
162,50,200580,1,4,0:0:0:0:
157,34,200730,1,8,0:0:0:0:
157,34,200805,1,8,0:0:0:0:
157,34,200880,1,0,0:0:0:0:
157,34,200955,1,0,0:0:0:0:
157,34,201030,1,8,0:0:0:0:
157,34,201180,1,8,0:0:0:0:
157,34,201255,1,0,0:0:0:0:
157,34,201330,1,0,0:0:0:0:
157,34,201405,1,8,0:0:0:0:
157,34,201480,1,0,0:0:0:0:
157,34,201555,1,8,0:0:0:0:
157,34,201630,1,8,0:0:0:0:
272,115,201780,1,0,0:0:0:0:
261,111,201930,1,8,0:0:0:0:
260,111,202005,1,8,0:0:0:0:
258,110,202080,1,0,0:0:0:0:
255,108,202230,1,8,0:0:0:0:
276,111,202380,1,8,0:0:0:0:
276,111,202455,1,0,0:0:0:0:
276,111,202530,1,8,0:0:0:0:
276,111,202605,1,8,0:0:0:0:
276,111,202680,1,0,0:0:0:0:
276,111,202830,1,8,0:0:0:0:
306,126,202980,1,0,0:0:0:0:
306,126,203130,1,8,0:0:0:0:
306,126,203205,1,8,0:0:0:0:
306,126,203280,1,8,0:0:0:0:
306,126,203355,1,0,0:0:0:0:
306,126,203430,1,8,0:0:0:0:
306,126,203505,1,0,0:0:0:0:
306,126,203580,1,8,0:0:0:0:
306,126,203730,1,0,0:0:0:0:
306,126,203805,1,8,0:0:0:0:
306,126,203955,1,8,0:0:0:0:
306,126,204030,1,0,0:0:0:0:
139,167,204180,1,8,0:0:0:0:
139,167,204330,1,0,0:0:0:0:
139,167,204405,1,0,0:0:0:0:
139,167,204480,1,8,0:0:0:0:
139,167,204555,1,8,0:0:0:0:
139,167,204630,1,0,0:0:0:0:
243,133,204780,1,8,0:0:0:0:
243,133,204930,1,0,0:0:0:0:
243,133,205005,1,0,0:0:0:0:
243,133,205080,1,8,0:0:0:0:
243,133,205230,1,8,0:0:0:0:
224,58,205380,1,4,0:0:0:0:
224,58,205530,1,0,0:0:0:0:
224,58,205605,1,0,0:0:0:0:
224,58,205680,1,8,0:0:0:0:
224,58,205755,1,8,0:0:0:0:
224,58,205830,1,0,0:0:0:0:
224,58,205980,1,8,0:0:0:0:
224,58,206055,1,8,0:0:0:0:
224,58,206130,1,0,0:0:0:0:
224,58,206205,1,0,0:0:0:0:
224,58,206280,1,8,0:0:0:0:
224,58,206355,1,0,0:0:0:0:
224,58,206430,1,8,0:0:0:0:
125,72,206580,1,4,0:0:0:0:
274,132,206730,1,0,0:0:0:0:
274,132,206805,1,8,0:0:0:0:
274,132,206955,1,8,0:0:0:0:
274,132,207030,1,0,0:0:0:0:
274,132,207180,1,8,0:0:0:0:
160,68,207255,1,0,0:0:0:0:
274,132,207330,1,8,0:0:0:0:
274,132,207405,1,8,0:0:0:0:
274,132,207480,1,0,0:0:0:0:
146,24,207630,1,8,0:0:0:0:
274,132,207780,1,0,0:0:0:0:
274,132,207855,1,0,0:0:0:0:
274,132,207930,1,0,0:0:0:0:
274,132,208005,1,0,0:0:0:0:
274,132,208080,1,8,0:0:0:0:
274,132,208155,1,8,0:0:0:0:
274,132,208230,1,0,0:0:0:0:
274,132,208305,1,0,0:0:0:0:
209,131,208380,1,8,0:0:0:0:
209,131,208430,1,8,0:0:0:0:
209,131,208480,1,8,0:0:0:0:
209,131,208530,1,0,0:0:0:0:
306,66,208605,1,0,0:0:0:0:
209,131,208680,1,8,0:0:0:0:
209,131,208730,1,0,0:0:0:0:
209,131,208780,1,0,0:0:0:0:
209,131,208830,1,8,0:0:0:0:
306,52,208905,1,8,0:0:0:0:
306,52,208980,1,0,0:0:0:0:
256,192,209130,12,0,210030,0:0:0:0:
205,82,210180,5,4,0:0:0:0:
289,332,210330,1,8,0:0:0:0:
289,332,210405,1,8,0:0:0:0:
289,332,210480,1,0,0:0:0:0:
289,332,210630,1,8,0:0:0:0:
289,332,210780,1,0,0:0:0:0:
232,75,210855,1,0,0:0:0:0:
289,332,210930,1,8,0:0:0:0:
289,332,211005,1,8,0:0:0:0:
289,332,211080,1,0,0:0:0:0:
192,56,211155,1,8,0:0:0:0:
289,332,211230,1,0,0:0:0:0:
202,77,211380,1,8,0:0:0:0:
202,77,211530,1,8,0:0:0:0:
202,77,211605,1,0,0:0:0:0:
202,77,211755,1,0,0:0:0:0:
202,77,211830,1,8,0:0:0:0:
188,49,211980,1,8,0:0:0:0:
188,49,212055,1,0,0:0:0:0:
188,49,212130,1,8,0:0:0:0:
188,49,212205,1,8,0:0:0:0:
188,49,212280,1,0,0:0:0:0:
188,49,212430,1,8,0:0:0:0:
192,23,212580,1,0,0:0:0:0:
160,12,212730,1,8,0:0:0:0:
160,12,212805,1,0,0:0:0:0:
160,12,212955,1,0,0:0:0:0:
160,12,213030,1,8,0:0:0:0:
188,49,213180,1,8,0:0:0:0:
188,49,213255,1,0,0:0:0:0:
188,49,213330,1,8,0:0:0:0:
188,49,213405,1,0,0:0:0:0:
188,49,213480,1,8,0:0:0:0:
188,49,213555,1,8,0:0:0:0:
188,49,213630,1,0,0:0:0:0:
188,49,213705,1,8,0:0:0:0:
188,49,213780,1,0,0:0:0:0:
178,49,213930,1,8,0:0:0:0:
179,50,214005,1,0,0:0:0:0:
179,50,214155,1,0,0:0:0:0:
179,50,214230,1,8,0:0:0:0:
188,49,214380,1,8,0:0:0:0:
188,49,214455,1,8,0:0:0:0:
188,49,214530,1,8,0:0:0:0:
188,49,214605,1,0,0:0:0:0:
188,49,214680,1,8,0:0:0:0:
188,49,214830,1,0,0:0:0:0:
188,49,214905,1,0,0:0:0:0:
188,49,214980,1,8,0:0:0:0:
188,49,215130,1,0,0:0:0:0:
188,49,215205,1,0,0:0:0:0:
188,49,215280,1,8,0:0:0:0:
188,49,215355,1,8,0:0:0:0:
188,49,215430,1,0,0:0:0:0:
188,49,215580,1,8,0:0:0:0:
188,49,215655,1,8,0:0:0:0:
188,49,215730,1,0,0:0:0:0:
188,49,215805,1,0,0:0:0:0:
188,49,215880,1,8,0:0:0:0:
188,49,215955,1,0,0:0:0:0:
188,49,216030,1,0,0:0:0:0:
254,77,216180,1,8,0:0:0:0:
188,49,216330,1,8,0:0:0:0:
188,49,216405,1,0,0:0:0:0:
188,49,216555,1,0,0:0:0:0:
188,49,216630,1,8,0:0:0:0:
188,49,216780,1,0,0:0:0:0:
188,49,216855,1,8,0:0:0:0:
188,49,216930,1,0,0:0:0:0:
188,49,217005,1,0,0:0:0:0:
188,49,217080,1,8,0:0:0:0:
263,66,217230,1,0,0:0:0:0:
263,66,217380,1,8,0:0:0:0:
188,49,217530,1,8,0:0:0:0:
188,49,217605,1,0,0:0:0:0:
188,49,217755,1,0,0:0:0:0:
188,49,217830,1,8,0:0:0:0:
188,49,217980,1,8,0:0:0:0:
188,49,218055,1,8,0:0:0:0:
188,49,218130,1,0,0:0:0:0:
188,49,218205,1,0,0:0:0:0:
188,49,218280,1,8,0:0:0:0:
188,49,218430,1,0,0:0:0:0:
188,49,218505,1,0,0:0:0:0:
188,49,218580,1,8,0:0:0:0:
188,49,218730,1,8,0:0:0:0:
188,49,218805,1,8,0:0:0:0:
188,49,218955,1,8,0:0:0:0:
188,49,219030,1,0,0:0:0:0:
188,49,219180,1,0,0:0:0:0:
188,49,219255,1,0,0:0:0:0:
188,49,219330,1,0,0:0:0:0:
188,49,219405,1,0,0:0:0:0:
188,49,219480,1,8,0:0:0:0:
205,82,219780,5,4,0:0:0:0:
289,332,219930,1,8,0:0:0:0:
289,332,220005,1,8,0:0:0:0:
289,332,220080,1,0,0:0:0:0:
289,332,220230,1,8,0:0:0:0:
289,332,220380,1,0,0:0:0:0:
232,75,220455,1,0,0:0:0:0:
289,332,220530,1,8,0:0:0:0:
289,332,220605,1,8,0:0:0:0:
289,332,220680,1,0,0:0:0:0:
192,56,220755,1,8,0:0:0:0:
289,332,220830,1,0,0:0:0:0:
202,77,220980,1,8,0:0:0:0:
202,77,221130,1,8,0:0:0:0:
202,77,221205,1,0,0:0:0:0:
202,77,221355,1,0,0:0:0:0:
202,77,221430,1,8,0:0:0:0:
188,49,221580,1,8,0:0:0:0:
188,49,221655,1,0,0:0:0:0:
188,49,221730,1,8,0:0:0:0:
188,49,221805,1,8,0:0:0:0:
188,49,221880,1,0,0:0:0:0:
188,49,222030,1,8,0:0:0:0:
192,23,222180,1,0,0:0:0:0:
160,12,222330,1,8,0:0:0:0:
160,12,222405,1,0,0:0:0:0:
160,12,222555,1,0,0:0:0:0:
160,12,222630,1,8,0:0:0:0:
188,49,222780,1,8,0:0:0:0:
188,49,222855,1,0,0:0:0:0:
188,49,222930,1,8,0:0:0:0:
188,49,223005,1,0,0:0:0:0:
188,49,223080,1,8,0:0:0:0:
188,49,223155,1,8,0:0:0:0:
188,49,223230,1,0,0:0:0:0:
188,49,223305,1,8,0:0:0:0:
188,49,223380,1,0,0:0:0:0:
178,49,223530,1,8,0:0:0:0:
179,50,223605,1,0,0:0:0:0:
179,50,223755,1,0,0:0:0:0:
179,50,223830,1,8,0:0:0:0:
188,49,223980,1,8,0:0:0:0:
188,49,224055,1,8,0:0:0:0:
188,49,224130,1,8,0:0:0:0:
188,49,224205,1,0,0:0:0:0:
188,49,224280,1,8,0:0:0:0:
188,49,224430,1,0,0:0:0:0:
188,49,224505,1,0,0:0:0:0:
188,49,224580,1,8,0:0:0:0:
188,49,224730,1,0,0:0:0:0:
188,49,224805,1,0,0:0:0:0:
188,49,224880,1,8,0:0:0:0:
188,49,224955,1,8,0:0:0:0:
188,49,225030,1,0,0:0:0:0:
188,49,225180,1,8,0:0:0:0:
188,49,225255,1,8,0:0:0:0:
188,49,225330,1,0,0:0:0:0:
188,49,225405,1,0,0:0:0:0:
188,49,225480,1,8,0:0:0:0:
188,49,225555,1,0,0:0:0:0:
188,49,225630,1,0,0:0:0:0:
254,77,225780,1,8,0:0:0:0:
188,49,225930,1,8,0:0:0:0:
188,49,226005,1,0,0:0:0:0:
188,49,226155,1,0,0:0:0:0:
188,49,226230,1,8,0:0:0:0:
188,49,226380,1,0,0:0:0:0:
188,49,226455,1,8,0:0:0:0:
188,49,226530,1,0,0:0:0:0:
188,49,226605,1,0,0:0:0:0:
188,49,226680,1,8,0:0:0:0:
263,66,226830,1,0,0:0:0:0:
263,66,226980,1,8,0:0:0:0:
188,49,227130,1,8,0:0:0:0:
148,0,227205,1,8,0:0:0:0:
188,49,227280,1,0,0:0:0:0:
188,49,227430,1,8,0:0:0:0:
188,49,227580,1,0,0:0:0:0:
188,49,227730,1,0,0:0:0:0:
188,49,227880,1,8,0:0:0:0:
188,49,228030,1,0,0:0:0:0:
188,49,228105,1,0,0:0:0:0:
188,49,228180,1,8,0:0:0:0:
211,90,228255,1,8,0:0:0:0:
188,49,228330,1,0,0:0:0:0:
188,49,228405,1,0,0:0:0:0:
211,90,228480,1,8,0:0:0:0:
188,49,228555,1,8,0:0:0:0:
188,49,228630,1,8,0:0:0:0:
211,90,228705,1,0,0:0:0:0:
188,49,228780,1,8,0:0:0:0:
188,49,228855,1,0,0:0:0:0:
188,49,228930,1,8,0:0:0:0:
188,49,229005,1,8,0:0:0:0:
188,49,229080,1,0,0:0:0:0:
266,72,229155,1,0,0:0:0:0:
266,72,229230,1,8,0:0:0:0:
188,49,229380,1,4,0:0:0:0:
175,165,234180,1,4,0:0:0:0:
173,164,235380,1,8,0:0:0:0:
154,147,236580,1,4,0:0:0:0:
154,147,237180,1,4,0:0:0:0:
145,136,237780,1,4,0:0:0:0:
145,136,238080,1,4,0:0:0:0:
145,136,238380,1,4,0:0:0:0:
145,136,238530,1,0,0:0:0:0:
139,92,238605,1,0,0:0:0:0:
139,92,238680,1,8,0:0:0:0:
139,92,238755,1,0,0:0:0:0:
139,92,238830,1,8,0:0:0:0:
139,92,238905,1,8,0:0:0:0:
139,92,238980,1,0,0:0:0:0:
256,192,239130,12,0,240030,0:0:0:0:
110,6,240180,5,4,0:0:0:0:
164,172,240330,1,0,0:0:0:0:
164,172,240405,1,8,0:0:0:0:
177,177,240555,1,8,0:0:0:0:
56,19,240630,1,0,0:0:0:0:
177,177,240780,1,8,0:0:0:0:
177,177,240855,1,8,0:0:0:0:
177,177,240930,1,8,0:0:0:0:
177,177,241005,1,0,0:0:0:0:
177,177,241080,1,8,0:0:0:0:
177,177,241230,1,0,0:0:0:0:
81,26,241305,1,0,0:0:0:0:
177,177,241380,1,8,0:0:0:0:
177,177,241455,1,8,0:0:0:0:
177,177,241530,1,0,0:0:0:0:
177,177,241680,1,8,0:0:0:0:
177,177,241830,1,0,0:0:0:0:
176,88,241905,1,0,0:0:0:0:
179,98,241980,1,8,0:0:0:0:
177,177,242130,1,0,0:0:0:0:
177,177,242205,1,8,0:0:0:0:
177,177,242280,1,0,0:0:0:0:
177,177,242430,1,8,0:0:0:0:
177,177,242505,1,8,0:0:0:0:
170,57,242580,1,8,0:0:0:0:
235,214,242655,1,0,0:0:0:0:
177,177,242730,1,0,0:0:0:0:
177,177,242805,1,8,0:0:0:0:
177,177,242880,1,8,0:0:0:0:
177,177,242955,1,0,0:0:0:0:
177,177,243030,1,8,0:0:0:0:
177,177,243105,1,8,0:0:0:0:
112,28,243180,1,0,0:0:0:0:
177,177,243330,1,0,0:0:0:0:
138,70,243405,1,8,0:0:0:0:
177,177,243480,1,0,0:0:0:0:
177,177,243630,1,8,0:0:0:0:
177,177,243705,1,8,0:0:0:0:
177,177,243780,1,0,0:0:0:0:
230,73,243930,1,8,0:0:0:0:
230,73,244005,1,0,0:0:0:0:
230,73,244155,1,0,0:0:0:0:
239,76,244230,1,8,0:0:0:0:
177,177,244380,1,8,0:0:0:0:
177,177,244455,1,8,0:0:0:0:
177,177,244530,1,8,0:0:0:0:
177,177,244605,1,8,0:0:0:0:
177,177,244680,1,0,0:0:0:0:
232,122,244830,1,8,0:0:0:0:
192,37,244980,1,8,0:0:0:0:
138,51,245055,1,0,0:0:0:0:
138,51,245205,1,0,0:0:0:0:
138,51,245280,1,8,0:0:0:0:
177,177,245430,1,8,0:0:0:0:
177,177,245505,1,0,0:0:0:0:
177,177,245580,1,8,0:0:0:0:
151,52,245655,1,8,0:0:0:0:
149,52,245730,1,0,0:0:0:0:
196,58,245805,1,8,0:0:0:0:
177,177,245880,1,0,0:0:0:0:
177,177,246030,1,8,0:0:0:0:
177,177,246105,1,0,0:0:0:0:
177,177,246180,1,8,0:0:0:0:
177,177,246330,1,0,0:0:0:0:
168,53,246480,1,8,0:0:0:0:
177,177,246630,1,8,0:0:0:0:
177,177,246705,1,0,0:0:0:0:
177,177,246855,1,0,0:0:0:0:
177,177,246930,1,8,0:0:0:0:
177,177,247005,1,8,0:0:0:0:
177,177,247080,1,0,0:0:0:0:
187,71,247155,1,0,0:0:0:0:
177,177,247230,1,8,0:0:0:0:
222,52,247305,1,8,0:0:0:0:
165,59,247380,1,0,0:0:0:0:
177,177,247530,1,8,0:0:0:0:
177,177,247605,1,0,0:0:0:0:
177,177,247755,1,0,0:0:0:0:
177,177,247830,1,8,0:0:0:0:
177,177,247905,1,8,0:0:0:0:
177,177,247980,1,0,0:0:0:0:
177,177,248130,1,8,0:0:0:0:
177,177,248205,1,0,0:0:0:0:
177,177,248355,1,0,0:0:0:0:
177,177,248430,1,8,0:0:0:0:
177,177,248505,1,0,0:0:0:0:
214,32,248580,1,8,0:0:0:0:
177,177,248730,1,0,0:0:0:0:
177,177,248805,1,0,0:0:0:0:
177,177,248880,1,8,0:0:0:0:
177,177,248955,1,0,0:0:0:0:
177,177,249030,1,8,0:0:0:0:
177,177,249105,1,0,0:0:0:0:
177,177,249180,1,8,0:0:0:0:
177,177,249255,1,8,0:0:0:0:
177,177,249330,1,8,0:0:0:0:
177,177,249405,1,8,0:0:0:0:
177,177,249480,1,0,0:0:0:0:
177,177,249555,1,0,0:0:0:0:
177,177,249630,1,8,0:0:0:0:
110,6,249780,5,4,0:0:0:0:
164,172,249930,1,8,0:0:0:0:
164,172,250005,1,0,0:0:0:0:
177,177,250155,1,8,0:0:0:0:
56,19,250230,1,0,0:0:0:0:
177,177,250380,1,8,0:0:0:0:
177,177,250455,1,0,0:0:0:0:
177,177,250530,1,0,0:0:0:0:
177,177,250605,1,8,0:0:0:0:
177,177,250680,1,0,0:0:0:0:
177,177,250830,1,0,0:0:0:0:
81,26,250905,1,0,0:0:0:0:
177,177,250980,1,8,0:0:0:0:
177,177,251055,1,8,0:0:0:0:
177,177,251130,1,0,0:0:0:0:
177,177,251280,1,8,0:0:0:0:
176,88,251355,1,0,0:0:0:0:
177,177,251430,1,0,0:0:0:0:
179,98,251580,1,8,0:0:0:0:
170,57,251655,1,8,0:0:0:0:
177,177,251730,1,0,0:0:0:0:
177,177,251805,1,0,0:0:0:0:
177,177,251880,1,8,0:0:0:0:
177,177,252030,1,0,0:0:0:0:
170,57,252180,1,8,0:0:0:0:
230,83,252255,1,8,0:0:0:0:
177,177,252330,1,0,0:0:0:0:
177,177,252405,1,0,0:0:0:0:
177,177,252480,1,8,0:0:0:0:
177,177,252555,1,0,0:0:0:0:
177,177,252630,1,8,0:0:0:0:
177,177,252705,1,8,0:0:0:0:
112,28,252780,1,0,0:0:0:0:
177,177,252930,1,8,0:0:0:0:
138,70,253005,1,8,0:0:0:0:
177,177,253080,1,0,0:0:0:0:
177,177,253230,1,8,0:0:0:0:
177,177,253305,1,8,0:0:0:0:
177,177,253380,1,8,0:0:0:0:
230,73,253455,1,0,0:0:0:0:
192,37,253530,1,0,0:0:0:0:
230,73,253605,1,8,0:0:0:0:
230,73,253680,1,0,0:0:0:0:
192,37,253755,1,0,0:0:0:0:
239,76,253830,1,8,0:0:0:0:
177,177,253905,1,0,0:0:0:0:
177,177,253980,1,8,0:0:0:0:
177,177,254055,1,8,0:0:0:0:
177,177,254130,1,8,0:0:0:0:
177,177,254205,1,8,0:0:0:0:
177,177,254280,1,0,0:0:0:0:
232,122,254430,1,8,0:0:0:0:
192,37,254580,1,8,0:0:0:0:
138,51,254655,1,0,0:0:0:0:
138,51,254805,1,0,0:0:0:0:
138,51,254880,1,8,0:0:0:0:
177,177,255030,1,8,0:0:0:0:
177,177,255105,1,0,0:0:0:0:
177,177,255180,1,8,0:0:0:0:
151,52,255255,1,8,0:0:0:0:
149,52,255330,1,0,0:0:0:0:
196,58,255405,1,8,0:0:0:0:
177,177,255480,1,0,0:0:0:0:
177,177,255630,1,8,0:0:0:0:
177,177,255705,1,0,0:0:0:0:
177,177,255780,1,8,0:0:0:0:
177,177,255930,1,0,0:0:0:0:
168,53,256080,1,8,0:0:0:0:
177,177,256230,1,8,0:0:0:0:
177,177,256305,1,8,0:0:0:0:
283,172,256380,1,8,0:0:0:0:
177,177,256455,1,0,0:0:0:0:
177,177,256530,1,0,0:0:0:0:
177,177,256605,1,8,0:0:0:0:
177,177,256680,1,0,0:0:0:0:
177,177,256830,1,8,0:0:0:0:
222,52,256905,1,8,0:0:0:0:
165,59,256980,1,0,0:0:0:0:
177,177,257130,1,8,0:0:0:0:
177,177,257205,1,0,0:0:0:0:
177,177,257355,1,0,0:0:0:0:
177,177,257430,1,8,0:0:0:0:
177,177,257505,1,8,0:0:0:0:
177,177,257580,1,0,0:0:0:0:
177,177,257730,1,8,0:0:0:0:
177,177,257805,1,0,0:0:0:0:
177,177,257955,1,0,0:0:0:0:
177,177,258030,1,8,0:0:0:0:
177,177,258105,1,0,0:0:0:0:
214,32,258180,1,8,0:0:0:0:
177,177,258330,5,0,0:0:0:0:
177,177,258405,1,0,0:0:0:0:
177,177,258480,1,8,0:0:0:0:
177,177,258555,1,0,0:0:0:0:
177,177,258630,1,8,0:0:0:0:
177,177,258705,1,0,0:0:0:0:
177,177,258780,1,8,0:0:0:0:
177,177,258855,1,8,0:0:0:0:
177,177,258930,1,8,0:0:0:0:
177,177,259005,1,8,0:0:0:0:
177,177,259080,1,0,0:0:0:0:
177,177,259155,1,0,0:0:0:0:
177,177,259230,1,8,0:0:0:0:
96,317,259380,5,4,0:0:0:0:
80,82,259530,1,0,0:0:0:0:
80,82,259680,1,8,0:0:0:0:
173,68,259830,1,0,0:0:0:0:
173,68,259905,1,0,0:0:0:0:
173,68,259980,1,8,0:0:0:0:
186,74,260130,1,0,0:0:0:0:
186,74,260280,1,8,0:0:0:0:
131,37,260355,1,8,0:0:0:0:
186,74,260430,1,0,0:0:0:0:
192,1,260580,1,8,0:0:0:0:
192,1,260730,1,0,0:0:0:0:
192,1,260880,1,8,0:0:0:0:
192,1,260955,1,0,0:0:0:0:
192,1,261030,1,0,0:0:0:0:
192,1,261180,1,8,0:0:0:0:
121,210,261255,1,0,0:0:0:0:
192,1,261330,1,8,0:0:0:0:
192,1,261405,1,8,0:0:0:0:
192,1,261480,1,0,0:0:0:0:
192,1,261630,1,8,0:0:0:0:
160,15,261780,1,0,0:0:0:0:
160,15,261855,1,0,0:0:0:0:
160,15,261930,1,8,0:0:0:0:
160,15,262080,1,0,0:0:0:0:
160,15,262230,1,8,0:0:0:0:
181,13,262305,1,8,0:0:0:0:
160,15,262380,1,0,0:0:0:0:
193,56,262455,1,0,0:0:0:0:
160,15,262530,1,8,0:0:0:0:
160,15,262680,1,0,0:0:0:0:
127,33,262830,1,8,0:0:0:0:
169,78,262980,1,0,0:0:0:0:
169,78,263055,1,0,0:0:0:0:
173,42,263130,1,8,0:0:0:0:
169,78,263280,1,8,0:0:0:0:
169,78,263430,1,0,0:0:0:0:
169,78,263580,1,0,0:0:0:0:
169,78,263655,1,0,0:0:0:0:
169,78,263730,1,8,0:0:0:0:
169,78,263805,1,0,0:0:0:0:
169,78,263880,1,8,0:0:0:0:
169,78,263955,1,8,0:0:0:0:
169,78,264030,1,8,0:0:0:0:
169,78,264105,1,0,0:0:0:0:
169,78,264180,1,8,0:0:0:0:
80,82,264330,1,0,0:0:0:0:
80,82,264480,1,8,0:0:0:0:
173,68,264630,1,0,0:0:0:0:
173,68,264705,1,0,0:0:0:0:
173,68,264780,1,8,0:0:0:0:
186,74,264930,1,0,0:0:0:0:
186,74,265080,1,8,0:0:0:0:
131,37,265155,1,8,0:0:0:0:
186,74,265230,1,0,0:0:0:0:
192,1,265380,1,8,0:0:0:0:
192,1,265530,1,0,0:0:0:0:
192,1,265680,1,8,0:0:0:0:
192,1,265755,1,0,0:0:0:0:
192,1,265830,1,0,0:0:0:0:
192,1,265980,1,8,0:0:0:0:
192,1,266055,1,0,0:0:0:0:
192,1,266130,1,8,0:0:0:0:
192,1,266205,1,8,0:0:0:0:
192,1,266280,1,0,0:0:0:0:
192,1,266430,1,8,0:0:0:0:
160,15,266580,1,0,0:0:0:0:
160,15,266655,1,0,0:0:0:0:
160,15,266730,1,8,0:0:0:0:
160,15,266880,1,0,0:0:0:0:
160,15,267030,1,8,0:0:0:0:
181,13,267105,1,8,0:0:0:0:
160,15,267180,1,0,0:0:0:0:
193,56,267255,1,0,0:0:0:0:
160,15,267330,1,8,0:0:0:0:
160,15,267480,1,0,0:0:0:0:
127,33,267630,1,8,0:0:0:0:
169,78,267780,1,0,0:0:0:0:
169,78,267855,1,0,0:0:0:0:
173,42,267930,1,8,0:0:0:0:
169,78,268080,1,8,0:0:0:0:
169,78,268230,1,0,0:0:0:0:
169,78,268380,1,8,0:0:0:0:
169,78,268530,1,8,0:0:0:0:
169,78,268605,1,0,0:0:0:0:
169,78,268680,1,8,0:0:0:0:
169,78,268830,1,8,0:0:0:0:
96,317,268980,5,4,0:0:0:0:
80,82,269130,1,0,0:0:0:0:
80,82,269280,1,8,0:0:0:0:
173,68,269430,1,0,0:0:0:0:
173,68,269505,1,0,0:0:0:0:
173,68,269580,1,8,0:0:0:0:
186,74,269730,1,0,0:0:0:0:
186,74,269880,1,8,0:0:0:0:
131,37,269955,1,8,0:0:0:0:
186,74,270030,1,0,0:0:0:0:
192,1,270180,1,8,0:0:0:0:
192,1,270330,1,0,0:0:0:0:
192,1,270480,1,8,0:0:0:0:
192,1,270555,1,0,0:0:0:0:
192,1,270630,1,0,0:0:0:0:
192,1,270705,1,0,0:0:0:0:
192,1,270780,1,8,0:0:0:0:
192,1,270930,1,8,0:0:0:0:
192,1,271005,1,8,0:0:0:0:
192,1,271080,1,0,0:0:0:0:
192,1,271230,1,8,0:0:0:0:
160,15,271380,1,0,0:0:0:0:
160,15,271455,1,0,0:0:0:0:
160,15,271530,1,8,0:0:0:0:
160,15,271680,1,0,0:0:0:0:
160,15,271830,1,8,0:0:0:0:
181,13,271905,1,8,0:0:0:0:
160,15,271980,1,0,0:0:0:0:
193,56,272055,1,0,0:0:0:0:
160,15,272130,1,8,0:0:0:0:
160,15,272280,1,0,0:0:0:0:
127,33,272430,1,8,0:0:0:0:
169,78,272580,1,0,0:0:0:0:
169,78,272655,1,0,0:0:0:0:
173,42,272730,1,8,0:0:0:0:
169,78,272880,1,8,0:0:0:0:
169,78,273030,1,0,0:0:0:0:
169,78,273180,1,0,0:0:0:0:
169,78,273255,1,0,0:0:0:0:
169,78,273330,1,8,0:0:0:0:
169,78,273405,1,0,0:0:0:0:
169,78,273480,1,8,0:0:0:0:
169,78,273555,1,8,0:0:0:0:
169,78,273630,1,0,0:0:0:0:
169,78,273780,1,4,0:0:0:0:
80,82,273930,1,0,0:0:0:0:
80,82,274080,1,8,0:0:0:0:
173,68,274230,1,0,0:0:0:0:
173,68,274305,1,0,0:0:0:0:
173,68,274380,1,8,0:0:0:0:
186,74,274530,1,0,0:0:0:0:
186,74,274680,1,8,0:0:0:0:
131,37,274755,1,8,0:0:0:0:
186,74,274830,1,0,0:0:0:0:
192,1,274980,1,4,0:0:0:0:
192,1,275130,1,0,0:0:0:0:
192,1,275280,1,8,0:0:0:0:
192,1,275355,1,0,0:0:0:0:
192,1,275430,1,0,0:0:0:0:
192,1,275505,1,0,0:0:0:0:
192,1,275580,1,8,0:0:0:0:
192,1,275730,1,8,0:0:0:0:
192,1,275805,1,8,0:0:0:0:
192,1,275880,1,0,0:0:0:0:
192,1,276030,1,8,0:0:0:0:
160,15,276180,1,0,0:0:0:0:
160,15,276255,1,0,0:0:0:0:
160,15,276330,1,8,0:0:0:0:
160,15,276480,1,0,0:0:0:0:
160,15,276630,1,8,0:0:0:0:
160,15,276780,1,0,0:0:0:0:
193,56,276855,1,0,0:0:0:0:
160,15,276930,1,8,0:0:0:0:
181,13,277005,1,8,0:0:0:0:
160,15,277080,1,0,0:0:0:0:
127,33,277230,1,8,0:0:0:0:
169,78,277380,1,0,0:0:0:0:
169,78,277455,1,0,0:0:0:0:
173,42,277530,1,8,0:0:0:0:
223,100,277605,1,0,0:0:0:0:
169,78,277680,1,8,0:0:0:0:
223,100,277755,1,8,0:0:0:0:
169,78,277830,1,0,0:0:0:0:
223,100,277905,1,0,0:0:0:0:
169,78,277980,1,8,0:0:0:0:
223,100,278055,1,0,0:0:0:0:
169,78,278130,1,8,0:0:0:0:
169,78,278205,1,8,0:0:0:0:
169,78,278280,1,8,0:0:0:0:
223,100,278355,1,0,0:0:0:0:
169,78,278430,1,8,0:0:0:0:
96,317,278580,5,4,0:0:0:0:
80,82,278730,1,0,0:0:0:0:
80,82,278880,1,8,0:0:0:0:
173,68,279030,1,0,0:0:0:0:
173,68,279105,1,0,0:0:0:0:
173,68,279180,1,8,0:0:0:0:
186,74,279330,1,0,0:0:0:0:
186,74,279480,1,8,0:0:0:0:
131,37,279555,1,8,0:0:0:0:
186,74,279630,1,0,0:0:0:0:
192,1,279780,1,8,0:0:0:0:
192,1,279930,1,0,0:0:0:0:
192,1,280080,1,8,0:0:0:0:
192,1,280155,1,0,0:0:0:0:
192,1,280230,1,0,0:0:0:0:
345,4,280305,1,0,0:0:0:0:
192,1,280380,1,8,0:0:0:0:
121,210,280455,1,0,0:0:0:0:
192,1,280530,1,8,0:0:0:0:
192,1,280605,1,8,0:0:0:0:
192,1,280680,1,0,0:0:0:0:
192,1,280830,1,8,0:0:0:0:
160,15,280980,1,0,0:0:0:0:
160,15,281055,1,0,0:0:0:0:
160,15,281130,1,8,0:0:0:0:
160,15,281280,1,0,0:0:0:0:
160,15,281430,1,8,0:0:0:0:
181,13,281505,1,8,0:0:0:0:
160,15,281580,1,0,0:0:0:0:
193,56,281655,1,0,0:0:0:0:
160,15,281730,1,8,0:0:0:0:
160,15,281880,1,0,0:0:0:0:
127,33,282030,1,8,0:0:0:0:
169,78,282180,1,0,0:0:0:0:
169,78,282255,1,0,0:0:0:0:
173,42,282330,1,8,0:0:0:0:
169,78,282480,1,8,0:0:0:0:
144,98,282555,1,0,0:0:0:0:
169,78,282630,1,0,0:0:0:0:
169,78,282780,1,0,0:0:0:0:
169,78,282930,1,8,0:0:0:0:
169,78,283005,1,0,0:0:0:0:
169,78,283080,1,8,0:0:0:0:
169,78,283155,1,8,0:0:0:0:
169,78,283230,1,0,0:0:0:0:
169,78,283380,1,8,0:0:0:0:
133,20,283455,1,0,0:0:0:0:
80,82,283530,1,0,0:0:0:0:
80,82,283680,1,8,0:0:0:0:
173,68,283830,1,0,0:0:0:0:
173,68,283905,1,0,0:0:0:0:
173,68,283980,1,8,0:0:0:0:
186,74,284130,1,0,0:0:0:0:
186,74,284280,1,8,0:0:0:0:
131,37,284355,1,8,0:0:0:0:
186,74,284430,1,0,0:0:0:0:
192,1,284580,1,8,0:0:0:0:
192,1,284730,1,0,0:0:0:0:
192,1,284880,1,8,0:0:0:0:
192,1,284955,1,8,0:0:0:0:
192,1,285030,1,0,0:0:0:0:
161,23,285105,1,0,0:0:0:0:
192,1,285180,1,8,0:0:0:0:
192,1,285255,1,8,0:0:0:0:
192,1,285330,1,0,0:0:0:0:
192,1,285405,1,8,0:0:0:0:
192,1,285480,1,0,0:0:0:0:
192,1,285630,1,8,0:0:0:0:
160,15,285780,1,0,0:0:0:0:
160,15,285855,1,0,0:0:0:0:
160,15,285930,1,8,0:0:0:0:
160,15,286080,1,0,0:0:0:0:
160,15,286230,1,8,0:0:0:0:
181,13,286305,1,8,0:0:0:0:
160,15,286380,1,0,0:0:0:0:
193,56,286455,1,0,0:0:0:0:
160,15,286530,1,8,0:0:0:0:
160,15,286680,1,0,0:0:0:0:
127,33,286830,1,8,0:0:0:0:
169,78,286980,1,0,0:0:0:0:
169,78,287055,1,0,0:0:0:0:
173,42,287130,1,8,0:0:0:0:
169,78,287280,1,8,0:0:0:0:
161,23,287355,1,0,0:0:0:0:
169,78,287430,1,0,0:0:0:0:
169,78,287580,1,8,0:0:0:0:
169,78,287730,1,8,0:0:0:0:
169,78,287805,1,0,0:0:0:0:
169,78,287880,1,8,0:0:0:0:
169,78,288030,1,8,0:0:0:0:
96,317,288180,5,4,0:0:0:0:
80,82,288330,1,0,0:0:0:0:
80,82,288480,1,8,0:0:0:0:
173,68,288630,1,0,0:0:0:0:
173,68,288705,1,0,0:0:0:0:
173,68,288780,1,8,0:0:0:0:
186,74,288930,1,0,0:0:0:0:
186,74,289080,1,8,0:0:0:0:
131,37,289155,1,8,0:0:0:0:
186,74,289230,1,0,0:0:0:0:
192,1,289380,1,8,0:0:0:0:
192,1,289530,1,0,0:0:0:0:
192,1,289680,1,8,0:0:0:0:
192,1,289755,1,0,0:0:0:0:
192,1,289830,1,8,0:0:0:0:
192,1,289905,1,0,0:0:0:0:
192,1,289980,1,8,0:0:0:0:
160,20,290055,1,8,0:0:0:0:
192,1,290130,1,0,0:0:0:0:
192,1,290205,1,0,0:0:0:0:
192,1,290280,1,8,0:0:0:0:
192,1,290430,1,8,0:0:0:0:
160,15,290580,1,0,0:0:0:0:
160,15,290655,1,0,0:0:0:0:
160,15,290730,1,8,0:0:0:0:
160,15,290880,1,0,0:0:0:0:
160,15,291030,1,8,0:0:0:0:
181,13,291105,1,8,0:0:0:0:
160,15,291180,1,0,0:0:0:0:
193,56,291255,1,0,0:0:0:0:
160,15,291330,1,8,0:0:0:0:
160,15,291480,1,0,0:0:0:0:
127,33,291630,1,8,0:0:0:0:
169,78,291780,1,0,0:0:0:0:
169,78,291855,1,0,0:0:0:0:
173,42,291930,1,8,0:0:0:0:
169,78,292080,1,8,0:0:0:0:
160,20,292155,1,0,0:0:0:0:
169,78,292230,1,0,0:0:0:0:
169,78,292380,1,8,0:0:0:0:
169,78,292455,1,8,0:0:0:0:
169,78,292530,1,0,0:0:0:0:
169,78,292605,1,8,0:0:0:0:
169,78,292680,1,0,0:0:0:0:
169,78,292755,1,0,0:0:0:0:
169,78,292830,1,8,0:0:0:0:
169,78,292980,1,4,0:0:0:0:
80,82,293130,1,0,0:0:0:0:
80,82,293280,1,8,0:0:0:0:
173,68,293430,1,0,0:0:0:0:
173,68,293505,1,0,0:0:0:0:
173,68,293580,1,8,0:0:0:0:
194,148,293655,1,8,0:0:0:0:
186,74,293730,1,0,0:0:0:0:
186,74,293880,1,8,0:0:0:0:
131,37,293955,1,8,0:0:0:0:
186,74,294030,1,0,0:0:0:0:
192,1,294180,1,4,0:0:0:0:
192,1,294330,5,0,0:0:0:0:
192,1,294480,1,8,0:0:0:0:
192,1,294555,1,8,0:0:0:0:
192,1,294630,1,8,0:0:0:0:
192,1,294705,1,0,0:0:0:0:
192,1,294780,1,8,0:0:0:0:
160,20,294855,1,8,0:0:0:0:
192,1,294930,1,8,0:0:0:0:
192,1,295005,1,8,0:0:0:0:
192,1,295080,1,0,0:0:0:0:
192,1,295230,1,8,0:0:0:0:
160,15,295380,1,8,0:0:0:0:
160,15,295455,1,8,0:0:0:0:
160,15,295530,1,0,0:0:0:0:
188,19,295605,1,0,0:0:0:0:
160,15,295680,1,0,0:0:0:0:
188,19,295755,1,0,0:0:0:0:
160,15,295830,1,8,0:0:0:0:
181,13,295905,1,0,0:0:0:0:
160,15,295980,1,8,0:0:0:0:
193,56,296055,1,8,0:0:0:0:
160,15,296130,1,0,0:0:0:0:
188,19,296205,1,0,0:0:0:0:
160,15,296280,1,0,0:0:0:0:
188,19,296355,1,0,0:0:0:0:
127,33,296430,1,8,0:0:0:0:
188,19,296505,1,0,0:0:0:0:
169,78,296580,1,8,0:0:0:0:
169,78,296655,1,8,0:0:0:0:
173,42,296730,1,8,0:0:0:0:
223,100,296805,1,0,0:0:0:0:
169,78,296880,1,8,0:0:0:0:
223,100,296955,1,8,0:0:0:0:
169,78,297030,1,0,0:0:0:0:
223,100,297105,1,0,0:0:0:0:
169,78,297180,1,8,0:0:0:0:
223,100,297255,1,0,0:0:0:0:
169,78,297330,1,8,0:0:0:0:
169,78,297405,1,8,0:0:0:0:
169,78,297480,1,0,0:0:0:0:
223,100,297555,1,0,0:0:0:0:
169,78,297630,1,8,0:0:0:0:
160,20,297705,1,8,0:0:0:0:
160,20,297780,1,0,0:0:0:0:
175,60,298080,1,8,0:0:0:0:
176,61,298230,1,8,0:0:0:0:
176,61,298380,1,0,0:0:0:0:
176,61,298530,1,0,0:0:0:0:
176,61,298605,1,0,0:0:0:0:
175,60,298680,1,8,0:0:0:0:
175,60,298755,1,0,0:0:0:0:
175,60,298830,1,8,0:0:0:0:
175,60,298980,1,4,0:0:0:0:
256,192,299055,12,0,310980,0:0:0:0:
