osu file format v14

[General]
AudioFilename: audio.mp3
AudioLeadIn: 0
PreviewTime: 178299
Countdown: 0
SampleSet: Normal
StackLeniency: 0.7
Mode: 1
LetterboxInBreaks: 0
WidescreenStoryboard: 0

[Editor]
Bookmarks: 33063,52563,67863,82263,91863,115863,197763,219063,296163
DistanceSpacing: 0.1
BeatDivisor: 4
GridSize: 32
TimelineZoom: 1.899999

[Metadata]
Title:Respective Graduation
TitleUnicode:Respective Graduation
Artist:Hayakore Tatsumi
ArtistUnicode:Hayakore Tatsumi
Creator:KuroKuroKuro
Version:My Most Precious Treasure
Source:Angel Beats!
Tags:tamolarm japanese track 1 anime j-core jcore hardcore nerdcore frenchcore hardtek remix bootleg 一番の宝物 ichiban no takaramono ~Yui final ver.~ Comet Suisei Cure girls dead monster starring lisa electronic
BeatmapID:3243162
BeatmapSetID:1587925

[Difficulty]
HPDrainRate:5
CircleSize:5
OverallDifficulty:6.5
ApproachRate:5
SliderMultiplier:1.4
SliderTickRate:1

[Events]
//Background and Video events
0,0,"11670173_p0_master1200.jpg",0,150
//Break Periods
2,56099,61899
2,198749,217899
//Storyboard Layer 0 (Background)
//Storyboard Layer 1 (Fail)
//Storyboard Layer 2 (Pass)
//Storyboard Layer 3 (Foreground)
//Storyboard Layer 4 (Overlay)
//Storyboard Sound Samples

[TimingPoints]
699,300,4,1,0,75,1,0
47499,-100,4,1,0,75,0,0
47649,-99.5334370139969,4,1,0,75,0,0
47724,-99.3017843289372,4,1,0,75,0,0
47799,-99.0712074303406,4,1,0,75,0,0
47949,-98.613251155624,4,1,0,75,0,0
48099,-98.159509202454,4,1,0,75,0,0
48174,-97.9342004590666,4,1,0,75,0,0
48249,-97.7099236641221,4,1,0,75,0,0
48324,-97.4866717440975,4,1,0,75,0,0
48399,-97.2644376899696,4,1,0,75,0,0
48549,-96.8229954614221,4,1,0,75,0,0
48699,-96.3855421686747,4,1,0,75,0,0
48849,-95.952023988006,4,1,0,75,0,0
48924,-95.7367240089753,4,1,0,75,0,0
48999,-95.5223880597015,4,1,0,75,0,0
49149,-95.0965824665676,4,1,0,75,0,0
49224,-94.885100074129,4,1,0,75,0,0
49299,-94.6745562130178,4,1,0,75,0,0
49374,-94.4649446494465,4,1,0,75,0,0
49449,-94.2562592047128,4,1,0,75,0,0
49599,-93.841642228739,4,1,0,75,0,0
49749,-93.4306569343066,4,1,0,75,0,0
49899,-93.0232558139535,4,1,0,75,0,0
50049,-92.6193921852388,4,1,0,75,0,0
50124,-92.4187725631769,4,1,0,75,0,0
50199,-92.2190201729107,4,1,0,75,0,0
50349,-91.8220946915351,4,1,0,75,0,0
50499,-91.4285714285714,4,1,0,75,0,0
50649,-91.0384068278805,4,1,0,75,0,0
50724,-90.8445706174592,4,1,0,75,0,0
50799,-90.6515580736544,4,1,0,75,0,0
50874,-90.4593639575972,4,1,0,75,0,0
50949,-90.2679830747532,4,1,0,75,0,0
51099,-89.8876404494382,4,1,0,75,0,0
51174,-89.6986685353889,4,1,0,75,0,0
51249,-89.5104895104895,4,1,0,75,0,0
51324,-89.3230983949756,4,1,0,75,0,0
51399,-89.1364902506964,4,1,0,75,0,0
51474,-88.950660180681,4,1,0,75,0,0
51549,-88.7656033287101,4,1,0,75,0,0
51624,-88.5813148788927,4,1,0,75,0,0
51699,-88.3977900552486,4,1,0,75,0,0
51774,-88.2150241212957,4,1,0,75,0,0
51849,-88.0330123796424,4,1,0,75,0,0
51924,-87.8517501715855,4,1,0,75,0,0
51999,-87.6712328767123,4,1,0,75,0,0
52074,-87.4914559125086,4,1,0,75,0,0
52149,-87.31241473397,4,1,0,75,0,0
52224,-87.1341048332199,4,1,0,75,0,0
52299,-86.9565217391304,4,1,0,75,0,0
52599,-86.9565217391304,4,1,0,75,0,0
52749,-86.9565217391304,4,1,0,60,0,0
63099,-133.333333333333,4,1,0,75,0,0
64299,-126.984126984127,4,1,0,76,0,0
65499,-121.212121212121,4,1,0,78,0,0
66699,-115.942028985507,4,1,0,79,0,0
67899,-111.111111111111,4,1,0,80,0,0
68049,-110.535405872193,4,1,0,80,0,0
68199,-109.965635738832,4,1,0,80,0,0
68349,-109.401709401709,4,1,0,80,0,0
68499,-108.843537414966,4,1,0,81,0,0
68649,-108.2910321489,4,1,0,81,0,0
68799,-107.744107744108,4,1,0,81,0,0
68949,-107.202680067002,4,1,0,81,0,0
69099,-106.666666666667,4,1,0,81,0,0
69249,-106.135986733002,4,1,0,81,0,0
69399,-105.610561056106,4,1,0,82,0,0
69549,-105.090311986864,4,1,0,82,0,0
69699,-104.575163398693,4,1,0,82,0,0
69849,-104.065040650407,4,1,0,82,0,0
69999,-103.559870550162,4,1,0,82,0,0
70149,-103.059581320451,4,1,0,82,0,0
70299,-102.564102564103,4,1,0,83,0,0
70374,-102.318145483613,4,1,0,83,0,0
70449,-102.07336523126,4,1,0,83,0,0
70524,-101.829753381066,4,1,0,83,0,0
70599,-101.587301587302,4,1,0,83,0,0
70674,-101.346001583531,4,1,0,83,0,0
70749,-101.105845181675,4,1,0,83,0,0
70899,-100.62893081761,4,1,0,83,0,0
70974,-100.392156862745,4,1,0,83,0,0
71049,-100.156494522692,4,1,0,83,0,0
71124,-99.9219359875098,4,1,0,83,0,0
71199,-99.6884735202492,4,1,0,83,0,0
71274,-99.4560994560995,4,1,0,84,0,0
71349,-99.2248062015504,4,1,0,84,0,0
71499,-98.7654320987654,4,1,0,84,0,0
71574,-98.5373364126251,4,1,0,84,0,0
71649,-98.310291858679,4,1,0,84,0,0
71724,-98.0842911877395,4,1,0,84,0,0
71799,-97.8593272171254,4,1,0,84,0,0
71874,-97.6353928299008,4,1,0,84,0,0
71949,-97.4124809741248,4,1,0,84,0,0
72024,-97.1905846621109,4,1,0,84,0,0
72099,-96.969696969697,4,1,0,84,0,0
72174,-96.7498110355253,4,1,0,84,0,0
72249,-96.5309200603318,4,1,0,85,0,0
72324,-96.3130173062453,4,1,0,85,0,0
72399,-96.0960960960961,4,1,0,85,0,0
72699,-95.2380952380952,4,1,0,85,0,1
82524,-94.9913644214162,4,1,0,80,0,1
82599,-94.909404659189,4,1,0,80,0,1
82749,-94.7459086993971,4,1,0,80,0,1
82899,-94.5829750644884,4,1,0,80,0,1
82974,-94.5017182130584,4,1,0,80,0,1
83049,-94.4206008583691,4,1,0,80,0,1
83124,-94.3396226415094,4,1,0,81,0,1
83199,-94.2587832047986,4,1,0,81,0,1
83349,-94.0975192472199,4,1,0,81,0,1
83499,-93.936806148591,4,1,0,81,0,1
83649,-93.7766410912191,4,1,0,81,0,1
83724,-93.6967632027257,4,1,0,81,0,1
83799,-93.6170212765958,4,1,0,81,0,1
83949,-93.4579439252336,4,1,0,81,0,1
84099,-93.2994062765055,4,1,0,81,0,1
84174,-93.2203389830509,4,1,0,81,0,1
84249,-93.1414055884843,4,1,0,81,0,1
84399,-92.9839391377853,4,1,0,81,0,1
84549,-92.8270042194093,4,1,0,81,0,1
84699,-92.670598146588,4,1,0,81,0,1
84924,-92.436974789916,4,1,0,82,0,1
84999,-92.3593618807725,4,1,0,82,0,1
85149,-92.2045264040235,4,1,0,82,0,1
85299,-92.0502092050209,4,1,0,82,0,1
85374,-91.9732441471572,4,1,0,82,0,1
85449,-91.8964076858814,4,1,0,82,0,1
85599,-91.743119266055,4,1,0,82,0,1
85674,-91.6666666666667,4,1,0,82,0,1
85749,-91.5903413821815,4,1,0,82,0,1
85824,-91.5141430948419,4,1,0,82,0,1
85899,-91.4380714879468,4,1,0,82,0,1
86049,-91.2863070539419,4,1,0,82,0,1
86199,-91.1350455675228,4,1,0,82,0,1
86274,-91.0596026490066,4,1,0,82,0,1
86349,-90.9842845326716,4,1,0,82,0,1
86499,-90.8340214698596,4,1,0,83,0,1
86649,-90.684253915911,4,1,0,83,0,1
86724,-90.6095551894564,4,1,0,83,0,1
86799,-90.5349794238683,4,1,0,83,0,1
86949,-90.3861955628595,4,1,0,83,0,1
87099,-90.2378999179655,4,1,0,83,0,1
87249,-90.0900900900901,4,1,0,83,0,1
87324,-90.0163666121113,4,1,0,83,0,1
87399,-89.9427636958299,4,1,0,83,0,1
87549,-89.7959183673469,4,1,0,83,0,1
87699,-89.6495517522412,4,1,0,83,0,1
87774,-89.5765472312704,4,1,0,83,0,1
87849,-89.5036615134256,4,1,0,83,0,1
87924,-89.4308943089431,4,1,0,83,0,1
87999,-89.3582453290008,4,1,0,83,0,1
88149,-89.213300892133,4,1,0,84,0,1
88299,-89.0688259109312,4,1,0,84,0,1
88449,-88.9248181083266,4,1,0,84,0,1
88524,-88.8529886914378,4,1,0,84,0,1
88599,-88.7812752219532,4,1,0,84,0,1
88749,-88.638195004029,4,1,0,84,0,1
88899,-88.495575221239,4,1,0,84,0,1
88974,-88.4244372990354,4,1,0,84,0,1
89049,-88.3534136546185,4,1,0,84,0,1
89124,-88.2825040128411,4,1,0,84,0,1
89199,-88.2117080994387,4,1,0,84,0,1
89349,-88.0704563650921,4,1,0,84,0,1
89499,-87.92965627498,4,1,0,84,0,1
89649,-87.7893056664007,4,1,0,84,0,1
89724,-87.719298245614,4,1,0,85,0,1
89799,-87.6494023904383,4,1,0,85,0,1
89949,-87.5099443118536,4,1,0,85,0,1
90099,-87.3709293089754,4,1,0,85,0,1
90249,-87.2323552735924,4,1,0,85,0,1
90324,-87.1632329635499,4,1,0,85,0,1
90399,-87.0942201108472,4,1,0,85,0,1
90474,-87.0253164556962,4,1,0,85,0,1
90549,-86.9565217391304,4,1,0,85,0,0
91899,-100,4,1,0,85,0,0
111099,-100,4,1,0,80,0,0
111249,-99.4671403197158,4,1,0,80,0,0
111399,-98.9399293286219,4,1,0,80,0,0
111474,-98.6784140969163,4,1,0,80,0,0
111549,-98.4182776801406,4,1,0,80,0,0
111624,-98.159509202454,4,1,0,80,0,0
111699,-97.9020979020979,4,1,0,80,0,0
111849,-97.3913043478261,4,1,0,80,0,0
111924,-97.1379011274935,4,1,0,80,0,0
112074,-96.6350301984469,4,1,0,80,0,0
112149,-96.3855421686747,4,1,0,80,0,0
112299,-95.8904109589041,4,1,0,80,0,0
112449,-95.4003407155026,4,1,0,80,0,0
112599,-94.9152542372881,4,1,0,80,0,0
112674,-94.6745562130178,4,1,0,80,0,0
112749,-94.4350758853288,4,1,0,80,0,0
112899,-93.9597315436242,4,1,0,80,0,0
113049,-93.4891485809683,4,1,0,80,0,0
113124,-93.255620316403,4,1,0,80,0,0
113274,-92.7920463960232,4,1,0,80,0,0
113349,-92.5619834710744,4,1,0,80,0,0
113499,-92.1052631578947,4,1,0,80,0,0
113649,-91.6530278232406,4,1,0,80,0,0
113799,-91.2052117263844,4,1,0,80,0,0
113874,-90.982940698619,4,1,0,80,0,0
113949,-90.7617504051864,4,1,0,80,0,0
114099,-90.3225806451613,4,1,0,80,0,0
114249,-89.8876404494382,4,1,0,80,0,0
114324,-89.6717373899119,4,1,0,80,0,0
114399,-89.4568690095847,4,1,0,80,0,0
114474,-89.2430278884462,4,1,0,80,0,0
114549,-89.0302066772655,4,1,0,80,0,0
114699,-88.6075949367089,4,1,0,80,0,0
114774,-88.3977900552486,4,1,0,80,0,0
114849,-88.1889763779528,4,1,0,80,0,0
114924,-87.9811468970935,4,1,0,80,0,0
114999,-87.7742946708464,4,1,0,80,0,0
115074,-87.5684128225176,4,1,0,80,0,0
115149,-87.3634945397816,4,1,0,80,0,0
115224,-87.15953307393,4,1,0,80,0,0
115299,-86.9565217391304,4,1,0,80,0,0
115899,-95.2380952380952,4,1,0,90,0,1
132699,-95.2380952380952,4,1,0,90,0,1
132849,-94.6745562130177,4,1,0,90,0,1
132924,-94.3952802359882,4,1,0,90,0,1
132999,-94.1176470588235,4,1,0,90,0,1
133149,-93.5672514619883,4,1,0,90,0,1
133299,-93.0232558139535,4,1,0,90,0,1
133449,-92.485549132948,4,1,0,90,0,1
133524,-92.2190201729107,4,1,0,90,0,1
133599,-91.9540229885058,4,1,0,90,0,1
133674,-91.6905444126075,4,1,0,90,0,1
133749,-91.4285714285714,4,1,0,90,0,1
133899,-90.9090909090909,4,1,0,90,0,1
133974,-90.6515580736544,4,1,0,90,0,1
134049,-90.3954802259887,4,1,0,90,0,1
134124,-90.1408450704225,4,1,0,90,0,1
134199,-89.8876404494382,4,1,0,90,0,1
134274,-89.6358543417367,4,1,0,90,0,1
134349,-89.3854748603352,4,1,0,90,0,1
134424,-89.1364902506964,4,1,0,90,0,1
134499,-88.8888888888889,4,1,0,90,0,1
134574,-88.6426592797784,4,1,0,90,0,1
134649,-88.3977900552486,4,1,0,90,0,1
134724,-88.1542699724518,4,1,0,90,0,1
134799,-87.9120879120879,4,1,0,90,0,1
134874,-87.6712328767123,4,1,0,90,0,1
134949,-87.4316939890711,4,1,0,90,0,1
135024,-87.1934604904632,4,1,0,90,0,1
135099,-86.9565217391304,4,1,0,90,0,1
135324,-95.2380952380952,4,1,0,90,0,1
150849,-94.4558521560575,4,1,0,90,0,1
150924,-94.1658137154555,4,1,0,90,0,1
150999,-93.8775510204082,4,1,0,90,0,1
151149,-93.3062880324544,4,1,0,90,0,1
151299,-92.741935483871,4,1,0,90,0,1
151374,-92.4623115577889,4,1,0,90,0,1
151449,-92.184368737475,4,1,0,90,0,1
151524,-91.9080919080919,4,1,0,90,0,1
151599,-91.6334661354582,4,1,0,90,0,1
151749,-91.0891089108911,4,1,0,90,0,1
151899,-90.5511811023622,4,1,0,90,0,1
152049,-90.0195694716243,4,1,0,90,0,1
152124,-89.7560975609756,4,1,0,90,0,1
152199,-89.4941634241245,4,1,0,90,0,1
152349,-88.9748549323018,4,1,0,90,0,1
152499,-88.4615384615385,4,1,0,90,0,1
152649,-87.9541108986616,4,1,0,90,0,1
152724,-87.7025738798856,4,1,0,90,0,1
152799,-87.4524714828897,4,1,0,90,0,1
152874,-87.2037914691943,4,1,0,90,0,1
152949,-86.9565217391304,4,1,0,90,0,1
153399,-80,4,1,0,80,0,0
154299,-100,4,1,0,80,0,0
161499,-100,4,1,0,80,0,0
161649,-99.3788819875776,4,1,0,80,0,0
161724,-99.0712074303406,4,1,0,80,0,0
161799,-98.7654320987654,4,1,0,80,0,0
161949,-98.159509202454,4,1,0,80,0,0
162099,-97.5609756097561,4,1,0,80,0,0
162249,-96.969696969697,4,1,0,80,0,0
162324,-96.6767371601208,4,1,0,80,0,0
162399,-96.3855421686747,4,1,0,80,0,0
162474,-96.0960960960961,4,1,0,80,0,0
162549,-95.8083832335329,4,1,0,80,0,0
162699,-95.2380952380952,4,1,0,80,0,0
162774,-94.9554896142433,4,1,0,80,0,0
162849,-94.6745562130177,4,1,0,80,0,0
162924,-94.3952802359882,4,1,0,80,0,0
162999,-94.1176470588235,4,1,0,80,0,0
163074,-93.841642228739,4,1,0,80,0,0
163149,-93.5672514619883,4,1,0,80,0,0
163224,-93.2944606413994,4,1,0,80,0,0
163299,-93.0232558139535,4,1,0,80,0,0
163374,-92.7536231884058,4,1,0,80,0,0
163449,-92.485549132948,4,1,0,80,0,0
163524,-92.2190201729107,4,1,0,80,0,0
163599,-91.9540229885057,4,1,0,80,0,0
163674,-91.6905444126074,4,1,0,80,0,0
163749,-91.4285714285714,4,1,0,80,0,0
163899,-90.9090909090909,4,1,0,80,0,0
164124,-100,4,1,0,80,0,0
178299,-95.2380952380952,4,1,0,90,0,1
194499,-94.6745562130178,4,1,0,90,0,1
194649,-94.2562592047128,4,1,0,90,0,1
194724,-94.0484937545922,4,1,0,90,0,1
194799,-93.841642228739,4,1,0,90,0,1
194874,-93.6356986100951,4,1,0,90,0,1
194949,-93.4306569343066,4,1,0,90,0,1
195099,-93.0232558139535,4,1,0,90,0,1
195249,-92.6193921852388,4,1,0,90,0,1
195324,-92.4187725631769,4,1,0,90,0,1
195399,-92.2190201729107,4,1,0,90,0,1
195549,-91.8220946915351,4,1,0,90,0,1
195699,-91.4285714285714,4,1,0,90,0,1
195849,-91.0384068278805,4,1,0,90,0,1
195924,-90.8445706174592,4,1,0,90,0,1
195999,-90.6515580736544,4,1,0,90,0,1
196074,-90.4593639575972,4,1,0,90,0,1
196149,-90.2679830747532,4,1,0,90,0,1
196299,-89.8876404494382,4,1,0,90,0,1
196374,-89.6986685353889,4,1,0,90,0,1
196449,-89.5104895104895,4,1,0,90,0,1
196524,-89.3230983949756,4,1,0,90,0,1
196599,-89.1364902506964,4,1,0,90,0,1
196674,-88.950660180681,4,1,0,90,0,1
196749,-88.7656033287101,4,1,0,90,0,1
196824,-88.5813148788927,4,1,0,90,0,1
196899,-88.3977900552486,4,1,0,90,0,1
196974,-88.2150241212957,4,1,0,90,0,1
197049,-88.0330123796424,4,1,0,90,0,1
197124,-87.8517501715855,4,1,0,90,0,1
197199,-87.6712328767123,4,1,0,90,0,1
197274,-87.4914559125086,4,1,0,90,0,1
197349,-87.31241473397,4,1,0,90,0,1
197424,-87.1341048332199,4,1,0,90,0,1
197499,-86.9565217391304,4,1,0,90,0,1
197799,-86.9565217391304,4,1,0,100,0,0
198699,-142.857142857143,4,1,0,30,0,0
219099,-142.857142857143,4,1,0,60,0,0
219699,-140.043763676149,4,1,0,61,0,0
220299,-137.339055793991,4,1,0,62,0,0
220899,-134.736842105263,4,1,0,62,0,0
221499,-132.231404958678,4,1,0,63,0,0
222099,-129.817444219067,4,1,0,64,0,0
222699,-127.490039840637,4,1,0,65,0,0
223299,-125.244618395303,4,1,0,65,0,0
223899,-123.076923076923,4,1,0,66,0,0
224499,-120.982986767486,4,1,0,67,0,0
225099,-118.959107806691,4,1,0,68,0,0
225699,-117.001828153565,4,1,0,69,0,0
226299,-115.107913669065,4,1,0,69,0,0
226899,-113.274336283186,4,1,0,70,0,0
227499,-111.498257839721,4,1,0,71,0,0
228699,-108.108108108108,4,1,0,73,0,0
228999,-107.292539815591,4,1,0,73,0,0
229149,-106.889352818372,4,1,0,73,0,0
229449,-106.092001657688,4,1,0,73,0,0
229599,-105.697770437655,4,1,0,74,0,0
229749,-105.306458247635,4,1,0,74,0,0
230049,-104.532462229481,4,1,0,74,0,0
230199,-104.149715215622,4,1,0,74,0,0
230649,-103.018108651911,4,1,0,75,0,0
230799,-102.646351242983,4,1,0,75,0,0
230949,-102.277267279265,4,1,0,75,0,0
231099,-101.910828025478,4,1,0,76,0,0
231399,-101.185770750988,4,1,0,76,0,0
231549,-100.827097282395,4,1,0,76,0,0
231849,-100.117324990223,4,1,0,77,0,0
232149,-99.417475728155,4,1,0,77,0,0
232449,-98.727342846124,4,1,0,77,0,0
232599,-98.385857033052,4,1,0,78,0,0
233049,-97.375427919361,4,1,0,78,0,0
233199,-97.043214556482,4,1,0,78,0,0
233349,-96.713260294673,4,1,0,79,0,0
233499,-96.385542168675,4,1,0,79,0,0
233649,-96.060037523452,4,1,0,79,0,0
233799,-95.736724008975,4,1,0,79,0,0
233949,-95.415579575103,4,1,0,79,0,0
234099,-95.096582466568,4,1,0,80,0,0
234249,-94.779711218067,4,1,0,80,0,0
234399,-94.464944649446,4,1,0,80,0,0
234549,-94.152261860978,4,1,0,80,0,0
234699,-93.841642228739,4,1,0,80,0,0
234849,-93.533065400073,4,1,0,81,0,0
234999,-93.226511289148,4,1,0,81,0,0
235149,-92.921960072595,4,1,0,81,0,0
235299,-92.619392185239,4,1,0,81,0,0
235449,-92.318788315903,4,1,0,81,0,0
235599,-92.020129403307,4,1,0,81,0,0
235749,-91.723396632032,4,1,0,82,0,0
235899,-91.428571428571,4,1,0,82,0,0
235974,-91.281868425744,4,1,0,82,0,0
236049,-91.135635457458,4,1,0,82,0,0
236124,-90.989870268349,4,1,0,82,0,0
236199,-90.844570617459,4,1,0,82,0,0
236274,-90.699734278122,4,1,0,82,0,0
236349,-90.555359037849,4,1,0,82,0,0
236499,-90.267983074753,4,1,0,83,0,0
236574,-90.124977996832,4,1,0,83,0,0
236649,-89.982425307557,4,1,0,83,0,0
236724,-89.84032286366,4,1,0,83,0,0
236799,-89.698668535389,4,1,0,83,0,0
236874,-89.557460206402,4,1,0,83,0,0
236949,-89.416695773664,4,1,0,83,0,0
237099,-89.136490250696,4,1,0,83,0,0
237174,-88.99704501999,4,1,0,84,0,0
237249,-88.858035404373,4,1,0,84,0,0
237324,-88.719459365795,4,1,0,84,0,0
237399,-88.581314878893,4,1,0,84,0,0
237474,-88.443599930903,4,1,0,84,0,0
237549,-88.306312521559,4,1,0,84,0,0
237624,-88.169450662993,4,1,0,84,0,0
237699,-88.033012379642,4,1,0,84,0,0
237774,-87.896995708155,4,1,0,84,0,0
237849,-87.761398697292,4,1,0,84,0,0
237924,-87.626219407838,4,1,0,85,0,0
237999,-87.491455912509,4,1,0,85,0,0
238074,-87.357106295854,4,1,0,85,0,0
238149,-87.223168654174,4,1,0,85,0,0
238299,-86.95652173913,4,1,0,85,0,0
238599,-68.9655172413793,4,1,0,100,0,1
240249,-83.3333333333333,4,1,0,90,0,0
240699,-90.9090909090909,4,1,0,90,0,1
276699,-90.9090909090909,4,1,0,90,0,0
276999,-100,4,1,0,75,0,0
316299,-74.0740740740741,4,1,0,75,0,0

[HitObjects]
251,195,13899,5,4,0:0:0:0:
251,195,14199,1,8,0:0:0:0:
251,195,14349,1,8,0:0:0:0:
251,195,14424,1,8,0:0:0:0:
251,195,14499,1,0,0:0:0:0:
251,195,14649,1,0,0:0:0:0:
251,195,14799,1,8,0:0:0:0:
244,192,14949,1,8,0:0:0:0:
251,195,15099,1,0,0:0:0:0:
251,195,15399,1,8,0:0:0:0:
251,195,15549,1,8,0:0:0:0:
251,195,15699,1,0,0:0:0:0:
251,195,15849,1,0,0:0:0:0:
251,195,15999,1,8,0:0:0:0:
251,195,16299,1,0,0:0:0:0:
251,195,16449,1,8,0:0:0:0:
251,195,16599,1,0,0:0:0:0:
251,195,16749,1,8,0:0:0:0:
251,195,16824,1,8,0:0:0:0:
251,195,16899,1,0,0:0:0:0:
251,195,17049,1,0,0:0:0:0:
251,195,17199,1,8,0:0:0:0:
251,195,17499,1,8,0:0:0:0:
251,195,17649,1,0,0:0:0:0:
251,195,17799,1,8,0:0:0:0:
251,195,17874,1,8,0:0:0:0:
251,195,17949,1,0,0:0:0:0:
251,195,18024,1,0,0:0:0:0:
251,195,18099,1,8,0:0:0:0:
251,195,18249,1,0,0:0:0:0:
251,195,18399,1,8,0:0:0:0:
246,193,18549,1,8,0:0:0:0:
251,195,18699,1,0,0:0:0:0:
251,195,18999,1,8,0:0:0:0:
251,195,19149,1,0,0:0:0:0:
250,191,19299,1,0,0:0:0:0:
251,195,19449,1,0,0:0:0:0:
251,195,19599,1,8,0:0:0:0:
251,195,19899,1,0,0:0:0:0:
251,195,20049,1,8,0:0:0:0:
251,195,20199,1,0,0:0:0:0:
251,195,20274,1,0,0:0:0:0:
251,195,20349,1,0,0:0:0:0:
251,195,20499,1,8,0:0:0:0:
251,195,20649,1,0,0:0:0:0:
251,195,20799,1,8,0:0:0:0:
251,195,21099,1,0,0:0:0:0:
251,195,21249,1,8,0:0:0:0:
251,195,21399,1,0,0:0:0:0:
251,195,21549,1,8,0:0:0:0:
251,195,21624,1,8,0:0:0:0:
251,195,21699,1,8,0:0:0:0:
251,195,21774,1,8,0:0:0:0:
251,195,21849,1,0,0:0:0:0:
251,195,21999,1,8,0:0:0:0:
251,195,22299,1,8,0:0:0:0:
251,195,22449,1,0,0:0:0:0:
251,195,22599,1,8,0:0:0:0:
251,195,22674,1,8,0:0:0:0:
251,195,22749,1,0,0:0:0:0:
251,195,22899,1,8,0:0:0:0:
251,195,23049,1,0,0:0:0:0:
251,195,23199,1,8,0:0:0:0:
251,195,23349,1,8,0:0:0:0:
251,195,23499,5,4,0:0:0:0:
251,195,23799,1,8,0:0:0:0:
251,195,23949,1,0,0:0:0:0:
251,195,24024,1,0,0:0:0:0:
251,195,24099,1,0,0:0:0:0:
251,195,24249,1,0,0:0:0:0:
251,195,24399,1,8,0:0:0:0:
251,195,24699,1,0,0:0:0:0:
251,195,24849,1,0,0:0:0:0:
251,195,24999,1,8,0:0:0:0:
251,195,25149,1,0,0:0:0:0:
254,194,25224,1,8,0:0:0:0:
251,195,25299,1,0,0:0:0:0:
251,195,25449,1,0,0:0:0:0:
251,195,25599,1,8,0:0:0:0:
251,195,25899,1,0,0:0:0:0:
251,195,26049,1,8,0:0:0:0:
251,195,26199,1,0,0:0:0:0:
251,195,26349,1,8,0:0:0:0:
251,195,26424,1,8,0:0:0:0:
251,195,26499,1,8,0:0:0:0:
251,195,26649,1,0,0:0:0:0:
251,195,26799,1,8,0:0:0:0:
251,195,27099,1,8,0:0:0:0:
251,195,27249,1,0,0:0:0:0:
251,195,27399,1,8,0:0:0:0:
251,195,27474,1,8,0:0:0:0:
251,195,27549,1,8,0:0:0:0:
251,195,27699,1,0,0:0:0:0:
251,195,27849,1,8,0:0:0:0:
251,195,27999,1,0,0:0:0:0:
250,191,28074,1,0,0:0:0:0:
250,191,28149,1,8,0:0:0:0:
251,195,28299,1,4,0:0:0:0:
251,195,28599,1,8,0:0:0:0:
251,195,28749,1,0,0:0:0:0:
250,191,28824,5,0,0:0:0:0:
250,191,28899,1,8,0:0:0:0:
251,195,29049,1,8,0:0:0:0:
251,195,29199,1,0,0:0:0:0:
251,195,29274,1,8,0:0:0:0:
251,195,29349,1,8,0:0:0:0:
251,195,29499,1,4,0:0:0:0:
251,195,29649,1,8,0:0:0:0:
251,195,29799,1,0,0:0:0:0:
251,195,29874,1,8,0:0:0:0:
251,195,29949,1,0,0:0:0:0:
251,195,30024,1,0,0:0:0:0:
251,195,30099,1,8,0:0:0:0:
251,195,30249,1,0,0:0:0:0:
251,195,30399,1,8,0:0:0:0:
251,195,30699,1,4,0:0:0:0:
251,195,30849,1,8,0:0:0:0:
251,195,30999,1,0,0:0:0:0:
251,195,31074,1,0,0:0:0:0:
251,195,31149,1,8,0:0:0:0:
251,195,31299,1,4,0:0:0:0:
251,195,31449,1,8,0:0:0:0:
251,195,31599,1,0,0:0:0:0:
251,195,31674,1,0,0:0:0:0:
251,195,31749,1,8,0:0:0:0:
251,195,31899,1,4,0:0:0:0:
251,195,32199,1,8,0:0:0:0:
251,195,32349,1,0,0:0:0:0:
251,195,32499,1,8,0:0:0:0:
251,195,32574,1,0,0:0:0:0:
251,195,32724,1,0,0:0:0:0:
251,195,32799,1,8,0:0:0:0:
251,195,32949,1,8,0:0:0:0:
251,195,33024,1,8,0:0:0:0:
251,195,33099,1,0,0:0:0:0:
251,195,33249,1,8,0:0:0:0:
251,195,33399,1,0,0:0:0:0:
251,195,33474,1,0,0:0:0:0:
251,195,33549,1,8,0:0:0:0:
251,195,33699,1,0,0:0:0:0:
251,195,33849,1,8,0:0:0:0:
251,195,33924,1,8,0:0:0:0:
251,195,33999,1,0,0:0:0:0:
251,195,34074,1,0,0:0:0:0:
251,195,34149,1,8,0:0:0:0:
251,195,34299,1,0,0:0:0:0:
251,195,34449,1,8,0:0:0:0:
251,195,34599,1,0,0:0:0:0:
251,195,34674,1,8,0:0:0:0:
251,195,34749,1,0,0:0:0:0:
251,195,34824,1,0,0:0:0:0:
251,195,34899,1,8,0:0:0:0:
251,195,35049,1,8,0:0:0:0:
251,195,35199,1,0,0:0:0:0:
251,195,35274,1,0,0:0:0:0:
251,195,35349,1,8,0:0:0:0:
251,195,35499,1,0,0:0:0:0:
251,195,35649,1,8,0:0:0:0:
251,195,35724,1,8,0:0:0:0:
251,195,35799,1,0,0:0:0:0:
251,195,35874,1,0,0:0:0:0:
251,195,35949,1,8,0:0:0:0:
251,195,36099,1,0,0:0:0:0:
251,195,36249,1,8,0:0:0:0:
251,195,36324,1,8,0:0:0:0:
251,195,36399,1,0,0:0:0:0:
251,195,36549,1,8,0:0:0:0:
251,195,36699,1,0,0:0:0:0:
251,195,36849,1,8,0:0:0:0:
251,195,36999,1,0,0:0:0:0:
251,195,37074,1,0,0:0:0:0:
251,195,37149,1,8,0:0:0:0:
251,195,37299,1,0,0:0:0:0:
251,195,37449,1,8,0:0:0:0:
251,195,37524,1,8,0:0:0:0:
251,195,37599,1,0,0:0:0:0:
251,195,37899,1,0,0:0:0:0:
251,195,38049,1,8,0:0:0:0:
251,195,38199,1,0,0:0:0:0:
251,195,38274,1,0,0:0:0:0:
251,195,38349,1,8,0:0:0:0:
251,195,38499,1,0,0:0:0:0:
251,195,38649,1,8,0:0:0:0:
251,195,38724,1,8,0:0:0:0:
251,195,38799,1,0,0:0:0:0:
251,195,38874,1,0,0:0:0:0:
251,195,38949,1,8,0:0:0:0:
251,195,39099,1,0,0:0:0:0:
251,195,39249,1,8,0:0:0:0:
251,195,39399,1,0,0:0:0:0:
251,195,39474,1,0,0:0:0:0:
253,195,39549,1,8,0:0:0:0:
251,195,39699,1,0,0:0:0:0:
251,195,39849,1,8,0:0:0:0:
251,195,39924,1,0,0:0:0:0:
252,194,39999,1,8,0:0:0:0:
251,195,40074,1,8,0:0:0:0:
257,191,40149,1,0,0:0:0:0:
257,191,40299,1,0,0:0:0:0:
257,191,40449,1,8,0:0:0:0:
257,191,40599,1,0,0:0:0:0:
257,191,40674,1,0,0:0:0:0:
257,191,40749,1,8,0:0:0:0:
257,191,40899,1,0,0:0:0:0:
257,191,41049,1,8,0:0:0:0:
260,191,41124,1,8,0:0:0:0:
257,191,41199,1,0,0:0:0:0:
257,191,41349,1,8,0:0:0:0:
257,191,41499,1,0,0:0:0:0:
257,191,41649,1,8,0:0:0:0:
257,191,41799,1,0,0:0:0:0:
257,191,41874,1,0,0:0:0:0:
257,191,41949,1,8,0:0:0:0:
257,191,42024,1,8,0:0:0:0:
257,191,42099,1,0,0:0:0:0:
257,191,42249,1,8,0:0:0:0:
257,191,42324,1,8,0:0:0:0:
257,191,42399,1,8,0:0:0:0:
257,191,42699,1,0,0:0:0:0:
257,191,42849,1,8,0:0:0:0:
257,191,42999,1,0,0:0:0:0:
257,191,43074,1,0,0:0:0:0:
257,191,43149,1,8,0:0:0:0:
257,191,43224,1,8,0:0:0:0:
257,191,43299,1,0,0:0:0:0:
251,195,43449,1,8,0:0:0:0:
251,195,43524,1,8,0:0:0:0:
251,195,43599,1,0,0:0:0:0:
257,191,43749,1,8,0:0:0:0:
257,191,43899,1,0,0:0:0:0:
257,191,44049,1,8,0:0:0:0:
257,191,44199,1,0,0:0:0:0:
257,191,44274,1,0,0:0:0:0:
251,195,44349,1,8,0:0:0:0:
251,195,44499,1,0,0:0:0:0:
257,191,44649,1,8,0:0:0:0:
257,191,44724,1,8,0:0:0:0:
257,191,44799,1,0,0:0:0:0:
257,191,44874,1,0,0:0:0:0:
257,191,44949,1,8,0:0:0:0:
257,191,45099,1,0,0:0:0:0:
257,191,45249,1,8,0:0:0:0:
251,195,45399,1,0,0:0:0:0:
251,195,45474,1,0,0:0:0:0:
257,191,45549,1,8,0:0:0:0:
257,191,45624,1,8,0:0:0:0:
257,191,45699,1,0,0:0:0:0:
257,191,45849,1,8,0:0:0:0:
257,191,45924,1,8,0:0:0:0:
257,191,45999,1,0,0:0:0:0:
257,191,46149,1,8,0:0:0:0:
257,191,46299,1,0,0:0:0:0:
257,191,46449,1,8,0:0:0:0:
257,191,46599,1,0,0:0:0:0:
257,191,46674,1,0,0:0:0:0:
261,190,46749,1,8,0:0:0:0:
257,191,46899,1,0,0:0:0:0:
257,191,46974,1,0,0:0:0:0:
257,191,47049,1,0,0:0:0:0:
257,191,47124,1,0,0:0:0:0:
257,191,47199,1,8,0:0:0:0:
257,191,47349,1,8,0:0:0:0:
251,197,47499,1,4,0:0:0:0:
251,197,47649,1,8,0:0:0:0:
251,197,47724,1,8,0:0:0:0:
251,197,47799,1,0,0:0:0:0:
251,197,47949,1,8,0:0:0:0:
251,197,48099,1,0,0:0:0:0:
251,197,48174,1,0,0:0:0:0:
251,197,48249,1,8,0:0:0:0:
251,197,48324,1,8,0:0:0:0:
251,197,48399,1,0,0:0:0:0:
251,197,48549,1,8,0:0:0:0:
251,197,48699,1,4,0:0:0:0:
251,197,48849,1,8,0:0:0:0:
251,197,48924,1,8,0:0:0:0:
251,197,48999,1,0,0:0:0:0:
251,197,49149,1,8,0:0:0:0:
251,197,49224,1,8,0:0:0:0:
251,197,49299,1,0,0:0:0:0:
251,197,49374,1,0,0:0:0:0:
251,197,49449,1,8,0:0:0:0:
251,197,49599,1,0,0:0:0:0:
251,197,49749,1,8,0:0:0:0:
251,197,49899,1,4,0:0:0:0:
251,197,50049,5,8,0:0:0:0:
251,197,50124,1,8,0:0:0:0:
251,197,50199,1,0,0:0:0:0:
251,197,50349,5,8,0:0:0:0:
251,197,50499,1,4,0:0:0:0:
251,197,50649,1,8,0:0:0:0:
251,197,50724,1,8,0:0:0:0:
251,197,50799,1,0,0:0:0:0:
251,197,50874,1,0,0:0:0:0:
251,197,50949,1,8,0:0:0:0:
251,197,51099,1,0,0:0:0:0:
251,197,51174,1,0,0:0:0:0:
251,197,51249,1,8,0:0:0:0:
251,197,51324,1,0,0:0:0:0:
251,197,51399,1,8,0:0:0:0:
251,197,51474,5,8,0:0:0:0:
251,197,51549,1,0,0:0:0:0:
251,197,51624,1,8,0:0:0:0:
251,197,51699,1,0,0:0:0:0:
251,197,51774,1,0,0:0:0:0:
251,197,51849,1,0,0:0:0:0:
251,197,51924,1,0,0:0:0:0:
251,197,51999,1,8,0:0:0:0:
251,197,52074,1,0,0:0:0:0:
251,197,52149,1,8,0:0:0:0:
251,197,52224,1,8,0:0:0:0:
251,197,52299,1,0,0:0:0:0:
251,197,52599,1,4,0:0:0:0:
256,192,52749,12,0,55899,0:0:0:0:
256,193,63099,5,0,0:0:0:0:
256,193,64299,1,8,0:0:0:0:
256,193,65499,1,0,0:0:0:0:
256,193,66699,1,0,0:0:0:0:
256,192,67899,1,4,0:0:0:0:
256,192,68049,1,0,0:0:0:0:
256,192,68199,1,8,0:0:0:0:
256,192,68349,1,0,0:0:0:0:
256,192,68499,1,8,0:0:0:0:
256,192,68649,1,8,0:0:0:0:
256,192,68799,1,0,0:0:0:0:
256,192,68949,1,8,0:0:0:0:
256,192,69099,1,4,0:0:0:0:
256,192,69249,1,8,0:0:0:0:
256,192,69399,1,0,0:0:0:0:
256,192,69549,1,0,0:0:0:0:
256,192,69699,1,8,0:0:0:0:
256,192,69849,1,8,0:0:0:0:
256,192,69999,1,0,0:0:0:0:
256,192,70149,1,8,0:0:0:0:
256,192,70299,1,0,0:0:0:0:
256,192,70374,1,0,0:0:0:0:
256,192,70449,1,8,0:0:0:0:
256,192,70524,1,0,0:0:0:0:
256,192,70599,1,8,0:0:0:0:
256,192,70674,1,8,0:0:0:0:
256,192,70749,1,0,0:0:0:0:
256,192,70899,1,0,0:0:0:0:
256,192,70974,1,0,0:0:0:0:
256,192,71049,1,8,0:0:0:0:
256,192,71124,1,8,0:0:0:0:
256,192,71199,1,0,0:0:0:0:
256,192,71274,1,8,0:0:0:0:
256,192,71349,1,0,0:0:0:0:
256,192,71499,1,0,0:0:0:0:
256,192,71574,5,0,0:0:0:0:
256,192,71649,1,8,0:0:0:0:
256,192,71724,1,0,0:0:0:0:
256,192,71799,1,8,0:0:0:0:
256,192,71874,1,8,0:0:0:0:
256,192,71949,1,0,0:0:0:0:
256,192,72024,1,8,0:0:0:0:
256,192,72099,1,0,0:0:0:0:
256,192,72174,1,0,0:0:0:0:
256,192,72249,1,0,0:0:0:0:
256,192,72324,1,0,0:0:0:0:
256,192,72399,1,8,0:0:0:0:
254,192,72699,5,4,0:0:0:0:
256,193,72924,1,8,0:0:0:0:
256,193,72999,1,0,0:0:0:0:
256,193,73149,1,8,0:0:0:0:
256,193,73299,1,0,0:0:0:0:
256,193,73374,1,0,0:0:0:0:
256,193,73449,1,8,0:0:0:0:
256,193,73599,1,0,0:0:0:0:
256,193,73749,1,8,0:0:0:0:
256,193,73824,1,8,0:0:0:0:
256,193,73899,1,0,0:0:0:0:
256,193,74049,1,8,0:0:0:0:
256,193,74124,1,0,0:0:0:0:
256,193,74199,1,8,0:0:0:0:
256,193,74349,1,0,0:0:0:0:
256,193,74499,1,8,0:0:0:0:
256,193,74574,1,8,0:0:0:0:
256,193,74649,1,0,0:0:0:0:
256,193,74799,1,8,0:0:0:0:
256,193,74949,1,8,0:0:0:0:
256,193,75099,1,0,0:0:0:0:
256,193,75324,1,8,0:0:0:0:
256,193,75399,1,0,0:0:0:0:
256,193,75549,1,8,0:0:0:0:
256,193,75699,1,0,0:0:0:0:
256,193,75774,1,8,0:0:0:0:
256,193,75849,1,0,0:0:0:0:
256,193,75999,1,0,0:0:0:0:
256,193,76074,1,0,0:0:0:0:
256,193,76149,1,8,0:0:0:0:
256,193,76299,1,0,0:0:0:0:
256,193,76449,1,8,0:0:0:0:
256,193,76524,1,8,0:0:0:0:
256,193,76599,1,0,0:0:0:0:
256,193,76674,1,0,0:0:0:0:
256,193,76749,1,8,0:0:0:0:
256,193,76899,1,0,0:0:0:0:
256,193,77049,1,8,0:0:0:0:
256,193,77124,1,8,0:0:0:0:
256,193,77199,1,0,0:0:0:0:
256,193,77349,1,8,0:0:0:0:
256,193,77499,1,0,0:0:0:0:
256,193,77724,1,8,0:0:0:0:
256,193,77799,1,0,0:0:0:0:
256,193,77949,1,8,0:0:0:0:
256,193,78099,1,0,0:0:0:0:
256,193,78174,1,0,0:0:0:0:
256,193,78249,1,8,0:0:0:0:
256,193,78399,1,0,0:0:0:0:
256,193,78474,1,0,0:0:0:0:
256,193,78549,1,8,0:0:0:0:
259,192,78624,1,8,0:0:0:0:
256,193,78699,1,0,0:0:0:0:
256,193,78849,1,8,0:0:0:0:
256,193,78924,1,8,0:0:0:0:
256,193,78999,1,0,0:0:0:0:
256,193,79149,1,8,0:0:0:0:
256,193,79299,1,0,0:0:0:0:
256,193,79374,1,8,0:0:0:0:
256,193,79449,1,0,0:0:0:0:
256,193,79524,1,0,0:0:0:0:
256,193,79599,1,8,0:0:0:0:
256,193,79749,1,8,0:0:0:0:
256,193,79899,1,0,0:0:0:0:
256,193,80124,1,8,0:0:0:0:
256,193,80199,1,0,0:0:0:0:
256,193,80349,1,8,0:0:0:0:
256,193,80499,1,0,0:0:0:0:
256,193,80574,1,8,0:0:0:0:
257,193,80649,1,0,0:0:0:0:
257,193,80724,1,0,0:0:0:0:
257,193,80799,1,8,0:0:0:0:
257,193,80949,1,8,0:0:0:0:
257,193,81099,1,0,0:0:0:0:
257,193,81249,1,8,0:0:0:0:
257,193,81324,1,8,0:0:0:0:
257,193,81399,1,0,0:0:0:0:
257,193,81474,1,0,0:0:0:0:
259,199,81549,1,8,0:0:0:0:
258,193,81699,1,0,0:0:0:0:
257,193,81849,1,0,0:0:0:0:
257,193,81924,1,0,0:0:0:0:
258,191,81999,1,8,0:0:0:0:
257,193,82149,1,8,0:0:0:0:
256,193,82299,5,4,0:0:0:0:
256,193,82524,1,8,0:0:0:0:
256,193,82599,1,0,0:0:0:0:
256,193,82749,1,8,0:0:0:0:
256,193,82899,1,0,0:0:0:0:
256,193,82974,1,0,0:0:0:0:
256,193,83049,1,8,0:0:0:0:
256,193,83124,1,8,0:0:0:0:
256,193,83199,1,0,0:0:0:0:
256,193,83349,1,8,0:0:0:0:
256,193,83499,1,0,0:0:0:0:
256,193,83649,1,8,0:0:0:0:
256,193,83724,1,0,0:0:0:0:
256,193,83799,1,8,0:0:0:0:
256,193,83949,1,0,0:0:0:0:
256,193,84099,1,8,0:0:0:0:
256,193,84174,1,8,0:0:0:0:
256,193,84249,1,0,0:0:0:0:
256,193,84399,1,8,0:0:0:0:
256,193,84549,1,8,0:0:0:0:
256,193,84699,1,0,0:0:0:0:
256,193,84924,1,8,0:0:0:0:
256,193,84999,1,0,0:0:0:0:
256,193,85149,1,8,0:0:0:0:
256,193,85299,1,0,0:0:0:0:
256,193,85374,1,0,0:0:0:0:
256,193,85449,1,0,0:0:0:0:
256,193,85599,1,8,0:0:0:0:
256,193,85674,1,0,0:0:0:0:
256,193,85749,1,8,0:0:0:0:
256,193,85824,1,8,0:0:0:0:
256,193,85899,1,0,0:0:0:0:
256,193,86049,1,8,0:0:0:0:
256,193,86199,1,0,0:0:0:0:
256,193,86274,1,0,0:0:0:0:
256,193,86349,1,8,0:0:0:0:
256,193,86499,1,0,0:0:0:0:
256,193,86649,1,8,0:0:0:0:
256,193,86724,1,8,0:0:0:0:
256,193,86799,1,0,0:0:0:0:
256,193,86949,1,8,0:0:0:0:
256,193,87099,1,4,0:0:0:0:
256,193,87249,1,8,0:0:0:0:
256,193,87324,1,8,0:0:0:0:
256,193,87399,1,0,0:0:0:0:
256,193,87549,1,8,0:0:0:0:
256,193,87699,1,0,0:0:0:0:
256,193,87774,1,0,0:0:0:0:
256,193,87849,1,8,0:0:0:0:
256,193,87924,1,8,0:0:0:0:
256,193,87999,1,0,0:0:0:0:
256,193,88149,1,8,0:0:0:0:
256,193,88299,1,4,0:0:0:0:
256,193,88449,1,8,0:0:0:0:
256,193,88524,1,8,0:0:0:0:
256,193,88599,1,0,0:0:0:0:
256,193,88749,1,8,0:0:0:0:
256,193,88899,1,0,0:0:0:0:
256,193,88974,1,0,0:0:0:0:
256,193,89049,1,0,0:0:0:0:
256,193,89124,1,0,0:0:0:0:
256,193,89199,1,8,0:0:0:0:
256,193,89349,1,8,0:0:0:0:
256,193,89499,1,4,0:0:0:0:
256,193,89649,1,8,0:0:0:0:
256,193,89724,1,8,0:0:0:0:
256,193,89799,1,0,0:0:0:0:
256,193,89949,1,8,0:0:0:0:
256,193,90099,1,4,0:0:0:0:
256,193,90249,1,8,0:0:0:0:
256,193,90324,1,8,0:0:0:0:
256,193,90399,1,0,0:0:0:0:
256,193,90474,1,0,0:0:0:0:
256,193,90549,1,8,0:0:0:0:
256,192,90699,12,8,91749,0:0:0:0:
254,199,91899,5,4,0:0:0:0:
254,199,92199,1,8,0:0:0:0:
254,199,92349,1,0,0:0:0:0:
254,199,92424,1,0,0:0:0:0:
254,199,92499,1,0,0:0:0:0:
254,199,92649,1,8,0:0:0:0:
254,199,92799,1,0,0:0:0:0:
254,199,92874,1,8,0:0:0:0:
254,199,92949,1,0,0:0:0:0:
254,199,93024,1,0,0:0:0:0:
254,199,93099,1,8,0:0:0:0:
254,199,93249,1,0,0:0:0:0:
254,199,93399,1,8,0:0:0:0:
254,199,93549,1,0,0:0:0:0:
254,199,93624,1,0,0:0:0:0:
254,199,93699,1,8,0:0:0:0:
254,199,93849,1,0,0:0:0:0:
254,199,93999,1,0,0:0:0:0:
254,199,94074,1,8,0:0:0:0:
254,199,94224,1,8,0:0:0:0:
254,199,94299,1,0,0:0:0:0:
254,199,94599,1,8,0:0:0:0:
254,199,94749,1,0,0:0:0:0:
254,199,94824,1,0,0:0:0:0:
254,199,94899,1,8,0:0:0:0:
254,199,94974,1,8,0:0:0:0:
254,199,95049,1,0,0:0:0:0:
254,199,95199,1,8,0:0:0:0:
254,199,95349,1,0,0:0:0:0:
254,199,95424,1,0,0:0:0:0:
254,199,95499,1,0,0:0:0:0:
254,199,95649,1,8,0:0:0:0:
254,199,95799,1,0,0:0:0:0:
254,199,95874,1,0,0:0:0:0:
254,199,95949,1,8,0:0:0:0:
254,199,96024,1,0,0:0:0:0:
254,199,96099,1,8,0:0:0:0:
254,199,96249,1,0,0:0:0:0:
254,199,96399,1,8,0:0:0:0:
254,199,96474,1,8,0:0:0:0:
254,199,96549,1,0,0:0:0:0:
254,199,96624,1,8,0:0:0:0:
254,199,96699,1,0,0:0:0:0:
254,199,96999,1,8,0:0:0:0:
254,199,97149,1,0,0:0:0:0:
254,199,97224,1,0,0:0:0:0:
254,199,97299,1,0,0:0:0:0:
254,199,97449,1,8,0:0:0:0:
254,199,97524,1,8,0:0:0:0:
254,199,97599,1,0,0:0:0:0:
254,199,97749,1,8,0:0:0:0:
254,199,97899,1,0,0:0:0:0:
254,199,98049,1,8,0:0:0:0:
254,199,98124,1,0,0:0:0:0:
254,199,98199,1,0,0:0:0:0:
254,199,98349,1,8,0:0:0:0:
254,199,98499,1,0,0:0:0:0:
254,199,98574,1,8,0:0:0:0:
254,199,98649,1,0,0:0:0:0:
254,197,98724,1,0,0:0:0:0:
254,199,98799,1,8,0:0:0:0:
254,199,98949,1,0,0:0:0:0:
254,199,99099,1,8,0:0:0:0:
254,199,99249,1,0,0:0:0:0:
254,199,99324,1,0,0:0:0:0:
254,199,99399,1,8,0:0:0:0:
254,199,99549,1,0,0:0:0:0:
254,199,99699,1,8,0:0:0:0:
254,199,99849,1,0,0:0:0:0:
254,199,99999,1,8,0:0:0:0:
254,199,100074,1,8,0:0:0:0:
254,199,100149,1,0,0:0:0:0:
254,199,100224,1,0,0:0:0:0:
254,199,100299,1,8,0:0:0:0:
254,199,100599,1,8,0:0:0:0:
254,199,100749,1,0,0:0:0:0:
254,199,100899,1,8,0:0:0:0:
254,199,100974,1,8,0:0:0:0:
254,199,101049,1,0,0:0:0:0:
254,199,101124,1,0,0:0:0:0:
254,199,101199,1,0,0:0:0:0:
254,199,101274,1,0,0:0:0:0:
254,199,101349,1,8,0:0:0:0:
254,199,101499,1,4,0:0:0:0:
254,199,101724,1,8,0:0:0:0:
254,199,101799,1,0,0:0:0:0:
254,199,101949,1,0,0:0:0:0:
254,199,102024,1,0,0:0:0:0:
254,199,102099,1,8,0:0:0:0:
254,199,102249,1,0,0:0:0:0:
254,199,102399,1,8,0:0:0:0:
254,199,102474,1,8,0:0:0:0:
254,199,102549,1,0,0:0:0:0:
254,199,102624,1,0,0:0:0:0:
254,199,102699,1,8,0:0:0:0:
254,199,102849,1,0,0:0:0:0:
254,199,102999,1,8,0:0:0:0:
254,199,103074,1,0,0:0:0:0:
254,199,103149,1,8,0:0:0:0:
254,199,103299,1,0,0:0:0:0:
254,199,103449,1,8,0:0:0:0:
254,199,103524,1,0,0:0:0:0:
254,199,103599,1,0,0:0:0:0:
254,199,103674,1,0,0:0:0:0:
254,199,103749,1,8,0:0:0:0:
254,199,103899,1,0,0:0:0:0:
254,199,104049,1,8,0:0:0:0:
254,199,104124,1,8,0:0:0:0:
254,199,104199,1,0,0:0:0:0:
254,199,104349,1,8,0:0:0:0:
254,199,104424,1,0,0:0:0:0:
254,199,104499,1,8,0:0:0:0:
254,199,104649,1,0,0:0:0:0:
254,199,104724,1,8,0:0:0:0:
254,199,104799,1,0,0:0:0:0:
254,199,104874,1,0,0:0:0:0:
254,199,104949,1,8,0:0:0:0:
254,199,105099,1,0,0:0:0:0:
254,199,105399,1,8,0:0:0:0:
254,199,105549,1,0,0:0:0:0:
254,199,105699,1,8,0:0:0:0:
254,199,105849,1,0,0:0:0:0:
254,199,105924,1,0,0:0:0:0:
254,199,105999,1,8,0:0:0:0:
254,199,106074,1,0,0:0:0:0:
254,199,106149,1,8,0:0:0:0:
254,199,106299,1,4,0:0:0:0:
254,199,106449,1,8,0:0:0:0:
254,199,106524,1,8,0:0:0:0:
254,199,106599,1,0,0:0:0:0:
254,199,106749,1,8,0:0:0:0:
254,199,106899,1,0,0:0:0:0:
254,199,106974,1,0,0:0:0:0:
254,199,107049,1,8,0:0:0:0:
254,199,107199,1,0,0:0:0:0:
254,199,107274,1,8,0:0:0:0:
254,199,107349,1,0,0:0:0:0:
254,199,107499,1,4,0:0:0:0:
254,199,107649,1,8,0:0:0:0:
254,199,107724,1,0,0:0:0:0:
254,199,107799,1,0,0:0:0:0:
254,199,107874,1,0,0:0:0:0:
254,199,107949,1,8,0:0:0:0:
254,199,108099,1,0,0:0:0:0:
254,199,108249,1,8,0:0:0:0:
254,199,108324,1,8,0:0:0:0:
254,199,108399,1,0,0:0:0:0:
254,199,108549,1,8,0:0:0:0:
254,199,108699,1,4,0:0:0:0:
254,199,108849,1,8,0:0:0:0:
254,199,108924,1,8,0:0:0:0:
254,199,108999,1,0,0:0:0:0:
254,199,109149,1,8,0:0:0:0:
254,199,109299,1,4,0:0:0:0:
254,199,109449,1,8,0:0:0:0:
254,199,109524,1,8,0:0:0:0:
254,199,109599,1,0,0:0:0:0:
254,199,109674,1,0,0:0:0:0:
254,199,109749,1,8,0:0:0:0:
254,199,109899,1,0,0:0:0:0:
254,199,109974,1,0,0:0:0:0:
254,199,110049,1,8,0:0:0:0:
254,199,110124,1,0,0:0:0:0:
254,199,110199,1,8,0:0:0:0:
254,199,110274,1,8,0:0:0:0:
254,199,110349,1,0,0:0:0:0:
254,199,110424,1,0,0:0:0:0:
254,199,110499,1,8,0:0:0:0:
254,199,110574,1,0,0:0:0:0:
254,199,110649,1,8,0:0:0:0:
254,199,110724,1,8,0:0:0:0:
254,199,110799,1,8,0:0:0:0:
254,199,110874,1,8,0:0:0:0:
254,199,110949,1,0,0:0:0:0:
254,199,111099,1,4,0:0:0:0:
254,199,111249,1,8,0:0:0:0:
254,199,111399,1,0,0:0:0:0:
254,199,111474,1,0,0:0:0:0:
254,199,111549,1,8,0:0:0:0:
254,199,111624,1,8,0:0:0:0:
254,199,111699,1,0,0:0:0:0:
254,199,111849,1,8,0:0:0:0:
254,199,111924,1,0,0:0:0:0:
254,199,112074,1,8,0:0:0:0:
254,199,112149,1,0,0:0:0:0:
254,199,112299,1,4,0:0:0:0:
254,199,112449,1,8,0:0:0:0:
254,199,112599,1,0,0:0:0:0:
254,199,112674,1,8,0:0:0:0:
254,199,112749,1,0,0:0:0:0:
252,196,112899,1,8,0:0:0:0:
254,199,113049,1,0,0:0:0:0:
254,199,113124,1,8,0:0:0:0:
254,199,113274,1,0,0:0:0:0:
254,199,113349,1,8,0:0:0:0:
254,199,113499,1,4,0:0:0:0:
254,198,113649,1,8,0:0:0:0:
254,199,113799,1,0,0:0:0:0:
254,199,113874,1,0,0:0:0:0:
254,199,113949,1,8,0:0:0:0:
254,199,114099,1,4,0:0:0:0:
254,199,114249,1,8,0:0:0:0:
254,199,114324,1,8,0:0:0:0:
254,199,114399,1,0,0:0:0:0:
254,199,114474,1,0,0:0:0:0:
254,198,114549,1,8,0:0:0:0:
254,199,114699,1,0,0:0:0:0:
254,199,114774,1,0,0:0:0:0:
254,199,114849,1,8,0:0:0:0:
254,199,114924,1,0,0:0:0:0:
254,199,114999,1,8,0:0:0:0:
254,199,115074,1,8,0:0:0:0:
254,199,115149,1,0,0:0:0:0:
254,199,115224,1,0,0:0:0:0:
254,199,115299,1,8,0:0:0:0:
254,192,115899,5,4,0:0:0:0:
254,192,116049,1,8,0:0:0:0:
254,192,116124,1,8,0:0:0:0:
254,192,116199,1,0,0:0:0:0:
254,192,116349,1,0,0:0:0:0:
254,192,116424,1,0,0:0:0:0:
254,192,116499,1,8,0:0:0:0:
254,192,116649,1,0,0:0:0:0:
256,192,116799,1,8,0:0:0:0:
256,192,116874,1,8,0:0:0:0:
256,192,116949,1,0,0:0:0:0:
254,192,117024,1,8,0:0:0:0:
254,192,117099,1,0,0:0:0:0:
256,192,117249,1,8,0:0:0:0:
256,192,117399,1,0,0:0:0:0:
256,192,117549,1,8,0:0:0:0:
256,192,117624,1,8,0:0:0:0:
256,192,117699,1,0,0:0:0:0:
256,192,117774,1,0,0:0:0:0:
256,192,117849,1,8,0:0:0:0:
256,192,117999,1,0,0:0:0:0:
256,192,118299,1,0,0:0:0:0:
256,192,118449,1,8,0:0:0:0:
256,192,118524,1,8,0:0:0:0:
256,192,118599,1,0,0:0:0:0:
256,192,118749,1,8,0:0:0:0:
256,192,118899,1,0,0:0:0:0:
256,192,118974,1,0,0:0:0:0:
256,192,119049,1,8,0:0:0:0:
256,192,119124,1,8,0:0:0:0:
256,192,119199,1,0,0:0:0:0:
256,192,119349,1,8,0:0:0:0:
256,192,119499,1,0,0:0:0:0:
256,192,119649,1,8,0:0:0:0:
256,192,119724,1,8,0:0:0:0:
256,192,119799,1,0,0:0:0:0:
256,192,119949,1,8,0:0:0:0:
256,192,120099,1,0,0:0:0:0:
256,192,120174,1,0,0:0:0:0:
256,192,120249,1,8,0:0:0:0:
256,192,120324,1,0,0:0:0:0:
256,192,120399,1,8,0:0:0:0:
256,192,120699,1,0,0:0:0:0:
256,192,120849,1,0,0:0:0:0:
256,192,120924,1,0,0:0:0:0:
256,192,120999,1,8,0:0:0:0:
256,192,121149,1,0,0:0:0:0:
256,192,121299,1,8,0:0:0:0:
256,192,121374,1,8,0:0:0:0:
256,192,121449,1,0,0:0:0:0:
256,192,121524,1,8,0:0:0:0:
256,192,121599,1,0,0:0:0:0:
256,192,121749,1,8,0:0:0:0:
256,192,121899,1,0,0:0:0:0:
256,192,122049,1,8,0:0:0:0:
256,192,122124,1,8,0:0:0:0:
256,192,122199,1,0,0:0:0:0:
256,192,122349,1,8,0:0:0:0:
256,192,122424,1,0,0:0:0:0:
256,192,122499,1,0,0:0:0:0:
256,192,122649,1,8,0:0:0:0:
256,192,122799,1,0,0:0:0:0:
256,192,122874,1,8,0:0:0:0:
256,192,122949,1,0,0:0:0:0:
256,192,123024,1,0,0:0:0:0:
256,192,123099,1,8,0:0:0:0:
256,192,123249,1,0,0:0:0:0:
256,192,123324,1,8,0:0:0:0:
256,192,123399,1,0,0:0:0:0:
256,192,123549,1,8,0:0:0:0:
256,192,123699,1,0,0:0:0:0:
256,192,123849,1,8,0:0:0:0:
256,192,123924,1,8,0:0:0:0:
256,192,123999,1,0,0:0:0:0:
256,192,124074,1,0,0:0:0:0:
256,192,124149,1,8,0:0:0:0:
256,192,124299,1,0,0:0:0:0:
256,192,124599,1,8,0:0:0:0:
258,192,124749,1,0,0:0:0:0:
258,192,124899,1,8,0:0:0:0:
258,192,125049,1,0,0:0:0:0:
258,192,125124,1,0,0:0:0:0:
258,192,125199,1,0,0:0:0:0:
258,192,125274,1,0,0:0:0:0:
258,192,125349,1,8,0:0:0:0:
256,192,125499,5,4,0:0:0:0:
256,192,125649,1,8,0:0:0:0:
256,192,125724,1,8,0:0:0:0:
256,192,125799,1,0,0:0:0:0:
256,192,125949,1,0,0:0:0:0:
256,192,126099,1,8,0:0:0:0:
258,192,126174,1,8,0:0:0:0:
256,192,126249,1,0,0:0:0:0:
258,192,126324,1,0,0:0:0:0:
258,192,126399,1,8,0:0:0:0:
258,192,126549,1,0,0:0:0:0:
258,192,126624,1,0,0:0:0:0:
258,192,126699,1,8,0:0:0:0:
258,192,126849,1,0,0:0:0:0:
256,192,126999,1,8,0:0:0:0:
254,192,127074,1,0,0:0:0:0:
256,192,127149,1,8,0:0:0:0:
256,192,127224,1,8,0:0:0:0:
256,192,127299,1,0,0:0:0:0:
256,192,127449,1,8,0:0:0:0:
256,192,127599,1,0,0:0:0:0:
256,192,127674,1,0,0:0:0:0:
256,192,127749,1,8,0:0:0:0:
256,192,127899,1,0,0:0:0:0:
256,192,128049,1,8,0:0:0:0:
256,192,128199,1,0,0:0:0:0:
256,192,128274,1,0,0:0:0:0:
256,192,128349,1,8,0:0:0:0:
256,192,128424,1,0,0:0:0:0:
256,192,128499,1,8,0:0:0:0:
256,192,128574,1,8,0:0:0:0:
256,192,128649,1,0,0:0:0:0:
256,192,128799,1,8,0:0:0:0:
256,192,128949,1,0,0:0:0:0:
256,192,129024,1,0,0:0:0:0:
256,192,129099,1,8,0:0:0:0:
256,192,129249,1,0,0:0:0:0:
256,192,129324,1,8,0:0:0:0:
256,192,129399,1,0,0:0:0:0:
256,192,129549,1,8,0:0:0:0:
256,192,129699,1,0,0:0:0:0:
256,192,129774,1,0,0:0:0:0:
256,192,129849,1,8,0:0:0:0:
256,192,129924,1,8,0:0:0:0:
256,192,129999,1,0,0:0:0:0:
256,192,130149,1,8,0:0:0:0:
256,192,130299,1,4,0:0:0:0:
256,192,130449,1,0,0:0:0:0:
256,192,130524,1,0,0:0:0:0:
256,192,130599,1,8,0:0:0:0:
256,192,130749,1,0,0:0:0:0:
256,192,130899,1,8,0:0:0:0:
256,192,130974,1,8,0:0:0:0:
256,192,131049,1,0,0:0:0:0:
256,192,131124,1,8,0:0:0:0:
256,192,131199,1,0,0:0:0:0:
256,192,131274,1,0,0:0:0:0:
256,192,131349,1,8,0:0:0:0:
256,192,131499,1,4,0:0:0:0:
256,192,131649,1,8,0:0:0:0:
256,192,131724,1,8,0:0:0:0:
256,192,131799,1,0,0:0:0:0:
256,192,131949,1,0,0:0:0:0:
256,192,132024,1,0,0:0:0:0:
256,192,132099,1,8,0:0:0:0:
256,192,132249,1,0,0:0:0:0:
256,192,132324,1,0,0:0:0:0:
256,192,132399,1,8,0:0:0:0:
256,192,132474,1,0,0:0:0:0:
256,192,132549,1,8,0:0:0:0:
256,192,132699,1,4,0:0:0:0:
256,192,132849,1,8,0:0:0:0:
256,192,132924,1,8,0:0:0:0:
256,192,132999,1,0,0:0:0:0:
256,192,133149,1,8,0:0:0:0:
256,192,133299,1,4,0:0:0:0:
256,192,133449,1,8,0:0:0:0:
256,192,133524,1,8,0:0:0:0:
256,192,133599,1,0,0:0:0:0:
256,192,133674,1,0,0:0:0:0:
256,192,133749,1,8,0:0:0:0:
256,192,133899,1,0,0:0:0:0:
256,192,133974,1,8,0:0:0:0:
256,192,134049,1,0,0:0:0:0:
256,192,134124,1,0,0:0:0:0:
256,192,134199,1,8,0:0:0:0:
256,192,134274,1,8,0:0:0:0:
256,192,134349,1,0,0:0:0:0:
256,192,134424,1,8,0:0:0:0:
256,192,134499,1,0,0:0:0:0:
256,192,134574,1,0,0:0:0:0:
256,192,134649,1,0,0:0:0:0:
256,192,134724,1,0,0:0:0:0:
256,192,134799,1,8,0:0:0:0:
256,192,134874,1,8,0:0:0:0:
256,192,134949,1,8,0:0:0:0:
256,192,135024,1,8,0:0:0:0:
256,193,135099,5,0,0:0:0:0:
256,193,135324,1,8,0:0:0:0:
256,193,135399,1,0,0:0:0:0:
256,193,135549,1,8,0:0:0:0:
256,193,135699,1,0,0:0:0:0:
256,193,135774,1,0,0:0:0:0:
256,193,135849,1,8,0:0:0:0:
256,193,135999,1,0,0:0:0:0:
256,193,136149,1,8,0:0:0:0:
256,193,136224,1,8,0:0:0:0:
256,193,136299,1,0,0:0:0:0:
256,193,136449,1,8,0:0:0:0:
256,193,136524,1,0,0:0:0:0:
256,193,136599,1,8,0:0:0:0:
256,193,136749,1,0,0:0:0:0:
256,193,136899,1,8,0:0:0:0:
256,193,136974,1,8,0:0:0:0:
256,193,137049,1,0,0:0:0:0:
259,193,137124,1,0,0:0:0:0:
256,193,137199,1,8,0:0:0:0:
256,193,137349,1,8,0:0:0:0:
256,193,137499,1,0,0:0:0:0:
256,193,137724,1,8,0:0:0:0:
256,193,137799,1,0,0:0:0:0:
256,193,137949,1,8,0:0:0:0:
256,193,138099,1,0,0:0:0:0:
256,193,138174,1,8,0:0:0:0:
256,193,138249,1,0,0:0:0:0:
256,193,138399,1,0,0:0:0:0:
256,193,138474,1,0,0:0:0:0:
256,193,138549,1,8,0:0:0:0:
256,193,138699,1,0,0:0:0:0:
256,193,138849,1,8,0:0:0:0:
256,193,138924,1,8,0:0:0:0:
256,193,138999,1,0,0:0:0:0:
256,193,139074,1,0,0:0:0:0:
256,193,139149,1,8,0:0:0:0:
256,193,139299,1,0,0:0:0:0:
256,193,139449,1,8,0:0:0:0:
256,193,139524,1,8,0:0:0:0:
256,193,139599,1,0,0:0:0:0:
256,193,139749,1,8,0:0:0:0:
256,193,139899,1,0,0:0:0:0:
256,193,140124,1,8,0:0:0:0:
256,193,140199,1,0,0:0:0:0:
256,193,140349,1,8,0:0:0:0:
256,193,140499,1,0,0:0:0:0:
256,193,140574,1,8,0:0:0:0:
256,193,140649,1,0,0:0:0:0:
256,193,140799,1,8,0:0:0:0:
256,193,140874,1,0,0:0:0:0:
256,193,140949,1,8,0:0:0:0:
259,192,141024,1,8,0:0:0:0:
256,193,141099,1,0,0:0:0:0:
256,193,141249,1,8,0:0:0:0:
256,193,141324,1,8,0:0:0:0:
256,193,141399,1,0,0:0:0:0:
256,193,141549,1,8,0:0:0:0:
256,193,141699,1,0,0:0:0:0:
256,193,141774,1,8,0:0:0:0:
256,193,141849,1,8,0:0:0:0:
256,193,141924,1,0,0:0:0:0:
256,193,141999,1,8,0:0:0:0:
256,193,142149,1,0,0:0:0:0:
256,193,142224,1,0,0:0:0:0:
256,193,142299,1,8,0:0:0:0:
256,193,142524,1,8,0:0:0:0:
256,193,142599,1,0,0:0:0:0:
256,193,142749,1,8,0:0:0:0:
256,193,142899,1,0,0:0:0:0:
256,193,142974,1,8,0:0:0:0:
257,193,143049,1,0,0:0:0:0:
257,193,143124,1,0,0:0:0:0:
257,193,143199,1,8,0:0:0:0:
256,193,143274,1,0,0:0:0:0:
257,193,143349,1,8,0:0:0:0:
257,193,143499,1,0,0:0:0:0:
257,193,143649,1,8,0:0:0:0:
257,193,143724,1,8,0:0:0:0:
257,193,143799,1,0,0:0:0:0:
257,193,143874,1,0,0:0:0:0:
259,199,143949,1,8,0:0:0:0:
258,193,144099,1,0,0:0:0:0:
257,193,144249,1,0,0:0:0:0:
257,193,144324,1,0,0:0:0:0:
258,191,144399,1,8,0:0:0:0:
257,193,144549,1,8,0:0:0:0:
256,193,144699,5,4,0:0:0:0:
256,193,144924,1,8,0:0:0:0:
256,193,144999,1,0,0:0:0:0:
256,193,145149,1,8,0:0:0:0:
256,193,145299,1,0,0:0:0:0:
256,193,145374,1,0,0:0:0:0:
256,193,145449,1,8,0:0:0:0:
256,193,145524,1,8,0:0:0:0:
256,193,145599,1,0,0:0:0:0:
256,193,145749,1,8,0:0:0:0:
256,193,145824,1,8,0:0:0:0:
256,193,145899,1,0,0:0:0:0:
256,193,146049,1,8,0:0:0:0:
256,193,146124,1,0,0:0:0:0:
256,193,146199,1,8,0:0:0:0:
256,193,146349,1,0,0:0:0:0:
256,193,146499,1,8,0:0:0:0:
256,193,146574,1,8,0:0:0:0:
256,193,146649,1,0,0:0:0:0:
256,193,146724,1,0,0:0:0:0:
256,193,146799,1,8,0:0:0:0:
256,193,146949,1,8,0:0:0:0:
256,193,147099,1,0,0:0:0:0:
256,193,147324,1,8,0:0:0:0:
256,193,147399,1,0,0:0:0:0:
256,193,147549,1,8,0:0:0:0:
256,193,147699,1,0,0:0:0:0:
256,193,147774,1,8,0:0:0:0:
256,193,147849,1,0,0:0:0:0:
256,193,147999,1,8,0:0:0:0:
256,193,148074,1,8,0:0:0:0:
256,193,148149,1,0,0:0:0:0:
256,193,148224,1,8,0:0:0:0:
256,193,148299,1,0,0:0:0:0:
256,193,148449,1,8,0:0:0:0:
256,193,148599,1,0,0:0:0:0:
256,193,148674,1,0,0:0:0:0:
256,193,148749,1,8,0:0:0:0:
256,193,148899,1,0,0:0:0:0:
256,193,149049,1,8,0:0:0:0:
256,193,149124,1,8,0:0:0:0:
256,193,149199,1,0,0:0:0:0:
254,196,149274,1,0,0:0:0:0:
256,193,149349,1,8,0:0:0:0:
256,193,149499,1,4,0:0:0:0:
256,193,149649,1,8,0:0:0:0:
256,193,149724,1,8,0:0:0:0:
256,193,149799,1,0,0:0:0:0:
256,193,149949,1,8,0:0:0:0:
256,193,150099,1,0,0:0:0:0:
256,193,150174,1,0,0:0:0:0:
256,193,150249,1,8,0:0:0:0:
256,193,150324,1,8,0:0:0:0:
256,193,150399,1,0,0:0:0:0:
256,193,150549,1,8,0:0:0:0:
256,193,150699,1,4,0:0:0:0:
256,193,150849,1,8,0:0:0:0:
256,193,150924,1,8,0:0:0:0:
256,193,150999,1,0,0:0:0:0:
256,193,151149,1,8,0:0:0:0:
256,193,151299,1,0,0:0:0:0:
256,193,151374,1,0,0:0:0:0:
256,193,151449,1,0,0:0:0:0:
256,193,151524,1,0,0:0:0:0:
256,193,151599,1,8,0:0:0:0:
256,193,151749,1,8,0:0:0:0:
256,193,151899,1,4,0:0:0:0:
256,193,152049,1,8,0:0:0:0:
256,193,152124,1,8,0:0:0:0:
256,193,152199,1,0,0:0:0:0:
256,193,152349,5,8,0:0:0:0:
256,193,152499,1,4,0:0:0:0:
256,193,152649,1,8,0:0:0:0:
256,193,152724,1,8,0:0:0:0:
256,193,152799,1,0,0:0:0:0:
256,193,152874,1,0,0:0:0:0:
256,193,152949,1,8,0:0:0:0:
256,192,153399,5,4,0:0:0:0:
256,192,153549,12,0,153999,0:0:0:0:
256,192,154299,5,0,0:0:0:0:
256,192,154449,1,0,0:0:0:0:
256,192,154599,1,8,0:0:0:0:
256,192,154749,1,0,0:0:0:0:
256,192,154824,1,0,0:0:0:0:
256,192,154899,1,0,0:0:0:0:
256,192,155049,1,0,0:0:0:0:
256,192,155199,1,8,0:0:0:0:
256,192,155349,5,8,0:0:0:0:
256,192,155499,1,0,0:0:0:0:
256,192,155799,1,8,0:0:0:0:
256,192,155949,1,0,0:0:0:0:
256,192,156099,1,8,0:0:0:0:
256,192,156174,1,8,0:0:0:0:
256,192,156249,1,0,0:0:0:0:
256,192,156399,1,8,0:0:0:0:
256,192,156549,1,8,0:0:0:0:
256,192,156699,1,0,0:0:0:0:
256,192,156999,1,0,0:0:0:0:
256,192,157149,1,8,0:0:0:0:
256,192,157299,1,0,0:0:0:0:
256,192,157449,1,8,0:0:0:0:
256,192,157524,1,0,0:0:0:0:
256,192,157599,1,0,0:0:0:0:
256,192,157749,1,8,0:0:0:0:
256,192,157899,1,0,0:0:0:0:
256,192,158049,1,8,0:0:0:0:
256,192,158199,1,0,0:0:0:0:
256,192,158274,1,0,0:0:0:0:
256,192,158349,1,8,0:0:0:0:
256,192,158499,1,0,0:0:0:0:
256,192,158574,1,0,0:0:0:0:
256,192,158649,1,8,0:0:0:0:
256,192,158724,1,8,0:0:0:0:
256,192,158799,1,0,0:0:0:0:
256,192,158949,1,8,0:0:0:0:
256,192,159099,1,4,0:0:0:0:
256,192,159249,1,8,0:0:0:0:
256,192,159324,1,8,0:0:0:0:
256,192,159399,1,0,0:0:0:0:
256,192,159549,1,8,0:0:0:0:
256,192,159699,1,0,0:0:0:0:
256,192,159774,1,0,0:0:0:0:
256,192,159849,1,8,0:0:0:0:
256,192,159999,1,0,0:0:0:0:
256,192,160149,1,8,0:0:0:0:
256,192,160299,1,4,0:0:0:0:
256,192,160449,1,8,0:0:0:0:
256,192,160524,1,8,0:0:0:0:
256,192,160599,1,0,0:0:0:0:
256,192,160674,1,0,0:0:0:0:
256,192,160749,1,8,0:0:0:0:
256,192,160899,1,0,0:0:0:0:
256,192,160974,1,0,0:0:0:0:
256,192,161049,1,8,0:0:0:0:
256,192,161199,1,0,0:0:0:0:
256,192,161349,1,8,0:0:0:0:
256,192,161499,1,4,0:0:0:0:
256,192,161649,1,8,0:0:0:0:
256,192,161724,1,8,0:0:0:0:
256,192,161799,1,0,0:0:0:0:
256,192,161949,1,8,0:0:0:0:
256,192,162099,1,4,0:0:0:0:
256,192,162249,1,8,0:0:0:0:
256,192,162324,1,8,0:0:0:0:
256,192,162399,1,0,0:0:0:0:
256,192,162474,1,0,0:0:0:0:
256,192,162549,1,8,0:0:0:0:
256,192,162699,1,0,0:0:0:0:
256,192,162774,5,0,0:0:0:0:
256,192,162849,1,8,0:0:0:0:
256,192,162924,1,0,0:0:0:0:
256,192,162999,1,8,0:0:0:0:
256,192,163074,1,8,0:0:0:0:
256,192,163149,1,0,0:0:0:0:
256,192,163224,1,8,0:0:0:0:
256,192,163299,1,0,0:0:0:0:
256,192,163374,1,0,0:0:0:0:
256,192,163449,1,0,0:0:0:0:
256,192,163524,1,0,0:0:0:0:
256,192,163599,1,8,0:0:0:0:
256,192,163674,1,8,0:0:0:0:
256,192,163749,1,0,0:0:0:0:
254,199,163899,5,4,0:0:0:0:
254,199,164124,1,8,0:0:0:0:
254,199,164199,1,0,0:0:0:0:
254,199,164349,1,0,0:0:0:0:
254,199,164424,1,0,0:0:0:0:
254,199,164499,1,8,0:0:0:0:
254,199,164649,1,0,0:0:0:0:
254,199,164799,1,8,0:0:0:0:
254,199,164874,1,8,0:0:0:0:
254,199,164949,1,0,0:0:0:0:
254,199,165024,1,0,0:0:0:0:
254,199,165099,1,8,0:0:0:0:
254,199,165249,1,0,0:0:0:0:
254,199,165399,1,8,0:0:0:0:
254,199,165474,1,0,0:0:0:0:
254,199,165549,1,8,0:0:0:0:
254,199,165699,1,0,0:0:0:0:
254,199,165849,1,8,0:0:0:0:
254,199,165924,1,0,0:0:0:0:
254,199,165999,1,0,0:0:0:0:
254,199,166074,1,0,0:0:0:0:
254,199,166149,1,8,0:0:0:0:
254,199,166299,1,0,0:0:0:0:
254,199,166449,1,8,0:0:0:0:
254,199,166524,1,8,0:0:0:0:
254,199,166599,1,0,0:0:0:0:
254,199,166749,1,8,0:0:0:0:
254,199,166824,1,0,0:0:0:0:
254,199,166899,1,8,0:0:0:0:
254,199,167049,1,0,0:0:0:0:
254,199,167124,1,8,0:0:0:0:
254,199,167199,1,0,0:0:0:0:
254,199,167274,1,0,0:0:0:0:
254,199,167349,1,8,0:0:0:0:
252,201,167424,1,8,0:0:0:0:
254,199,167499,1,0,0:0:0:0:
254,199,167649,1,0,0:0:0:0:
254,199,167799,1,8,0:0:0:0:
254,199,168099,1,8,0:0:0:0:
254,199,168249,1,0,0:0:0:0:
254,199,168324,1,0,0:0:0:0:
254,199,168399,1,8,0:0:0:0:
254,199,168474,1,0,0:0:0:0:
254,199,168549,1,8,0:0:0:0:
254,199,168699,1,4,0:0:0:0:
254,199,168849,1,8,0:0:0:0:
254,199,168924,1,8,0:0:0:0:
254,199,168999,1,0,0:0:0:0:
254,199,169074,1,0,0:0:0:0:
254,199,169149,1,8,0:0:0:0:
254,199,169299,1,0,0:0:0:0:
254,199,169374,1,0,0:0:0:0:
254,199,169449,1,8,0:0:0:0:
254,199,169599,1,0,0:0:0:0:
254,199,169674,1,8,0:0:0:0:
254,199,169749,1,0,0:0:0:0:
254,199,169899,1,4,0:0:0:0:
254,199,170049,1,8,0:0:0:0:
254,199,170124,1,0,0:0:0:0:
254,199,170199,1,0,0:0:0:0:
254,199,170274,1,0,0:0:0:0:
254,199,170349,1,8,0:0:0:0:
254,199,170499,1,0,0:0:0:0:
254,199,170649,1,8,0:0:0:0:
254,199,170724,1,8,0:0:0:0:
254,199,170799,1,0,0:0:0:0:
254,199,170874,1,0,0:0:0:0:
254,199,170949,1,8,0:0:0:0:
254,199,171099,1,4,0:0:0:0:
254,199,171249,1,8,0:0:0:0:
254,199,171324,1,8,0:0:0:0:
254,199,171399,1,0,0:0:0:0:
254,199,171549,1,8,0:0:0:0:
254,199,171699,1,4,0:0:0:0:
254,199,171849,1,8,0:0:0:0:
254,199,171924,1,8,0:0:0:0:
254,199,171999,1,0,0:0:0:0:
254,199,172074,1,0,0:0:0:0:
254,199,172149,1,8,0:0:0:0:
254,199,172299,1,0,0:0:0:0:
254,199,172374,1,0,0:0:0:0:
254,199,172449,1,8,0:0:0:0:
254,199,172524,1,8,0:0:0:0:
254,199,172599,1,0,0:0:0:0:
254,199,172674,1,0,0:0:0:0:
254,199,172749,1,8,0:0:0:0:
254,199,172824,1,0,0:0:0:0:
254,199,172899,1,8,0:0:0:0:
254,199,172974,1,0,0:0:0:0:
254,199,173049,1,8,0:0:0:0:
254,199,173124,1,8,0:0:0:0:
254,199,173199,1,8,0:0:0:0:
254,199,173274,1,8,0:0:0:0:
254,199,173349,1,0,0:0:0:0:
254,199,173499,1,0,0:0:0:0:
254,199,173799,1,8,0:0:0:0:
254,199,174024,1,8,0:0:0:0:
254,199,174099,1,0,0:0:0:0:
254,199,174249,1,0,0:0:0:0:
254,199,174399,1,8,0:0:0:0:
254,199,174549,1,0,0:0:0:0:
254,199,174624,1,0,0:0:0:0:
254,199,174699,1,0,0:0:0:0:
254,199,174849,1,0,0:0:0:0:
254,199,174999,1,8,0:0:0:0:
254,199,175149,1,0,0:0:0:0:
254,199,175224,1,0,0:0:0:0:
254,199,175299,1,8,0:0:0:0:
254,199,175374,1,8,0:0:0:0:
254,199,175449,1,0,0:0:0:0:
254,199,175599,1,8,0:0:0:0:
254,199,175749,1,8,0:0:0:0:
254,199,175824,1,8,0:0:0:0:
254,199,175899,1,0,0:0:0:0:
254,199,176049,1,0,0:0:0:0:
254,199,176199,1,8,0:0:0:0:
254,199,176349,1,0,0:0:0:0:
254,199,176424,1,0,0:0:0:0:
254,199,176499,1,8,0:0:0:0:
254,199,176574,1,8,0:0:0:0:
254,199,176649,1,0,0:0:0:0:
254,199,176799,1,8,0:0:0:0:
253,194,176874,1,8,0:0:0:0:
254,199,176949,1,0,0:0:0:0:
254,199,177099,1,8,0:0:0:0:
254,199,177174,1,8,0:0:0:0:
254,199,177249,1,0,0:0:0:0:
254,199,177324,1,8,0:0:0:0:
254,199,177399,1,0,0:0:0:0:
254,199,177474,1,0,0:0:0:0:
254,199,177549,1,8,0:0:0:0:
254,199,177624,1,0,0:0:0:0:
254,199,177699,1,8,0:0:0:0:
254,192,178299,5,4,0:0:0:0:
254,192,178449,1,8,0:0:0:0:
254,192,178524,1,8,0:0:0:0:
254,192,178599,1,0,0:0:0:0:
254,192,178749,1,0,0:0:0:0:
254,192,178824,1,0,0:0:0:0:
254,192,178899,1,8,0:0:0:0:
254,192,178974,1,0,0:0:0:0:
254,192,179049,1,8,0:0:0:0:
256,192,179199,1,0,0:0:0:0:
256,192,179349,1,8,0:0:0:0:
256,192,179424,1,8,0:0:0:0:
256,192,179499,1,0,0:0:0:0:
256,192,179649,1,8,0:0:0:0:
256,192,179799,1,0,0:0:0:0:
254,192,179874,1,0,0:0:0:0:
256,192,179949,1,8,0:0:0:0:
256,192,180024,1,8,0:0:0:0:
256,192,180099,1,0,0:0:0:0:
256,192,180174,1,0,0:0:0:0:
256,192,180249,1,8,0:0:0:0:
256,192,180399,1,0,0:0:0:0:
256,192,180474,1,0,0:0:0:0:
256,192,180549,1,8,0:0:0:0:
256,192,180699,1,0,0:0:0:0:
256,192,180849,1,8,0:0:0:0:
256,192,180924,1,8,0:0:0:0:
256,192,180999,1,0,0:0:0:0:
256,192,181149,1,8,0:0:0:0:
256,192,181299,1,0,0:0:0:0:
256,192,181374,1,0,0:0:0:0:
256,192,181449,1,8,0:0:0:0:
256,192,181524,1,8,0:0:0:0:
256,192,181599,1,0,0:0:0:0:
256,192,181749,1,8,0:0:0:0:
256,192,181899,1,0,0:0:0:0:
256,192,182049,1,8,0:0:0:0:
256,192,182124,1,8,0:0:0:0:
256,192,182199,1,8,0:0:0:0:
256,192,182349,1,0,0:0:0:0:
256,192,182499,1,8,0:0:0:0:
256,192,182574,1,0,0:0:0:0:
256,192,182649,1,8,0:0:0:0:
256,192,182724,1,8,0:0:0:0:
256,192,182799,1,0,0:0:0:0:
256,192,182949,1,8,0:0:0:0:
256,192,183099,1,0,0:0:0:0:
256,192,183249,1,0,0:0:0:0:
256,192,183324,1,0,0:0:0:0:
256,192,183399,1,8,0:0:0:0:
256,192,183549,1,0,0:0:0:0:
256,192,183699,1,8,0:0:0:0:
256,192,183774,1,8,0:0:0:0:
256,192,183849,1,0,0:0:0:0:
256,192,183924,1,8,0:0:0:0:
256,192,183999,1,0,0:0:0:0:
256,192,184149,1,8,0:0:0:0:
256,192,184299,1,0,0:0:0:0:
256,192,184449,1,8,0:0:0:0:
256,192,184524,1,8,0:0:0:0:
256,192,184599,1,0,0:0:0:0:
256,192,184749,1,8,0:0:0:0:
256,192,184824,1,0,0:0:0:0:
256,192,184899,1,0,0:0:0:0:
256,192,185049,1,8,0:0:0:0:
256,192,185199,1,0,0:0:0:0:
256,192,185274,1,8,0:0:0:0:
256,192,185349,1,0,0:0:0:0:
256,192,185424,1,0,0:0:0:0:
256,192,185499,1,8,0:0:0:0:
256,192,185649,1,0,0:0:0:0:
256,192,185724,1,8,0:0:0:0:
256,192,185799,1,0,0:0:0:0:
256,192,185949,1,8,0:0:0:0:
256,192,186099,1,0,0:0:0:0:
256,192,186249,1,8,0:0:0:0:
256,192,186324,1,8,0:0:0:0:
256,192,186399,1,0,0:0:0:0:
256,192,186474,1,0,0:0:0:0:
256,192,186549,1,8,0:0:0:0:
256,192,186699,1,0,0:0:0:0:
256,192,186999,1,8,0:0:0:0:
258,192,187149,1,0,0:0:0:0:
258,192,187299,1,8,0:0:0:0:
258,192,187449,1,0,0:0:0:0:
258,192,187524,1,0,0:0:0:0:
258,192,187599,1,0,0:0:0:0:
258,192,187674,1,0,0:0:0:0:
258,192,187749,1,8,0:0:0:0:
256,192,187899,5,4,0:0:0:0:
256,192,188049,1,8,0:0:0:0:
256,192,188124,1,8,0:0:0:0:
256,192,188199,1,0,0:0:0:0:
256,192,188349,1,0,0:0:0:0:
256,192,188499,1,8,0:0:0:0:
258,192,188574,1,8,0:0:0:0:
256,192,188649,1,0,0:0:0:0:
258,192,188724,1,0,0:0:0:0:
258,192,188799,1,8,0:0:0:0:
258,192,188949,1,0,0:0:0:0:
263,196,189024,1,0,0:0:0:0:
258,192,189099,1,8,0:0:0:0:
258,192,189249,1,0,0:0:0:0:
256,192,189399,1,8,0:0:0:0:
256,192,189474,1,0,0:0:0:0:
256,192,189549,1,8,0:0:0:0:
256,192,189624,1,8,0:0:0:0:
258,192,189699,1,0,0:0:0:0:
256,192,189849,1,8,0:0:0:0:
256,192,189999,1,0,0:0:0:0:
256,192,190074,1,0,0:0:0:0:
256,192,190149,1,8,0:0:0:0:
254,192,190299,1,0,0:0:0:0:
256,192,190449,1,8,0:0:0:0:
256,192,190599,1,0,0:0:0:0:
256,192,190674,1,8,0:0:0:0:
256,192,190749,1,0,0:0:0:0:
256,192,190824,1,0,0:0:0:0:
256,192,190899,1,8,0:0:0:0:
256,192,190974,1,8,0:0:0:0:
256,192,191049,1,0,0:0:0:0:
256,192,191199,1,8,0:0:0:0:
256,192,191349,1,0,0:0:0:0:
256,192,191424,1,0,0:0:0:0:
256,192,191499,1,0,0:0:0:0:
256,192,191649,1,8,0:0:0:0:
256,192,191724,1,0,0:0:0:0:
256,192,191799,1,8,0:0:0:0:
256,192,191949,1,0,0:0:0:0:
256,192,192099,1,8,0:0:0:0:
256,192,192174,1,0,0:0:0:0:
256,192,192249,1,8,0:0:0:0:
256,192,192324,1,8,0:0:0:0:
256,192,192399,1,0,0:0:0:0:
256,192,192474,1,0,0:0:0:0:
256,192,192549,1,8,0:0:0:0:
256,192,192699,1,4,0:0:0:0:
256,192,192849,1,0,0:0:0:0:
256,192,192924,1,0,0:0:0:0:
256,192,192999,1,8,0:0:0:0:
256,192,193149,1,0,0:0:0:0:
256,192,193299,1,8,0:0:0:0:
256,192,193374,1,8,0:0:0:0:
256,192,193449,1,0,0:0:0:0:
256,192,193524,1,8,0:0:0:0:
256,192,193599,1,0,0:0:0:0:
256,192,193674,1,0,0:0:0:0:
256,192,193749,1,8,0:0:0:0:
256,192,193899,1,4,0:0:0:0:
256,192,194049,1,8,0:0:0:0:
256,192,194124,1,8,0:0:0:0:
256,192,194199,1,0,0:0:0:0:
256,192,194349,1,8,0:0:0:0:
256,192,194424,1,0,0:0:0:0:
256,192,194499,1,8,0:0:0:0:
256,192,194649,1,0,0:0:0:0:
256,192,194724,1,0,0:0:0:0:
256,192,194799,1,8,0:0:0:0:
256,192,194874,1,0,0:0:0:0:
256,192,194949,1,8,0:0:0:0:
256,192,195099,1,4,0:0:0:0:
256,192,195249,1,8,0:0:0:0:
256,192,195324,1,8,0:0:0:0:
256,192,195399,1,0,0:0:0:0:
256,192,195549,1,8,0:0:0:0:
256,192,195699,1,4,0:0:0:0:
256,192,195849,1,8,0:0:0:0:
256,192,195924,1,8,0:0:0:0:
256,192,195999,1,0,0:0:0:0:
256,192,196074,1,0,0:0:0:0:
256,192,196149,1,8,0:0:0:0:
256,192,196299,1,0,0:0:0:0:
256,192,196374,1,8,0:0:0:0:
256,192,196449,1,0,0:0:0:0:
256,192,196524,1,0,0:0:0:0:
256,192,196599,1,8,0:0:0:0:
256,192,196674,1,8,0:0:0:0:
256,192,196749,1,0,0:0:0:0:
256,192,196824,1,8,0:0:0:0:
256,192,196899,1,0,0:0:0:0:
256,192,196974,1,0,0:0:0:0:
256,192,197049,1,0,0:0:0:0:
256,192,197124,1,0,0:0:0:0:
256,192,197199,1,8,0:0:0:0:
256,192,197274,1,8,0:0:0:0:
256,192,197349,1,8,0:0:0:0:
256,192,197424,1,8,0:0:0:0:
256,192,197499,1,0,0:0:0:0:
256,192,197799,1,4,0:0:0:0:
256,192,198099,12,0,198549,0:0:0:0:
255,192,219099,5,0,0:0:0:0:
255,192,219699,1,8,0:0:0:0:
255,192,220299,1,0,0:0:0:0:
255,192,220899,1,0,0:0:0:0:
255,192,221499,1,8,0:0:0:0:
255,192,222099,1,0,0:0:0:0:
255,192,222699,1,0,0:0:0:0:
255,192,223299,1,8,0:0:0:0:
255,192,223899,1,0,0:0:0:0:
255,192,224499,1,0,0:0:0:0:
255,192,225099,1,8,0:0:0:0:
255,192,225699,1,0,0:0:0:0:
255,192,226299,1,8,0:0:0:0:
255,192,226899,1,0,0:0:0:0:
255,192,227499,1,8,0:0:0:0:
255,192,228699,1,0,0:0:0:0:
255,192,228999,1,8,0:0:0:0:
255,192,229149,1,0,0:0:0:0:
255,192,229449,1,0,0:0:0:0:
255,192,229599,1,8,0:0:0:0:
255,192,229749,1,8,0:0:0:0:
255,192,230049,1,0,0:0:0:0:
255,192,230199,1,8,0:0:0:0:
255,192,230649,1,0,0:0:0:0:
255,192,230799,1,0,0:0:0:0:
255,192,230949,1,8,0:0:0:0:
255,192,231099,1,0,0:0:0:0:
255,192,231399,1,8,0:0:0:0:
255,192,231549,1,0,0:0:0:0:
255,192,231849,1,8,0:0:0:0:
255,192,232149,1,0,0:0:0:0:
255,192,232449,1,8,0:0:0:0:
255,192,232599,1,0,0:0:0:0:
255,192,233049,1,0,0:0:0:0:
255,192,233199,1,8,0:0:0:0:
255,192,233349,1,8,0:0:0:0:
263,196,233499,5,4,0:0:0:0:
263,196,233649,1,0,0:0:0:0:
263,196,233799,1,8,0:0:0:0:
263,196,233949,1,0,0:0:0:0:
263,196,234099,1,8,0:0:0:0:
263,196,234249,1,8,0:0:0:0:
263,196,234399,1,0,0:0:0:0:
256,192,234549,1,8,0:0:0:0:
256,192,234699,1,4,0:0:0:0:
256,192,234849,1,8,0:0:0:0:
256,192,234999,1,0,0:0:0:0:
256,192,235149,1,0,0:0:0:0:
256,192,235299,1,8,0:0:0:0:
256,192,235449,1,8,0:0:0:0:
256,192,235599,1,0,0:0:0:0:
256,192,235749,1,8,0:0:0:0:
256,192,235899,1,0,0:0:0:0:
256,192,235974,1,0,0:0:0:0:
256,192,236049,1,8,0:0:0:0:
256,192,236124,1,8,0:0:0:0:
256,192,236199,1,0,0:0:0:0:
256,192,236274,1,8,0:0:0:0:
256,192,236349,1,0,0:0:0:0:
256,192,236499,1,0,0:0:0:0:
256,192,236574,1,0,0:0:0:0:
256,192,236649,1,8,0:0:0:0:
256,192,236724,1,0,0:0:0:0:
256,192,236799,1,8,0:0:0:0:
256,192,236874,1,8,0:0:0:0:
256,192,236949,1,0,0:0:0:0:
256,192,237099,1,0,0:0:0:0:
256,192,237174,5,0,0:0:0:0:
256,192,237249,1,8,0:0:0:0:
256,192,237324,1,0,0:0:0:0:
256,192,237399,1,8,0:0:0:0:
256,192,237474,1,8,0:0:0:0:
256,192,237549,1,0,0:0:0:0:
256,192,237624,1,8,0:0:0:0:
256,192,237699,1,0,0:0:0:0:
256,192,237774,1,0,0:0:0:0:
256,192,237849,1,0,0:0:0:0:
256,192,237924,1,0,0:0:0:0:
256,192,237999,1,8,0:0:0:0:
256,192,238074,1,8,0:0:0:0:
256,192,238149,1,0,0:0:0:0:
254,192,238299,5,4,0:0:0:0:
254,192,238599,1,12,0:0:0:0:
254,192,239049,1,12,0:0:0:0:
254,192,239499,1,12,0:0:0:0:
254,192,239949,1,12,0:0:0:0:
254,192,240249,1,0,0:0:0:0:
254,192,240324,1,0,0:0:0:0:
254,192,240399,1,8,0:0:0:0:
254,192,240699,1,4,0:0:0:0:
254,192,240849,1,8,0:0:0:0:
254,192,240924,1,8,0:0:0:0:
254,192,240999,1,0,0:0:0:0:
254,192,241149,1,0,0:0:0:0:
254,192,241224,1,0,0:0:0:0:
254,192,241299,1,8,0:0:0:0:
254,192,241449,1,0,0:0:0:0:
256,192,241599,1,8,0:0:0:0:
256,192,241674,1,8,0:0:0:0:
256,192,241749,1,0,0:0:0:0:
254,192,241824,1,8,0:0:0:0:
256,192,241899,1,0,0:0:0:0:
256,192,242049,1,8,0:0:0:0:
256,192,242124,1,0,0:0:0:0:
256,192,242199,1,8,0:0:0:0:
256,192,242349,1,0,0:0:0:0:
256,192,242424,1,8,0:0:0:0:
256,192,242499,1,0,0:0:0:0:
256,192,242574,1,0,0:0:0:0:
256,192,242649,1,8,0:0:0:0:
256,192,242724,1,8,0:0:0:0:
256,192,242799,1,0,0:0:0:0:
256,192,242949,1,8,0:0:0:0:
256,192,243099,1,0,0:0:0:0:
256,192,243249,1,8,0:0:0:0:
256,192,243324,1,8,0:0:0:0:
256,192,243399,1,0,0:0:0:0:
256,192,243549,1,8,0:0:0:0:
256,192,243699,1,0,0:0:0:0:
256,192,243774,1,0,0:0:0:0:
256,192,243849,1,8,0:0:0:0:
256,192,243924,1,8,0:0:0:0:
256,192,243999,1,0,0:0:0:0:
256,192,244149,1,8,0:0:0:0:
256,192,244224,1,8,0:0:0:0:
256,192,244299,1,0,0:0:0:0:
256,192,244449,1,8,0:0:0:0:
256,192,244524,1,0,0:0:0:0:
256,192,244599,1,8,0:0:0:0:
256,192,244749,1,0,0:0:0:0:
256,192,244899,1,8,0:0:0:0:
256,192,244974,1,0,0:0:0:0:
256,192,245049,1,8,0:0:0:0:
256,192,245124,1,8,0:0:0:0:
256,192,245199,1,0,0:0:0:0:
256,192,245349,1,8,0:0:0:0:
256,192,245499,1,0,0:0:0:0:
256,192,245649,1,0,0:0:0:0:
256,192,245724,1,0,0:0:0:0:
256,192,245799,1,8,0:0:0:0:
256,192,245949,1,0,0:0:0:0:
256,192,246024,1,8,0:0:0:0:
256,192,246099,1,0,0:0:0:0:
256,192,246174,1,0,0:0:0:0:
256,192,246249,1,8,0:0:0:0:
256,192,246324,1,8,0:0:0:0:
256,192,246399,1,0,0:0:0:0:
256,192,246549,1,8,0:0:0:0:
256,192,246699,1,0,0:0:0:0:
256,192,246849,1,8,0:0:0:0:
256,192,246924,1,8,0:0:0:0:
256,192,246999,1,0,0:0:0:0:
256,192,247074,1,8,0:0:0:0:
256,192,247149,1,0,0:0:0:0:
256,192,247299,1,8,0:0:0:0:
256,192,247449,1,0,0:0:0:0:
256,192,247524,1,0,0:0:0:0:
256,192,247599,1,8,0:0:0:0:
259,192,247674,1,0,0:0:0:0:
256,192,247749,1,8,0:0:0:0:
259,192,247824,1,8,0:0:0:0:
254,192,247899,1,0,0:0:0:0:
254,192,248049,1,8,0:0:0:0:
254,192,248124,1,8,0:0:0:0:
254,192,248199,1,0,0:0:0:0:
254,192,248349,1,0,0:0:0:0:
254,192,248424,1,0,0:0:0:0:
254,192,248499,1,8,0:0:0:0:
256,192,248574,1,8,0:0:0:0:
254,192,248649,1,0,0:0:0:0:
256,192,248799,1,8,0:0:0:0:
256,192,248949,1,0,0:0:0:0:
256,192,249024,1,0,0:0:0:0:
256,192,249099,1,8,0:0:0:0:
256,192,249249,1,8,0:0:0:0:
256,192,249324,1,8,0:0:0:0:
256,192,249399,1,0,0:0:0:0:
256,192,249549,1,8,0:0:0:0:
256,192,249699,1,0,0:0:0:0:
256,192,249774,1,0,0:0:0:0:
256,192,249849,1,8,0:0:0:0:
256,192,249924,1,8,0:0:0:0:
256,192,249999,1,0,0:0:0:0:
256,192,250074,5,0,0:0:0:0:
256,192,250149,1,8,0:0:0:0:
256,192,250299,1,0,0:0:0:0:
256,192,250449,1,8,0:0:0:0:
256,192,250524,1,8,0:0:0:0:
256,192,250599,1,0,0:0:0:0:
256,192,250749,1,0,0:0:0:0:
256,192,250899,1,8,0:0:0:0:
256,192,250974,1,0,0:0:0:0:
256,192,251049,1,8,0:0:0:0:
256,192,251124,1,8,0:0:0:0:
256,192,251199,1,0,0:0:0:0:
256,192,251274,1,0,0:0:0:0:
256,192,251349,1,8,0:0:0:0:
256,192,251499,1,0,0:0:0:0:
256,192,251649,1,8,0:0:0:0:
256,192,251724,1,8,0:0:0:0:
256,192,251799,1,0,0:0:0:0:
256,192,251874,1,0,0:0:0:0:
256,192,251949,1,8,0:0:0:0:
256,192,252024,1,0,0:0:0:0:
256,192,252099,1,8,0:0:0:0:
256,192,252249,1,0,0:0:0:0:
256,192,252324,1,8,0:0:0:0:
256,192,252399,1,0,0:0:0:0:
256,192,252474,1,0,0:0:0:0:
256,192,252549,1,8,0:0:0:0:
256,192,252699,1,4,0:0:0:0:
256,192,252849,1,0,0:0:0:0:
256,192,252924,1,0,0:0:0:0:
256,192,252999,1,8,0:0:0:0:
256,192,253149,1,0,0:0:0:0:
256,192,253299,1,0,0:0:0:0:
256,192,253374,1,8,0:0:0:0:
256,192,253449,1,0,0:0:0:0:
256,192,253524,1,0,0:0:0:0:
256,192,253599,1,8,0:0:0:0:
256,192,253674,1,0,0:0:0:0:
256,192,253749,1,8,0:0:0:0:
256,192,253899,1,4,0:0:0:0:
256,192,254049,1,8,0:0:0:0:
256,192,254124,1,8,0:0:0:0:
256,192,254199,1,0,0:0:0:0:
256,192,254349,1,8,0:0:0:0:
256,192,254499,1,0,0:0:0:0:
256,192,254649,1,8,0:0:0:0:
256,192,254724,1,8,0:0:0:0:
256,192,254799,1,0,0:0:0:0:
256,192,254874,1,0,0:0:0:0:
256,192,254949,1,8,0:0:0:0:
256,192,255099,1,4,0:0:0:0:
256,192,255249,1,8,0:0:0:0:
256,192,255324,1,0,0:0:0:0:
256,192,255399,1,0,0:0:0:0:
256,192,255474,1,0,0:0:0:0:
256,192,255549,1,8,0:0:0:0:
256,192,255699,1,4,0:0:0:0:
256,192,255849,1,8,0:0:0:0:
258,192,255924,1,8,0:0:0:0:
256,192,255999,1,0,0:0:0:0:
256,192,256074,1,0,0:0:0:0:
256,192,256149,1,8,0:0:0:0:
256,192,256299,1,0,0:0:0:0:
256,192,256374,1,0,0:0:0:0:
256,192,256449,1,8,0:0:0:0:
256,192,256524,1,8,0:0:0:0:
256,192,256599,1,0,0:0:0:0:
256,192,256674,1,0,0:0:0:0:
256,192,256749,1,8,0:0:0:0:
256,192,256824,1,0,0:0:0:0:
256,192,256899,1,8,0:0:0:0:
256,192,256974,1,8,0:0:0:0:
256,192,257049,1,0,0:0:0:0:
256,192,257124,1,0,0:0:0:0:
256,192,257199,1,0,0:0:0:0:
256,192,257274,1,0,0:0:0:0:
256,192,257349,1,8,0:0:0:0:
256,192,257424,1,8,0:0:0:0:
256,193,257499,5,0,0:0:0:0:
256,193,257724,1,8,0:0:0:0:
256,193,257799,1,0,0:0:0:0:
256,193,257949,1,8,0:0:0:0:
256,193,258099,1,0,0:0:0:0:
256,193,258174,1,0,0:0:0:0:
256,193,258249,1,8,0:0:0:0:
256,192,258324,1,8,0:0:0:0:
256,193,258399,1,0,0:0:0:0:
256,193,258549,1,8,0:0:0:0:
256,193,258624,1,8,0:0:0:0:
256,193,258699,1,0,0:0:0:0:
256,193,258849,1,8,0:0:0:0:
256,193,258924,1,0,0:0:0:0:
256,193,258999,1,8,0:0:0:0:
256,193,259149,1,0,0:0:0:0:
256,193,259299,1,8,0:0:0:0:
256,193,259374,1,8,0:0:0:0:
256,193,259449,1,0,0:0:0:0:
256,193,259524,1,0,0:0:0:0:
256,193,259599,1,8,0:0:0:0:
256,193,259749,1,8,0:0:0:0:
256,193,259899,1,0,0:0:0:0:
256,193,260049,1,8,0:0:0:0:
256,193,260124,1,8,0:0:0:0:
256,193,260199,1,0,0:0:0:0:
256,193,260349,1,8,0:0:0:0:
256,193,260499,1,0,0:0:0:0:
256,193,260574,1,8,0:0:0:0:
256,193,260649,1,0,0:0:0:0:
256,193,260799,1,0,0:0:0:0:
256,193,260874,1,0,0:0:0:0:
256,193,260949,1,8,0:0:0:0:
256,193,261099,1,0,0:0:0:0:
256,193,261249,1,8,0:0:0:0:
256,193,261324,1,0,0:0:0:0:
256,193,261399,1,8,0:0:0:0:
256,193,261474,1,8,0:0:0:0:
256,193,261549,1,0,0:0:0:0:
256,193,261624,1,8,0:0:0:0:
256,193,261699,1,0,0:0:0:0:
256,193,261849,1,8,0:0:0:0:
256,193,261924,1,8,0:0:0:0:
256,193,261999,1,0,0:0:0:0:
256,193,262149,1,8,0:0:0:0:
256,193,262299,1,0,0:0:0:0:
256,193,262524,1,8,0:0:0:0:
256,193,262599,1,0,0:0:0:0:
256,193,262749,1,8,0:0:0:0:
256,193,262899,1,0,0:0:0:0:
256,193,262974,1,8,0:0:0:0:
256,193,263049,1,0,0:0:0:0:
256,193,263199,1,8,0:0:0:0:
256,193,263274,1,0,0:0:0:0:
256,193,263349,1,8,0:0:0:0:
259,192,263424,1,8,0:0:0:0:
256,193,263499,1,0,0:0:0:0:
256,193,263649,1,8,0:0:0:0:
256,193,263724,1,8,0:0:0:0:
256,193,263799,1,0,0:0:0:0:
256,193,263949,1,8,0:0:0:0:
256,193,264099,1,0,0:0:0:0:
256,193,264174,1,8,0:0:0:0:
256,193,264249,1,0,0:0:0:0:
256,193,264324,1,0,0:0:0:0:
256,193,264399,1,8,0:0:0:0:
256,193,264474,1,0,0:0:0:0:
256,193,264549,1,8,0:0:0:0:
256,193,264699,1,0,0:0:0:0:
256,193,264849,1,8,0:0:0:0:
256,193,264924,1,8,0:0:0:0:
256,193,264999,1,0,0:0:0:0:
256,193,265149,1,8,0:0:0:0:
256,193,265299,1,0,0:0:0:0:
256,193,265374,1,8,0:0:0:0:
257,193,265449,1,0,0:0:0:0:
257,193,265524,1,0,0:0:0:0:
257,193,265599,1,8,0:0:0:0:
257,193,265749,1,0,0:0:0:0:
257,193,265899,1,8,0:0:0:0:
257,193,266049,1,0,0:0:0:0:
257,193,266124,1,0,0:0:0:0:
257,193,266199,1,8,0:0:0:0:
257,193,266274,1,8,0:0:0:0:
259,199,266349,1,0,0:0:0:0:
258,193,266499,1,0,0:0:0:0:
257,193,266649,1,8,0:0:0:0:
257,193,266724,1,0,0:0:0:0:
258,191,266799,1,8,0:0:0:0:
256,193,267099,5,4,0:0:0:0:
256,193,267324,1,8,0:0:0:0:
256,193,267399,1,0,0:0:0:0:
256,193,267549,1,8,0:0:0:0:
256,193,267699,1,0,0:0:0:0:
256,193,267774,1,0,0:0:0:0:
256,193,267849,1,8,0:0:0:0:
256,193,267924,1,8,0:0:0:0:
256,193,267999,1,0,0:0:0:0:
256,193,268149,1,8,0:0:0:0:
256,193,268299,1,0,0:0:0:0:
256,193,268449,1,8,0:0:0:0:
256,193,268524,1,0,0:0:0:0:
256,193,268599,1,8,0:0:0:0:
256,193,268749,1,0,0:0:0:0:
256,193,268899,1,8,0:0:0:0:
256,193,268974,1,8,0:0:0:0:
256,193,269049,1,0,0:0:0:0:
256,193,269199,1,8,0:0:0:0:
256,193,269274,1,0,0:0:0:0:
256,193,269349,1,8,0:0:0:0:
256,193,269499,1,0,0:0:0:0:
256,193,269649,1,0,0:0:0:0:
256,193,269724,1,0,0:0:0:0:
256,193,269799,1,8,0:0:0:0:
256,193,269949,1,0,0:0:0:0:
256,193,270099,1,8,0:0:0:0:
256,193,270174,1,0,0:0:0:0:
256,193,270249,1,8,0:0:0:0:
256,193,270399,1,0,0:0:0:0:
256,193,270474,1,8,0:0:0:0:
256,193,270549,1,0,0:0:0:0:
256,193,270624,1,0,0:0:0:0:
256,193,270699,1,8,0:0:0:0:
256,193,270774,1,0,0:0:0:0:
256,193,270849,1,8,0:0:0:0:
256,193,270999,1,0,0:0:0:0:
256,193,271074,1,0,0:0:0:0:
256,193,271149,1,8,0:0:0:0:
256,193,271299,1,0,0:0:0:0:
256,193,271449,1,8,0:0:0:0:
256,193,271524,1,8,0:0:0:0:
256,193,271599,1,0,0:0:0:0:
256,193,271674,1,0,0:0:0:0:
256,193,271749,1,8,0:0:0:0:
256,193,271899,1,4,0:0:0:0:
256,193,272049,1,8,0:0:0:0:
256,193,272124,1,8,0:0:0:0:
256,193,272199,1,0,0:0:0:0:
256,193,272349,1,8,0:0:0:0:
256,193,272499,1,0,0:0:0:0:
256,193,272574,1,0,0:0:0:0:
256,193,272649,1,8,0:0:0:0:
256,193,272724,1,8,0:0:0:0:
256,193,272799,1,0,0:0:0:0:
256,193,272949,1,8,0:0:0:0:
256,193,273099,1,4,0:0:0:0:
256,193,273249,1,8,0:0:0:0:
256,193,273324,1,8,0:0:0:0:
256,193,273399,1,0,0:0:0:0:
256,193,273549,1,8,0:0:0:0:
256,193,273699,1,0,0:0:0:0:
256,193,273774,1,0,0:0:0:0:
256,193,273849,1,0,0:0:0:0:
256,193,273924,1,0,0:0:0:0:
256,193,273999,1,8,0:0:0:0:
256,193,274149,1,8,0:0:0:0:
256,193,274299,1,4,0:0:0:0:
256,193,274449,1,8,0:0:0:0:
256,193,274524,1,8,0:0:0:0:
256,193,274599,1,0,0:0:0:0:
256,193,274749,1,8,0:0:0:0:
256,193,274899,1,4,0:0:0:0:
256,193,275049,1,8,0:0:0:0:
256,193,275124,1,8,0:0:0:0:
256,193,275199,1,0,0:0:0:0:
256,193,275274,1,0,0:0:0:0:
256,193,275349,1,8,0:0:0:0:
256,193,275499,1,0,0:0:0:0:
256,193,275574,1,8,0:0:0:0:
256,193,275649,1,0,0:0:0:0:
256,193,275724,1,0,0:0:0:0:
256,193,275799,1,8,0:0:0:0:
256,193,275874,1,8,0:0:0:0:
256,193,275949,1,0,0:0:0:0:
256,193,276024,1,8,0:0:0:0:
256,193,276099,1,0,0:0:0:0:
256,193,276174,1,0,0:0:0:0:
256,193,276249,1,0,0:0:0:0:
256,193,276324,1,0,0:0:0:0:
256,193,276399,1,8,0:0:0:0:
256,193,276474,1,8,0:0:0:0:
256,193,276549,1,8,0:0:0:0:
256,193,276624,1,8,0:0:0:0:
256,193,276699,1,0,0:0:0:0:
256,193,276999,1,12,0:0:0:0:
256,193,277224,1,8,0:0:0:0:
256,193,277299,1,0,0:0:0:0:
256,193,277449,1,8,0:0:0:0:
256,193,277524,1,8,0:0:0:0:
256,193,277599,1,0,0:0:0:0:
261,189,277749,1,8,0:0:0:0:
256,193,277899,1,0,0:0:0:0:
256,193,278049,1,0,0:0:0:0:
256,193,278124,1,8,0:0:0:0:
256,193,278199,1,0,0:0:0:0:
256,193,278349,1,8,0:0:0:0:
256,193,278499,1,0,0:0:0:0:
256,193,278649,1,8,0:0:0:0:
256,193,278724,1,8,0:0:0:0:
256,193,278799,1,0,0:0:0:0:
256,193,278949,1,8,0:0:0:0:
256,193,279099,1,0,0:0:0:0:
256,193,279249,1,0,0:0:0:0:
256,193,279399,1,8,0:0:0:0:
256,193,279549,1,0,0:0:0:0:
256,193,279624,1,0,0:0:0:0:
256,193,279699,1,0,0:0:0:0:
256,193,279849,1,0,0:0:0:0:
256,193,279999,1,8,0:0:0:0:
256,193,280149,1,0,0:0:0:0:
256,193,280224,1,8,0:0:0:0:
256,193,280299,1,0,0:0:0:0:
256,193,280449,1,0,0:0:0:0:
256,193,280599,1,8,0:0:0:0:
256,193,280749,1,0,0:0:0:0:
256,193,280824,1,0,0:0:0:0:
256,193,280899,1,8,0:0:0:0:
256,193,281049,1,0,0:0:0:0:
256,193,281199,1,8,0:0:0:0:
256,193,281349,1,8,0:0:0:0:
256,193,281499,1,0,0:0:0:0:
256,193,281799,1,8,0:0:0:0:
256,193,282024,1,8,0:0:0:0:
256,193,282099,1,0,0:0:0:0:
256,193,282249,1,8,0:0:0:0:
256,193,282324,1,8,0:0:0:0:
256,193,282399,1,0,0:0:0:0:
256,193,282474,1,0,0:0:0:0:
256,193,282549,1,8,0:0:0:0:
256,193,282699,1,0,0:0:0:0:
256,193,282849,1,8,0:0:0:0:
256,193,282924,1,8,0:0:0:0:
256,193,282999,1,0,0:0:0:0:
256,193,283149,1,8,0:0:0:0:
256,193,283299,1,0,0:0:0:0:
256,193,283449,1,8,0:0:0:0:
256,193,283524,1,0,0:0:0:0:
256,193,283599,1,0,0:0:0:0:
256,193,283749,1,8,0:0:0:0:
256,193,283899,1,0,0:0:0:0:
256,193,284049,1,0,0:0:0:0:
256,193,284199,1,8,0:0:0:0:
256,193,284349,1,0,0:0:0:0:
256,193,284424,1,0,0:0:0:0:
256,193,284499,1,0,0:0:0:0:
256,193,284649,1,0,0:0:0:0:
256,193,284799,1,8,0:0:0:0:
256,193,284949,1,0,0:0:0:0:
256,193,285024,1,0,0:0:0:0:
256,193,285099,1,8,0:0:0:0:
256,193,285249,1,0,0:0:0:0:
256,193,285399,1,8,0:0:0:0:
256,193,285549,1,0,0:0:0:0:
256,193,285624,1,8,0:0:0:0:
256,193,285699,1,0,0:0:0:0:
256,193,285849,1,0,0:0:0:0:
256,193,285999,1,8,0:0:0:0:
256,193,286074,1,8,0:0:0:0:
256,193,286149,1,8,0:0:0:0:
256,193,286299,1,4,0:0:0:0:
256,193,286599,1,8,0:0:0:0:
256,193,286824,1,8,0:0:0:0:
256,193,286899,1,0,0:0:0:0:
256,193,287049,1,8,0:0:0:0:
256,193,287124,1,8,0:0:0:0:
256,193,287199,1,0,0:0:0:0:
261,189,287349,1,8,0:0:0:0:
256,193,287499,1,0,0:0:0:0:
256,193,287649,1,0,0:0:0:0:
256,193,287724,1,8,0:0:0:0:
256,193,287799,1,0,0:0:0:0:
256,193,287949,1,8,0:0:0:0:
256,193,288099,1,0,0:0:0:0:
256,193,288249,1,8,0:0:0:0:
256,193,288324,1,8,0:0:0:0:
256,193,288399,1,0,0:0:0:0:
256,193,288474,1,0,0:0:0:0:
256,193,288549,1,8,0:0:0:0:
256,193,288699,1,0,0:0:0:0:
256,193,288849,1,0,0:0:0:0:
256,193,288999,1,8,0:0:0:0:
256,193,289149,1,0,0:0:0:0:
256,193,289224,1,0,0:0:0:0:
256,193,289299,1,0,0:0:0:0:
256,193,289449,1,0,0:0:0:0:
256,193,289599,1,8,0:0:0:0:
256,193,289749,1,0,0:0:0:0:
256,193,289824,1,8,0:0:0:0:
256,193,289899,1,0,0:0:0:0:
256,193,290049,1,0,0:0:0:0:
256,193,290199,1,8,0:0:0:0:
256,193,290349,1,0,0:0:0:0:
256,193,290424,1,0,0:0:0:0:
256,193,290499,1,8,0:0:0:0:
256,193,290649,1,0,0:0:0:0:
256,193,290799,1,8,0:0:0:0:
256,193,290874,1,8,0:0:0:0:
256,193,290949,1,8,0:0:0:0:
256,193,291099,1,4,0:0:0:0:
256,193,291399,1,8,0:0:0:0:
256,193,291624,1,8,0:0:0:0:
256,193,291699,1,0,0:0:0:0:
256,193,291849,1,8,0:0:0:0:
256,193,291924,1,8,0:0:0:0:
256,193,291999,1,0,0:0:0:0:
256,193,292149,1,8,0:0:0:0:
256,193,292299,1,4,0:0:0:0:
256,193,292449,1,8,0:0:0:0:
256,193,292599,1,0,0:0:0:0:
256,193,292674,1,0,0:0:0:0:
256,193,292749,1,8,0:0:0:0:
256,193,292899,1,0,0:0:0:0:
256,193,293049,1,8,0:0:0:0:
256,193,293124,1,0,0:0:0:0:
256,193,293199,1,0,0:0:0:0:
256,193,293274,1,0,0:0:0:0:
256,193,293349,1,8,0:0:0:0:
256,193,293499,1,4,0:0:0:0:
256,193,293649,1,8,0:0:0:0:
256,193,293799,1,4,0:0:0:0:
256,193,293949,1,8,0:0:0:0:
256,193,294024,1,8,0:0:0:0:
256,193,294099,1,0,0:0:0:0:
256,193,294174,1,0,0:0:0:0:
256,193,294249,1,8,0:0:0:0:
256,193,294399,1,4,0:0:0:0:
256,193,294549,1,8,0:0:0:0:
256,193,294699,1,4,0:0:0:0:
256,193,294849,1,0,0:0:0:0:
256,193,294924,1,0,0:0:0:0:
256,193,294999,1,8,0:0:0:0:
256,193,295074,1,0,0:0:0:0:
256,193,295149,1,8,0:0:0:0:
256,193,295224,1,8,0:0:0:0:
256,193,295299,1,0,0:0:0:0:
256,193,295374,1,0,0:0:0:0:
256,193,295449,1,0,0:0:0:0:
256,193,295524,1,0,0:0:0:0:
256,193,295599,1,8,0:0:0:0:
256,193,295674,1,8,0:0:0:0:
256,193,295749,1,0,0:0:0:0:
256,193,295824,1,8,0:0:0:0:
251,195,295899,1,0,0:0:0:0:
251,195,296049,1,8,0:0:0:0:
251,195,296199,1,0,0:0:0:0:
251,195,296274,1,0,0:0:0:0:
251,195,296349,1,8,0:0:0:0:
251,195,296499,1,0,0:0:0:0:
251,195,296649,1,8,0:0:0:0:
251,195,296724,1,8,0:0:0:0:
251,195,296799,1,0,0:0:0:0:
251,195,296874,1,0,0:0:0:0:
251,195,296949,1,8,0:0:0:0:
251,195,297099,1,0,0:0:0:0:
251,195,297249,1,8,0:0:0:0:
251,195,297399,1,0,0:0:0:0:
251,195,297474,1,0,0:0:0:0:
251,195,297549,1,8,0:0:0:0:
251,195,297699,1,0,0:0:0:0:
251,195,297774,1,8,0:0:0:0:
251,195,297849,1,0,0:0:0:0:
251,195,297924,1,0,0:0:0:0:
251,195,297999,1,8,0:0:0:0:
251,195,298149,1,8,0:0:0:0:
251,195,298299,1,0,0:0:0:0:
251,195,298449,1,8,0:0:0:0:
251,195,298599,1,0,0:0:0:0:
251,195,298674,1,0,0:0:0:0:
251,195,298749,1,8,0:0:0:0:
251,195,298899,1,0,0:0:0:0:
251,195,299049,1,8,0:0:0:0:
251,195,299124,1,8,0:0:0:0:
251,195,299199,1,0,0:0:0:0:
251,195,299274,1,0,0:0:0:0:
251,195,299349,1,8,0:0:0:0:
251,195,299499,1,0,0:0:0:0:
251,195,299649,1,8,0:0:0:0:
251,195,299799,1,0,0:0:0:0:
251,195,299874,1,8,0:0:0:0:
251,195,299949,1,0,0:0:0:0:
251,195,300024,1,0,0:0:0:0:
252,195,300099,1,8,0:0:0:0:
254,195,300174,1,0,0:0:0:0:
251,195,300249,1,8,0:0:0:0:
251,195,300324,1,8,0:0:0:0:
251,195,300399,1,0,0:0:0:0:
251,195,300699,1,0,0:0:0:0:
251,195,300849,1,8,0:0:0:0:
251,195,300999,1,0,0:0:0:0:
251,195,301074,1,0,0:0:0:0:
251,195,301149,1,8,0:0:0:0:
251,195,301299,1,0,0:0:0:0:
251,195,301449,1,8,0:0:0:0:
251,195,301524,1,8,0:0:0:0:
251,195,301599,1,0,0:0:0:0:
251,195,301674,1,0,0:0:0:0:
251,195,301749,1,8,0:0:0:0:
251,195,301899,1,0,0:0:0:0:
251,195,302049,1,8,0:0:0:0:
251,195,302199,1,0,0:0:0:0:
251,195,302274,1,0,0:0:0:0:
253,195,302349,1,8,0:0:0:0:
251,195,302499,1,0,0:0:0:0:
251,195,302649,1,8,0:0:0:0:
251,195,302724,1,0,0:0:0:0:
252,194,302799,1,8,0:0:0:0:
251,195,302874,1,8,0:0:0:0:
251,195,302949,1,0,0:0:0:0:
251,195,303024,1,8,0:0:0:0:
257,191,303099,1,0,0:0:0:0:
257,191,303249,1,8,0:0:0:0:
257,191,303399,1,0,0:0:0:0:
257,191,303474,1,0,0:0:0:0:
257,191,303549,1,8,0:0:0:0:
257,191,303699,1,0,0:0:0:0:
257,191,303849,1,8,0:0:0:0:
260,191,303924,1,8,0:0:0:0:
257,191,303999,1,0,0:0:0:0:
251,195,304074,1,0,0:0:0:0:
257,191,304149,1,8,0:0:0:0:
257,191,304299,1,0,0:0:0:0:
257,191,304449,1,8,0:0:0:0:
257,191,304599,1,0,0:0:0:0:
257,191,304674,1,0,0:0:0:0:
257,191,304749,1,8,0:0:0:0:
257,191,304824,1,8,0:0:0:0:
257,191,304899,1,0,0:0:0:0:
257,191,305049,1,8,0:0:0:0:
257,191,305124,1,8,0:0:0:0:
257,191,305199,1,8,0:0:0:0:
251,195,305349,1,8,0:0:0:0:
257,191,305499,1,4,0:0:0:0:
257,191,305649,1,8,0:0:0:0:
257,191,305799,1,0,0:0:0:0:
257,191,305874,1,0,0:0:0:0:
257,191,305949,1,8,0:0:0:0:
257,191,306024,1,8,0:0:0:0:
257,191,306099,1,0,0:0:0:0:
251,195,306249,1,8,0:0:0:0:
251,195,306324,1,8,0:0:0:0:
251,195,306399,1,0,0:0:0:0:
257,191,306549,1,8,0:0:0:0:
257,191,306699,1,0,0:0:0:0:
257,191,306849,1,8,0:0:0:0:
257,191,306999,1,0,0:0:0:0:
257,191,307074,1,0,0:0:0:0:
251,195,307149,1,8,0:0:0:0:
251,195,307299,1,0,0:0:0:0:
257,191,307449,1,8,0:0:0:0:
257,191,307524,1,0,0:0:0:0:
257,191,307599,1,8,0:0:0:0:
257,191,307674,1,8,0:0:0:0:
257,191,307749,1,0,0:0:0:0:
257,191,307824,1,8,0:0:0:0:
257,191,307899,1,0,0:0:0:0:
257,191,308049,1,8,0:0:0:0:
251,195,308199,1,0,0:0:0:0:
251,195,308274,1,0,0:0:0:0:
257,191,308349,1,8,0:0:0:0:
257,191,308424,1,8,0:0:0:0:
257,191,308499,1,0,0:0:0:0:
257,191,308649,1,8,0:0:0:0:
257,191,308724,1,8,0:0:0:0:
257,191,308799,1,0,0:0:0:0:
257,191,308949,1,8,0:0:0:0:
257,191,309099,1,0,0:0:0:0:
257,191,309249,1,8,0:0:0:0:
257,191,309399,1,0,0:0:0:0:
257,191,309474,1,0,0:0:0:0:
261,190,309549,1,8,0:0:0:0:
257,191,309699,1,0,0:0:0:0:
257,191,309774,1,0,0:0:0:0:
257,191,309849,1,0,0:0:0:0:
257,191,309924,1,0,0:0:0:0:
257,191,309999,1,8,0:0:0:0:
257,191,310149,1,8,0:0:0:0:
251,197,310299,1,4,0:0:0:0:
251,197,310449,1,8,0:0:0:0:
251,197,310524,1,8,0:0:0:0:
251,197,310599,1,0,0:0:0:0:
251,197,310749,1,8,0:0:0:0:
251,197,310899,1,0,0:0:0:0:
251,197,310974,1,0,0:0:0:0:
251,197,311049,1,8,0:0:0:0:
251,197,311124,1,8,0:0:0:0:
251,197,311199,1,0,0:0:0:0:
251,197,311349,1,8,0:0:0:0:
251,197,311499,1,4,0:0:0:0:
251,197,311649,1,8,0:0:0:0:
251,197,311724,1,8,0:0:0:0:
251,197,311799,1,0,0:0:0:0:
251,197,311949,1,8,0:0:0:0:
251,197,312099,1,0,0:0:0:0:
251,197,312174,1,8,0:0:0:0:
251,197,312249,1,0,0:0:0:0:
251,197,312324,1,0,0:0:0:0:
252,197,312399,1,8,0:0:0:0:
251,197,312549,1,8,0:0:0:0:
251,197,312699,1,4,0:0:0:0:
251,197,312849,5,8,0:0:0:0:
251,197,312924,1,8,0:0:0:0:
251,197,312999,1,0,0:0:0:0:
251,197,313149,5,8,0:0:0:0:
251,197,313299,1,4,0:0:0:0:
251,197,313449,1,8,0:0:0:0:
251,197,313524,1,8,0:0:0:0:
251,197,313599,1,0,0:0:0:0:
251,197,313674,1,0,0:0:0:0:
251,197,313749,1,8,0:0:0:0:
251,197,313899,1,0,0:0:0:0:
251,197,313974,1,0,0:0:0:0:
251,197,314049,1,8,0:0:0:0:
251,197,314124,1,0,0:0:0:0:
251,197,314199,5,8,0:0:0:0:
251,197,314274,5,8,0:0:0:0:
251,197,314349,1,0,0:0:0:0:
251,197,314424,1,8,0:0:0:0:
251,197,314499,1,0,0:0:0:0:
251,197,314574,1,0,0:0:0:0:
251,197,314649,1,0,0:0:0:0:
251,197,314724,1,0,0:0:0:0:
251,197,314799,1,8,0:0:0:0:
251,197,314874,1,0,0:0:0:0:
251,197,314949,1,8,0:0:0:0:
251,197,315024,1,8,0:0:0:0:
251,197,315099,1,0,0:0:0:0:
251,197,315399,1,8,0:0:0:0:
251,197,315624,1,8,0:0:0:0:
251,197,315699,1,0,0:0:0:0:
251,197,315849,1,8,0:0:0:0:
251,197,315999,1,0,0:0:0:0:
251,197,316074,1,0,0:0:0:0:
251,197,316149,1,8,0:0:0:0:
251,197,316299,1,4,0:0:0:0:
