osu file format v14

[General]
AudioFilename: audio.mp3
AudioLeadIn: 0
PreviewTime: 178299
Countdown: 0
SampleSet: Normal
StackLeniency: 0.7
Mode: 1
LetterboxInBreaks: 0
WidescreenStoryboard: 1

[Editor]
Bookmarks: 33063,52563,67863,82263,91863,115863,197763,219063,296163
DistanceSpacing: 0.1
BeatDivisor: 4
GridSize: 32
TimelineZoom: 2.999998

[Metadata]
Title:Respective Graduation
TitleUnicode:Respective Graduation
Artist:Hayakore Tatsumi
ArtistUnicode:Hayakore Tatsumi
Creator:KuroKuroKuro
Version:Cure's Oni
Source:Angel Beats!
Tags:tamolarm japanese track 1 anime j-core jcore hardcore nerdcore frenchcore hardtek remix bootleg 一番の宝物 ichiban no takaramono ~Yui final ver.~ Comet Suisei Cure girls dead monster starring lisa electronic
BeatmapID:3316920
BeatmapSetID:1587925

[Difficulty]
HPDrainRate:5
CircleSize:5
OverallDifficulty:5.5
ApproachRate:5
SliderMultiplier:1.4
SliderTickRate:1

[Events]
//Background and Video events
0,0,"11670173_p0_master1200.jpg",0,150
//Break Periods
2,52799,61899
2,197999,217899
2,228899,232299
//Storyboard Layer 0 (Background)
//Storyboard Layer 1 (Fail)
//Storyboard Layer 2 (Pass)
//Storyboard Layer 3 (Foreground)
//Storyboard Layer 4 (Overlay)
//Storyboard Sound Samples

[TimingPoints]
699,300,4,1,0,75,1,0
115899,-100,4,1,0,90,0,1
135099,-100,4,1,0,85,0,0
178299,-100,4,1,0,90,0,1
197799,-100,4,1,0,85,0,0
238299,-100,4,1,0,90,0,0
238599,-100,4,1,0,90,0,1
240399,-100,4,1,0,90,0,0
240699,-100,4,1,0,90,0,1
276699,-100,4,1,0,75,0,0

[HitObjects]
384,211,13899,5,4,0:0:0:0:
213,226,14199,1,8,0:0:0:0:
213,226,14499,1,0,0:0:0:0:
213,226,14649,1,0,0:0:0:0:
213,226,14799,1,8,0:0:0:0:
253,245,15099,1,0,0:0:0:0:
253,245,15399,1,8,0:0:0:0:
253,245,15699,1,0,0:0:0:0:
253,245,15774,1,0,0:0:0:0:
246,255,15924,1,0,0:0:0:0:
246,255,15999,1,8,0:0:0:0:
328,256,16299,1,0,0:0:0:0:
328,256,16449,1,0,0:0:0:0:
328,256,16599,1,8,0:0:0:0:
348,257,16899,1,0,0:0:0:0:
348,257,16974,1,0,0:0:0:0:
347,257,17049,1,8,0:0:0:0:
347,257,17199,1,8,0:0:0:0:
333,253,17499,1,0,0:0:0:0:
333,253,17649,1,8,0:0:0:0:
333,253,17799,1,8,0:0:0:0:
248,249,18099,1,0,0:0:0:0:
248,249,18174,1,0,0:0:0:0:
248,249,18249,1,0,0:0:0:0:
248,249,18399,1,8,0:0:0:0:
336,244,18699,1,0,0:0:0:0:
336,244,18999,1,8,0:0:0:0:
290,207,19299,1,0,0:0:0:0:
290,207,19449,1,0,0:0:0:0:
290,207,19599,1,8,0:0:0:0:
264,255,19899,1,0,0:0:0:0:
264,255,20199,1,8,0:0:0:0:
275,250,20499,1,0,0:0:0:0:
275,250,20574,1,0,0:0:0:0:
275,250,20724,1,0,0:0:0:0:
278,250,20799,1,8,0:0:0:0:
279,239,21099,1,0,0:0:0:0:
279,239,21249,1,0,0:0:0:0:
248,249,21399,1,8,0:0:0:0:
248,249,21549,1,8,0:0:0:0:
248,249,21624,1,8,0:0:0:0:
248,249,21699,1,0,0:0:0:0:
248,249,21849,1,0,0:0:0:0:
248,249,21999,1,8,0:0:0:0:
306,251,22299,1,0,0:0:0:0:
306,251,22449,1,0,0:0:0:0:
306,251,22524,1,0,0:0:0:0:
306,251,22599,1,8,0:0:0:0:
306,251,22749,1,8,0:0:0:0:
306,251,22899,1,0,0:0:0:0:
306,251,22974,1,0,0:0:0:0:
306,251,23049,1,0,0:0:0:0:
306,251,23199,1,8,0:0:0:0:
320,253,23499,1,4,0:0:0:0:
320,253,23799,1,8,0:0:0:0:
316,256,24099,1,0,0:0:0:0:
316,256,24249,1,0,0:0:0:0:
316,256,24399,1,8,0:0:0:0:
280,254,24699,1,0,0:0:0:0:
280,254,24999,1,8,0:0:0:0:
258,261,25299,1,0,0:0:0:0:
258,261,25374,1,0,0:0:0:0:
258,261,25524,1,0,0:0:0:0:
258,261,25599,1,8,0:0:0:0:
303,254,25899,1,0,0:0:0:0:
303,254,26049,1,0,0:0:0:0:
310,258,26199,1,8,0:0:0:0:
310,258,26349,1,8,0:0:0:0:
310,258,26424,1,8,0:0:0:0:
310,258,26499,1,0,0:0:0:0:
310,258,26649,1,0,0:0:0:0:
310,258,26799,1,8,0:0:0:0:
326,279,27099,1,0,0:0:0:0:
326,279,27174,1,0,0:0:0:0:
326,279,27249,1,8,0:0:0:0:
290,241,27399,1,0,0:0:0:0:
290,241,27474,1,8,0:0:0:0:
290,241,27624,1,8,0:0:0:0:
290,241,27699,1,0,0:0:0:0:
290,241,27849,1,8,0:0:0:0:
290,241,27924,1,8,0:0:0:0:
298,249,27999,1,0,0:0:0:0:
290,241,28299,1,0,0:0:0:0:
211,243,28449,1,0,0:0:0:0:
211,243,28524,1,0,0:0:0:0:
290,241,28599,1,8,0:0:0:0:
211,243,28749,1,0,0:0:0:0:
315,290,28899,1,0,0:0:0:0:
315,290,29049,1,0,0:0:0:0:
315,290,29199,1,8,0:0:0:0:
317,223,29499,1,0,0:0:0:0:
254,248,29574,1,0,0:0:0:0:
317,223,29649,1,0,0:0:0:0:
317,223,29799,1,8,0:0:0:0:
317,223,29949,1,0,0:0:0:0:
317,223,30099,1,0,0:0:0:0:
371,309,30174,1,0,0:0:0:0:
317,223,30249,1,0,0:0:0:0:
371,309,30324,1,0,0:0:0:0:
317,223,30399,1,8,0:0:0:0:
306,240,30699,1,0,0:0:0:0:
302,245,30849,1,8,0:0:0:0:
302,245,30924,1,8,0:0:0:0:
302,245,30999,1,0,0:0:0:0:
244,189,31149,1,8,0:0:0:0:
244,189,31299,1,0,0:0:0:0:
244,189,31374,1,0,0:0:0:0:
236,180,31449,1,0,0:0:0:0:
236,180,31599,1,8,0:0:0:0:
287,195,31899,1,0,0:0:0:0:
272,259,32199,1,8,0:0:0:0:
272,259,32349,1,8,0:0:0:0:
272,259,32499,1,0,0:0:0:0:
272,259,32574,1,0,0:0:0:0:
272,259,32649,1,0,0:0:0:0:
272,259,32724,1,0,0:0:0:0:
272,259,32799,1,8,0:0:0:0:
272,259,33099,1,4,0:0:0:0:
304,253,33249,1,8,0:0:0:0:
304,253,33324,1,8,0:0:0:0:
304,253,33399,1,0,0:0:0:0:
304,253,33549,1,8,0:0:0:0:
304,253,33699,1,0,0:0:0:0:
304,253,33774,1,0,0:0:0:0:
304,253,33849,1,0,0:0:0:0:
304,253,33999,1,8,0:0:0:0:
265,234,34299,1,0,0:0:0:0:
265,234,34374,1,0,0:0:0:0:
260,236,34449,1,8,0:0:0:0:
260,236,34599,1,0,0:0:0:0:
260,236,34749,1,8,0:0:0:0:
257,239,34899,1,0,0:0:0:0:
257,239,34974,1,0,0:0:0:0:
257,239,35124,1,0,0:0:0:0:
257,239,35199,1,8,0:0:0:0:
258,213,35499,1,0,0:0:0:0:
260,211,35649,1,8,0:0:0:0:
258,213,35799,1,0,0:0:0:0:
258,213,35874,1,0,0:0:0:0:
328,252,36024,1,0,0:0:0:0:
324,261,36099,1,8,0:0:0:0:
354,280,36249,1,0,0:0:0:0:
354,280,36399,1,8,0:0:0:0:
232,234,36699,1,0,0:0:0:0:
258,249,36849,1,0,0:0:0:0:
258,249,36999,1,8,0:0:0:0:
258,249,37149,1,0,0:0:0:0:
300,252,37299,1,8,0:0:0:0:
300,252,37374,1,8,0:0:0:0:
300,252,37449,1,0,0:0:0:0:
300,252,37599,1,8,0:0:0:0:
252,229,37899,1,0,0:0:0:0:
283,245,38049,1,8,0:0:0:0:
283,245,38124,1,8,0:0:0:0:
283,245,38199,1,8,0:0:0:0:
285,244,38349,1,0,0:0:0:0:
285,244,38499,1,8,0:0:0:0:
285,244,38574,1,8,0:0:0:0:
283,245,38649,1,0,0:0:0:0:
283,245,38799,1,8,0:0:0:0:
291,245,39099,1,0,0:0:0:0:
291,241,39249,1,8,0:0:0:0:
291,245,39324,1,8,0:0:0:0:
291,241,39399,1,0,0:0:0:0:
289,235,39549,1,8,0:0:0:0:
269,210,39699,1,0,0:0:0:0:
269,210,39774,1,0,0:0:0:0:
269,210,39924,1,0,0:0:0:0:
269,210,39999,1,8,0:0:0:0:
314,246,40299,1,0,0:0:0:0:
314,246,40449,1,8,0:0:0:0:
289,213,40599,1,0,0:0:0:0:
289,213,40674,1,0,0:0:0:0:
289,213,40824,1,8,0:0:0:0:
289,213,40899,1,0,0:0:0:0:
230,227,41049,1,0,0:0:0:0:
230,227,41124,1,0,0:0:0:0:
230,227,41199,1,8,0:0:0:0:
318,240,41499,1,0,0:0:0:0:
302,260,41649,1,8,0:0:0:0:
302,260,41799,1,8,0:0:0:0:
302,260,41949,1,0,0:0:0:0:
302,260,42099,1,8,0:0:0:0:
302,260,42249,1,0,0:0:0:0:
302,260,42324,1,0,0:0:0:0:
302,260,42399,1,8,0:0:0:0:
292,228,42699,1,0,0:0:0:0:
292,228,42849,1,8,0:0:0:0:
292,228,42924,1,8,0:0:0:0:
292,228,42999,1,0,0:0:0:0:
329,241,43149,1,8,0:0:0:0:
332,252,43299,1,0,0:0:0:0:
332,252,43374,1,0,0:0:0:0:
332,252,43449,1,0,0:0:0:0:
332,252,43599,1,8,0:0:0:0:
292,228,43749,1,0,0:0:0:0:
292,228,43824,1,8,0:0:0:0:
292,228,43899,1,0,0:0:0:0:
292,228,44049,1,0,0:0:0:0:
292,228,44199,1,0,0:0:0:0:
292,228,44274,1,0,0:0:0:0:
292,228,44349,1,8,0:0:0:0:
270,266,44499,1,0,0:0:0:0:
270,266,44574,1,0,0:0:0:0:
270,266,44724,1,0,0:0:0:0:
270,266,44799,1,8,0:0:0:0:
304,220,45099,1,0,0:0:0:0:
326,225,45249,1,8,0:0:0:0:
299,230,45399,1,0,0:0:0:0:
299,230,45474,1,0,0:0:0:0:
299,230,45624,1,0,0:0:0:0:
324,239,45699,1,8,0:0:0:0:
324,239,45849,1,0,0:0:0:0:
288,222,45999,1,8,0:0:0:0:
288,222,46074,1,8,0:0:0:0:
404,383,46149,1,0,0:0:0:0:
269,245,46299,1,0,0:0:0:0:
269,245,46449,1,0,0:0:0:0:
269,245,46599,1,8,0:0:0:0:
274,218,46749,1,0,0:0:0:0:
268,211,46899,1,8,0:0:0:0:
268,211,46974,1,8,0:0:0:0:
268,211,47049,1,0,0:0:0:0:
268,211,47199,1,8,0:0:0:0:
310,220,47499,1,0,0:0:0:0:
310,220,47649,1,0,0:0:0:0:
310,220,47799,1,8,0:0:0:0:
310,220,47874,1,0,0:0:0:0:
310,220,48024,1,0,0:0:0:0:
327,227,48099,1,8,0:0:0:0:
327,227,48249,1,0,0:0:0:0:
327,227,48324,1,0,0:0:0:0:
327,227,48399,1,8,0:0:0:0:
368,243,48549,1,0,0:0:0:0:
336,257,48699,1,8,0:0:0:0:
319,264,48849,1,0,0:0:0:0:
320,264,48924,1,0,0:0:0:0:
320,264,48999,1,0,0:0:0:0:
320,264,49149,1,8,0:0:0:0:
267,224,49299,1,0,0:0:0:0:
267,224,49374,1,0,0:0:0:0:
267,224,49449,1,0,0:0:0:0:
267,224,49524,1,0,0:0:0:0:
267,224,49599,1,8,0:0:0:0:
280,242,49899,1,0,0:0:0:0:
280,242,50049,1,8,0:0:0:0:
302,227,50199,1,0,0:0:0:0:
302,227,50274,1,0,0:0:0:0:
302,227,50424,1,0,0:0:0:0:
302,227,50499,1,8,0:0:0:0:
213,231,50649,1,0,0:0:0:0:
213,231,50724,1,0,0:0:0:0:
213,231,50799,1,8,0:0:0:0:
213,231,50874,1,8,0:0:0:0:
213,231,50949,1,0,0:0:0:0:
226,268,51099,1,8,0:0:0:0:
226,268,51249,1,0,0:0:0:0:
226,268,51324,1,0,0:0:0:0:
226,268,51399,1,8,0:0:0:0:
226,268,51549,1,0,0:0:0:0:
308,232,51699,1,0,0:0:0:0:
275,249,51849,1,8,0:0:0:0:
275,249,51924,1,8,0:0:0:0:
275,249,51999,1,8,0:0:0:0:
275,249,52074,1,8,0:0:0:0:
275,249,52149,1,8,0:0:0:0:
278,228,52599,1,12,0:0:0:0:
310,278,63099,5,0,0:0:0:0:
274,245,63399,1,8,0:0:0:0:
289,207,63999,1,8,0:0:0:0:
344,190,64599,1,8,0:0:0:0:
301,207,65049,1,0,0:0:0:0:
301,207,65199,1,8,0:0:0:0:
361,246,65499,1,0,0:0:0:0:
361,246,65799,1,8,0:0:0:0:
397,328,66399,1,8,0:0:0:0:
397,328,66699,1,0,0:0:0:0:
397,328,66999,1,8,0:0:0:0:
310,266,67449,1,0,0:0:0:0:
310,266,67599,1,8,0:0:0:0:
240,236,67899,1,0,0:0:0:0:
240,236,68049,1,0,0:0:0:0:
240,236,68199,1,8,0:0:0:0:
240,236,68349,1,8,0:0:0:0:
240,236,68499,1,0,0:0:0:0:
240,236,68649,1,0,0:0:0:0:
240,236,68799,1,0,0:0:0:0:
285,266,69099,1,8,0:0:0:0:
285,266,69249,1,8,0:0:0:0:
285,266,69399,1,0,0:0:0:0:
285,266,69549,1,0,0:0:0:0:
285,266,69699,1,8,0:0:0:0:
285,266,69849,1,8,0:0:0:0:
285,266,69999,1,8,0:0:0:0:
200,213,70299,1,0,0:0:0:0:
200,213,70374,1,0,0:0:0:0:
200,213,70449,1,0,0:0:0:0:
200,213,70599,1,0,0:0:0:0:
200,213,70749,1,0,0:0:0:0:
200,213,70899,1,8,0:0:0:0:
200,213,70974,1,8,0:0:0:0:
200,213,71049,1,8,0:0:0:0:
200,213,71199,1,8,0:0:0:0:
200,213,71349,1,8,0:0:0:0:
200,213,71499,1,0,0:0:0:0:
200,213,71574,1,0,0:0:0:0:
200,213,71649,1,0,0:0:0:0:
200,213,71799,1,8,0:0:0:0:
200,213,71874,1,8,0:0:0:0:
200,213,71949,1,8,0:0:0:0:
200,213,72099,1,0,0:0:0:0:
200,213,72174,1,0,0:0:0:0:
200,213,72249,1,0,0:0:0:0:
200,213,72324,1,0,0:0:0:0:
200,213,72399,1,8,0:0:0:0:
170,242,72699,1,4,0:0:0:0:
227,200,72924,1,8,0:0:0:0:
227,200,72999,1,0,0:0:0:0:
227,200,73149,1,8,0:0:0:0:
251,211,73299,1,0,0:0:0:0:
251,211,73374,1,0,0:0:0:0:
251,211,73449,1,8,0:0:0:0:
251,211,73599,1,0,0:0:0:0:
251,211,73749,1,8,0:0:0:0:
326,250,73899,1,0,0:0:0:0:
263,226,73974,1,8,0:0:0:0:
284,250,74124,1,8,0:0:0:0:
284,250,74199,1,0,0:0:0:0:
284,250,74349,1,8,0:0:0:0:
284,250,74499,1,0,0:0:0:0:
284,250,74574,1,0,0:0:0:0:
284,250,74649,1,8,0:0:0:0:
284,250,74799,1,8,0:0:0:0:
286,202,75099,1,0,0:0:0:0:
323,283,75324,1,8,0:0:0:0:
329,275,75399,1,0,0:0:0:0:
329,275,75549,1,8,0:0:0:0:
273,237,75699,1,0,0:0:0:0:
273,237,75774,1,0,0:0:0:0:
273,237,75849,1,8,0:0:0:0:
273,237,75999,1,0,0:0:0:0:
273,237,76074,1,8,0:0:0:0:
273,237,76224,1,8,0:0:0:0:
275,213,76299,1,0,0:0:0:0:
275,213,76524,1,8,0:0:0:0:
275,213,76599,1,8,0:0:0:0:
230,227,76749,1,8,0:0:0:0:
230,227,76899,1,0,0:0:0:0:
230,227,76974,1,0,0:0:0:0:
230,227,77049,1,8,0:0:0:0:
230,227,77199,1,8,0:0:0:0:
301,218,77499,1,0,0:0:0:0:
301,218,77724,1,8,0:0:0:0:
301,218,77799,1,0,0:0:0:0:
301,218,77949,1,8,0:0:0:0:
256,220,78099,1,0,0:0:0:0:
256,220,78174,1,0,0:0:0:0:
256,220,78249,1,8,0:0:0:0:
256,220,78399,1,0,0:0:0:0:
256,220,78474,1,8,0:0:0:0:
256,220,78624,1,8,0:0:0:0:
308,226,78699,1,0,0:0:0:0:
308,226,78774,1,0,0:0:0:0:
308,226,78924,1,8,0:0:0:0:
308,226,78999,1,0,0:0:0:0:
311,240,79149,1,8,0:0:0:0:
311,241,79299,1,0,0:0:0:0:
311,241,79374,1,0,0:0:0:0:
311,241,79449,1,8,0:0:0:0:
311,241,79599,1,8,0:0:0:0:
273,232,79899,1,0,0:0:0:0:
273,232,79974,1,0,0:0:0:0:
273,232,80124,1,8,0:0:0:0:
273,232,80199,1,8,0:0:0:0:
273,232,80349,1,8,0:0:0:0:
244,222,80499,1,0,0:0:0:0:
244,222,80574,1,0,0:0:0:0:
237,227,80649,1,8,0:0:0:0:
240,225,80799,1,0,0:0:0:0:
240,225,80874,1,8,0:0:0:0:
328,277,81024,1,0,0:0:0:0:
328,277,81099,1,0,0:0:0:0:
307,214,81174,1,8,0:0:0:0:
307,214,81324,1,8,0:0:0:0:
307,214,81399,1,0,0:0:0:0:
322,229,81549,1,8,0:0:0:0:
321,229,81699,1,0,0:0:0:0:
321,229,81774,1,0,0:0:0:0:
321,229,81849,1,0,0:0:0:0:
321,229,81924,1,0,0:0:0:0:
321,229,81999,1,8,0:0:0:0:
217,209,82299,1,4,0:0:0:0:
227,200,82524,1,8,0:0:0:0:
227,200,82599,1,0,0:0:0:0:
227,200,82749,1,8,0:0:0:0:
251,211,82899,1,0,0:0:0:0:
251,211,82974,1,0,0:0:0:0:
251,211,83049,1,8,0:0:0:0:
251,211,83199,1,0,0:0:0:0:
251,211,83274,1,8,0:0:0:0:
326,250,83424,1,8,0:0:0:0:
326,250,83499,1,0,0:0:0:0:
326,250,83574,1,0,0:0:0:0:
284,250,83724,1,8,0:0:0:0:
284,250,83799,1,0,0:0:0:0:
284,250,83949,1,8,0:0:0:0:
284,250,84099,1,0,0:0:0:0:
284,250,84174,1,0,0:0:0:0:
284,250,84249,1,8,0:0:0:0:
284,250,84399,1,8,0:0:0:0:
286,202,84699,1,0,0:0:0:0:
323,283,84924,1,8,0:0:0:0:
329,275,84999,1,0,0:0:0:0:
329,275,85149,1,8,0:0:0:0:
273,237,85299,1,0,0:0:0:0:
273,237,85374,1,0,0:0:0:0:
273,237,85449,1,8,0:0:0:0:
273,237,85599,1,0,0:0:0:0:
273,237,85674,1,8,0:0:0:0:
273,237,85824,1,8,0:0:0:0:
275,213,85899,1,0,0:0:0:0:
275,213,85974,1,8,0:0:0:0:
275,213,86124,1,8,0:0:0:0:
275,213,86199,1,8,0:0:0:0:
230,227,86349,1,8,0:0:0:0:
230,227,86499,1,0,0:0:0:0:
230,227,86574,1,0,0:0:0:0:
230,227,86649,1,8,0:0:0:0:
230,227,86799,1,8,0:0:0:0:
301,218,87099,1,0,0:0:0:0:
301,218,87324,1,8,0:0:0:0:
301,218,87399,1,0,0:0:0:0:
301,218,87549,1,8,0:0:0:0:
256,220,87699,1,0,0:0:0:0:
256,220,87774,1,0,0:0:0:0:
256,220,87849,1,8,0:0:0:0:
256,220,87999,1,0,0:0:0:0:
256,220,88074,1,8,0:0:0:0:
256,220,88224,1,8,0:0:0:0:
308,226,88299,1,0,0:0:0:0:
308,226,88524,1,8,0:0:0:0:
308,226,88599,1,0,0:0:0:0:
311,240,88749,1,8,0:0:0:0:
311,241,88899,1,0,0:0:0:0:
311,241,88974,1,0,0:0:0:0:
311,241,89049,1,8,0:0:0:0:
311,241,89199,1,8,0:0:0:0:
285,282,89499,1,0,0:0:0:0:
285,282,89649,1,0,0:0:0:0:
285,282,89799,1,8,0:0:0:0:
285,282,89949,1,8,0:0:0:0:
306,266,90099,1,0,0:0:0:0:
306,266,90249,1,0,0:0:0:0:
306,266,90324,1,0,0:0:0:0:
306,266,90399,1,8,0:0:0:0:
306,266,90549,1,8,0:0:0:0:
323,259,91899,1,4,0:0:0:0:
265,230,92199,1,8,0:0:0:0:
317,245,92424,1,8,0:0:0:0:
159,238,92499,1,0,0:0:0:0:
159,238,92649,1,0,0:0:0:0:
156,241,92799,1,8,0:0:0:0:
337,242,93099,1,0,0:0:0:0:
223,223,93249,1,0,0:0:0:0:
262,247,93399,1,8,0:0:0:0:
273,276,93624,1,8,0:0:0:0:
273,276,93699,1,0,0:0:0:0:
273,276,93849,1,0,0:0:0:0:
273,276,93999,1,8,0:0:0:0:
273,276,94074,1,8,0:0:0:0:
273,276,94149,1,0,0:0:0:0:
279,240,94299,1,0,0:0:0:0:
279,240,94599,1,8,0:0:0:0:
367,339,94824,1,8,0:0:0:0:
288,238,94899,1,0,0:0:0:0:
288,238,95049,1,0,0:0:0:0:
288,238,95199,1,8,0:0:0:0:
329,245,95499,1,0,0:0:0:0:
329,245,95649,1,0,0:0:0:0:
329,245,95799,1,8,0:0:0:0:
329,245,95949,1,8,0:0:0:0:
318,257,96099,1,0,0:0:0:0:
318,257,96174,1,0,0:0:0:0:
318,257,96249,1,0,0:0:0:0:
318,257,96399,1,8,0:0:0:0:
323,246,96699,1,0,0:0:0:0:
323,246,96999,1,8,0:0:0:0:
336,285,97224,1,8,0:0:0:0:
336,285,97299,1,0,0:0:0:0:
336,285,97449,1,0,0:0:0:0:
336,285,97599,1,8,0:0:0:0:
338,234,97899,1,0,0:0:0:0:
338,234,98049,1,0,0:0:0:0:
338,234,98199,1,8,0:0:0:0:
338,234,98349,1,0,0:0:0:0:
338,234,98424,1,0,0:0:0:0:
338,234,98499,1,0,0:0:0:0:
323,253,98649,1,8,0:0:0:0:
323,253,98799,1,8,0:0:0:0:
321,242,99099,1,0,0:0:0:0:
321,242,99249,1,8,0:0:0:0:
321,242,99324,1,8,0:0:0:0:
321,242,99399,1,0,0:0:0:0:
333,257,99549,1,8,0:0:0:0:
333,257,99699,1,0,0:0:0:0:
333,257,99774,1,0,0:0:0:0:
333,257,99849,1,8,0:0:0:0:
333,257,99999,1,0,0:0:0:0:
333,257,100149,1,8,0:0:0:0:
201,228,100299,1,0,0:0:0:0:
201,228,100374,1,0,0:0:0:0:
201,228,100524,1,8,0:0:0:0:
201,228,100599,1,0,0:0:0:0:
201,228,100749,1,8,0:0:0:0:
297,250,100899,1,0,0:0:0:0:
297,250,100974,1,0,0:0:0:0:
297,250,101049,1,0,0:0:0:0:
297,250,101124,1,0,0:0:0:0:
297,250,101199,1,8,0:0:0:0:
316,231,101499,1,4,0:0:0:0:
306,232,101799,1,8,0:0:0:0:
312,244,102024,1,8,0:0:0:0:
312,244,102099,1,0,0:0:0:0:
312,244,102249,1,8,0:0:0:0:
312,244,102399,1,0,0:0:0:0:
312,244,102474,1,0,0:0:0:0:
316,243,102549,1,8,0:0:0:0:
316,243,102699,1,0,0:0:0:0:
343,283,102999,1,8,0:0:0:0:
359,278,103224,1,8,0:0:0:0:
353,281,103299,1,0,0:0:0:0:
323,288,103449,1,8,0:0:0:0:
323,288,103599,1,0,0:0:0:0:
323,288,103674,1,8,0:0:0:0:
323,288,103749,1,8,0:0:0:0:
324,277,103899,1,0,0:0:0:0:
324,277,104049,1,8,0:0:0:0:
324,277,104124,1,8,0:0:0:0:
324,277,104199,1,0,0:0:0:0:
316,251,104349,1,8,0:0:0:0:
338,245,104499,1,0,0:0:0:0:
338,245,104574,1,0,0:0:0:0:
338,245,104649,1,8,0:0:0:0:
338,245,104799,1,0,0:0:0:0:
338,245,104949,1,8,0:0:0:0:
358,270,105099,1,0,0:0:0:0:
358,270,105174,1,0,0:0:0:0:
358,270,105249,1,8,0:0:0:0:
358,270,105324,1,8,0:0:0:0:
358,270,105399,1,0,0:0:0:0:
358,270,105549,1,8,0:0:0:0:
320,277,105699,1,0,0:0:0:0:
331,226,105924,1,0,0:0:0:0:
320,277,105999,1,8,0:0:0:0:
334,253,106149,1,0,0:0:0:0:
334,253,106299,1,8,0:0:0:0:
336,246,106599,1,8,0:0:0:0:
281,242,106824,1,8,0:0:0:0:
281,242,106899,1,0,0:0:0:0:
300,247,107049,1,8,0:0:0:0:
300,247,107199,1,0,0:0:0:0:
300,247,107274,1,0,0:0:0:0:
300,247,107349,1,8,0:0:0:0:
314,256,107499,1,0,0:0:0:0:
314,256,107799,1,8,0:0:0:0:
292,234,108024,1,8,0:0:0:0:
292,234,108099,1,0,0:0:0:0:
292,234,108249,1,8,0:0:0:0:
292,234,108399,1,0,0:0:0:0:
292,234,108474,1,8,0:0:0:0:
292,234,108549,1,8,0:0:0:0:
292,234,108624,1,8,0:0:0:0:
315,250,108699,1,0,0:0:0:0:
302,253,108849,1,8,0:0:0:0:
302,253,108999,1,0,0:0:0:0:
302,253,109149,1,8,0:0:0:0:
302,253,109224,1,8,0:0:0:0:
327,236,109299,1,0,0:0:0:0:
327,236,109374,1,0,0:0:0:0:
327,236,109449,1,8,0:0:0:0:
327,236,109599,1,0,0:0:0:0:
327,236,109749,1,8,0:0:0:0:
327,236,109824,1,8,0:0:0:0:
342,268,109899,1,8,0:0:0:0:
323,250,110049,1,0,0:0:0:0:
288,258,110199,1,8,0:0:0:0:
288,258,110274,1,0,0:0:0:0:
327,255,110424,1,0,0:0:0:0:
327,255,110499,1,8,0:0:0:0:
327,255,110574,1,8,0:0:0:0:
327,255,110649,1,0,0:0:0:0:
327,255,110799,1,8,0:0:0:0:
332,247,111099,1,4,0:0:0:0:
308,249,111399,1,8,0:0:0:0:
308,249,111624,1,8,0:0:0:0:
308,249,111699,1,0,0:0:0:0:
308,249,111849,1,0,0:0:0:0:
336,294,111924,1,0,0:0:0:0:
307,250,111999,1,8,0:0:0:0:
358,292,112299,1,4,0:0:0:0:
365,298,112449,1,0,0:0:0:0:
365,298,112599,1,8,0:0:0:0:
308,243,112824,1,8,0:0:0:0:
118,214,112899,1,0,0:0:0:0:
129,219,113049,1,8,0:0:0:0:
129,219,113199,1,0,0:0:0:0:
129,219,113274,1,0,0:0:0:0:
129,219,113349,1,8,0:0:0:0:
331,265,113499,1,4,0:0:0:0:
281,231,113649,1,8,0:0:0:0:
281,231,113724,1,8,0:0:0:0:
281,231,113799,1,0,0:0:0:0:
281,231,113949,1,8,0:0:0:0:
281,231,114099,1,4,0:0:0:0:
294,250,114249,1,8,0:0:0:0:
294,250,114399,1,0,0:0:0:0:
294,250,114474,1,0,0:0:0:0:
294,250,114549,1,8,0:0:0:0:
256,192,114699,12,0,115599,0:0:0:0:
281,184,115899,5,4,0:0:0:0:
264,214,116049,1,8,0:0:0:0:
264,214,116124,1,8,0:0:0:0:
264,214,116199,1,0,0:0:0:0:
321,246,116349,1,8,0:0:0:0:
321,246,116499,1,0,0:0:0:0:
321,246,116574,1,0,0:0:0:0:
321,246,116649,1,0,0:0:0:0:
321,246,116799,1,8,0:0:0:0:
321,246,116949,1,0,0:0:0:0:
321,246,117099,1,8,0:0:0:0:
321,246,117174,1,8,0:0:0:0:
321,246,117249,1,0,0:0:0:0:
321,246,117399,1,8,0:0:0:0:
249,211,117549,1,0,0:0:0:0:
249,211,117699,1,0,0:0:0:0:
249,211,117774,1,8,0:0:0:0:
249,211,117849,1,0,0:0:0:0:
249,211,117999,1,8,0:0:0:0:
317,234,118299,1,0,0:0:0:0:
326,251,118449,1,8,0:0:0:0:
326,251,118524,1,0,0:0:0:0:
326,251,118599,1,0,0:0:0:0:
326,251,118749,1,8,0:0:0:0:
284,261,118899,1,0,0:0:0:0:
284,261,118974,1,8,0:0:0:0:
284,261,119049,1,0,0:0:0:0:
284,261,119199,1,8,0:0:0:0:
256,241,119349,1,0,0:0:0:0:
256,241,119499,1,8,0:0:0:0:
256,241,119574,1,8,0:0:0:0:
256,241,119649,1,0,0:0:0:0:
263,236,119799,1,8,0:0:0:0:
279,239,119949,1,0,0:0:0:0:
280,239,120024,1,0,0:0:0:0:
280,239,120099,1,8,0:0:0:0:
280,239,120174,1,8,0:0:0:0:
280,239,120249,1,0,0:0:0:0:
280,239,120399,1,8,0:0:0:0:
286,239,120699,1,0,0:0:0:0:
329,238,120849,1,8,0:0:0:0:
329,238,120924,1,8,0:0:0:0:
329,238,120999,1,0,0:0:0:0:
329,238,121149,1,8,0:0:0:0:
221,204,121299,1,0,0:0:0:0:
221,204,121374,1,0,0:0:0:0:
148,185,121449,1,0,0:0:0:0:
157,187,121524,1,0,0:0:0:0:
157,187,121599,1,8,0:0:0:0:
260,192,121749,1,0,0:0:0:0:
260,192,121899,1,8,0:0:0:0:
260,192,121974,1,8,0:0:0:0:
260,192,122049,1,0,0:0:0:0:
258,208,122199,1,8,0:0:0:0:
257,216,122349,1,0,0:0:0:0:
248,225,122499,1,8,0:0:0:0:
248,225,122649,1,0,0:0:0:0:
248,225,122724,1,0,0:0:0:0:
248,225,122799,1,8,0:0:0:0:
285,203,123099,1,0,0:0:0:0:
285,203,123249,1,0,0:0:0:0:
244,209,123324,1,0,0:0:0:0:
257,209,123399,1,0,0:0:0:0:
257,209,123549,1,8,0:0:0:0:
274,191,123699,1,0,0:0:0:0:
87,212,123774,1,0,0:0:0:0:
160,222,123849,1,8,0:0:0:0:
202,238,123999,1,0,0:0:0:0:
202,238,124149,1,8,0:0:0:0:
228,217,124299,1,0,0:0:0:0:
237,220,124374,1,8,0:0:0:0:
237,220,124524,1,8,0:0:0:0:
237,220,124599,1,0,0:0:0:0:
237,220,124749,1,8,0:0:0:0:
276,213,124899,1,0,0:0:0:0:
304,257,124974,1,0,0:0:0:0:
304,257,125049,1,0,0:0:0:0:
304,257,125124,1,0,0:0:0:0:
304,257,125199,1,8,0:0:0:0:
301,236,125499,1,4,0:0:0:0:
301,207,125649,1,8,0:0:0:0:
301,207,125724,1,8,0:0:0:0:
301,207,125799,1,0,0:0:0:0:
301,207,125949,1,8,0:0:0:0:
316,231,126099,1,0,0:0:0:0:
316,231,126174,1,0,0:0:0:0:
316,231,126249,1,0,0:0:0:0:
316,231,126399,1,8,0:0:0:0:
316,231,126549,1,0,0:0:0:0:
316,231,126699,1,8,0:0:0:0:
316,231,126774,1,8,0:0:0:0:
316,231,126849,1,0,0:0:0:0:
310,216,126999,1,8,0:0:0:0:
171,211,127149,1,0,0:0:0:0:
171,211,127299,1,0,0:0:0:0:
171,211,127374,1,0,0:0:0:0:
171,211,127449,1,0,0:0:0:0:
171,211,127599,1,8,0:0:0:0:
319,238,127899,1,0,0:0:0:0:
228,193,128049,1,8,0:0:0:0:
228,193,128124,1,0,0:0:0:0:
228,193,128199,1,0,0:0:0:0:
228,193,128349,1,8,0:0:0:0:
228,193,128499,1,0,0:0:0:0:
228,193,128574,1,8,0:0:0:0:
228,193,128649,1,0,0:0:0:0:
278,219,128799,1,8,0:0:0:0:
278,219,128949,1,0,0:0:0:0:
278,219,129024,1,0,0:0:0:0:
257,158,129099,1,8,0:0:0:0:
278,219,129174,1,8,0:0:0:0:
278,219,129249,1,0,0:0:0:0:
164,204,129399,1,0,0:0:0:0:
182,159,129549,1,8,0:0:0:0:
242,196,129699,1,0,0:0:0:0:
242,196,129774,1,0,0:0:0:0:
242,196,129849,1,8,0:0:0:0:
242,196,129999,1,8,0:0:0:0:
269,192,130299,1,0,0:0:0:0:
252,185,130449,1,8,0:0:0:0:
241,187,130524,1,8,0:0:0:0:
241,187,130599,1,0,0:0:0:0:
241,187,130749,1,8,0:0:0:0:
241,187,130899,1,0,0:0:0:0:
329,233,131049,1,8,0:0:0:0:
302,212,131124,1,8,0:0:0:0:
261,198,131199,1,0,0:0:0:0:
273,230,131274,1,0,0:0:0:0:
219,200,131349,1,8,0:0:0:0:
219,200,131499,1,0,0:0:0:0:
303,203,131649,1,0,0:0:0:0:
232,222,131724,1,0,0:0:0:0:
303,203,131799,1,8,0:0:0:0:
303,203,131949,1,0,0:0:0:0:
303,203,132099,1,8,0:0:0:0:
303,203,132174,1,8,0:0:0:0:
303,203,132249,1,8,0:0:0:0:
303,203,132399,1,0,0:0:0:0:
303,203,132549,1,8,0:0:0:0:
301,221,132699,1,0,0:0:0:0:
301,221,132849,1,0,0:0:0:0:
301,221,132999,1,8,0:0:0:0:
301,221,133149,1,8,0:0:0:0:
301,193,133299,1,0,0:0:0:0:
301,193,133374,1,0,0:0:0:0:
301,193,133449,1,0,0:0:0:0:
301,193,133599,1,8,0:0:0:0:
301,193,133749,1,8,0:0:0:0:
98,214,133899,2,0,L|523:193,1,420
273,230,135099,5,4,0:0:0:0:
236,220,135324,1,8,0:0:0:0:
236,220,135399,1,0,0:0:0:0:
236,220,135549,1,8,0:0:0:0:
284,263,135699,1,0,0:0:0:0:
284,263,135774,1,0,0:0:0:0:
284,263,135849,1,8,0:0:0:0:
300,252,135999,1,0,0:0:0:0:
300,252,136149,1,8,0:0:0:0:
296,221,136299,1,0,0:0:0:0:
296,221,136374,1,0,0:0:0:0:
296,221,136524,1,8,0:0:0:0:
296,221,136599,1,0,0:0:0:0:
296,221,136749,1,8,0:0:0:0:
280,219,136899,1,0,0:0:0:0:
280,219,136974,1,0,0:0:0:0:
331,252,137049,1,8,0:0:0:0:
331,252,137199,1,8,0:0:0:0:
311,233,137499,1,0,0:0:0:0:
306,239,137724,1,8,0:0:0:0:
306,239,137799,1,0,0:0:0:0:
306,239,137949,1,8,0:0:0:0:
299,220,138099,1,0,0:0:0:0:
299,220,138174,1,0,0:0:0:0:
299,220,138249,1,8,0:0:0:0:
299,220,138399,1,0,0:0:0:0:
261,218,138549,1,8,0:0:0:0:
261,218,138624,1,8,0:0:0:0:
261,218,138699,1,0,0:0:0:0:
277,229,138924,1,8,0:0:0:0:
277,229,138999,1,0,0:0:0:0:
277,229,139149,1,8,0:0:0:0:
313,241,139299,1,0,0:0:0:0:
313,241,139374,1,0,0:0:0:0:
313,241,139449,1,8,0:0:0:0:
313,241,139599,1,8,0:0:0:0:
257,244,139899,1,0,0:0:0:0:
297,252,139974,1,0,0:0:0:0:
297,252,140124,1,8,0:0:0:0:
297,252,140199,1,0,0:0:0:0:
297,252,140349,1,8,0:0:0:0:
308,227,140499,1,0,0:0:0:0:
308,227,140649,1,8,0:0:0:0:
308,227,140724,1,8,0:0:0:0:
308,227,140799,1,0,0:0:0:0:
159,196,140874,1,0,0:0:0:0:
308,227,140949,1,8,0:0:0:0:
290,243,141099,1,0,0:0:0:0:
283,223,141174,1,8,0:0:0:0:
283,223,141324,1,8,0:0:0:0:
283,223,141399,1,0,0:0:0:0:
296,230,141549,1,8,0:0:0:0:
296,230,141624,1,8,0:0:0:0:
296,230,141699,1,0,0:0:0:0:
296,230,141849,1,8,0:0:0:0:
296,230,141999,1,8,0:0:0:0:
252,229,142299,1,0,0:0:0:0:
252,229,142374,1,0,0:0:0:0:
252,229,142524,1,8,0:0:0:0:
252,229,142599,1,8,0:0:0:0:
252,229,142749,1,8,0:0:0:0:
280,233,142899,1,0,0:0:0:0:
280,233,142974,1,0,0:0:0:0:
306,224,143049,1,8,0:0:0:0:
306,224,143199,1,0,0:0:0:0:
306,224,143274,1,8,0:0:0:0:
306,224,143349,1,8,0:0:0:0:
267,232,143499,1,0,0:0:0:0:
267,232,143574,1,0,0:0:0:0:
267,232,143724,1,8,0:0:0:0:
267,232,143799,1,0,0:0:0:0:
267,232,143949,1,8,0:0:0:0:
236,254,144099,1,0,0:0:0:0:
236,254,144174,1,0,0:0:0:0:
289,232,144249,1,0,0:0:0:0:
289,232,144324,1,0,0:0:0:0:
288,232,144399,1,8,0:0:0:0:
273,230,144699,5,4,0:0:0:0:
236,220,144924,1,8,0:0:0:0:
236,220,144999,1,0,0:0:0:0:
236,220,145149,1,8,0:0:0:0:
284,263,145299,1,0,0:0:0:0:
284,263,145374,1,0,0:0:0:0:
284,263,145449,1,8,0:0:0:0:
300,252,145599,1,0,0:0:0:0:
300,252,145749,1,8,0:0:0:0:
296,221,145899,1,0,0:0:0:0:
296,221,145974,1,0,0:0:0:0:
296,221,146124,1,8,0:0:0:0:
296,221,146199,1,0,0:0:0:0:
296,221,146349,1,8,0:0:0:0:
280,219,146499,1,0,0:0:0:0:
280,219,146574,1,0,0:0:0:0:
331,252,146649,1,8,0:0:0:0:
331,252,146799,1,8,0:0:0:0:
311,233,147099,1,0,0:0:0:0:
306,239,147324,1,8,0:0:0:0:
306,239,147399,1,0,0:0:0:0:
306,239,147549,1,8,0:0:0:0:
299,220,147699,1,0,0:0:0:0:
299,220,147774,1,0,0:0:0:0:
299,220,147849,1,8,0:0:0:0:
299,220,147999,1,0,0:0:0:0:
261,218,148149,1,8,0:0:0:0:
261,218,148224,1,8,0:0:0:0:
261,218,148299,1,0,0:0:0:0:
277,229,148524,1,8,0:0:0:0:
277,229,148599,1,0,0:0:0:0:
277,229,148749,1,8,0:0:0:0:
313,241,148899,1,0,0:0:0:0:
313,241,148974,1,0,0:0:0:0:
313,241,149049,1,8,0:0:0:0:
313,241,149199,1,8,0:0:0:0:
257,244,149499,1,0,0:0:0:0:
297,252,149574,1,0,0:0:0:0:
297,252,149724,1,8,0:0:0:0:
297,252,149799,1,0,0:0:0:0:
297,252,149949,1,8,0:0:0:0:
308,227,150099,1,0,0:0:0:0:
308,227,150249,1,8,0:0:0:0:
308,227,150324,1,8,0:0:0:0:
308,227,150399,1,0,0:0:0:0:
222,193,150474,1,0,0:0:0:0:
308,227,150549,1,8,0:0:0:0:
290,243,150699,1,0,0:0:0:0:
283,223,150774,1,8,0:0:0:0:
283,223,150924,1,8,0:0:0:0:
283,223,150999,1,0,0:0:0:0:
296,230,151149,1,8,0:0:0:0:
296,230,151224,1,8,0:0:0:0:
296,230,151299,1,0,0:0:0:0:
296,230,151449,1,8,0:0:0:0:
296,230,151599,1,8,0:0:0:0:
300,252,151899,1,0,0:0:0:0:
300,252,152124,1,8,0:0:0:0:
300,252,152199,1,0,0:0:0:0:
267,218,152349,1,8,0:0:0:0:
267,218,152424,1,0,0:0:0:0:
267,218,152499,1,0,0:0:0:0:
267,218,152649,1,8,0:0:0:0:
267,218,152799,1,0,0:0:0:0:
267,218,152874,1,8,0:0:0:0:
304,264,152949,1,8,0:0:0:0:
303,242,153399,1,4,0:0:0:0:
339,294,153699,1,0,0:0:0:0:
344,289,153849,1,0,0:0:0:0:
344,289,153924,1,0,0:0:0:0:
344,289,153999,1,8,0:0:0:0:
337,254,154299,1,4,0:0:0:0:
308,203,154599,1,8,0:0:0:0:
308,203,154899,1,0,0:0:0:0:
308,203,155049,1,0,0:0:0:0:
283,220,155349,1,8,0:0:0:0:
283,220,155649,1,0,0:0:0:0:
283,220,155949,1,0,0:0:0:0:
283,220,156249,1,8,0:0:0:0:
317,247,156699,1,0,0:0:0:0:
307,237,156999,1,0,0:0:0:0:
307,237,157299,1,8,0:0:0:0:
310,240,157449,1,8,0:0:0:0:
296,248,157749,1,0,0:0:0:0:
296,248,158049,5,0,0:0:0:0:
296,248,158199,1,8,0:0:0:0:
296,248,158349,1,8,0:0:0:0:
296,248,158649,1,8,0:0:0:0:
248,227,159099,5,4,0:0:0:0:
194,194,159399,1,8,0:0:0:0:
300,215,159624,1,8,0:0:0:0:
300,215,159699,1,0,0:0:0:0:
300,215,159849,1,8,0:0:0:0:
300,215,159999,1,0,0:0:0:0:
270,203,160074,1,0,0:0:0:0:
300,215,160149,1,8,0:0:0:0:
300,215,160299,1,4,0:0:0:0:
404,383,160599,1,8,0:0:0:0:
180,191,160824,1,8,0:0:0:0:
180,191,160899,1,0,0:0:0:0:
180,191,161049,1,8,0:0:0:0:
315,237,161124,1,8,0:0:0:0:
315,237,161199,1,0,0:0:0:0:
315,237,161349,1,8,0:0:0:0:
243,196,161499,1,4,0:0:0:0:
268,216,161649,1,0,0:0:0:0:
268,216,161799,1,8,0:0:0:0:
268,216,161949,1,8,0:0:0:0:
268,216,162099,1,4,0:0:0:0:
268,216,162249,1,8,0:0:0:0:
268,216,162399,1,8,0:0:0:0:
268,216,162549,1,8,0:0:0:0:
306,236,162699,1,0,0:0:0:0:
306,236,162849,1,0,0:0:0:0:
306,236,162924,1,0,0:0:0:0:
306,236,162999,1,8,0:0:0:0:
306,236,163149,1,0,0:0:0:0:
319,233,163299,1,8,0:0:0:0:
319,233,163374,1,0,0:0:0:0:
319,233,163449,1,0,0:0:0:0:
319,233,163524,1,0,0:0:0:0:
319,233,163599,1,8,0:0:0:0:
306,188,163899,1,4,0:0:0:0:
285,259,164199,1,8,0:0:0:0:
278,216,164424,1,8,0:0:0:0:
278,216,164499,1,0,0:0:0:0:
278,216,164649,1,8,0:0:0:0:
278,216,164799,1,0,0:0:0:0:
278,216,164949,1,8,0:0:0:0:
278,216,165024,1,8,0:0:0:0:
278,216,165099,1,0,0:0:0:0:
315,283,165249,1,8,0:0:0:0:
302,228,165399,1,0,0:0:0:0:
300,238,165549,1,8,0:0:0:0:
300,238,165699,1,0,0:0:0:0:
300,238,165774,1,0,0:0:0:0:
300,238,165849,1,0,0:0:0:0:
300,238,165999,1,8,0:0:0:0:
234,235,166299,1,0,0:0:0:0:
322,254,166449,1,8,0:0:0:0:
322,254,166599,1,0,0:0:0:0:
236,249,166749,1,8,0:0:0:0:
284,244,166824,1,8,0:0:0:0:
260,250,166899,1,0,0:0:0:0:
260,250,166974,1,8,0:0:0:0:
260,250,167049,1,0,0:0:0:0:
209,212,167199,1,8,0:0:0:0:
209,212,167349,1,0,0:0:0:0:
209,212,167424,1,0,0:0:0:0:
209,212,167499,1,0,0:0:0:0:
275,220,167649,1,0,0:0:0:0:
274,221,167799,1,8,0:0:0:0:
273,227,167949,1,0,0:0:0:0:
337,267,168099,1,0,0:0:0:0:
337,267,168174,1,8,0:0:0:0:
337,267,168249,1,0,0:0:0:0:
337,267,168399,1,8,0:0:0:0:
356,265,168699,1,0,0:0:0:0:
309,271,168999,1,8,0:0:0:0:
379,310,169224,1,8,0:0:0:0:
379,310,169299,1,0,0:0:0:0:
379,310,169449,1,8,0:0:0:0:
339,269,169599,1,0,0:0:0:0:
339,269,169674,1,0,0:0:0:0:
339,269,169749,1,8,0:0:0:0:
305,233,169899,1,0,0:0:0:0:
305,233,170049,1,8,0:0:0:0:
305,233,170199,1,0,0:0:0:0:
305,233,170274,1,8,0:0:0:0:
312,256,170424,1,8,0:0:0:0:
312,256,170499,1,0,0:0:0:0:
312,256,170649,1,8,0:0:0:0:
312,256,170799,1,0,0:0:0:0:
312,256,170874,1,0,0:0:0:0:
312,256,170949,1,8,0:0:0:0:
360,234,171099,1,0,0:0:0:0:
355,239,171249,1,8,0:0:0:0:
355,239,171399,1,0,0:0:0:0:
355,239,171549,1,8,0:0:0:0:
355,239,171624,1,8,0:0:0:0:
314,263,171699,1,0,0:0:0:0:
314,263,171774,1,0,0:0:0:0:
314,263,171849,1,8,0:0:0:0:
314,263,171999,1,0,0:0:0:0:
314,263,172149,1,8,0:0:0:0:
321,256,172299,1,0,0:0:0:0:
321,256,172449,1,0,0:0:0:0:
321,256,172524,1,0,0:0:0:0:
321,256,172599,1,8,0:0:0:0:
321,256,172749,1,8,0:0:0:0:
356,283,172899,1,0,0:0:0:0:
356,283,172974,1,0,0:0:0:0:
356,283,173049,1,0,0:0:0:0:
356,283,173124,1,0,0:0:0:0:
356,283,173199,1,8,0:0:0:0:
344,254,173499,1,0,0:0:0:0:
303,254,173649,1,8,0:0:0:0:
146,249,173799,1,0,0:0:0:0:
214,263,173874,1,0,0:0:0:0:
214,263,174024,1,0,0:0:0:0:
214,263,174099,1,8,0:0:0:0:
214,263,174249,1,0,0:0:0:0:
214,263,174399,1,8,0:0:0:0:
290,208,174699,1,8,0:0:0:0:
290,208,174849,1,0,0:0:0:0:
290,208,174924,1,0,0:0:0:0:
290,208,174999,1,8,0:0:0:0:
290,208,175149,1,0,0:0:0:0:
290,208,175299,1,8,0:0:0:0:
290,208,175374,1,8,0:0:0:0:
290,208,175449,1,0,0:0:0:0:
290,208,175599,1,8,0:0:0:0:
324,249,175899,1,0,0:0:0:0:
324,249,176049,1,0,0:0:0:0:
318,250,176199,1,8,0:0:0:0:
318,250,176349,1,8,0:0:0:0:
318,250,176424,1,8,0:0:0:0:
318,250,176499,1,0,0:0:0:0:
305,249,176649,1,0,0:0:0:0:
305,249,176799,1,8,0:0:0:0:
305,249,176874,1,0,0:0:0:0:
277,201,176949,1,8,0:0:0:0:
256,192,177099,12,8,177699,0:0:0:0:
281,184,178299,5,4,0:0:0:0:
264,214,178449,1,8,0:0:0:0:
264,214,178524,1,8,0:0:0:0:
264,214,178599,1,0,0:0:0:0:
321,246,178749,1,8,0:0:0:0:
321,246,178899,1,0,0:0:0:0:
321,246,178974,1,0,0:0:0:0:
321,246,179049,1,0,0:0:0:0:
321,246,179199,1,8,0:0:0:0:
321,246,179349,1,0,0:0:0:0:
321,246,179499,1,8,0:0:0:0:
321,246,179574,1,8,0:0:0:0:
321,246,179649,1,0,0:0:0:0:
321,246,179799,1,8,0:0:0:0:
249,211,179949,1,0,0:0:0:0:
249,211,180099,1,0,0:0:0:0:
249,211,180174,1,8,0:0:0:0:
249,211,180249,1,0,0:0:0:0:
249,211,180399,1,8,0:0:0:0:
317,234,180699,1,0,0:0:0:0:
326,251,180849,1,8,0:0:0:0:
326,251,180924,1,0,0:0:0:0:
326,251,180999,1,0,0:0:0:0:
326,251,181149,1,8,0:0:0:0:
284,261,181299,1,0,0:0:0:0:
284,261,181374,1,8,0:0:0:0:
284,261,181449,1,0,0:0:0:0:
284,261,181599,1,8,0:0:0:0:
256,241,181749,1,0,0:0:0:0:
256,241,181899,1,8,0:0:0:0:
256,241,181974,1,8,0:0:0:0:
256,241,182049,1,0,0:0:0:0:
263,236,182199,1,8,0:0:0:0:
279,239,182349,1,0,0:0:0:0:
280,239,182424,1,0,0:0:0:0:
280,239,182499,1,8,0:0:0:0:
280,239,182574,1,8,0:0:0:0:
280,239,182649,1,0,0:0:0:0:
280,239,182799,1,8,0:0:0:0:
286,239,183099,1,0,0:0:0:0:
329,238,183249,1,8,0:0:0:0:
329,238,183324,1,8,0:0:0:0:
329,238,183399,1,0,0:0:0:0:
329,238,183549,1,8,0:0:0:0:
221,204,183699,1,0,0:0:0:0:
221,204,183774,1,0,0:0:0:0:
148,185,183849,1,0,0:0:0:0:
157,187,183924,1,0,0:0:0:0:
157,187,183999,1,8,0:0:0:0:
260,192,184149,1,0,0:0:0:0:
260,192,184299,1,8,0:0:0:0:
260,192,184374,1,8,0:0:0:0:
260,192,184449,1,0,0:0:0:0:
258,208,184599,1,8,0:0:0:0:
257,216,184749,1,0,0:0:0:0:
248,225,184899,1,8,0:0:0:0:
248,225,185049,1,0,0:0:0:0:
248,225,185124,1,0,0:0:0:0:
248,225,185199,1,8,0:0:0:0:
285,203,185499,1,0,0:0:0:0:
285,203,185649,1,0,0:0:0:0:
244,209,185724,1,0,0:0:0:0:
257,209,185799,1,0,0:0:0:0:
257,209,185949,1,8,0:0:0:0:
274,191,186099,1,0,0:0:0:0:
87,212,186174,1,0,0:0:0:0:
160,222,186249,1,8,0:0:0:0:
202,238,186399,1,0,0:0:0:0:
202,238,186549,1,8,0:0:0:0:
228,217,186699,1,0,0:0:0:0:
237,220,186774,1,8,0:0:0:0:
237,220,186924,1,8,0:0:0:0:
237,220,186999,1,0,0:0:0:0:
237,220,187149,1,8,0:0:0:0:
276,213,187299,1,0,0:0:0:0:
304,257,187374,1,0,0:0:0:0:
304,257,187449,1,0,0:0:0:0:
304,257,187524,1,0,0:0:0:0:
304,257,187599,1,8,0:0:0:0:
301,236,187899,1,4,0:0:0:0:
301,207,188049,1,8,0:0:0:0:
301,207,188124,1,8,0:0:0:0:
301,207,188199,1,0,0:0:0:0:
301,207,188349,1,8,0:0:0:0:
316,231,188499,1,0,0:0:0:0:
316,231,188574,1,0,0:0:0:0:
316,231,188649,1,0,0:0:0:0:
316,231,188799,1,8,0:0:0:0:
316,231,188949,1,0,0:0:0:0:
316,231,189099,1,8,0:0:0:0:
316,231,189174,1,8,0:0:0:0:
316,231,189249,1,0,0:0:0:0:
310,216,189399,1,8,0:0:0:0:
171,211,189549,1,0,0:0:0:0:
171,211,189699,1,0,0:0:0:0:
171,211,189774,1,0,0:0:0:0:
171,211,189849,1,0,0:0:0:0:
171,211,189999,1,8,0:0:0:0:
319,238,190299,1,0,0:0:0:0:
228,193,190449,1,8,0:0:0:0:
228,193,190524,1,0,0:0:0:0:
228,193,190599,1,0,0:0:0:0:
228,193,190749,1,8,0:0:0:0:
228,193,190899,1,0,0:0:0:0:
228,193,190974,1,8,0:0:0:0:
228,193,191049,1,0,0:0:0:0:
278,219,191199,1,8,0:0:0:0:
278,219,191349,1,0,0:0:0:0:
278,219,191424,1,0,0:0:0:0:
257,158,191499,1,8,0:0:0:0:
278,219,191574,1,8,0:0:0:0:
278,219,191649,1,0,0:0:0:0:
164,204,191799,1,0,0:0:0:0:
182,159,191949,1,8,0:0:0:0:
242,196,192099,1,0,0:0:0:0:
242,196,192174,1,0,0:0:0:0:
242,196,192249,1,8,0:0:0:0:
242,196,192399,1,8,0:0:0:0:
269,192,192699,1,0,0:0:0:0:
252,185,192849,1,8,0:0:0:0:
241,187,192924,1,8,0:0:0:0:
241,187,192999,1,0,0:0:0:0:
241,187,193149,1,8,0:0:0:0:
241,187,193299,1,0,0:0:0:0:
329,233,193449,1,8,0:0:0:0:
302,212,193524,1,8,0:0:0:0:
261,198,193599,1,0,0:0:0:0:
273,230,193674,1,0,0:0:0:0:
219,200,193749,1,8,0:0:0:0:
219,200,193899,1,0,0:0:0:0:
303,203,194049,1,0,0:0:0:0:
232,222,194124,1,0,0:0:0:0:
303,203,194199,1,8,0:0:0:0:
303,203,194349,1,0,0:0:0:0:
303,203,194499,1,8,0:0:0:0:
303,203,194574,1,8,0:0:0:0:
303,203,194649,1,8,0:0:0:0:
303,203,194799,1,0,0:0:0:0:
303,203,194949,1,8,0:0:0:0:
301,221,195099,1,0,0:0:0:0:
301,221,195249,1,0,0:0:0:0:
301,221,195399,1,8,0:0:0:0:
301,221,195549,1,8,0:0:0:0:
301,193,195699,1,0,0:0:0:0:
301,193,195774,1,0,0:0:0:0:
301,193,195849,1,0,0:0:0:0:
301,193,195999,1,8,0:0:0:0:
301,193,196149,1,8,0:0:0:0:
98,214,196299,2,0,L|523:193,1,420
246,231,197799,1,12,0:0:0:0:
271,203,219099,5,0,0:0:0:0:
297,257,219699,1,8,0:0:0:0:
297,257,220299,1,0,0:0:0:0:
330,278,221499,1,0,0:0:0:0:
330,278,222099,1,0,0:0:0:0:
330,278,222699,1,8,0:0:0:0:
340,261,223899,1,0,0:0:0:0:
340,261,224499,1,8,0:0:0:0:
340,261,225099,1,0,0:0:0:0:
272,214,226299,1,8,0:0:0:0:
272,214,226899,1,8,0:0:0:0:
272,214,227499,1,0,0:0:0:0:
239,197,228699,5,4,0:0:0:0:
332,282,233499,5,0,0:0:0:0:
332,282,233649,1,0,0:0:0:0:
277,233,233799,1,8,0:0:0:0:
277,233,233949,1,8,0:0:0:0:
277,233,234099,1,0,0:0:0:0:
277,233,234249,1,0,0:0:0:0:
277,233,234399,1,8,0:0:0:0:
277,233,234549,1,8,0:0:0:0:
308,210,234624,1,8,0:0:0:0:
308,210,234699,1,0,0:0:0:0:
308,210,234849,1,0,0:0:0:0:
308,210,234999,1,8,0:0:0:0:
308,210,235149,1,8,0:0:0:0:
308,210,235299,1,0,0:0:0:0:
308,210,235449,1,0,0:0:0:0:
308,210,235599,1,8,0:0:0:0:
308,210,235749,1,8,0:0:0:0:
256,192,235899,12,0,237999,0:0:0:0:
281,207,238299,5,0,0:0:0:0:
281,207,238599,1,12,0:0:0:0:
258,218,239049,1,12,0:0:0:0:
408,334,239499,1,12,0:0:0:0:
291,199,239949,1,12,0:0:0:0:
290,211,240399,1,8,0:0:0:0:
276,209,240699,1,4,0:0:0:0:
322,293,240924,1,8,0:0:0:0:
322,293,240999,1,0,0:0:0:0:
322,293,241149,1,8,0:0:0:0:
313,228,241299,1,0,0:0:0:0:
313,228,241374,1,0,0:0:0:0:
313,228,241449,1,8,0:0:0:0:
313,228,241599,1,0,0:0:0:0:
323,202,241749,1,8,0:0:0:0:
205,158,241824,1,0,0:0:0:0:
323,202,241899,1,8,0:0:0:0:
323,202,241974,1,8,0:0:0:0:
323,202,242049,1,0,0:0:0:0:
206,230,242199,1,8,0:0:0:0:
336,252,242349,1,0,0:0:0:0:
158,199,242424,1,8,0:0:0:0:
220,229,242499,1,0,0:0:0:0:
215,197,242649,1,0,0:0:0:0:
215,197,242799,1,8,0:0:0:0:
117,228,243099,1,0,0:0:0:0:
117,228,243324,1,8,0:0:0:0:
117,228,243399,1,0,0:0:0:0:
327,274,243549,1,8,0:0:0:0:
209,196,243624,1,8,0:0:0:0:
209,196,243699,1,0,0:0:0:0:
273,180,243774,1,0,0:0:0:0:
209,196,243849,1,8,0:0:0:0:
186,186,243999,1,0,0:0:0:0:
288,220,244149,1,8,0:0:0:0:
288,220,244299,1,8,0:0:0:0:
288,220,244374,1,8,0:0:0:0:
120,209,244449,1,0,0:0:0:0:
221,197,244599,1,8,0:0:0:0:
276,235,244749,1,0,0:0:0:0:
276,235,244899,1,0,0:0:0:0:
276,235,244974,1,0,0:0:0:0:
276,235,245049,1,8,0:0:0:0:
276,235,245199,1,0,0:0:0:0:
276,235,245349,1,8,0:0:0:0:
283,237,245424,1,8,0:0:0:0:
289,233,245499,1,0,0:0:0:0:
285,236,245649,1,8,0:0:0:0:
283,221,245799,1,0,0:0:0:0:
283,221,245874,1,0,0:0:0:0:
283,221,245949,1,8,0:0:0:0:
283,221,246099,1,0,0:0:0:0:
283,221,246174,1,0,0:0:0:0:
283,221,246249,1,0,0:0:0:0:
283,221,246399,1,8,0:0:0:0:
283,221,246549,1,8,0:0:0:0:
279,206,246699,1,0,0:0:0:0:
280,208,246774,1,8,0:0:0:0:
280,208,246924,1,8,0:0:0:0:
280,208,246999,1,0,0:0:0:0:
280,208,247149,1,8,0:0:0:0:
311,235,247299,1,0,0:0:0:0:
311,235,247374,1,0,0:0:0:0:
311,235,247449,1,0,0:0:0:0:
311,235,247599,1,8,0:0:0:0:
248,220,247899,1,4,0:0:0:0:
308,214,248124,1,8,0:0:0:0:
308,214,248199,1,0,0:0:0:0:
308,214,248349,1,8,0:0:0:0:
308,214,248499,1,0,0:0:0:0:
273,202,248574,1,0,0:0:0:0:
308,214,248649,1,0,0:0:0:0:
216,220,248799,1,8,0:0:0:0:
242,250,248949,1,0,0:0:0:0:
242,250,249099,1,8,0:0:0:0:
242,250,249174,1,8,0:0:0:0:
242,250,249249,1,0,0:0:0:0:
333,243,249399,1,8,0:0:0:0:
156,217,249549,1,0,0:0:0:0:
188,171,249624,1,0,0:0:0:0:
182,205,249699,1,8,0:0:0:0:
190,205,249774,1,8,0:0:0:0:
190,205,249849,1,0,0:0:0:0:
190,205,249999,1,8,0:0:0:0:
267,222,250299,1,0,0:0:0:0:
267,222,250374,1,0,0:0:0:0:
267,222,250524,1,8,0:0:0:0:
267,222,250599,1,0,0:0:0:0:
267,222,250749,1,8,0:0:0:0:
365,287,250824,1,8,0:0:0:0:
365,287,250899,1,0,0:0:0:0:
365,287,251049,1,8,0:0:0:0:
365,287,251199,1,0,0:0:0:0:
365,287,251349,1,8,0:0:0:0:
365,287,251499,1,8,0:0:0:0:
365,287,251574,1,8,0:0:0:0:
365,287,251649,1,0,0:0:0:0:
308,246,251724,1,0,0:0:0:0:
308,246,251799,1,8,0:0:0:0:
315,232,251949,1,0,0:0:0:0:
315,232,252099,1,0,0:0:0:0:
315,232,252174,1,8,0:0:0:0:
315,232,252249,1,0,0:0:0:0:
315,232,252399,1,8,0:0:0:0:
346,243,252699,1,0,0:0:0:0:
321,239,252924,1,8,0:0:0:0:
320,239,252999,1,0,0:0:0:0:
320,239,253149,1,8,0:0:0:0:
285,207,253299,1,0,0:0:0:0:
285,207,253374,1,8,0:0:0:0:
285,207,253449,1,0,0:0:0:0:
285,207,253599,1,8,0:0:0:0:
307,213,253749,1,0,0:0:0:0:
307,213,253899,1,8,0:0:0:0:
307,213,254049,1,0,0:0:0:0:
120,155,254124,1,0,0:0:0:0:
307,213,254199,1,8,0:0:0:0:
296,213,254349,1,8,0:0:0:0:
296,213,254424,1,8,0:0:0:0:
296,213,254499,1,0,0:0:0:0:
300,210,254649,1,8,0:0:0:0:
289,215,254799,1,0,0:0:0:0:
289,215,254874,1,0,0:0:0:0:
289,215,254949,1,8,0:0:0:0:
199,213,255099,1,0,0:0:0:0:
88,179,255174,1,0,0:0:0:0:
199,213,255249,1,8,0:0:0:0:
114,183,255324,1,8,0:0:0:0:
199,213,255399,1,0,0:0:0:0:
199,213,255549,1,8,0:0:0:0:
356,208,255624,1,8,0:0:0:0:
199,213,255699,1,0,0:0:0:0:
301,213,255849,1,0,0:0:0:0:
301,213,255999,1,8,0:0:0:0:
301,213,256149,1,8,0:0:0:0:
171,251,256299,2,0,L|604:227,1,420
253,208,257499,1,4,0:0:0:0:
293,239,257724,1,8,0:0:0:0:
293,239,257799,1,0,0:0:0:0:
293,239,257949,1,8,0:0:0:0:
306,243,258099,1,0,0:0:0:0:
306,243,258174,1,0,0:0:0:0:
306,243,258249,1,8,0:0:0:0:
306,243,258399,1,0,0:0:0:0:
306,243,258474,1,0,0:0:0:0:
306,243,258549,1,8,0:0:0:0:
306,243,258624,1,8,0:0:0:0:
306,243,258699,1,0,0:0:0:0:
325,252,258924,1,8,0:0:0:0:
325,252,258999,1,0,0:0:0:0:
305,248,259149,1,8,0:0:0:0:
337,264,259299,1,0,0:0:0:0:
337,264,259374,1,0,0:0:0:0:
337,264,259449,1,8,0:0:0:0:
337,264,259599,1,8,0:0:0:0:
305,231,259899,1,0,0:0:0:0:
305,231,259974,1,0,0:0:0:0:
305,231,260124,1,8,0:0:0:0:
305,231,260199,1,0,0:0:0:0:
305,231,260349,1,8,0:0:0:0:
305,231,260424,1,8,0:0:0:0:
338,248,260499,1,0,0:0:0:0:
338,248,260649,1,8,0:0:0:0:
338,248,260799,1,0,0:0:0:0:
338,248,260874,1,0,0:0:0:0:
338,248,260949,1,8,0:0:0:0:
307,248,261099,1,0,0:0:0:0:
307,248,261174,1,8,0:0:0:0:
307,248,261249,1,8,0:0:0:0:
307,248,261324,1,8,0:0:0:0:
307,248,261399,1,0,0:0:0:0:
307,248,261549,1,8,0:0:0:0:
332,262,261699,1,0,0:0:0:0:
332,262,261774,1,8,0:0:0:0:
332,262,261849,1,0,0:0:0:0:
303,259,261999,1,8,0:0:0:0:
269,265,262299,1,0,0:0:0:0:
315,281,262524,1,8,0:0:0:0:
315,281,262599,1,0,0:0:0:0:
315,281,262749,1,8,0:0:0:0:
315,281,262824,1,8,0:0:0:0:
338,267,262899,1,0,0:0:0:0:
338,267,262974,1,0,0:0:0:0:
338,267,263049,1,8,0:0:0:0:
310,266,263199,1,0,0:0:0:0:
311,266,263274,1,8,0:0:0:0:
311,266,263349,1,8,0:0:0:0:
330,267,263499,1,0,0:0:0:0:
330,267,263574,1,8,0:0:0:0:
330,267,263724,1,8,0:0:0:0:
330,267,263799,1,0,0:0:0:0:
330,267,263949,1,8,0:0:0:0:
312,281,264099,1,0,0:0:0:0:
312,281,264174,1,0,0:0:0:0:
312,281,264249,1,8,0:0:0:0:
312,281,264399,1,8,0:0:0:0:
284,232,264699,1,0,0:0:0:0:
310,236,264774,1,8,0:0:0:0:
310,236,264924,1,8,0:0:0:0:
305,240,264999,1,8,0:0:0:0:
305,240,265074,1,0,0:0:0:0:
305,240,265149,1,8,0:0:0:0:
279,243,265299,1,0,0:0:0:0:
279,243,265449,1,8,0:0:0:0:
232,203,265599,1,0,0:0:0:0:
232,203,265674,1,0,0:0:0:0:
232,203,265749,1,8,0:0:0:0:
289,280,265899,1,0,0:0:0:0:
289,280,265974,1,8,0:0:0:0:
289,280,266124,1,8,0:0:0:0:
289,280,266199,1,0,0:0:0:0:
287,242,266349,1,8,0:0:0:0:
287,242,266424,1,8,0:0:0:0:
287,242,266499,1,0,0:0:0:0:
287,242,266574,1,0,0:0:0:0:
287,242,266649,1,8,0:0:0:0:
287,242,266799,1,8,0:0:0:0:
276,224,267099,1,4,0:0:0:0:
288,232,267324,1,8,0:0:0:0:
288,232,267399,1,0,0:0:0:0:
337,263,267549,1,8,0:0:0:0:
305,252,267699,1,0,0:0:0:0:
305,252,267849,1,8,0:0:0:0:
305,252,267924,1,8,0:0:0:0:
305,252,267999,1,0,0:0:0:0:
305,252,268149,1,8,0:0:0:0:
285,218,268299,1,0,0:0:0:0:
285,218,268374,1,8,0:0:0:0:
285,218,268524,1,8,0:0:0:0:
285,218,268599,1,0,0:0:0:0:
285,218,268749,1,8,0:0:0:0:
285,218,268824,1,8,0:0:0:0:
286,213,268899,1,0,0:0:0:0:
286,213,268974,1,0,0:0:0:0:
286,213,269049,1,0,0:0:0:0:
286,213,269199,1,8,0:0:0:0:
313,224,269499,1,0,0:0:0:0:
313,224,269724,1,8,0:0:0:0:
313,224,269799,1,0,0:0:0:0:
313,224,269949,1,8,0:0:0:0:
313,224,270024,1,8,0:0:0:0:
262,209,270099,1,0,0:0:0:0:
262,209,270174,1,0,0:0:0:0:
262,209,270249,1,8,0:0:0:0:
262,209,270399,1,0,0:0:0:0:
262,209,270474,1,8,0:0:0:0:
262,209,270549,1,8,0:0:0:0:
241,208,270699,1,0,0:0:0:0:
241,208,270774,1,0,0:0:0:0:
148,257,270924,1,0,0:0:0:0:
201,267,270999,1,8,0:0:0:0:
292,240,271149,1,0,0:0:0:0:
292,240,271299,1,0,0:0:0:0:
292,240,271374,1,0,0:0:0:0:
292,240,271449,1,0,0:0:0:0:
292,240,271599,1,8,0:0:0:0:
280,210,271899,1,0,0:0:0:0:
280,210,272124,1,8,0:0:0:0:
280,210,272199,1,0,0:0:0:0:
280,210,272349,1,8,0:0:0:0:
280,210,272424,1,8,0:0:0:0:
277,214,272499,1,0,0:0:0:0:
277,214,272649,1,8,0:0:0:0:
277,214,272724,1,0,0:0:0:0:
277,214,272799,1,0,0:0:0:0:
277,214,272874,1,0,0:0:0:0:
277,214,272949,1,8,0:0:0:0:
187,217,273099,1,0,0:0:0:0:
187,217,273174,1,0,0:0:0:0:
187,217,273324,1,8,0:0:0:0:
187,217,273399,1,0,0:0:0:0:
242,215,273549,1,8,0:0:0:0:
242,215,273624,1,0,0:0:0:0:
242,215,273699,1,0,0:0:0:0:
288,235,273849,1,8,0:0:0:0:
288,235,273999,1,0,0:0:0:0:
288,235,274074,1,0,0:0:0:0:
20,178,274149,1,8,0:0:0:0:
240,203,274299,1,0,0:0:0:0:
240,202,274449,1,0,0:0:0:0:
240,202,274599,1,8,0:0:0:0:
240,203,274749,1,8,0:0:0:0:
240,203,274899,1,0,0:0:0:0:
240,203,275049,1,0,0:0:0:0:
240,203,275199,1,8,0:0:0:0:
240,202,275349,1,8,0:0:0:0:
181,233,275499,2,8,L|246:222,12,35
266,236,276699,1,0,0:0:0:0:
335,275,276999,1,12,0:0:0:0:
291,228,277299,1,0,0:0:0:0:
290,239,277449,1,0,0:0:0:0:
280,244,277599,1,8,0:0:0:0:
297,186,277899,1,0,0:0:0:0:
291,191,278199,1,8,0:0:0:0:
291,191,278499,1,0,0:0:0:0:
291,191,278649,1,0,0:0:0:0:
291,191,278799,1,8,0:0:0:0:
331,256,279099,1,0,0:0:0:0:
350,291,279249,1,8,0:0:0:0:
331,256,279399,1,8,0:0:0:0:
350,291,279699,1,0,0:0:0:0:
350,291,279849,1,0,0:0:0:0:
350,291,279999,1,8,0:0:0:0:
275,234,280299,1,0,0:0:0:0:
275,234,280449,1,0,0:0:0:0:
275,234,280599,1,8,0:0:0:0:
275,234,280899,1,0,0:0:0:0:
275,234,281049,1,8,0:0:0:0:
275,234,281199,1,8,0:0:0:0:
329,241,281499,1,0,0:0:0:0:
329,241,281799,1,8,0:0:0:0:
329,241,282099,1,0,0:0:0:0:
329,241,282249,1,0,0:0:0:0:
329,241,282399,1,8,0:0:0:0:
318,252,282699,1,0,0:0:0:0:
318,252,282999,1,8,0:0:0:0:
318,252,283299,1,0,0:0:0:0:
318,252,283449,1,0,0:0:0:0:
318,252,283599,1,8,0:0:0:0:
220,227,283899,1,0,0:0:0:0:
220,227,284049,1,8,0:0:0:0:
220,227,284199,1,8,0:0:0:0:
220,227,284499,1,0,0:0:0:0:
220,227,284649,1,8,0:0:0:0:
220,227,284799,1,8,0:0:0:0:
193,211,285099,1,0,0:0:0:0:
193,211,285249,1,0,0:0:0:0:
197,213,285399,1,8,0:0:0:0:
318,238,285699,1,0,0:0:0:0:
313,240,285849,1,0,0:0:0:0:
203,227,285999,1,8,0:0:0:0:
203,227,286074,1,8,0:0:0:0:
203,227,286149,1,8,0:0:0:0:
202,227,286299,1,0,0:0:0:0:
252,212,286599,1,8,0:0:0:0:
340,297,286749,1,8,0:0:0:0:
384,324,286824,1,8,0:0:0:0:
252,212,286899,1,0,0:0:0:0:
252,212,287049,1,0,0:0:0:0:
252,212,287199,1,8,0:0:0:0:
336,246,287274,1,8,0:0:0:0:
336,246,287349,1,8,0:0:0:0:
305,208,287499,1,0,0:0:0:0:
305,208,287649,1,0,0:0:0:0:
322,273,287724,1,0,0:0:0:0:
305,208,287799,1,8,0:0:0:0:
305,208,287949,1,0,0:0:0:0:
305,208,288099,1,0,0:0:0:0:
305,208,288174,1,0,0:0:0:0:
209,186,288324,1,0,0:0:0:0:
305,208,288399,1,8,0:0:0:0:
361,221,288699,1,0,0:0:0:0:
354,213,288849,1,0,0:0:0:0:
260,209,288999,1,8,0:0:0:0:
260,209,289074,1,0,0:0:0:0:
260,209,289224,1,0,0:0:0:0:
260,209,289299,1,8,0:0:0:0:
260,209,289449,1,0,0:0:0:0:
260,209,289599,1,8,0:0:0:0:
370,291,289674,1,0,0:0:0:0:
370,291,289749,1,8,0:0:0:0:
285,217,289899,1,0,0:0:0:0:
285,217,289974,1,0,0:0:0:0:
285,217,290124,1,0,0:0:0:0:
285,217,290199,1,8,0:0:0:0:
285,217,290349,1,0,0:0:0:0:
319,241,290499,1,8,0:0:0:0:
319,241,290649,1,0,0:0:0:0:
319,241,290799,1,8,0:0:0:0:
308,239,291099,1,0,0:0:0:0:
311,260,291249,1,0,0:0:0:0:
311,260,291324,1,0,0:0:0:0:
256,256,291399,1,8,0:0:0:0:
319,241,291549,1,0,0:0:0:0:
262,264,291699,1,0,0:0:0:0:
319,241,291774,1,8,0:0:0:0:
262,264,291849,1,0,0:0:0:0:
262,264,291999,1,8,0:0:0:0:
330,249,292074,1,8,0:0:0:0:
330,249,292149,1,0,0:0:0:0:
330,249,292224,1,0,0:0:0:0:
275,190,292299,1,0,0:0:0:0:
275,190,292449,1,0,0:0:0:0:
270,193,292599,1,8,0:0:0:0:
270,193,292749,1,8,0:0:0:0:
270,193,292899,1,0,0:0:0:0:
166,223,292974,1,0,0:0:0:0:
270,193,293124,1,0,0:0:0:0:
268,193,293199,1,8,0:0:0:0:
289,260,293349,1,8,0:0:0:0:
335,248,293499,1,4,0:0:0:0:
335,248,293799,1,4,0:0:0:0:
335,248,294399,1,4,0:0:0:0:
260,220,294699,1,12,0:0:0:0:
323,248,294999,1,8,0:0:0:0:
288,225,295149,1,0,0:0:0:0:
288,225,295299,1,8,0:0:0:0:
288,225,295374,1,0,0:0:0:0:
288,225,295449,1,0,0:0:0:0:
288,225,295524,1,0,0:0:0:0:
288,225,295599,1,8,0:0:0:0:
316,245,295899,1,4,0:0:0:0:
349,305,296049,1,8,0:0:0:0:
250,255,296199,1,0,0:0:0:0:
250,255,296274,1,8,0:0:0:0:
250,255,296424,1,8,0:0:0:0:
250,255,296499,1,0,0:0:0:0:
250,255,296649,1,0,0:0:0:0:
250,255,296799,1,8,0:0:0:0:
323,246,296874,1,0,0:0:0:0:
323,246,297024,1,8,0:0:0:0:
323,246,297099,1,0,0:0:0:0:
261,221,297249,1,8,0:0:0:0:
261,221,297324,1,8,0:0:0:0:
261,221,297399,1,0,0:0:0:0:
261,221,297549,1,8,0:0:0:0:
304,246,297699,1,0,0:0:0:0:
304,246,297774,1,0,0:0:0:0:
304,246,297849,1,0,0:0:0:0:
304,246,297999,1,8,0:0:0:0:
258,208,298299,1,0,0:0:0:0:
258,208,298449,1,8,0:0:0:0:
258,208,298524,1,8,0:0:0:0:
258,208,298599,1,0,0:0:0:0:
258,208,298749,1,8,0:0:0:0:
291,255,298899,1,0,0:0:0:0:
291,255,298974,1,0,0:0:0:0:
291,255,299049,1,0,0:0:0:0:
291,255,299199,1,8,0:0:0:0:
291,255,299349,1,0,0:0:0:0:
266,240,299499,1,0,0:0:0:0:
266,240,299649,1,0,0:0:0:0:
266,240,299724,1,0,0:0:0:0:
266,240,299799,1,8,0:0:0:0:
266,240,299949,1,0,0:0:0:0:
225,224,300099,1,8,0:0:0:0:
225,224,300249,1,0,0:0:0:0:
225,224,300399,1,8,0:0:0:0:
289,245,300699,1,0,0:0:0:0:
289,245,300849,1,8,0:0:0:0:
289,245,300999,1,0,0:0:0:0:
289,245,301074,1,8,0:0:0:0:
289,245,301224,1,0,0:0:0:0:
322,244,301299,1,0,0:0:0:0:
322,244,301449,1,0,0:0:0:0:
322,244,301599,1,8,0:0:0:0:
348,240,301749,1,8,0:0:0:0:
319,268,301824,1,8,0:0:0:0:
319,268,301899,1,0,0:0:0:0:
296,263,302049,1,8,0:0:0:0:
296,272,302199,1,0,0:0:0:0:
292,273,302274,1,0,0:0:0:0:
292,273,302349,1,8,0:0:0:0:
315,283,302499,1,0,0:0:0:0:
316,283,302574,1,0,0:0:0:0:
315,283,302649,1,0,0:0:0:0:
307,283,302799,1,8,0:0:0:0:
283,230,303099,1,0,0:0:0:0:
283,230,303249,1,8,0:0:0:0:
280,236,303399,1,0,0:0:0:0:
280,236,303474,1,8,0:0:0:0:
280,236,303624,1,8,0:0:0:0:
280,236,303699,1,0,0:0:0:0:
280,236,303849,1,0,0:0:0:0:
348,268,303999,1,8,0:0:0:0:
348,268,304074,1,8,0:0:0:0:
348,268,304149,1,0,0:0:0:0:
148,174,304299,1,0,0:0:0:0:
174,187,304449,1,0,0:0:0:0:
174,187,304524,1,0,0:0:0:0:
174,187,304599,1,8,0:0:0:0:
174,187,304749,1,0,0:0:0:0:
272,211,304899,1,8,0:0:0:0:
272,211,304974,1,8,0:0:0:0:
272,211,305049,1,0,0:0:0:0:
354,307,305124,1,0,0:0:0:0:
272,211,305199,1,8,0:0:0:0:
324,252,305499,1,4,0:0:0:0:
333,256,305649,1,8,0:0:0:0:
317,232,305799,1,0,0:0:0:0:
317,236,305874,1,8,0:0:0:0:
317,236,306024,1,8,0:0:0:0:
293,252,306099,1,8,0:0:0:0:
293,252,306249,1,0,0:0:0:0:
265,212,306399,1,0,0:0:0:0:
265,212,306474,1,8,0:0:0:0:
348,307,306624,1,0,0:0:0:0:
325,250,306699,1,8,0:0:0:0:
325,250,306849,1,8,0:0:0:0:
325,250,306999,1,0,0:0:0:0:
325,250,307074,1,0,0:0:0:0:
325,250,307149,1,8,0:0:0:0:
301,239,307299,1,0,0:0:0:0:
301,239,307374,1,0,0:0:0:0:
301,239,307449,1,0,0:0:0:0:
301,239,307599,1,8,0:0:0:0:
281,211,307899,1,0,0:0:0:0:
281,211,307974,1,0,0:0:0:0:
281,211,308049,1,8,0:0:0:0:
301,239,308199,1,0,0:0:0:0:
301,239,308274,1,8,0:0:0:0:
301,239,308424,1,8,0:0:0:0:
290,223,308499,1,0,0:0:0:0:
290,223,308649,1,8,0:0:0:0:
290,223,308799,1,0,0:0:0:0:
290,223,308874,1,8,0:0:0:0:
380,287,309024,1,0,0:0:0:0:
380,287,309099,1,0,0:0:0:0:
342,275,309249,1,0,0:0:0:0:
342,275,309399,1,8,0:0:0:0:
342,275,309549,1,0,0:0:0:0:
300,240,309699,1,8,0:0:0:0:
300,240,309774,1,8,0:0:0:0:
300,241,309849,1,0,0:0:0:0:
300,240,309999,1,8,0:0:0:0:
286,243,310299,1,0,0:0:0:0:
337,264,310449,1,8,0:0:0:0:
359,278,310599,1,0,0:0:0:0:
359,278,310674,1,0,0:0:0:0:
359,278,310749,1,8,0:0:0:0:
352,241,310899,1,0,0:0:0:0:
352,241,311049,1,8,0:0:0:0:
352,241,311124,1,0,0:0:0:0:
388,322,311199,1,0,0:0:0:0:
388,322,311274,1,0,0:0:0:0:
388,322,311349,1,8,0:0:0:0:
353,263,311499,1,0,0:0:0:0:
353,265,311649,1,8,0:0:0:0:
353,265,311724,1,8,0:0:0:0:
353,265,311799,1,0,0:0:0:0:
353,265,311949,1,8,0:0:0:0:
322,246,312099,1,0,0:0:0:0:
322,246,312249,1,0,0:0:0:0:
322,246,312399,1,8,0:0:0:0:
325,228,312699,1,0,0:0:0:0:
275,244,312849,1,8,0:0:0:0:
299,221,312999,1,0,0:0:0:0:
299,221,313074,1,8,0:0:0:0:
299,221,313224,1,8,0:0:0:0:
285,213,313299,1,0,0:0:0:0:
285,213,313374,1,0,0:0:0:0:
285,213,313449,1,8,0:0:0:0:
285,213,313599,1,0,0:0:0:0:
285,213,313674,1,8,0:0:0:0:
291,210,313824,1,0,0:0:0:0:
363,253,313899,1,0,0:0:0:0:
363,253,314049,1,0,0:0:0:0:
363,253,314199,1,8,0:0:0:0:
363,253,314349,1,0,0:0:0:0:
371,307,314499,1,0,0:0:0:0:
261,219,314649,1,8,0:0:0:0:
261,219,314724,1,8,0:0:0:0:
261,219,314799,1,8,0:0:0:0:
261,219,314874,1,8,0:0:0:0:
228,234,314949,1,8,0:0:0:0:
343,274,315399,1,4,0:0:0:0:
302,232,315624,1,8,0:0:0:0:
302,232,315699,1,0,0:0:0:0:
302,232,315849,1,8,0:0:0:0:
370,294,315999,1,8,0:0:0:0:
370,294,316074,1,8,0:0:0:0:
370,294,316149,1,0,0:0:0:0:
370,294,316299,1,4,0:0:0:0:
