osu file format v14

[General]
AudioFilename: audio.mp3
AudioLeadIn: 0
PreviewTime: 109988
Countdown: 0
SampleSet: Normal
StackLeniency: 0.7
Mode: 1
LetterboxInBreaks: 0
WidescreenStoryboard: 1

[Editor]
Bookmarks: 6938,26138,35738,46538,66938,86138,110138,130538,149738,159338,168938,188138,207338,221738,242138,262538,281738,300938
DistanceSpacing: 1.6
BeatDivisor: 4
GridSize: 32
TimelineZoom: 2.5

[Metadata]
Title:Drawing for your Eyes
TitleUnicode:Drawing for your Eyes
Artist:Hayakore Tatsumi
ArtistUnicode:Hayakore Tatsumi
Creator:Roxy-
Version:Invisible Loneliness
Source:H2O~FOOTPRINTS IN THE SAND~
Tags:速核巽 tamolarm japanese j-core jcore hardcore electronic remix bootleg KuroKuroKuro eroge galgame 片翼のイカロス katayoku no icarus ikaros 榊原ゆい sakakibara yui op opening nokduro 6_9 anime vn visual novel video game
BeatmapID:4284692
BeatmapSetID:1938114

[Difficulty]
HPDrainRate:5
CircleSize:5
OverallDifficulty:7
ApproachRate:5
SliderMultiplier:1.4
SliderTickRate:1

[Events]
//Background and Video events
0,0,"a.jpg",0,60
//Break Periods
2,46738,50138
//Storyboard Layer 0 (Background)
//Storyboard Layer 1 (Fail)
//Storyboard Layer 2 (Pass)
//Storyboard Layer 3 (Foreground)
//Storyboard Layer 4 (Overlay)
//Storyboard Sound Samples

[TimingPoints]
6938,300,4,1,0,90,1,0
21319,-100,4,1,0,90,0,0
21394,-99.7920997921,4,1,0,90,0,0
21469,-99.585062240664,4,1,0,90,0,0
21544,-99.378881987578,4,1,0,90,0,0
21619,-99.173553719008,4,1,0,90,0,0
21694,-98.969072164948,4,1,0,90,0,0
21769,-98.765432098765,4,1,0,90,0,0
21844,-98.562628336756,4,1,0,90,0,0
21919,-98.360655737705,4,1,0,90,0,0
21994,-98.159509202454,4,1,0,90,0,0
22069,-97.959183673469,4,1,0,90,0,0
22144,-97.75967413442,4,1,0,90,0,0
22219,-97.560975609756,4,1,0,90,0,0
22294,-97.3630831643,4,1,0,90,0,0
22369,-97.165991902834,4,1,0,90,0,0
22444,-96.969696969697,4,1,0,90,0,0
22519,-96.774193548387,4,1,0,90,0,0
22594,-96.579476861167,4,1,0,90,0,0
22669,-96.385542168675,4,1,0,90,0,0
22744,-96.192384769539,4,1,0,90,0,0
22819,-96,4,1,0,90,0,0
22894,-95.808383233533,4,1,0,90,0,0
22969,-95.617529880478,4,1,0,90,0,0
23044,-95.427435387674,4,1,0,90,0,0
23119,-95.238095238095,4,1,0,90,0,0
23194,-95.049504950495,4,1,0,90,0,0
23269,-94.861660079051,4,1,0,90,0,0
23344,-94.674556213018,4,1,0,90,0,0
23419,-94.488188976378,4,1,0,90,0,0
23494,-94.302554027505,4,1,0,90,0,0
23569,-94.117647058824,4,1,0,90,0,0
23644,-93.933463796477,4,1,0,90,0,0
23719,-93.75,4,1,0,90,0,0
23794,-93.567251461988,4,1,0,90,0,0
23869,-93.385214007782,4,1,0,90,0,0
23944,-93.203883495146,4,1,0,90,0,0
24019,-93.023255813953,4,1,0,90,0,0
24094,-92.84332688588,4,1,0,90,0,0
24169,-92.664092664093,4,1,0,90,0,0
24244,-92.485549132948,4,1,0,90,0,0
24319,-92.307692307692,4,1,0,90,0,0
24394,-92.130518234165,4,1,0,90,0,0
24469,-91.954022988506,4,1,0,90,0,0
24544,-91.778202676864,4,1,0,90,0,0
24619,-91.603053435114,4,1,0,90,0,0
24694,-91.428571428571,4,1,0,90,0,0
24769,-91.254752851711,4,1,0,90,0,0
24844,-91.081593927894,4,1,0,90,0,0
24919,-90.909090909091,4,1,0,90,0,0
26138,-100,4,1,0,90,0,0
35738,-100,4,1,0,90,0,0
42919,-100,4,1,0,90,0,0
42994,-99.67845659164,4,1,0,90,0,0
43069,-99.358974358974,4,1,0,90,0,0
43144,-99.041533546326,4,1,0,90,0,0
43219,-98.726114649682,4,1,0,90,0,0
43294,-98.412698412698,4,1,0,90,0,0
43369,-98.101265822785,4,1,0,90,0,0
43444,-97.791798107256,4,1,0,90,0,0
43519,-97.48427672956,4,1,0,90,0,0
43594,-97.17868338558,4,1,0,90,0,0
43669,-96.875,4,1,0,90,0,0
43744,-96.573208722741,4,1,0,90,0,0
43819,-96.273291925466,4,1,0,90,0,0
43894,-95.975232198142,4,1,0,90,0,0
43969,-95.679012345679,4,1,0,90,0,0
44044,-95.384615384615,4,1,0,90,0,0
44119,-95.092024539877,4,1,0,90,0,0
44194,-94.80122324159,4,1,0,90,0,0
44269,-94.512195121951,4,1,0,90,0,0
44344,-94.224924012158,4,1,0,90,0,0
44419,-93.939393939394,4,1,0,90,0,0
44494,-93.655589123867,4,1,0,90,0,0
44569,-93.373493975904,4,1,0,90,0,0
44644,-93.093093093093,4,1,0,90,0,0
44719,-92.814371257485,4,1,0,90,0,0
44794,-92.537313432836,4,1,0,90,0,0
44869,-92.261904761905,4,1,0,90,0,0
44944,-91.988130563798,4,1,0,90,0,0
45019,-91.715976331361,4,1,0,90,0,0
45094,-91.445427728614,4,1,0,90,0,0
45169,-91.176470588235,4,1,0,90,0,0
45244,-90.909090909091,4,1,0,90,0,0
46538,-76.923076923077,4,1,0,90,0,0
46575,-117.647058823529,4,1,0,50,0,0
51300,-76.923076923077,4,1,0,90,0,0
54919,-117.647058823529,4,1,0,90,0,0
54994,-117.001828153565,4,1,0,90,0,0
55069,-116.363636363636,4,1,0,90,0,0
55144,-115.732368896926,4,1,0,90,0,0
55219,-115.107913669065,4,1,0,90,0,0
55294,-114.490161001789,4,1,0,90,0,0
55369,-113.879003558719,4,1,0,90,0,0
55444,-113.274336283186,4,1,0,90,0,0
55519,-112.676056338028,4,1,0,90,0,0
55594,-112.084063047285,4,1,0,90,0,0
55669,-111.498257839721,4,1,0,90,0,0
55744,-110.918544194107,4,1,0,90,0,0
55819,-110.344827586207,4,1,0,90,0,0
55894,-109.777015437393,4,1,0,90,0,0
55969,-109.215017064846,4,1,0,90,0,0
56044,-108.658743633277,4,1,0,90,0,0
56119,-108.108108108108,4,1,0,90,0,0
56194,-107.563025210084,4,1,0,90,0,0
56269,-107.023411371237,4,1,0,90,0,0
56344,-106.48918469218,4,1,0,90,0,0
56419,-105.960264900662,4,1,0,90,0,0
56494,-105.436573311367,4,1,0,90,0,0
56569,-104.918032786885,4,1,0,90,0,0
56644,-104.404567699837,4,1,0,90,0,0
56719,-103.896103896104,4,1,0,90,0,0
56794,-103.392568659128,4,1,0,90,0,0
56869,-102.893890675241,4,1,0,90,0,0
56944,-102.4,4,1,0,90,0,0
57019,-101.910828025478,4,1,0,90,0,0
57094,-101.426307448494,4,1,0,90,0,0
57169,-100.946372239748,4,1,0,90,0,0
57319,-100,4,1,0,90,0,0
57338,-100,4,1,0,90,0,0
66938,-100,4,1,0,90,0,0
71719,-100,4,1,0,90,0,0
71794,-99.7920997921,4,1,0,90,0,0
71869,-99.585062240664,4,1,0,90,0,0
71944,-99.378881987578,4,1,0,90,0,0
72019,-99.173553719008,4,1,0,90,0,0
72094,-98.969072164948,4,1,0,90,0,0
72169,-98.765432098765,4,1,0,90,0,0
72244,-98.562628336756,4,1,0,90,0,0
72319,-98.360655737705,4,1,0,90,0,0
72394,-98.159509202454,4,1,0,90,0,0
72469,-97.959183673469,4,1,0,90,0,0
72544,-97.75967413442,4,1,0,90,0,0
72619,-97.560975609756,4,1,0,90,0,0
72694,-97.3630831643,4,1,0,90,0,0
72769,-97.165991902834,4,1,0,90,0,0
72844,-96.969696969697,4,1,0,90,0,0
72919,-96.774193548387,4,1,0,90,0,0
72994,-96.579476861167,4,1,0,90,0,0
73069,-96.385542168675,4,1,0,90,0,0
73144,-96.192384769539,4,1,0,90,0,0
73219,-96,4,1,0,90,0,0
73294,-95.808383233533,4,1,0,90,0,0
73369,-95.617529880478,4,1,0,90,0,0
73444,-95.427435387674,4,1,0,90,0,0
73519,-95.238095238095,4,1,0,90,0,0
73594,-95.049504950495,4,1,0,90,0,0
73669,-94.861660079051,4,1,0,90,0,0
73744,-94.674556213018,4,1,0,90,0,0
73819,-94.488188976378,4,1,0,90,0,0
73894,-94.302554027505,4,1,0,90,0,0
73969,-94.117647058824,4,1,0,90,0,0
74044,-93.933463796477,4,1,0,90,0,0
74119,-93.75,4,1,0,90,0,0
74194,-93.567251461988,4,1,0,90,0,0
74269,-93.385214007782,4,1,0,90,0,0
74344,-93.203883495146,4,1,0,90,0,0
74419,-93.023255813953,4,1,0,90,0,0
74494,-92.84332688588,4,1,0,90,0,0
74569,-92.664092664093,4,1,0,90,0,0
74644,-92.485549132948,4,1,0,90,0,0
74719,-92.307692307692,4,1,0,90,0,0
74794,-92.130518234165,4,1,0,90,0,0
74869,-91.954022988506,4,1,0,90,0,0
74944,-91.778202676864,4,1,0,90,0,0
75019,-91.603053435114,4,1,0,90,0,0
75094,-91.428571428571,4,1,0,90,0,0
75169,-91.254752851711,4,1,0,90,0,0
75244,-91.081593927894,4,1,0,90,0,0
75319,-90.909090909091,4,1,0,90,0,0
76538,-100,4,1,0,90,0,0
86138,-100,4,1,0,90,0,0
93319,-100,4,1,0,90,0,0
93394,-99.667774086379,4,1,0,90,0,0
93469,-99.337748344371,4,1,0,90,0,0
93544,-99.009900990099,4,1,0,90,0,0
93619,-98.684210526316,4,1,0,90,0,0
93694,-98.360655737705,4,1,0,90,0,0
93769,-98.039215686275,4,1,0,90,0,0
93844,-97.71986970684,4,1,0,90,0,0
93919,-97.402597402597,4,1,0,90,0,0
93994,-97.087378640777,4,1,0,90,0,0
94069,-96.774193548387,4,1,0,90,0,0
94144,-96.463022508039,4,1,0,90,0,0
94219,-96.153846153846,4,1,0,90,0,0
94294,-95.846645367412,4,1,0,90,0,0
94369,-95.541401273885,4,1,0,90,0,0
94444,-95.238095238095,4,1,0,90,0,0
94519,-94.936708860759,4,1,0,90,0,0
94594,-94.637223974763,4,1,0,90,0,0
94669,-94.339622641509,4,1,0,90,0,0
94744,-94.043887147335,4,1,0,90,0,0
94819,-93.75,4,1,0,90,0,0
94894,-93.457943925234,4,1,0,90,0,0
94969,-93.167701863354,4,1,0,90,0,0
95044,-92.879256965944,4,1,0,90,0,0
95119,-92.592592592593,4,1,0,90,0,0
95194,-92.307692307692,4,1,0,90,0,0
95269,-92.024539877301,4,1,0,90,0,0
95344,-91.743119266055,4,1,0,90,0,0
95419,-91.463414634146,4,1,0,90,0,0
95494,-91.185410334346,4,1,0,90,0,0
95569,-90.909090909091,4,1,0,90,0,0
96000,-76.923076923077,4,1,0,90,0,0
96300,-100,4,1,0,90,0,0
98400,-76.923076923077,4,1,0,90,0,0
98700,-100,4,1,0,90,0,0
105319,-100,4,1,0,90,0,0
105394,-99.827882960413,4,1,0,90,0,0
105469,-99.656357388316,4,1,0,90,0,0
105544,-99.485420240137,4,1,0,90,0,0
105619,-99.315068493151,4,1,0,90,0,0
105694,-99.145299145299,4,1,0,90,0,0
105769,-98.976109215017,4,1,0,90,0,0
105844,-98.807495741056,4,1,0,90,0,0
105919,-98.639455782313,4,1,0,90,0,0
105994,-98.471986417657,4,1,0,90,0,0
106069,-98.305084745763,4,1,0,90,0,0
106144,-98.138747884941,4,1,0,90,0,0
106219,-97.972972972973,4,1,0,90,0,0
106294,-97.807757166948,4,1,0,90,0,0
106369,-97.643097643098,4,1,0,90,0,0
106444,-97.478991596639,4,1,0,90,0,0
106519,-97.315436241611,4,1,0,90,0,0
106594,-97.15242881072,4,1,0,90,0,0
106669,-96.989966555184,4,1,0,90,0,0
106744,-96.828046744574,4,1,0,90,0,0
106819,-96.666666666667,4,1,0,90,0,0
106894,-96.505823627288,4,1,0,90,0,0
106969,-96.345514950166,4,1,0,90,0,0
107044,-96.185737976783,4,1,0,90,0,0
107119,-96.026490066225,4,1,0,90,0,0
107194,-95.867768595041,4,1,0,90,0,0
107269,-95.709570957096,4,1,0,90,0,0
107344,-95.551894563427,4,1,0,90,0,0
107419,-95.394736842105,4,1,0,90,0,0
107494,-95.238095238095,4,1,0,90,0,0
107569,-95.081967213115,4,1,0,90,0,0
107644,-94.926350245499,4,1,0,90,0,0
107719,-94.771241830065,4,1,0,90,0,0
107794,-94.616639477977,4,1,0,90,0,0
107869,-94.462540716612,4,1,0,90,0,0
107944,-94.308943089431,4,1,0,90,0,0
108019,-94.155844155844,4,1,0,90,0,0
108094,-94.003241491086,4,1,0,90,0,0
108169,-93.851132686084,4,1,0,90,0,0
108244,-93.699515347334,4,1,0,90,0,0
108319,-93.548387096774,4,1,0,90,0,0
108394,-93.397745571659,4,1,0,90,0,0
108469,-93.247588424437,4,1,0,90,0,0
108544,-93.097913322632,4,1,0,90,0,0
108619,-92.948717948718,4,1,0,90,0,0
108694,-92.8,4,1,0,90,0,0
108769,-92.651757188498,4,1,0,90,0,0
108844,-92.503987240829,4,1,0,90,0,0
108919,-92.356687898089,4,1,0,90,0,0
108994,-92.209856915739,4,1,0,90,0,0
109069,-92.063492063492,4,1,0,90,0,0
109144,-91.917591125198,4,1,0,90,0,0
109219,-91.772151898734,4,1,0,90,0,0
109294,-91.627172195893,4,1,0,90,0,0
109369,-91.482649842271,4,1,0,90,0,0
109444,-91.338582677165,4,1,0,90,0,0
109519,-91.194968553459,4,1,0,90,0,0
109594,-91.05180533752,4,1,0,90,0,0
109669,-90.909090909091,4,1,0,90,0,0
109838,-76.923076923077,4,1,0,90,0,0
110138,-95.238095238095,4,1,0,100,0,1
118388,-76.923076923078,4,1,0,100,0,1
119269,-76.923076923078,4,1,0,100,0,1
119419,-76.923076923078,4,1,0,100,0,1
119569,-76.923076923078,4,1,0,100,0,1
119719,-76.923076923078,4,1,0,100,0,1
119813,-95.238095238095,4,1,0,100,0,1
126469,-83.333333333333,4,1,0,100,0,1
126544,-85.106382978723,4,1,0,100,0,1
126619,-86.95652173913,4,1,0,100,0,1
126694,-88.888888888889,4,1,0,100,0,1
126769,-90.909090909091,4,1,0,100,0,1
126844,-93.023255813953,4,1,0,100,0,1
126919,-95.238095238095,4,1,0,100,0,1
127369,-95.238095238095,4,1,0,100,0,1
127444,-95.063985374771,4,1,0,100,0,1
127519,-94.890510948905,4,1,0,100,0,1
127594,-94.71766848816,4,1,0,100,0,1
127669,-94.545454545455,4,1,0,100,0,1
127744,-94.37386569873,4,1,0,100,0,1
127819,-94.202898550725,4,1,0,100,0,1
127894,-94.032549728752,4,1,0,100,0,1
127969,-93.862815884477,4,1,0,100,0,1
128044,-93.693693693694,4,1,0,100,0,1
128119,-93.525179856115,4,1,0,100,0,1
128194,-93.357271095153,4,1,0,100,0,1
128269,-93.189964157706,4,1,0,100,0,1
128344,-93.023255813953,4,1,0,100,0,1
128419,-92.857142857143,4,1,0,100,0,1
128494,-92.691622103387,4,1,0,100,0,1
128569,-92.526690391459,4,1,0,100,0,1
128644,-92.362344582593,4,1,0,100,0,1
128719,-92.198581560284,4,1,0,100,0,1
128794,-92.035398230088,4,1,0,100,0,1
128869,-91.872791519435,4,1,0,100,0,1
128944,-91.710758377425,4,1,0,100,0,1
129019,-91.549295774648,4,1,0,100,0,1
129094,-91.388400702988,4,1,0,100,0,1
129169,-91.228070175439,4,1,0,100,0,1
129244,-91.068301225919,4,1,0,100,0,1
129319,-90.909090909091,4,1,0,100,0,1
129338,-90.909090909091,4,1,0,100,0,0
130538,-100,4,1,0,100,0,1
138750,-76.9230769230769,4,1,0,100,0,1
140213,-100,4,1,0,100,0,1
148388,-100,4,1,0,100,0,0
149738,-142.857142857143,4,1,0,90,0,0
158119,-142.857142857143,4,1,0,90,0,0
158269,-139.130434782609,4,1,0,90,0,0
158419,-135.593220338983,4,1,0,90,0,0
158569,-132.231404958678,4,1,0,90,0,0
158719,-129.032258064516,4,1,0,90,0,0
158869,-125.984251968504,4,1,0,90,0,0
159019,-123.076923076923,4,1,0,90,0,0
159169,-120.300751879699,4,1,0,90,0,0
159319,-117.647058823529,4,1,0,90,0,0
167719,-117.647058823529,4,1,0,90,0,0
168019,-112.676056338028,4,1,0,90,0,0
168319,-108.108108108108,4,1,0,90,0,0
168619,-103.896103896104,4,1,0,90,0,0
168919,-100,4,1,0,90,0,0
168938,-100,4,1,0,90,0,0
183319,-100,4,1,0,90,0,0
183394,-99.7920997921,4,1,0,90,0,0
183469,-99.585062240664,4,1,0,90,0,0
183544,-99.378881987578,4,1,0,90,0,0
183619,-99.173553719008,4,1,0,90,0,0
183694,-98.969072164948,4,1,0,90,0,0
183769,-98.765432098765,4,1,0,90,0,0
183844,-98.562628336756,4,1,0,90,0,0
183919,-98.360655737705,4,1,0,90,0,0
183994,-98.159509202454,4,1,0,90,0,0
184069,-97.959183673469,4,1,0,90,0,0
184144,-97.75967413442,4,1,0,90,0,0
184219,-97.560975609756,4,1,0,90,0,0
184294,-97.3630831643,4,1,0,90,0,0
184369,-97.165991902834,4,1,0,90,0,0
184444,-96.969696969697,4,1,0,90,0,0
184519,-96.774193548387,4,1,0,90,0,0
184594,-96.579476861167,4,1,0,90,0,0
184669,-96.385542168675,4,1,0,90,0,0
184744,-96.192384769539,4,1,0,90,0,0
184819,-96,4,1,0,90,0,0
184894,-95.808383233533,4,1,0,90,0,0
184969,-95.617529880478,4,1,0,90,0,0
185044,-95.427435387674,4,1,0,90,0,0
185119,-95.238095238095,4,1,0,90,0,0
185194,-95.049504950495,4,1,0,90,0,0
185269,-94.861660079051,4,1,0,90,0,0
185344,-94.674556213018,4,1,0,90,0,0
185419,-94.488188976378,4,1,0,90,0,0
185494,-94.302554027505,4,1,0,90,0,0
185569,-94.117647058824,4,1,0,90,0,0
185644,-93.933463796477,4,1,0,90,0,0
185719,-93.75,4,1,0,90,0,0
185794,-93.567251461988,4,1,0,90,0,0
185869,-93.385214007782,4,1,0,90,0,0
185944,-93.203883495146,4,1,0,90,0,0
186019,-93.023255813953,4,1,0,90,0,0
186094,-92.84332688588,4,1,0,90,0,0
186169,-92.664092664093,4,1,0,90,0,0
186244,-92.485549132948,4,1,0,90,0,0
186319,-92.307692307692,4,1,0,90,0,0
186394,-92.130518234165,4,1,0,90,0,0
186469,-91.954022988506,4,1,0,90,0,0
186544,-91.778202676864,4,1,0,90,0,0
186619,-91.603053435114,4,1,0,90,0,0
186694,-91.428571428571,4,1,0,90,0,0
186769,-91.254752851711,4,1,0,90,0,0
186844,-91.081593927894,4,1,0,90,0,0
186919,-90.909090909091,4,1,0,90,0,0
188138,-100,4,1,0,90,0,0
197738,-100,4,1,0,90,0,0
206119,-100,4,1,0,90,0,0
206194,-99.290780141844,4,1,0,90,0,0
206269,-98.591549295775,4,1,0,90,0,0
206344,-97.902097902098,4,1,0,90,0,0
206419,-97.222222222222,4,1,0,90,0,0
206494,-96.551724137931,4,1,0,90,0,0
206569,-95.890410958904,4,1,0,90,0,0
206644,-95.238095238095,4,1,0,90,0,0
206719,-94.594594594595,4,1,0,90,0,0
206794,-93.959731543624,4,1,0,90,0,0
206869,-93.333333333333,4,1,0,90,0,0
206944,-92.715231788079,4,1,0,90,0,0
207019,-92.105263157895,4,1,0,90,0,0
207094,-91.503267973856,4,1,0,90,0,0
207169,-90.909090909091,4,1,0,90,0,0
207638,-76.923076923077,4,1,0,90,0,0
207863,-100,4,1,0,90,0,0
209925,-76.923076923077,4,1,0,90,0,0
210188,-100,4,1,0,90,0,0
216919,-100,4,1,0,90,0,0
216994,-99.833610648918,4,1,0,90,0,0
217069,-99.667774086379,4,1,0,90,0,0
217144,-99.502487562189,4,1,0,90,0,0
217219,-99.337748344371,4,1,0,90,0,0
217294,-99.173553719008,4,1,0,90,0,0
217369,-99.009900990099,4,1,0,90,0,0
217444,-98.846787479407,4,1,0,90,0,0
217519,-98.684210526316,4,1,0,90,0,0
217594,-98.522167487685,4,1,0,90,0,0
217669,-98.360655737705,4,1,0,90,0,0
217744,-98.199672667758,4,1,0,90,0,0
217819,-98.039215686275,4,1,0,90,0,0
217894,-97.879282218597,4,1,0,90,0,0
217969,-97.71986970684,4,1,0,90,0,0
218044,-97.560975609756,4,1,0,90,0,0
218119,-97.402597402597,4,1,0,90,0,0
218194,-97.244732576985,4,1,0,90,0,0
218269,-97.087378640777,4,1,0,90,0,0
218344,-96.930533117932,4,1,0,90,0,0
218419,-96.774193548387,4,1,0,90,0,0
218494,-96.618357487923,4,1,0,90,0,0
218569,-96.463022508039,4,1,0,90,0,0
218644,-96.308186195827,4,1,0,90,0,0
218719,-96.153846153846,4,1,0,90,0,0
218794,-96,4,1,0,90,0,0
218869,-95.846645367412,4,1,0,90,0,0
218944,-95.693779904306,4,1,0,90,0,0
219019,-95.541401273885,4,1,0,90,0,0
219094,-95.389507154213,4,1,0,90,0,0
219169,-95.238095238095,4,1,0,90,0,0
219244,-95.087163232964,4,1,0,90,0,0
219319,-94.936708860759,4,1,0,90,0,0
219394,-94.78672985782,4,1,0,90,0,0
219469,-94.637223974763,4,1,0,90,0,0
219544,-94.488188976378,4,1,0,90,0,0
219619,-94.339622641509,4,1,0,90,0,0
219694,-94.191522762951,4,1,0,90,0,0
219769,-94.043887147335,4,1,0,90,0,0
219844,-93.896713615023,4,1,0,90,0,0
219919,-93.75,4,1,0,90,0,0
219994,-93.603744149766,4,1,0,90,0,0
220069,-93.457943925234,4,1,0,90,0,0
220144,-93.312597200622,4,1,0,90,0,0
220219,-93.167701863354,4,1,0,90,0,0
220294,-93.023255813953,4,1,0,90,0,0
220369,-92.879256965944,4,1,0,90,0,0
220444,-92.73570324575,4,1,0,90,0,0
220519,-92.592592592593,4,1,0,90,0,0
220594,-92.449922958398,4,1,0,90,0,0
220669,-92.307692307692,4,1,0,90,0,0
220744,-92.165898617512,4,1,0,90,0,0
220819,-92.024539877301,4,1,0,90,0,0
220894,-91.883614088821,4,1,0,90,0,0
220969,-91.743119266055,4,1,0,90,0,0
221044,-91.603053435114,4,1,0,90,0,0
221119,-91.463414634146,4,1,0,90,0,0
221194,-91.324200913242,4,1,0,90,0,0
221269,-91.185410334346,4,1,0,90,0,0
221344,-91.047040971168,4,1,0,90,0,0
221419,-90.909090909091,4,1,0,90,0,0
221738,-100,4,1,0,90,0,1
229950,-76.923076923077,4,1,0,90,0,1
231375,-95.238095238095,4,1,0,90,0,1
238969,-95.238095238095,4,1,0,90,0,1
239044,-95.063985374771,4,1,0,90,0,1
239119,-94.890510948905,4,1,0,90,0,1
239194,-94.71766848816,4,1,0,90,0,1
239269,-94.545454545455,4,1,0,90,0,1
239344,-94.37386569873,4,1,0,90,0,1
239419,-94.202898550725,4,1,0,90,0,1
239494,-94.032549728752,4,1,0,90,0,1
239569,-93.862815884477,4,1,0,90,0,1
239644,-93.693693693694,4,1,0,90,0,1
239719,-93.525179856115,4,1,0,90,0,1
239794,-93.357271095153,4,1,0,90,0,1
239869,-93.189964157706,4,1,0,90,0,1
239944,-93.023255813953,4,1,0,90,0,1
240019,-92.857142857143,4,1,0,90,0,1
240094,-92.691622103387,4,1,0,90,0,1
240169,-92.526690391459,4,1,0,90,0,1
240244,-92.362344582593,4,1,0,90,0,1
240319,-92.198581560284,4,1,0,90,0,1
240394,-92.035398230088,4,1,0,90,0,1
240469,-91.872791519435,4,1,0,90,0,1
240544,-91.710758377425,4,1,0,90,0,1
240619,-91.549295774648,4,1,0,90,0,1
240694,-91.388400702988,4,1,0,90,0,1
240769,-91.228070175439,4,1,0,90,0,1
240844,-91.068301225919,4,1,0,90,0,1
240919,-90.909090909091,4,1,0,90,0,1
242138,-100,4,1,0,90,0,0
242175,-166.666666666667,4,1,0,50,0,0
246919,-200,4,1,0,50,0,0
248119,-166.22691292876,4,1,0,58,0,0
249319,-142.212189616253,4,1,0,65,0,0
249919,-132.631578947368,4,1,0,69,0,0
250519,-124.260355029586,4,1,0,73,0,0
250819,-120.458891013384,4,1,0,75,0,0
250969,-118.64406779661,4,1,0,76,0,0
251119,-116.883116883117,4,1,0,77,0,0
251269,-115.173674588665,4,1,0,78,0,0
251344,-114.337568058076,4,1,0,78,0,0
251419,-113.513513513514,4,1,0,79,0,0
251494,-112.701252236136,4,1,0,79,0,0
251569,-111.90053285968,4,1,0,80,0,0
251644,-111.111111111111,4,1,0,80,0,0
259369,-111.111111111111,4,1,0,80,0,0
259444,-110.63829787234,4,1,0,80,0,0
259519,-110.169491525424,4,1,0,81,0,0
259594,-109.704641350211,4,1,0,81,0,0
259669,-109.243697478992,4,1,0,82,0,0
259744,-108.786610878661,4,1,0,82,0,0
259819,-108.333333333333,4,1,0,82,0,0
259894,-107.883817427386,4,1,0,83,0,0
259969,-107.438016528926,4,1,0,83,0,0
260044,-106.995884773663,4,1,0,83,0,0
260119,-106.55737704918,4,1,0,84,0,0
260194,-106.122448979592,4,1,0,84,0,0
260269,-105.691056910569,4,1,0,85,0,0
260344,-105.263157894737,4,1,0,85,0,0
260419,-104.838709677419,4,1,0,85,0,0
260494,-104.417670682731,4,1,0,86,0,0
260569,-104,4,1,0,86,0,0
260644,-103.585657370518,4,1,0,87,0,0
260719,-103.174603174603,4,1,0,87,0,0
260794,-102.766798418972,4,1,0,87,0,0
260869,-102.362204724409,4,1,0,88,0,0
260944,-101.960784313725,4,1,0,88,0,0
261019,-101.5625,4,1,0,88,0,0
261094,-101.167315175097,4,1,0,89,0,0
261169,-100.77519379845,4,1,0,89,0,0
261244,-100.3861003861,4,1,0,90,0,0
261319,-100,4,1,0,90,0,0
262538,-95.238095238095,4,1,0,90,0,1
270750,-76.923076923077,4,1,0,90,0,1
271463,-100,4,1,0,90,0,1
276769,-100,4,1,0,90,0,1
276844,-99.847850893876,4,1,0,90,0,1
276919,-99.644803557387,4,1,0,90,0,1
276994,-99.44258036584,4,1,0,90,0,1
277069,-99.241176311739,4,1,0,90,0,1
277144,-99.040586428071,4,1,0,90,0,1
277219,-98.840805787902,4,1,0,90,0,1
277294,-98.641829503973,4,1,0,90,0,1
277369,-98.443652728296,4,1,0,90,0,1
277444,-98.246270651767,4,1,0,90,0,1
277519,-98.049678503775,4,1,0,90,0,1
277594,-97.853871551816,4,1,0,90,0,1
277669,-97.658845101113,4,1,0,90,0,1
277744,-97.464594494245,4,1,0,90,0,1
277819,-97.27111511077,4,1,0,90,0,1
277894,-97.078402366864,4,1,0,90,0,1
277969,-96.886451714956,4,1,0,90,0,1
278044,-96.695258643372,4,1,0,90,0,1
278119,-96.50481867598,4,1,0,90,0,1
278194,-96.315127371842,4,1,0,90,0,1
278269,-96.126180324867,4,1,0,90,0,1
278344,-95.937973163473,4,1,0,90,0,1
278419,-95.750501550246,4,1,0,90,0,1
278494,-95.56376118161,4,1,0,90,0,1
278569,-95.377747787496,4,1,0,90,0,1
278644,-95.192457131016,4,1,0,90,0,1
278719,-95.007885008144,4,1,0,90,0,1
278794,-94.824027247394,4,1,0,90,0,1
278869,-94.64087970951,4,1,0,90,0,1
278944,-94.458438287154,4,1,0,90,0,1
279019,-94.276698904595,4,1,0,90,0,1
279094,-94.095657517411,4,1,0,90,0,1
279169,-93.915310112187,4,1,0,90,0,1
279244,-93.735652706218,4,1,0,90,0,1
279319,-93.556681347216,4,1,0,90,0,1
279394,-93.37839211302,4,1,0,90,0,1
279469,-93.200781111308,4,1,0,90,0,1
279544,-93.02384447932,4,1,0,90,0,1
279619,-92.847578383568,4,1,0,90,0,1
279694,-92.671979019568,4,1,0,90,0,1
279769,-92.497042611563,4,1,0,90,0,1
279844,-92.322765412249,4,1,0,90,0,1
279919,-92.149143702515,4,1,0,90,0,1
279994,-91.97617379117,4,1,0,90,0,1
280069,-91.803852014689,4,1,0,90,0,1
280144,-91.632174736947,4,1,0,90,0,1
280219,-91.461138348971,4,1,0,90,0,1
280294,-91.29073926868,4,1,0,90,0,1
280369,-91.120973940641,4,1,0,90,0,1
280444,-90.951838835816,4,1,0,90,0,1
280538,-90.909090909091,4,1,0,90,0,0
281738,-100,4,1,0,90,0,0
298519,-100,4,1,0,90,0,0
298594,-99.378881987578,4,1,0,90,0,0
298669,-98.765432098765,4,1,0,90,0,0
298744,-98.159509202454,4,1,0,90,0,0
298819,-97.560975609756,4,1,0,90,0,0
298894,-96.969696969697,4,1,0,90,0,0
298969,-96.385542168675,4,1,0,90,0,0
299044,-95.808383233533,4,1,0,90,0,0
299119,-95.238095238095,4,1,0,90,0,0
299194,-94.674556213018,4,1,0,90,0,0
299269,-94.117647058824,4,1,0,90,0,0
299344,-93.567251461988,4,1,0,90,0,0
299419,-93.023255813953,4,1,0,90,0,0
299494,-92.485549132948,4,1,0,90,0,0
299569,-91.954022988506,4,1,0,90,0,0
299644,-91.428571428571,4,1,0,90,0,0
299719,-90.909090909091,4,1,0,90,0,0
300938,-100,4,1,0,90,0,0
310538,-100,4,1,0,90,0,0
315319,-100,4,1,0,90,0,0
315394,-99.7920997921,4,1,0,90,0,0
315469,-99.585062240664,4,1,0,90,0,0
315544,-99.378881987578,4,1,0,90,0,0
315619,-99.173553719008,4,1,0,90,0,0
315694,-98.969072164948,4,1,0,90,0,0
315769,-98.765432098765,4,1,0,90,0,0
315844,-98.562628336756,4,1,0,90,0,0
315919,-98.360655737705,4,1,0,90,0,0
315994,-98.159509202454,4,1,0,90,0,0
316069,-97.959183673469,4,1,0,90,0,0
316144,-97.75967413442,4,1,0,90,0,0
316219,-97.560975609756,4,1,0,90,0,0
316294,-97.3630831643,4,1,0,90,0,0
316369,-97.165991902834,4,1,0,90,0,0
316444,-96.969696969697,4,1,0,90,0,0
316519,-96.774193548387,4,1,0,90,0,0
316594,-96.579476861167,4,1,0,90,0,0
316669,-96.385542168675,4,1,0,90,0,0
316744,-96.192384769539,4,1,0,90,0,0
316819,-96,4,1,0,90,0,0
316894,-95.808383233533,4,1,0,90,0,0
316969,-95.617529880478,4,1,0,90,0,0
317044,-95.427435387674,4,1,0,90,0,0
317119,-95.238095238095,4,1,0,90,0,0
317194,-95.049504950495,4,1,0,90,0,0
317269,-94.861660079051,4,1,0,90,0,0
317344,-94.674556213018,4,1,0,90,0,0
317419,-94.488188976378,4,1,0,90,0,0
317494,-94.302554027505,4,1,0,90,0,0
317569,-94.117647058824,4,1,0,90,0,0
317644,-93.933463796477,4,1,0,90,0,0
317719,-93.75,4,1,0,90,0,0
317794,-93.567251461988,4,1,0,90,0,0
317869,-93.385214007782,4,1,0,90,0,0
317944,-93.203883495146,4,1,0,90,0,0
318019,-93.023255813953,4,1,0,90,0,0
318094,-92.84332688588,4,1,0,90,0,0
318169,-92.664092664093,4,1,0,90,0,0
318244,-92.485549132948,4,1,0,90,0,0
318319,-92.307692307692,4,1,0,90,0,0
318394,-92.130518234165,4,1,0,90,0,0
318469,-91.954022988506,4,1,0,90,0,0
318544,-91.778202676864,4,1,0,90,0,0
318619,-91.603053435114,4,1,0,90,0,0
318694,-91.428571428571,4,1,0,90,0,0
318769,-91.254752851711,4,1,0,90,0,0
318919,-90.909090909091,4,1,0,90,0,0
321338,-90.909090909091,4,1,0,80,0,0
322538,-90.909090909091,4,1,0,70,0,0
323738,-90.909090909091,4,1,0,60,0,0
324938,-90.909090909091,4,1,0,50,0,0
326138,-90.909090909091,4,1,0,40,0,0
327338,-90.909090909091,4,1,0,30,0,0
328538,-100,4,1,0,20,0,0

[HitObjects]
257,188,6938,5,4,0:0:0:0:
257,188,7238,1,8,0:0:0:0:
257,188,7538,1,0,0:0:0:0:
257,188,7838,1,8,0:0:0:0:
257,188,7988,1,8,0:0:0:0:
257,188,8138,1,0,0:0:0:0:
257,188,8438,1,8,0:0:0:0:
257,188,8738,1,0,0:0:0:0:
257,188,8888,1,0,0:0:0:0:
257,188,9038,1,8,0:0:0:0:
257,188,9338,1,0,0:0:0:0:
257,188,9638,1,8,0:0:0:0:
257,188,9938,1,0,0:0:0:0:
257,188,10238,1,8,0:0:0:0:
257,188,10388,1,8,0:0:0:0:
257,188,10538,1,0,0:0:0:0:
257,188,10838,1,8,0:0:0:0:
257,188,11138,1,0,0:0:0:0:
257,188,11288,1,0,0:0:0:0:
257,188,11438,1,8,0:0:0:0:
257,188,11738,1,0,0:0:0:0:
257,188,12038,1,8,0:0:0:0:
257,188,12338,1,0,0:0:0:0:
257,188,12638,1,8,0:0:0:0:
257,188,12788,1,8,0:0:0:0:
257,188,12938,1,0,0:0:0:0:
257,188,13238,1,8,0:0:0:0:
257,188,13538,1,0,0:0:0:0:
257,188,13688,1,0,0:0:0:0:
257,188,13838,1,8,0:0:0:0:
257,188,13988,1,8,0:0:0:0:
257,188,14138,1,0,0:0:0:0:
257,188,14438,1,8,0:0:0:0:
257,188,14738,1,0,0:0:0:0:
257,188,15038,1,8,0:0:0:0:
257,188,15188,1,8,0:0:0:0:
257,188,15338,1,0,0:0:0:0:
257,188,15638,1,8,0:0:0:0:
257,188,15938,1,0,0:0:0:0:
257,188,16088,1,8,0:0:0:0:
257,188,16163,1,8,0:0:0:0:
257,188,16238,1,8,0:0:0:0:
257,188,16538,1,4,0:0:0:0:
257,188,16688,1,8,0:0:0:0:
257,188,16838,1,0,0:0:0:0:
257,188,16988,1,8,0:0:0:0:
257,188,17138,1,0,0:0:0:0:
257,188,17288,1,8,0:0:0:0:
257,188,17363,1,8,0:0:0:0:
257,188,17438,1,0,0:0:0:0:
257,188,17588,1,8,0:0:0:0:
257,188,17738,1,0,0:0:0:0:
257,188,17888,1,8,0:0:0:0:
257,188,18038,1,0,0:0:0:0:
257,188,18188,1,8,0:0:0:0:
257,188,18338,1,0,0:0:0:0:
257,188,18413,1,0,0:0:0:0:
257,188,18488,1,8,0:0:0:0:
257,188,18563,1,8,0:0:0:0:
257,188,18638,1,0,0:0:0:0:
257,188,18788,1,8,0:0:0:0:
257,188,18938,1,0,0:0:0:0:
257,188,19088,1,8,0:0:0:0:
257,188,19238,1,0,0:0:0:0:
257,188,19388,1,8,0:0:0:0:
257,188,19538,1,0,0:0:0:0:
257,188,19688,1,8,0:0:0:0:
257,188,19763,1,8,0:0:0:0:
257,188,19838,1,0,0:0:0:0:
257,188,19913,1,0,0:0:0:0:
257,188,19988,1,8,0:0:0:0:
257,188,20138,1,0,0:0:0:0:
257,188,20288,1,8,0:0:0:0:
257,188,20438,1,0,0:0:0:0:
257,188,20588,1,8,0:0:0:0:
257,188,20738,1,0,0:0:0:0:
257,188,20813,1,0,0:0:0:0:
257,188,20888,1,8,0:0:0:0:
257,188,20963,1,8,0:0:0:0:
257,188,21038,1,0,0:0:0:0:
257,188,21188,1,8,0:0:0:0:
257,188,21338,1,0,0:0:0:0:
257,188,21413,1,0,0:0:0:0:
257,188,21488,1,8,0:0:0:0:
257,188,21563,1,8,0:0:0:0:
257,188,21638,1,0,0:0:0:0:
257,188,21713,1,0,0:0:0:0:
257,188,21788,1,0,0:0:0:0:
257,188,21863,1,0,0:0:0:0:
257,188,21938,1,8,0:0:0:0:
257,188,22013,1,0,0:0:0:0:
257,188,22088,1,0,0:0:0:0:
257,188,22163,1,0,0:0:0:0:
257,188,22238,1,8,0:0:0:0:
257,188,22313,1,8,0:0:0:0:
257,188,22388,1,8,0:0:0:0:
257,188,22463,1,8,0:0:0:0:
257,188,22538,1,0,0:0:0:0:
257,188,22613,1,0,0:0:0:0:
257,188,22688,1,8,0:0:0:0:
257,188,22763,1,8,0:0:0:0:
257,188,22838,1,0,0:0:0:0:
257,188,22913,1,0,0:0:0:0:
257,188,22988,1,0,0:0:0:0:
257,188,23063,1,0,0:0:0:0:
257,188,23138,1,8,0:0:0:0:
257,188,23213,1,0,0:0:0:0:
257,188,23288,1,0,0:0:0:0:
257,188,23363,1,0,0:0:0:0:
257,188,23438,1,8,0:0:0:0:
257,188,23513,1,8,0:0:0:0:
257,188,23588,1,0,0:0:0:0:
257,188,23663,1,8,0:0:0:0:
257,188,23738,1,0,0:0:0:0:
257,188,23813,1,0,0:0:0:0:
257,188,23888,1,8,0:0:0:0:
257,188,23963,1,0,0:0:0:0:
257,188,24038,1,8,0:0:0:0:
257,188,24113,1,8,0:0:0:0:
257,188,24188,1,0,0:0:0:0:
257,188,24263,1,8,0:0:0:0:
257,188,24338,1,0,0:0:0:0:
257,188,24413,1,0,0:0:0:0:
257,188,24488,1,8,0:0:0:0:
257,188,24563,1,0,0:0:0:0:
257,188,24638,1,8,0:0:0:0:
257,188,24713,1,8,0:0:0:0:
257,188,24788,1,0,0:0:0:0:
257,188,24863,1,8,0:0:0:0:
257,188,24938,1,0,0:0:0:0:
256,192,25088,8,0,25988,0:0:0:0:
255,189,26138,5,4,0:0:0:0:
255,189,26288,1,8,0:0:0:0:
255,189,26438,1,0,0:0:0:0:
255,189,26513,1,0,0:0:0:0:
255,189,26588,1,8,0:0:0:0:
255,189,26738,1,0,0:0:0:0:
255,189,26888,1,8,0:0:0:0:
255,189,26963,1,8,0:0:0:0:
255,189,27038,1,0,0:0:0:0:
255,189,27188,1,8,0:0:0:0:
255,189,27338,1,0,0:0:0:0:
255,189,27413,1,0,0:0:0:0:
255,189,27488,1,8,0:0:0:0:
255,189,27638,1,0,0:0:0:0:
255,189,27788,1,8,0:0:0:0:
255,189,27863,1,8,0:0:0:0:
255,189,27938,1,0,0:0:0:0:
256,192,28013,1,0,0:0:0:0:
255,189,28088,1,8,0:0:0:0:
255,189,28238,1,0,0:0:0:0:
255,189,28388,1,8,0:0:0:0:
255,189,28538,1,0,0:0:0:0:
255,189,28688,1,8,0:0:0:0:
255,189,28763,1,8,0:0:0:0:
255,189,28838,1,0,0:0:0:0:
255,189,28988,1,8,0:0:0:0:
255,189,29138,1,0,0:0:0:0:
255,189,29213,1,0,0:0:0:0:
255,189,29288,1,8,0:0:0:0:
255,189,29363,1,8,0:0:0:0:
255,189,29438,1,0,0:0:0:0:
255,189,29588,1,8,0:0:0:0:
255,189,29738,1,0,0:0:0:0:
255,189,29888,1,8,0:0:0:0:
255,189,29963,1,8,0:0:0:0:
255,189,30038,1,0,0:0:0:0:
255,189,30113,1,0,0:0:0:0:
255,189,30188,1,8,0:0:0:0:
255,189,30338,1,0,0:0:0:0:
288,192,30413,1,0,0:0:0:0:
255,189,30488,1,8,0:0:0:0:
224,192,30563,1,0,0:0:0:0:
255,189,30638,1,0,0:0:0:0:
255,189,30713,1,0,0:0:0:0:
255,189,30788,1,8,0:0:0:0:
255,189,30938,1,0,0:0:0:0:
256,192,31088,1,8,0:0:0:0:
256,192,31163,1,0,0:0:0:0:
255,189,31238,1,8,0:0:0:0:
255,189,31388,1,0,0:0:0:0:
255,189,31538,1,0,0:0:0:0:
255,189,31613,1,0,0:0:0:0:
256,192,31688,1,8,0:0:0:0:
256,192,31763,1,0,0:0:0:0:
255,189,31838,1,8,0:0:0:0:
255,189,31988,1,0,0:0:0:0:
255,189,32138,1,8,0:0:0:0:
255,189,32288,1,8,0:0:0:0:
255,189,32363,1,8,0:0:0:0:
255,189,32438,1,0,0:0:0:0:
255,189,32588,1,0,0:0:0:0:
255,189,32738,1,8,0:0:0:0:
255,189,32813,1,0,0:0:0:0:
255,189,32888,1,8,0:0:0:0:
255,189,32963,1,8,0:0:0:0:
255,189,33038,1,0,0:0:0:0:
255,189,33188,1,8,0:0:0:0:
255,189,33338,1,0,0:0:0:0:
256,192,33488,1,0,0:0:0:0:
255,189,33563,1,0,0:0:0:0:
255,189,33638,1,8,0:0:0:0:
255,189,33788,1,0,0:0:0:0:
255,189,33938,1,8,0:0:0:0:
255,189,34013,1,0,0:0:0:0:
255,189,34088,1,8,0:0:0:0:
256,192,34163,1,0,0:0:0:0:
255,189,34238,1,8,0:0:0:0:
255,189,34388,1,0,0:0:0:0:
255,189,34538,1,8,0:0:0:0:
255,189,34688,1,8,0:0:0:0:
255,189,34763,1,8,0:0:0:0:
255,189,34838,1,0,0:0:0:0:
255,189,34988,1,8,0:0:0:0:
255,189,35138,1,0,0:0:0:0:
256,192,35213,1,0,0:0:0:0:
255,189,35288,1,8,0:0:0:0:
255,189,35363,1,0,0:0:0:0:
255,189,35438,1,8,0:0:0:0:
255,189,35738,1,4,0:0:0:0:
255,189,35888,1,8,0:0:0:0:
255,189,35963,1,8,0:0:0:0:
255,189,36038,1,0,0:0:0:0:
255,189,36188,1,8,0:0:0:0:
255,189,36338,1,0,0:0:0:0:
255,189,36413,1,0,0:0:0:0:
255,189,36488,1,8,0:0:0:0:
255,189,36638,1,0,0:0:0:0:
255,189,36713,1,0,0:0:0:0:
255,189,36788,1,8,0:0:0:0:
255,189,36863,1,8,0:0:0:0:
255,189,36938,1,0,0:0:0:0:
255,189,37088,1,8,0:0:0:0:
255,189,37238,1,0,0:0:0:0:
255,189,37313,1,0,0:0:0:0:
255,189,37388,1,8,0:0:0:0:
255,189,37538,1,0,0:0:0:0:
255,189,37688,1,8,0:0:0:0:
255,189,37763,1,8,0:0:0:0:
255,189,37838,1,0,0:0:0:0:
255,189,37913,1,0,0:0:0:0:
255,189,37988,1,8,0:0:0:0:
255,189,38138,1,0,0:0:0:0:
255,189,38288,1,8,0:0:0:0:
255,189,38363,1,8,0:0:0:0:
255,189,38438,1,0,0:0:0:0:
255,189,38588,1,8,0:0:0:0:
255,189,38738,1,0,0:0:0:0:
255,189,38813,1,8,0:0:0:0:
255,189,38888,1,0,0:0:0:0:
255,189,38963,1,0,0:0:0:0:
255,189,39038,1,8,0:0:0:0:
255,189,39188,1,0,0:0:0:0:
255,189,39338,1,8,0:0:0:0:
255,189,39488,1,0,0:0:0:0:
255,189,39563,1,0,0:0:0:0:
255,189,39638,1,8,0:0:0:0:
255,189,39788,1,0,0:0:0:0:
255,189,39938,1,8,0:0:0:0:
255,189,40013,1,0,0:0:0:0:
255,189,40088,1,8,0:0:0:0:
255,189,40163,1,8,0:0:0:0:
255,189,40238,1,0,0:0:0:0:
255,189,40388,1,8,0:0:0:0:
255,189,40538,1,0,0:0:0:0:
255,189,40688,1,8,0:0:0:0:
255,189,40763,1,8,0:0:0:0:
255,189,40838,1,0,0:0:0:0:
255,189,40988,1,8,0:0:0:0:
255,189,41138,1,0,0:0:0:0:
255,189,41213,1,0,0:0:0:0:
255,189,41288,1,8,0:0:0:0:
255,189,41438,1,0,0:0:0:0:
255,189,41588,1,8,0:0:0:0:
255,189,41738,1,0,0:0:0:0:
255,189,41888,1,8,0:0:0:0:
255,189,41963,1,8,0:0:0:0:
255,189,42038,1,0,0:0:0:0:
255,189,42113,1,0,0:0:0:0:
255,189,42188,1,8,0:0:0:0:
255,189,42338,1,0,0:0:0:0:
255,189,42488,1,8,0:0:0:0:
255,189,42638,1,0,0:0:0:0:
255,189,42713,1,0,0:0:0:0:
255,189,42788,1,8,0:0:0:0:
255,189,42938,1,0,0:0:0:0:
255,189,43013,1,0,0:0:0:0:
255,189,43088,1,0,0:0:0:0:
255,189,43163,1,0,0:0:0:0:
255,189,43238,1,8,0:0:0:0:
255,189,43313,1,0,0:0:0:0:
255,189,43388,1,8,0:0:0:0:
255,189,43463,1,8,0:0:0:0:
255,189,43538,1,0,0:0:0:0:
255,189,43613,1,0,0:0:0:0:
255,189,43688,1,0,0:0:0:0:
255,189,43763,1,0,0:0:0:0:
255,189,43838,1,8,0:0:0:0:
255,189,43913,1,0,0:0:0:0:
255,189,43988,1,8,0:0:0:0:
255,189,44063,1,8,0:0:0:0:
255,189,44138,1,0,0:0:0:0:
255,189,44213,1,0,0:0:0:0:
255,189,44288,1,0,0:0:0:0:
255,189,44363,1,0,0:0:0:0:
255,189,44438,1,8,0:0:0:0:
255,189,44513,1,0,0:0:0:0:
255,189,44588,1,0,0:0:0:0:
255,189,44663,1,0,0:0:0:0:
255,189,44738,1,8,0:0:0:0:
255,189,44813,1,8,0:0:0:0:
255,189,44888,1,8,0:0:0:0:
255,189,44963,1,8,0:0:0:0:
255,189,45038,1,0,0:0:0:0:
255,189,45113,1,0,0:0:0:0:
255,189,45188,1,8,0:0:0:0:
255,189,45263,1,8,0:0:0:0:
256,192,45338,12,0,46238,0:0:0:0:
256,192,46538,5,4,0:0:0:0:
251,192,51338,5,4,0:0:0:0:
251,192,52538,1,4,0:0:0:0:
251,192,53738,1,4,0:0:0:0:
251,192,54038,1,12,0:0:0:0:
251,192,54188,1,4,0:0:0:0:
251,192,54488,1,4,0:0:0:0:
251,192,54788,1,12,0:0:0:0:
251,192,54938,1,0,0:0:0:0:
251,192,55013,1,0,0:0:0:0:
251,192,55088,1,0,0:0:0:0:
251,192,55163,1,0,0:0:0:0:
256,192,55238,1,8,0:0:0:0:
256,192,55313,1,0,0:0:0:0:
256,192,55388,1,0,0:0:0:0:
256,192,55463,1,0,0:0:0:0:
256,192,55538,1,8,0:0:0:0:
256,192,55613,1,8,0:0:0:0:
256,192,55688,1,0,0:0:0:0:
256,192,55763,1,8,0:0:0:0:
251,192,55838,1,0,0:0:0:0:
256,192,55913,1,0,0:0:0:0:
251,192,55988,1,8,0:0:0:0:
256,192,56063,1,0,0:0:0:0:
256,192,56138,1,8,0:0:0:0:
256,192,56213,1,8,0:0:0:0:
256,192,56288,1,8,0:0:0:0:
256,192,56363,1,8,0:0:0:0:
256,192,56438,1,0,0:0:0:0:
256,192,56513,1,0,0:0:0:0:
256,192,56588,1,8,0:0:0:0:
256,192,56663,1,0,0:0:0:0:
256,192,56738,1,8,0:0:0:0:
256,192,56813,1,8,0:0:0:0:
256,192,56888,1,8,0:0:0:0:
256,192,56963,1,0,0:0:0:0:
256,160,57038,1,8,0:0:0:0:
256,160,57113,1,8,0:0:0:0:
256,160,57188,1,0,0:0:0:0:
250,182,57338,1,4,0:0:0:0:
256,192,57563,1,8,0:0:0:0:
250,182,57638,1,0,0:0:0:0:
250,182,57788,1,8,0:0:0:0:
250,182,57938,1,0,0:0:0:0:
250,182,58013,1,0,0:0:0:0:
250,182,58088,1,8,0:0:0:0:
256,192,58163,1,8,0:0:0:0:
250,182,58238,1,0,0:0:0:0:
250,182,58388,1,8,0:0:0:0:
250,182,58538,1,0,0:0:0:0:
250,182,58688,1,8,0:0:0:0:
256,160,58763,1,8,0:0:0:0:
250,182,58838,1,0,0:0:0:0:
250,182,58988,1,8,0:0:0:0:
250,182,59063,1,8,0:0:0:0:
250,182,59138,1,0,0:0:0:0:
250,182,59213,1,0,0:0:0:0:
250,182,59288,1,8,0:0:0:0:
250,182,59438,1,0,0:0:0:0:
250,182,59588,1,8,0:0:0:0:
256,160,59663,1,8,0:0:0:0:
250,182,59738,1,0,0:0:0:0:
256,192,59888,1,0,0:0:0:0:
256,192,59963,1,8,0:0:0:0:
250,182,60038,1,0,0:0:0:0:
250,182,60188,1,8,0:0:0:0:
250,182,60338,1,0,0:0:0:0:
250,182,60413,1,0,0:0:0:0:
250,182,60488,1,8,0:0:0:0:
250,182,60563,1,0,0:0:0:0:
250,182,60638,1,0,0:0:0:0:
250,182,60788,1,8,0:0:0:0:
250,182,60938,1,0,0:0:0:0:
250,182,61088,1,8,0:0:0:0:
256,192,61163,1,8,0:0:0:0:
250,182,61238,1,0,0:0:0:0:
250,182,61388,1,8,0:0:0:0:
250,182,61538,1,0,0:0:0:0:
250,182,61688,1,0,0:0:0:0:
256,160,61763,1,8,0:0:0:0:
250,182,61838,1,0,0:0:0:0:
250,182,61988,1,8,0:0:0:0:
250,182,62138,1,0,0:0:0:0:
256,192,62288,1,8,0:0:0:0:
256,160,62363,1,8,0:0:0:0:
250,182,62438,1,0,0:0:0:0:
250,182,62588,1,8,0:0:0:0:
250,182,62738,1,0,0:0:0:0:
250,182,62888,1,8,0:0:0:0:
250,182,62963,1,0,0:0:0:0:
250,182,63038,1,0,0:0:0:0:
250,182,63188,1,8,0:0:0:0:
250,182,63338,1,0,0:0:0:0:
250,182,63413,1,0,0:0:0:0:
250,182,63488,1,8,0:0:0:0:
250,182,63638,1,0,0:0:0:0:
250,182,63788,1,8,0:0:0:0:
250,182,63938,1,0,0:0:0:0:
250,182,64088,1,0,0:0:0:0:
256,192,64163,1,8,0:0:0:0:
250,182,64238,1,0,0:0:0:0:
250,182,64388,1,8,0:0:0:0:
250,182,64538,1,0,0:0:0:0:
250,182,64688,1,8,0:0:0:0:
224,192,64763,1,8,0:0:0:0:
250,182,64838,1,0,0:0:0:0:
250,182,64988,1,8,0:0:0:0:
250,182,65138,1,0,0:0:0:0:
250,182,65288,1,8,0:0:0:0:
256,192,65363,1,0,0:0:0:0:
250,182,65438,1,0,0:0:0:0:
250,182,65588,1,8,0:0:0:0:
250,182,65738,1,0,0:0:0:0:
250,182,65888,1,8,0:0:0:0:
256,192,65963,1,8,0:0:0:0:
256,192,66038,1,0,0:0:0:0:
250,182,66188,1,8,0:0:0:0:
250,182,66338,1,0,0:0:0:0:
250,182,66413,1,0,0:0:0:0:
250,182,66488,1,8,0:0:0:0:
250,182,66638,1,8,0:0:0:0:
250,182,66938,1,0,0:0:0:0:
250,182,67088,1,0,0:0:0:0:
250,182,67163,1,0,0:0:0:0:
250,182,67238,1,8,0:0:0:0:
250,182,67388,1,0,0:0:0:0:
250,182,67463,1,8,0:0:0:0:
250,182,67538,1,8,0:0:0:0:
250,182,67688,1,0,0:0:0:0:
250,182,67763,1,0,0:0:0:0:
250,182,67838,1,8,0:0:0:0:
250,182,67913,1,8,0:0:0:0:
250,182,67988,1,0,0:0:0:0:
250,182,68138,1,8,0:0:0:0:
250,182,68288,1,0,0:0:0:0:
250,182,68363,1,0,0:0:0:0:
250,182,68438,1,0,0:0:0:0:
250,182,68588,1,8,0:0:0:0:
250,182,68738,1,0,0:0:0:0:
250,182,68813,1,0,0:0:0:0:
250,182,68888,1,8,0:0:0:0:
250,182,68963,1,0,0:0:0:0:
250,182,69038,1,8,0:0:0:0:
250,182,69113,1,8,0:0:0:0:
250,182,69188,1,0,0:0:0:0:
250,182,69338,1,8,0:0:0:0:
250,182,69488,1,0,0:0:0:0:
250,182,69563,1,0,0:0:0:0:
250,182,69638,1,8,0:0:0:0:
250,182,69788,1,0,0:0:0:0:
250,182,69863,1,8,0:0:0:0:
250,182,69938,1,0,0:0:0:0:
250,182,70088,1,8,0:0:0:0:
250,182,70163,1,8,0:0:0:0:
250,182,70238,1,0,0:0:0:0:
250,182,70313,1,0,0:0:0:0:
250,182,70388,1,8,0:0:0:0:
250,182,70538,1,0,0:0:0:0:
250,182,70688,1,8,0:0:0:0:
250,182,70763,1,8,0:0:0:0:
250,182,70838,1,0,0:0:0:0:
250,182,70988,1,8,0:0:0:0:
250,182,71138,1,0,0:0:0:0:
250,182,71213,1,0,0:0:0:0:
250,182,71288,1,8,0:0:0:0:
250,182,71363,1,8,0:0:0:0:
250,182,71438,1,0,0:0:0:0:
250,182,71588,1,8,0:0:0:0:
250,182,71738,1,0,0:0:0:0:
250,182,71813,1,0,0:0:0:0:
250,182,71888,1,0,0:0:0:0:
250,182,71963,1,0,0:0:0:0:
250,182,72038,1,8,0:0:0:0:
250,182,72113,1,0,0:0:0:0:
250,182,72188,1,0,0:0:0:0:
250,182,72263,1,0,0:0:0:0:
250,182,72338,1,8,0:0:0:0:
250,182,72413,1,8,0:0:0:0:
250,182,72488,1,0,0:0:0:0:
250,182,72563,1,0,0:0:0:0:
250,182,72638,1,8,0:0:0:0:
250,182,72713,1,8,0:0:0:0:
250,182,72788,1,8,0:0:0:0:
250,182,72863,1,8,0:0:0:0:
250,182,72938,1,0,0:0:0:0:
250,182,73013,1,0,0:0:0:0:
250,182,73088,1,0,0:0:0:0:
250,182,73163,1,0,0:0:0:0:
250,182,73238,1,8,0:0:0:0:
250,182,73313,1,0,0:0:0:0:
250,182,73388,1,0,0:0:0:0:
250,182,73463,1,0,0:0:0:0:
250,182,73538,1,8,0:0:0:0:
250,182,73613,1,8,0:0:0:0:
250,182,73688,1,0,0:0:0:0:
250,182,73763,1,0,0:0:0:0:
250,182,73838,1,8,0:0:0:0:
250,182,73913,1,0,0:0:0:0:
250,182,73988,1,8,0:0:0:0:
250,182,74063,1,8,0:0:0:0:
250,182,74138,1,0,0:0:0:0:
250,182,74213,1,0,0:0:0:0:
250,182,74288,1,8,0:0:0:0:
250,182,74363,1,0,0:0:0:0:
250,182,74438,1,8,0:0:0:0:
250,182,74513,1,8,0:0:0:0:
250,182,74588,1,0,0:0:0:0:
250,182,74663,1,8,0:0:0:0:
250,182,74738,1,0,0:0:0:0:
250,182,74813,1,0,0:0:0:0:
250,182,74888,1,0,0:0:0:0:
250,182,74963,1,0,0:0:0:0:
250,182,75038,1,8,0:0:0:0:
250,182,75113,1,8,0:0:0:0:
250,182,75188,1,8,0:0:0:0:
250,182,75263,1,8,0:0:0:0:
250,182,75338,1,0,0:0:0:0:
255,189,76538,5,4,0:0:0:0:
255,189,76763,1,8,0:0:0:0:
255,189,76838,1,0,0:0:0:0:
255,189,76988,1,8,0:0:0:0:
255,189,77138,1,0,0:0:0:0:
255,189,77213,1,0,0:0:0:0:
255,189,77288,1,0,0:0:0:0:
255,189,77438,1,8,0:0:0:0:
255,189,77513,1,8,0:0:0:0:
255,189,77588,1,0,0:0:0:0:
255,189,77663,1,0,0:0:0:0:
255,189,77738,1,8,0:0:0:0:
255,189,77888,1,0,0:0:0:0:
255,189,77963,1,0,0:0:0:0:
255,189,78038,1,8,0:0:0:0:
255,189,78188,1,0,0:0:0:0:
255,189,78338,1,8,0:0:0:0:
255,189,78413,1,0,0:0:0:0:
255,189,78488,1,8,0:0:0:0:
255,189,78563,1,8,0:0:0:0:
255,189,78638,1,0,0:0:0:0:
255,189,78788,1,8,0:0:0:0:
255,189,78938,1,0,0:0:0:0:
255,189,79163,1,8,0:0:0:0:
255,189,79238,1,0,0:0:0:0:
255,189,79388,1,8,0:0:0:0:
255,189,79538,1,0,0:0:0:0:
255,189,79613,1,8,0:0:0:0:
255,189,79688,1,0,0:0:0:0:
255,189,79838,1,8,0:0:0:0:
255,189,79988,1,0,0:0:0:0:
255,189,80063,1,0,0:0:0:0:
255,189,80138,1,0,0:0:0:0:
255,189,80288,1,0,0:0:0:0:
255,189,80363,1,0,0:0:0:0:
255,189,80438,1,8,0:0:0:0:
255,189,80588,1,0,0:0:0:0:
255,189,80738,1,8,0:0:0:0:
255,189,80813,1,8,0:0:0:0:
255,189,80888,1,0,0:0:0:0:
255,189,80963,1,8,0:0:0:0:
255,189,81038,1,0,0:0:0:0:
255,189,81188,1,8,0:0:0:0:
255,189,81338,1,0,0:0:0:0:
255,189,81563,1,8,0:0:0:0:
255,189,81638,1,0,0:0:0:0:
255,189,81788,1,8,0:0:0:0:
255,189,81938,1,0,0:0:0:0:
255,189,82013,1,0,0:0:0:0:
255,189,82088,1,8,0:0:0:0:
255,189,82238,1,0,0:0:0:0:
255,189,82313,1,0,0:0:0:0:
255,189,82388,1,8,0:0:0:0:
255,189,82463,1,8,0:0:0:0:
255,189,82538,1,0,0:0:0:0:
255,189,82688,1,8,0:0:0:0:
255,189,82838,1,0,0:0:0:0:
255,189,82988,1,8,0:0:0:0:
255,189,83063,1,0,0:0:0:0:
255,189,83138,1,8,0:0:0:0:
255,189,83288,1,0,0:0:0:0:
255,189,83438,1,8,0:0:0:0:
255,189,83513,1,0,0:0:0:0:
255,189,83588,1,8,0:0:0:0:
255,189,83663,1,8,0:0:0:0:
255,189,83738,1,0,0:0:0:0:
255,189,83888,1,8,0:0:0:0:
255,189,84038,1,0,0:0:0:0:
255,189,84113,1,0,0:0:0:0:
255,189,84188,1,8,0:0:0:0:
255,189,84338,1,0,0:0:0:0:
255,189,84488,1,8,0:0:0:0:
255,189,84638,1,0,0:0:0:0:
255,189,84713,1,0,0:0:0:0:
255,189,84788,1,8,0:0:0:0:
255,189,84863,1,8,0:0:0:0:
255,189,84938,1,0,0:0:0:0:
255,189,85088,5,8,0:0:0:0:
255,189,85238,1,0,0:0:0:0:
255,189,85313,1,0,0:0:0:0:
255,189,85388,1,8,0:0:0:0:
255,189,85463,1,0,0:0:0:0:
255,189,85538,1,8,0:0:0:0:
255,189,85688,1,0,0:0:0:0:
255,189,85763,1,0,0:0:0:0:
255,189,85838,1,8,0:0:0:0:
255,189,86138,5,4,0:0:0:0:
255,189,86363,1,8,0:0:0:0:
255,189,86438,1,0,0:0:0:0:
255,189,86588,1,8,0:0:0:0:
255,189,86738,1,0,0:0:0:0:
255,189,86813,1,0,0:0:0:0:
255,189,86888,1,8,0:0:0:0:
255,189,86963,1,0,0:0:0:0:
255,189,87038,1,8,0:0:0:0:
255,189,87188,1,8,0:0:0:0:
255,189,87338,1,0,0:0:0:0:
255,189,87488,1,8,0:0:0:0:
255,189,87563,1,8,0:0:0:0:
255,189,87638,1,0,0:0:0:0:
255,189,87788,1,8,0:0:0:0:
256,192,87863,1,0,0:0:0:0:
255,189,87938,1,8,0:0:0:0:
255,189,88013,1,8,0:0:0:0:
255,189,88088,1,0,0:0:0:0:
255,189,88163,1,8,0:0:0:0:
255,189,88238,1,0,0:0:0:0:
255,189,88388,1,8,0:0:0:0:
255,189,88538,1,0,0:0:0:0:
255,189,88688,1,8,0:0:0:0:
255,189,88763,1,0,0:0:0:0:
255,189,88838,1,8,0:0:0:0:
256,192,88988,1,0,0:0:0:0:
255,189,89138,1,8,0:0:0:0:
255,189,89213,1,8,0:0:0:0:
255,189,89288,1,0,0:0:0:0:
256,160,89363,1,8,0:0:0:0:
255,189,89438,1,0,0:0:0:0:
256,192,89513,1,0,0:0:0:0:
255,189,89588,1,8,0:0:0:0:
255,189,89738,1,0,0:0:0:0:
255,189,89888,1,0,0:0:0:0:
255,189,89963,1,8,0:0:0:0:
255,189,90038,1,0,0:0:0:0:
255,189,90188,1,8,0:0:0:0:
256,192,90263,1,8,0:0:0:0:
255,189,90338,1,0,0:0:0:0:
255,189,90488,1,0,0:0:0:0:
255,189,90563,1,8,0:0:0:0:
255,189,90638,1,0,0:0:0:0:
288,192,90713,1,0,0:0:0:0:
256,192,90788,1,8,0:0:0:0:
255,189,90938,1,4,0:0:0:0:
255,189,91163,1,8,0:0:0:0:
255,189,91238,1,0,0:0:0:0:
255,189,91388,1,8,0:0:0:0:
255,189,91538,1,0,0:0:0:0:
255,189,91613,1,0,0:0:0:0:
255,189,91688,1,8,0:0:0:0:
255,189,91763,1,0,0:0:0:0:
255,189,91838,1,0,0:0:0:0:
255,189,91988,1,8,0:0:0:0:
255,189,92138,1,4,0:0:0:0:
255,189,92288,1,0,0:0:0:0:
255,189,92363,1,0,0:0:0:0:
255,189,92438,1,8,0:0:0:0:
255,189,92588,1,8,0:0:0:0:
255,189,92663,1,0,0:0:0:0:
255,189,92738,1,8,0:0:0:0:
255,189,92813,1,8,0:0:0:0:
255,189,92888,1,0,0:0:0:0:
255,189,92963,1,8,0:0:0:0:
255,189,93038,1,0,0:0:0:0:
255,189,93188,1,8,0:0:0:0:
255,189,93263,1,8,0:0:0:0:
255,189,93338,1,0,0:0:0:0:
255,189,93413,1,0,0:0:0:0:
255,189,93488,1,8,0:0:0:0:
255,189,93563,1,0,0:0:0:0:
255,189,93638,1,8,0:0:0:0:
255,189,93713,1,8,0:0:0:0:
255,189,93788,1,0,0:0:0:0:
255,189,93863,1,0,0:0:0:0:
255,189,93938,1,8,0:0:0:0:
255,189,94013,1,0,0:0:0:0:
255,189,94088,1,0,0:0:0:0:
255,189,94163,1,0,0:0:0:0:
255,189,94238,1,8,0:0:0:0:
255,189,94313,1,0,0:0:0:0:
255,189,94388,1,8,0:0:0:0:
256,192,94463,1,8,0:0:0:0:
255,189,94538,1,0,0:0:0:0:
255,189,94613,1,0,0:0:0:0:
255,189,94688,1,8,0:0:0:0:
255,189,94763,1,0,0:0:0:0:
255,189,94838,1,8,0:0:0:0:
255,189,94913,1,8,0:0:0:0:
255,189,94988,1,8,0:0:0:0:
255,189,95063,1,8,0:0:0:0:
255,189,95138,1,0,0:0:0:0:
255,189,95213,1,0,0:0:0:0:
255,189,95288,1,8,0:0:0:0:
255,189,95363,1,8,0:0:0:0:
255,189,95438,1,8,0:0:0:0:
255,189,95513,1,0,0:0:0:0:
255,189,95588,1,8,0:0:0:0:
255,189,96038,1,12,0:0:0:0:
255,189,96338,1,0,0:0:0:0:
255,189,96488,1,8,0:0:0:0:
255,189,96563,1,8,0:0:0:0:
255,189,96638,1,0,0:0:0:0:
255,189,96788,1,0,0:0:0:0:
255,189,96938,1,8,0:0:0:0:
255,189,97013,1,8,0:0:0:0:
255,189,97088,1,0,0:0:0:0:
255,189,97163,1,0,0:0:0:0:
255,189,97238,1,8,0:0:0:0:
255,189,97388,1,8,0:0:0:0:
255,189,97538,1,0,0:0:0:0:
255,189,97688,1,0,0:0:0:0:
255,189,97763,1,8,0:0:0:0:
255,189,97838,1,0,0:0:0:0:
255,189,97988,1,8,0:0:0:0:
255,189,98438,1,12,0:0:0:0:
255,189,98738,1,0,0:0:0:0:
255,189,98888,1,8,0:0:0:0:
255,189,98963,1,0,0:0:0:0:
255,189,99038,1,0,0:0:0:0:
255,189,99188,1,8,0:0:0:0:
255,189,99338,1,0,0:0:0:0:
255,189,99413,1,0,0:0:0:0:
255,189,99488,1,8,0:0:0:0:
256,192,99563,1,8,0:0:0:0:
255,189,99638,1,0,0:0:0:0:
255,189,99788,1,8,0:0:0:0:
255,189,99938,1,0,0:0:0:0:
255,189,100088,1,0,0:0:0:0:
255,189,100163,1,8,0:0:0:0:
255,189,100238,1,0,0:0:0:0:
256,192,100388,1,8,0:0:0:0:
255,189,100538,1,4,0:0:0:0:
255,189,100688,1,8,0:0:0:0:
255,189,100763,1,8,0:0:0:0:
255,189,100838,1,0,0:0:0:0:
255,189,100988,1,8,0:0:0:0:
255,189,101138,1,0,0:0:0:0:
255,189,101213,1,0,0:0:0:0:
255,189,101288,1,8,0:0:0:0:
255,189,101363,1,0,0:0:0:0:
255,189,101438,1,0,0:0:0:0:
255,189,101588,1,8,0:0:0:0:
255,189,101738,1,0,0:0:0:0:
255,189,101888,1,8,0:0:0:0:
255,189,101963,1,0,0:0:0:0:
255,189,102038,1,8,0:0:0:0:
255,189,102113,1,0,0:0:0:0:
255,189,102188,1,8,0:0:0:0:
255,189,102263,1,8,0:0:0:0:
255,189,102338,1,0,0:0:0:0:
255,189,102488,1,0,0:0:0:0:
255,189,102563,1,8,0:0:0:0:
255,189,102638,1,0,0:0:0:0:
255,189,102788,1,8,0:0:0:0:
255,189,102938,1,4,0:0:0:0:
255,189,103088,1,8,0:0:0:0:
255,189,103163,1,8,0:0:0:0:
255,189,103238,1,0,0:0:0:0:
255,189,103388,1,8,0:0:0:0:
255,189,103538,1,0,0:0:0:0:
255,189,103613,1,0,0:0:0:0:
255,189,103688,1,8,0:0:0:0:
255,189,103763,1,8,0:0:0:0:
255,189,103838,1,0,0:0:0:0:
255,189,103988,1,8,0:0:0:0:
255,189,104138,1,4,0:0:0:0:
255,189,104288,1,0,0:0:0:0:
255,189,104363,1,0,0:0:0:0:
255,189,104438,1,8,0:0:0:0:
255,189,104588,1,8,0:0:0:0:
256,192,104663,1,8,0:0:0:0:
255,189,104738,1,0,0:0:0:0:
255,189,104813,1,0,0:0:0:0:
255,189,104888,1,8,0:0:0:0:
255,189,104963,1,0,0:0:0:0:
255,189,105038,1,8,0:0:0:0:
255,189,105188,1,8,0:0:0:0:
255,189,105338,1,0,0:0:0:0:
255,189,105413,1,0,0:0:0:0:
255,189,105488,1,8,0:0:0:0:
255,189,105563,1,0,0:0:0:0:
255,189,105638,1,8,0:0:0:0:
255,189,105713,1,8,0:0:0:0:
255,189,105788,1,0,0:0:0:0:
255,189,105863,1,0,0:0:0:0:
255,189,105938,1,8,0:0:0:0:
255,189,106013,1,8,0:0:0:0:
255,189,106088,1,0,0:0:0:0:
255,189,106163,1,8,0:0:0:0:
255,189,106238,1,0,0:0:0:0:
255,189,106313,1,0,0:0:0:0:
255,189,106388,1,8,0:0:0:0:
255,189,106463,1,8,0:0:0:0:
255,189,106538,1,0,0:0:0:0:
255,189,106613,1,0,0:0:0:0:
255,189,106688,1,8,0:0:0:0:
255,189,106763,1,0,0:0:0:0:
255,189,106838,1,8,0:0:0:0:
255,189,106913,1,0,0:0:0:0:
255,189,106988,1,0,0:0:0:0:
255,189,107063,1,0,0:0:0:0:
255,189,107138,1,8,0:0:0:0:
255,189,107213,1,8,0:0:0:0:
255,189,107288,1,8,0:0:0:0:
255,189,107363,1,8,0:0:0:0:
255,189,107438,1,0,0:0:0:0:
255,189,107513,1,0,0:0:0:0:
255,189,107588,1,8,0:0:0:0:
255,189,107663,1,0,0:0:0:0:
255,189,107738,1,0,0:0:0:0:
255,189,107813,1,0,0:0:0:0:
255,189,107888,1,8,0:0:0:0:
255,189,107963,1,0,0:0:0:0:
255,189,108038,1,8,0:0:0:0:
255,189,108113,1,8,0:0:0:0:
255,189,108188,1,0,0:0:0:0:
255,189,108263,1,0,0:0:0:0:
255,189,108338,1,8,0:0:0:0:
255,189,108413,1,8,0:0:0:0:
255,189,108488,1,0,0:0:0:0:
255,189,108563,1,8,0:0:0:0:
255,189,108638,1,0,0:0:0:0:
255,189,108713,1,0,0:0:0:0:
255,189,108788,1,8,0:0:0:0:
255,189,108863,1,8,0:0:0:0:
255,189,108938,1,0,0:0:0:0:
255,189,109013,1,0,0:0:0:0:
255,189,109088,1,0,0:0:0:0:
255,189,109163,1,0,0:0:0:0:
255,189,109238,1,8,0:0:0:0:
255,189,109313,1,0,0:0:0:0:
255,189,109388,1,0,0:0:0:0:
255,189,109463,1,0,0:0:0:0:
255,189,109538,1,8,0:0:0:0:
255,189,109613,1,8,0:0:0:0:
255,189,109688,1,0,0:0:0:0:
255,189,109838,1,12,0:0:0:0:
255,189,110138,1,4,0:0:0:0:
255,189,110288,1,8,0:0:0:0:
255,189,110363,1,8,0:0:0:0:
255,189,110438,1,0,0:0:0:0:
255,189,110588,1,8,0:0:0:0:
255,189,110738,1,0,0:0:0:0:
255,189,110813,1,0,0:0:0:0:
255,189,110888,1,8,0:0:0:0:
255,189,110963,1,0,0:0:0:0:
255,189,111038,1,8,0:0:0:0:
255,189,111113,1,8,0:0:0:0:
255,189,111188,1,0,0:0:0:0:
255,189,111338,1,8,0:0:0:0:
255,189,111488,1,0,0:0:0:0:
255,189,111563,1,0,0:0:0:0:
255,189,111638,1,8,0:0:0:0:
255,189,111713,1,8,0:0:0:0:
255,189,111788,1,0,0:0:0:0:
255,189,111938,1,8,0:0:0:0:
255,189,112013,1,8,0:0:0:0:
255,189,112088,1,0,0:0:0:0:
255,189,112163,1,8,0:0:0:0:
255,189,112238,1,0,0:0:0:0:
255,189,112313,1,0,0:0:0:0:
255,189,112388,1,8,0:0:0:0:
255,189,112538,1,0,0:0:0:0:
255,189,112688,1,8,0:0:0:0:
255,189,112763,1,8,0:0:0:0:
255,189,112838,1,0,0:0:0:0:
255,189,112988,1,8,0:0:0:0:
255,189,113138,1,0,0:0:0:0:
255,189,113213,1,0,0:0:0:0:
255,189,113288,1,8,0:0:0:0:
255,189,113363,1,8,0:0:0:0:
255,189,113438,1,0,0:0:0:0:
255,189,113588,1,8,0:0:0:0:
255,189,113738,1,0,0:0:0:0:
255,189,113888,1,8,0:0:0:0:
255,189,113963,1,8,0:0:0:0:
255,189,114038,1,0,0:0:0:0:
255,189,114113,1,0,0:0:0:0:
255,189,114188,1,8,0:0:0:0:
255,189,114338,1,0,0:0:0:0:
255,189,114413,1,8,0:0:0:0:
255,189,114488,1,0,0:0:0:0:
255,189,114563,1,0,0:0:0:0:
255,189,114638,1,8,0:0:0:0:
255,189,114713,1,0,0:0:0:0:
255,189,114788,1,8,0:0:0:0:
255,189,114938,1,4,0:0:0:0:
255,189,115163,1,8,0:0:0:0:
255,189,115238,1,0,0:0:0:0:
255,189,115388,1,8,0:0:0:0:
255,189,115538,1,0,0:0:0:0:
255,189,115613,1,0,0:0:0:0:
255,189,115688,1,8,0:0:0:0:
255,189,115763,1,8,0:0:0:0:
255,189,115838,1,0,0:0:0:0:
255,189,115988,1,8,0:0:0:0:
255,189,116138,1,0,0:0:0:0:
255,189,116288,1,8,0:0:0:0:
255,189,116363,1,0,0:0:0:0:
255,189,116438,1,0,0:0:0:0:
255,189,116513,1,0,0:0:0:0:
255,189,116588,1,8,0:0:0:0:
255,189,116738,1,0,0:0:0:0:
255,189,116888,1,8,0:0:0:0:
255,189,116963,1,8,0:0:0:0:
255,189,117038,1,0,0:0:0:0:
255,189,117113,1,0,0:0:0:0:
255,189,117188,1,8,0:0:0:0:
255,189,117338,1,0,0:0:0:0:
255,189,117488,1,8,0:0:0:0:
255,189,117563,1,8,0:0:0:0:
255,189,117638,1,0,0:0:0:0:
255,189,117788,1,8,0:0:0:0:
255,189,117863,1,0,0:0:0:0:
255,189,117938,1,8,0:0:0:0:
255,189,118013,1,8,0:0:0:0:
255,189,118088,1,0,0:0:0:0:
255,189,118163,1,8,0:0:0:0:
255,189,118238,1,0,0:0:0:0:
255,189,118388,1,12,0:0:0:0:
255,189,118688,1,12,0:0:0:0:
255,189,118988,1,12,0:0:0:0:
255,189,119288,1,12,0:0:0:0:
255,189,119438,1,12,0:0:0:0:
255,189,119588,1,12,0:0:0:0:
255,189,119738,1,4,0:0:0:0:
255,189,119888,1,8,0:0:0:0:
255,189,119963,1,8,0:0:0:0:
255,189,120038,1,0,0:0:0:0:
255,189,120113,1,0,0:0:0:0:
255,189,120188,1,8,0:0:0:0:
255,189,120338,1,0,0:0:0:0:
255,189,120413,1,8,0:0:0:0:
255,189,120488,1,0,0:0:0:0:
255,189,120563,1,0,0:0:0:0:
255,189,120638,1,8,0:0:0:0:
255,189,120713,1,8,0:0:0:0:
255,189,120788,1,0,0:0:0:0:
255,189,120938,1,8,0:0:0:0:
255,189,121088,1,0,0:0:0:0:
255,189,121163,1,0,0:0:0:0:
255,189,121238,1,8,0:0:0:0:
255,189,121313,1,8,0:0:0:0:
255,189,121388,1,0,0:0:0:0:
255,189,121538,1,8,0:0:0:0:
255,189,121613,1,0,0:0:0:0:
255,189,121688,1,8,0:0:0:0:
255,189,121763,1,8,0:0:0:0:
255,189,121838,1,0,0:0:0:0:
255,189,121913,1,0,0:0:0:0:
255,189,121988,1,8,0:0:0:0:
255,189,122138,1,0,0:0:0:0:
255,189,122288,1,8,0:0:0:0:
255,189,122363,1,8,0:0:0:0:
255,189,122438,1,0,0:0:0:0:
255,189,122513,1,0,0:0:0:0:
255,189,122588,1,8,0:0:0:0:
255,189,122738,1,0,0:0:0:0:
255,189,122888,1,8,0:0:0:0:
255,189,122963,1,0,0:0:0:0:
255,189,123038,1,0,0:0:0:0:
255,189,123113,1,0,0:0:0:0:
255,189,123188,1,8,0:0:0:0:
255,189,123263,1,8,0:0:0:0:
255,189,123338,1,0,0:0:0:0:
255,189,123488,1,8,0:0:0:0:
255,189,123563,1,8,0:0:0:0:
255,189,123638,1,0,0:0:0:0:
255,189,123788,1,8,0:0:0:0:
255,189,123938,1,0,0:0:0:0:
255,189,124013,1,0,0:0:0:0:
255,189,124088,1,8,0:0:0:0:
255,189,124163,1,8,0:0:0:0:
255,189,124238,1,0,0:0:0:0:
255,189,124388,1,8,0:0:0:0:
255,189,124538,1,4,0:0:0:0:
255,189,124763,1,8,0:0:0:0:
255,189,124838,1,0,0:0:0:0:
255,189,124988,1,8,0:0:0:0:
255,189,125138,1,0,0:0:0:0:
255,189,125213,1,0,0:0:0:0:
255,189,125288,1,8,0:0:0:0:
255,189,125363,1,8,0:0:0:0:
255,189,125438,1,0,0:0:0:0:
255,189,125588,1,8,0:0:0:0:
255,189,125738,1,4,0:0:0:0:
255,189,125888,1,8,0:0:0:0:
255,189,125963,1,0,0:0:0:0:
255,189,126038,1,0,0:0:0:0:
255,189,126188,1,12,0:0:0:0:
255,189,126488,1,0,0:0:0:0:
255,189,126563,1,0,0:0:0:0:
255,189,126638,1,8,0:0:0:0:
255,189,126713,1,8,0:0:0:0:
255,189,126788,1,8,0:0:0:0:
255,189,126863,1,8,0:0:0:0:
255,189,126938,1,0,0:0:0:0:
255,189,127088,1,8,0:0:0:0:
255,189,127238,1,0,0:0:0:0:
255,189,127388,1,8,0:0:0:0:
255,189,127463,1,0,0:0:0:0:
255,189,127538,1,8,0:0:0:0:
255,189,127613,1,8,0:0:0:0:
255,189,127688,1,0,0:0:0:0:
255,189,127763,1,8,0:0:0:0:
255,189,127838,1,0,0:0:0:0:
255,189,127913,1,0,0:0:0:0:
255,189,127988,1,8,0:0:0:0:
255,189,128063,1,8,0:0:0:0:
255,189,128138,1,0,0:0:0:0:
255,189,128213,1,0,0:0:0:0:
255,189,128288,1,0,0:0:0:0:
255,189,128363,1,0,0:0:0:0:
255,189,128438,1,8,0:0:0:0:
255,189,128513,1,0,0:0:0:0:
255,189,128588,1,0,0:0:0:0:
255,189,128663,1,0,0:0:0:0:
255,189,128738,1,8,0:0:0:0:
255,189,128813,1,8,0:0:0:0:
255,189,128888,1,0,0:0:0:0:
255,189,128963,1,8,0:0:0:0:
255,189,129038,1,0,0:0:0:0:
255,189,129113,1,0,0:0:0:0:
255,189,129188,1,8,0:0:0:0:
255,189,129263,1,8,0:0:0:0:
255,189,129338,1,0,0:0:0:0:
256,192,129488,12,0,130388,0:0:0:0:
255,189,130538,5,4,0:0:0:0:
255,189,130763,1,8,0:0:0:0:
255,189,130838,1,0,0:0:0:0:
255,189,130988,1,8,0:0:0:0:
255,189,131138,1,0,0:0:0:0:
255,189,131213,1,0,0:0:0:0:
255,189,131288,1,8,0:0:0:0:
255,189,131363,1,8,0:0:0:0:
255,189,131438,1,0,0:0:0:0:
255,189,131588,1,8,0:0:0:0:
255,189,131738,1,0,0:0:0:0:
255,189,131888,1,0,0:0:0:0:
255,189,131963,1,8,0:0:0:0:
255,189,132038,1,0,0:0:0:0:
255,189,132188,1,8,0:0:0:0:
255,189,132338,1,8,0:0:0:0:
255,189,132413,1,8,0:0:0:0:
255,189,132488,1,0,0:0:0:0:
255,189,132563,1,8,0:0:0:0:
255,189,132638,1,0,0:0:0:0:
255,189,132788,1,8,0:0:0:0:
255,189,132863,1,0,0:0:0:0:
255,189,132938,1,0,0:0:0:0:
255,189,133088,1,8,0:0:0:0:
255,189,133238,1,0,0:0:0:0:
255,189,133313,1,0,0:0:0:0:
255,189,133388,1,8,0:0:0:0:
255,189,133538,1,0,0:0:0:0:
255,189,133613,1,0,0:0:0:0:
255,189,133688,1,8,0:0:0:0:
255,189,133763,1,8,0:0:0:0:
255,189,133838,1,0,0:0:0:0:
255,189,133988,1,8,0:0:0:0:
255,189,134138,1,0,0:0:0:0:
255,189,134288,1,0,0:0:0:0:
255,189,134363,1,8,0:0:0:0:
255,189,134438,1,0,0:0:0:0:
255,189,134588,1,0,0:0:0:0:
255,189,134663,1,0,0:0:0:0:
255,189,134738,1,8,0:0:0:0:
255,189,134813,1,8,0:0:0:0:
255,189,134888,1,0,0:0:0:0:
255,189,134963,1,8,0:0:0:0:
255,189,135038,1,0,0:0:0:0:
255,189,135188,1,8,0:0:0:0:
255,189,135338,1,4,0:0:0:0:
255,189,135488,1,8,0:0:0:0:
255,189,135563,1,8,0:0:0:0:
255,189,135638,1,0,0:0:0:0:
255,189,135788,1,8,0:0:0:0:
255,189,135938,1,0,0:0:0:0:
255,189,136013,1,0,0:0:0:0:
255,189,136088,1,8,0:0:0:0:
255,189,136163,1,8,0:0:0:0:
255,189,136238,1,0,0:0:0:0:
255,189,136388,1,8,0:0:0:0:
255,189,136538,1,0,0:0:0:0:
255,189,136688,1,0,0:0:0:0:
255,189,136763,1,8,0:0:0:0:
255,189,136838,1,0,0:0:0:0:
255,189,136988,1,8,0:0:0:0:
255,189,137063,1,0,0:0:0:0:
255,189,137138,1,8,0:0:0:0:
255,189,137213,1,8,0:0:0:0:
255,189,137288,1,0,0:0:0:0:
255,189,137363,1,8,0:0:0:0:
255,189,137438,1,0,0:0:0:0:
255,189,137588,1,8,0:0:0:0:
255,189,137738,1,4,0:0:0:0:
255,189,137888,1,0,0:0:0:0:
255,189,137963,1,8,0:0:0:0:
255,189,138038,1,0,0:0:0:0:
255,189,138188,1,8,0:0:0:0:
255,189,138338,1,0,0:0:0:0:
255,189,138413,1,0,0:0:0:0:
255,189,138488,1,8,0:0:0:0:
255,189,138563,1,8,0:0:0:0:
255,189,138638,1,0,0:0:0:0:
255,189,138788,1,12,0:0:0:0:
255,189,139088,1,12,0:0:0:0:
255,189,139388,1,12,0:0:0:0:
255,189,139688,1,12,0:0:0:0:
255,189,139838,1,12,0:0:0:0:
255,189,139988,1,12,0:0:0:0:
255,189,140138,1,4,0:0:0:0:
255,189,140363,1,8,0:0:0:0:
255,189,140438,1,0,0:0:0:0:
255,189,140588,1,8,0:0:0:0:
255,189,140738,1,0,0:0:0:0:
255,189,140813,1,0,0:0:0:0:
255,189,140888,1,8,0:0:0:0:
255,189,140963,1,8,0:0:0:0:
255,189,141038,1,0,0:0:0:0:
255,189,141188,1,8,0:0:0:0:
255,189,141338,1,0,0:0:0:0:
255,189,141488,1,0,0:0:0:0:
255,189,141563,1,8,0:0:0:0:
255,189,141638,1,0,0:0:0:0:
255,189,141788,1,0,0:0:0:0:
255,189,141863,1,0,0:0:0:0:
255,189,141938,1,8,0:0:0:0:
255,189,142013,1,8,0:0:0:0:
255,189,142088,1,0,0:0:0:0:
255,189,142163,1,8,0:0:0:0:
255,189,142238,1,0,0:0:0:0:
255,189,142388,1,8,0:0:0:0:
255,189,142463,1,0,0:0:0:0:
255,189,142538,1,0,0:0:0:0:
255,189,142688,1,8,0:0:0:0:
255,189,142838,1,0,0:0:0:0:
255,189,142913,1,0,0:0:0:0:
255,189,142988,1,8,0:0:0:0:
255,189,143138,1,0,0:0:0:0:
255,189,143213,1,0,0:0:0:0:
255,189,143288,1,8,0:0:0:0:
255,189,143363,1,8,0:0:0:0:
255,189,143438,1,0,0:0:0:0:
255,189,143588,1,8,0:0:0:0:
255,189,143738,1,0,0:0:0:0:
255,189,143888,1,0,0:0:0:0:
255,189,143963,1,8,0:0:0:0:
255,189,144038,1,0,0:0:0:0:
255,189,144188,1,8,0:0:0:0:
255,189,144263,1,0,0:0:0:0:
255,189,144338,1,8,0:0:0:0:
255,189,144413,1,8,0:0:0:0:
255,189,144488,1,0,0:0:0:0:
255,189,144563,1,8,0:0:0:0:
255,189,144638,1,0,0:0:0:0:
255,189,144713,1,0,0:0:0:0:
255,189,144788,1,8,0:0:0:0:
255,189,144938,1,4,0:0:0:0:
255,189,145088,1,8,0:0:0:0:
255,189,145163,1,8,0:0:0:0:
255,189,145238,1,0,0:0:0:0:
255,189,145388,1,8,0:0:0:0:
255,189,145538,1,0,0:0:0:0:
255,189,145613,1,0,0:0:0:0:
255,189,145688,1,8,0:0:0:0:
255,189,145763,1,8,0:0:0:0:
255,189,145838,1,0,0:0:0:0:
255,189,145988,1,8,0:0:0:0:
255,189,146138,1,4,0:0:0:0:
255,189,146288,1,0,0:0:0:0:
255,189,146363,1,8,0:0:0:0:
255,189,146438,1,0,0:0:0:0:
255,189,146588,1,12,0:0:0:0:
255,189,146738,1,8,0:0:0:0:
255,189,146813,1,8,0:0:0:0:
255,189,146888,1,0,0:0:0:0:
255,189,146963,1,8,0:0:0:0:
255,189,147038,1,0,0:0:0:0:
255,189,147113,1,0,0:0:0:0:
255,189,147188,1,8,0:0:0:0:
255,189,147338,1,4,0:0:0:0:
255,189,147488,1,8,0:0:0:0:
255,189,147563,1,8,0:0:0:0:
255,189,147638,1,0,0:0:0:0:
255,189,147788,1,12,0:0:0:0:
255,189,147938,1,0,0:0:0:0:
255,189,148013,1,0,0:0:0:0:
255,189,148088,1,8,0:0:0:0:
255,189,148163,1,0,0:0:0:0:
255,189,148238,1,0,0:0:0:0:
255,189,148388,1,12,0:0:0:0:
256,192,149138,12,0,149588,0:0:0:0:
255,189,149738,5,4,0:0:0:0:
255,189,149888,1,8,0:0:0:0:
255,189,150188,1,8,0:0:0:0:
255,189,150488,1,8,0:0:0:0:
255,189,150788,1,8,0:0:0:0:
255,189,151088,1,8,0:0:0:0:
255,189,151388,1,8,0:0:0:0:
255,189,151688,1,8,0:0:0:0:
255,189,151988,1,8,0:0:0:0:
255,189,152288,1,8,0:0:0:0:
255,189,152588,1,8,0:0:0:0:
255,189,152888,1,8,0:0:0:0:
255,189,153188,1,8,0:0:0:0:
255,189,153488,1,8,0:0:0:0:
255,189,153788,1,8,0:0:0:0:
255,189,154088,1,8,0:0:0:0:
255,189,154238,1,4,0:0:0:0:
255,189,154538,1,4,0:0:0:0:
255,189,154688,1,8,0:0:0:0:
255,189,154988,1,8,0:0:0:0:
255,189,155288,1,8,0:0:0:0:
255,189,155588,1,8,0:0:0:0:
255,189,155738,1,4,0:0:0:0:
255,189,155888,1,8,0:0:0:0:
255,189,156188,1,8,0:0:0:0:
255,189,156488,1,8,0:0:0:0:
255,189,156788,1,8,0:0:0:0:
255,189,156938,1,4,0:0:0:0:
255,189,157088,1,8,0:0:0:0:
255,189,157388,1,8,0:0:0:0:
255,189,157538,1,4,0:0:0:0:
255,189,157688,1,8,0:0:0:0:
255,189,157988,1,8,0:0:0:0:
255,189,158138,1,4,0:0:0:0:
255,189,158288,5,8,0:0:0:0:
255,189,158438,1,4,0:0:0:0:
255,189,158588,1,8,0:0:0:0:
255,189,158738,1,4,0:0:0:0:
255,189,158888,1,8,0:0:0:0:
255,189,159038,1,8,0:0:0:0:
255,189,159188,1,8,0:0:0:0:
255,189,159338,5,4,0:0:0:0:
255,189,159488,5,8,0:0:0:0:
255,189,159638,1,0,0:0:0:0:
255,189,159713,1,0,0:0:0:0:
255,189,159788,1,8,0:0:0:0:
255,189,159938,1,0,0:0:0:0:
255,189,160088,1,8,0:0:0:0:
255,189,160163,1,0,0:0:0:0:
255,189,160238,1,0,0:0:0:0:
255,189,160388,1,8,0:0:0:0:
255,189,160538,1,0,0:0:0:0:
255,189,160613,1,0,0:0:0:0:
255,189,160688,1,8,0:0:0:0:
255,189,160838,1,0,0:0:0:0:
255,189,160988,1,8,0:0:0:0:
255,189,161063,1,8,0:0:0:0:
255,189,161138,1,0,0:0:0:0:
255,189,161213,1,0,0:0:0:0:
255,189,161288,1,8,0:0:0:0:
255,189,161438,1,0,0:0:0:0:
255,189,161588,1,8,0:0:0:0:
255,189,161663,1,0,0:0:0:0:
255,189,161738,1,0,0:0:0:0:
255,189,161888,1,8,0:0:0:0:
255,189,162038,1,0,0:0:0:0:
255,189,162113,1,0,0:0:0:0:
255,189,162188,1,8,0:0:0:0:
255,189,162338,1,0,0:0:0:0:
255,189,162413,1,0,0:0:0:0:
255,189,162488,1,8,0:0:0:0:
255,189,162563,1,0,0:0:0:0:
255,189,162638,1,0,0:0:0:0:
255,189,162788,1,8,0:0:0:0:
255,189,162938,1,0,0:0:0:0:
255,189,163088,1,8,0:0:0:0:
255,189,163163,1,8,0:0:0:0:
255,189,163238,1,0,0:0:0:0:
255,189,163388,1,8,0:0:0:0:
255,189,163538,1,0,0:0:0:0:
320,192,163613,1,0,0:0:0:0:
255,189,163688,1,8,0:0:0:0:
255,189,163763,1,0,0:0:0:0:
255,189,163838,1,0,0:0:0:0:
255,189,163988,1,8,0:0:0:0:
255,189,164138,1,0,0:0:0:0:
255,189,164288,1,8,0:0:0:0:
255,189,164438,1,0,0:0:0:0:
255,189,164513,1,0,0:0:0:0:
255,189,164588,1,8,0:0:0:0:
255,189,164738,1,0,0:0:0:0:
255,189,164888,1,8,0:0:0:0:
255,189,164963,1,0,0:0:0:0:
255,189,165038,1,0,0:0:0:0:
255,189,165188,1,8,0:0:0:0:
255,189,165338,1,0,0:0:0:0:
255,189,165413,1,0,0:0:0:0:
255,189,165488,1,8,0:0:0:0:
255,189,165638,1,0,0:0:0:0:
255,189,165788,1,8,0:0:0:0:
255,189,165863,1,0,0:0:0:0:
255,189,165938,1,0,0:0:0:0:
255,189,166013,1,0,0:0:0:0:
255,189,166088,1,8,0:0:0:0:
255,189,166238,1,0,0:0:0:0:
255,189,166388,1,8,0:0:0:0:
255,189,166463,1,0,0:0:0:0:
255,189,166538,1,0,0:0:0:0:
255,189,166688,1,8,0:0:0:0:
255,189,166838,1,0,0:0:0:0:
255,189,166913,1,0,0:0:0:0:
255,189,166988,1,8,0:0:0:0:
255,189,167138,1,0,0:0:0:0:
255,189,167213,1,0,0:0:0:0:
255,189,167288,1,8,0:0:0:0:
255,189,167363,1,0,0:0:0:0:
255,189,167438,1,0,0:0:0:0:
255,189,167588,1,8,0:0:0:0:
255,189,167738,1,4,0:0:0:0:
255,189,168038,1,4,0:0:0:0:
255,189,168338,1,4,0:0:0:0:
255,189,168638,1,4,0:0:0:0:
255,189,168938,1,12,0:0:0:0:
255,189,169088,1,0,0:0:0:0:
255,189,169238,1,8,0:0:0:0:
255,189,169388,1,8,0:0:0:0:
255,189,169538,1,0,0:0:0:0:
255,189,169613,1,0,0:0:0:0:
255,189,169688,1,8,0:0:0:0:
255,189,169838,1,0,0:0:0:0:
255,189,169988,1,8,0:0:0:0:
255,189,170138,1,0,0:0:0:0:
255,189,170288,1,0,0:0:0:0:
255,189,170438,1,8,0:0:0:0:
255,189,170588,1,8,0:0:0:0:
255,189,170738,1,0,0:0:0:0:
255,189,170813,1,8,0:0:0:0:
255,189,170888,1,0,0:0:0:0:
255,189,171038,1,8,0:0:0:0:
255,189,171188,1,8,0:0:0:0:
255,189,171338,1,0,0:0:0:0:
255,189,171488,1,8,0:0:0:0:
255,189,171638,1,0,0:0:0:0:
255,189,171788,1,8,0:0:0:0:
255,189,171938,1,0,0:0:0:0:
255,189,172013,1,0,0:0:0:0:
255,189,172088,1,0,0:0:0:0:
255,189,172238,1,8,0:0:0:0:
255,189,172388,1,8,0:0:0:0:
255,189,172538,1,0,0:0:0:0:
255,189,172688,1,8,0:0:0:0:
255,189,172838,1,0,0:0:0:0:
255,189,172988,1,8,0:0:0:0:
255,189,173138,1,0,0:0:0:0:
255,189,173213,1,0,0:0:0:0:
255,189,173288,1,0,0:0:0:0:
255,189,173438,1,8,0:0:0:0:
255,189,173738,1,0,0:0:0:0:
255,189,173888,1,0,0:0:0:0:
255,189,173963,1,0,0:0:0:0:
255,189,174038,1,8,0:0:0:0:
255,189,174188,1,0,0:0:0:0:
255,189,174338,1,8,0:0:0:0:
255,189,174413,1,8,0:0:0:0:
255,189,174488,1,0,0:0:0:0:
255,189,174563,1,0,0:0:0:0:
255,189,174638,1,8,0:0:0:0:
255,189,174788,1,0,0:0:0:0:
255,189,174938,1,8,0:0:0:0:
255,189,175088,1,0,0:0:0:0:
255,189,175163,1,0,0:0:0:0:
255,189,175238,1,8,0:0:0:0:
255,189,175388,1,0,0:0:0:0:
255,189,175538,1,8,0:0:0:0:
255,189,175688,1,0,0:0:0:0:
255,189,175838,1,8,0:0:0:0:
255,189,176138,1,0,0:0:0:0:
255,189,176288,1,0,0:0:0:0:
255,189,176363,1,0,0:0:0:0:
255,189,176438,1,8,0:0:0:0:
255,189,176588,1,0,0:0:0:0:
255,189,176738,1,8,0:0:0:0:
255,189,176813,1,0,0:0:0:0:
255,189,176888,1,0,0:0:0:0:
255,189,176963,1,0,0:0:0:0:
255,189,177038,1,8,0:0:0:0:
255,189,177188,1,0,0:0:0:0:
255,189,177338,1,8,0:0:0:0:
255,189,177488,1,8,0:0:0:0:
255,189,177638,1,0,0:0:0:0:
255,189,177788,1,0,0:0:0:0:
255,189,177938,1,8,0:0:0:0:
255,189,178088,1,8,0:0:0:0:
255,189,178238,1,0,0:0:0:0:
255,189,178388,1,8,0:0:0:0:
255,189,178538,1,4,0:0:0:0:
255,189,178688,1,8,0:0:0:0:
255,189,178763,1,8,0:0:0:0:
255,189,178838,1,0,0:0:0:0:
255,189,178988,1,8,0:0:0:0:
255,189,179063,1,8,0:0:0:0:
255,189,179138,1,0,0:0:0:0:
255,189,179213,1,8,0:0:0:0:
255,189,179288,1,0,0:0:0:0:
255,189,179438,1,8,0:0:0:0:
255,189,179513,1,8,0:0:0:0:
255,189,179588,1,0,0:0:0:0:
255,189,179738,1,8,0:0:0:0:
255,189,179888,1,0,0:0:0:0:
255,189,179963,1,0,0:0:0:0:
255,189,180038,1,8,0:0:0:0:
255,189,180188,1,0,0:0:0:0:
255,189,180263,1,0,0:0:0:0:
255,189,180338,1,8,0:0:0:0:
255,189,180413,1,8,0:0:0:0:
255,189,180488,1,0,0:0:0:0:
255,189,180638,1,8,0:0:0:0:
255,189,180938,1,0,0:0:0:0:
255,189,181088,1,8,0:0:0:0:
255,189,181238,1,0,0:0:0:0:
255,189,181388,1,8,0:0:0:0:
255,189,181463,1,8,0:0:0:0:
255,189,181538,1,0,0:0:0:0:
255,189,181688,1,8,0:0:0:0:
255,189,181838,1,0,0:0:0:0:
255,189,181913,1,0,0:0:0:0:
255,189,181988,1,8,0:0:0:0:
255,189,182138,1,0,0:0:0:0:
255,189,182213,1,0,0:0:0:0:
255,189,182288,1,0,0:0:0:0:
255,189,182438,1,8,0:0:0:0:
255,189,182588,1,0,0:0:0:0:
255,189,182738,1,8,0:0:0:0:
255,189,182813,1,0,0:0:0:0:
255,189,182888,1,8,0:0:0:0:
255,189,182963,1,8,0:0:0:0:
255,189,183038,1,0,0:0:0:0:
255,189,183188,1,8,0:0:0:0:
255,189,183338,1,0,0:0:0:0:
255,189,183413,1,0,0:0:0:0:
255,189,183488,1,8,0:0:0:0:
255,189,183563,1,8,0:0:0:0:
255,189,183638,1,0,0:0:0:0:
255,189,183713,1,0,0:0:0:0:
255,189,183788,1,0,0:0:0:0:
255,189,183863,1,0,0:0:0:0:
255,189,183938,1,8,0:0:0:0:
255,189,184013,1,0,0:0:0:0:
255,189,184088,1,0,0:0:0:0:
255,189,184163,1,0,0:0:0:0:
255,189,184238,1,8,0:0:0:0:
255,189,184313,1,8,0:0:0:0:
255,189,184388,1,8,0:0:0:0:
255,189,184463,1,8,0:0:0:0:
255,189,184538,1,0,0:0:0:0:
255,189,184613,1,0,0:0:0:0:
255,189,184688,1,8,0:0:0:0:
255,189,184763,1,8,0:0:0:0:
255,189,184838,1,0,0:0:0:0:
255,189,184913,1,0,0:0:0:0:
255,189,184988,1,0,0:0:0:0:
255,189,185063,1,0,0:0:0:0:
255,189,185138,1,8,0:0:0:0:
255,189,185213,1,0,0:0:0:0:
255,189,185288,1,0,0:0:0:0:
255,189,185363,1,0,0:0:0:0:
255,189,185438,1,8,0:0:0:0:
255,189,185513,1,8,0:0:0:0:
255,189,185588,1,8,0:0:0:0:
255,189,185663,1,8,0:0:0:0:
255,189,185738,1,0,0:0:0:0:
255,189,185813,1,0,0:0:0:0:
255,189,185888,1,8,0:0:0:0:
255,189,185963,1,0,0:0:0:0:
255,189,186038,1,8,0:0:0:0:
255,189,186113,1,8,0:0:0:0:
255,189,186188,1,0,0:0:0:0:
255,189,186263,1,8,0:0:0:0:
255,189,186338,1,0,0:0:0:0:
255,189,186413,1,0,0:0:0:0:
255,189,186488,1,8,0:0:0:0:
255,189,186563,1,0,0:0:0:0:
255,189,186638,1,8,0:0:0:0:
255,189,186713,1,8,0:0:0:0:
255,189,186788,1,0,0:0:0:0:
255,189,186863,1,8,0:0:0:0:
255,189,186938,1,0,0:0:0:0:
256,192,187538,12,0,187988,0:0:0:0:
255,189,188138,5,4,0:0:0:0:
255,189,188363,1,8,0:0:0:0:
255,189,188438,1,0,0:0:0:0:
255,189,188588,1,8,0:0:0:0:
255,189,188738,1,0,0:0:0:0:
255,189,188888,1,8,0:0:0:0:
255,189,188963,1,8,0:0:0:0:
255,189,189038,1,0,0:0:0:0:
255,189,189113,1,0,0:0:0:0:
255,189,189188,1,8,0:0:0:0:
255,189,189338,1,0,0:0:0:0:
255,189,189488,1,8,0:0:0:0:
255,189,189563,1,0,0:0:0:0:
255,189,189638,1,0,0:0:0:0:
255,189,189788,1,8,0:0:0:0:
255,189,189938,1,0,0:0:0:0:
255,189,190088,1,0,0:0:0:0:
255,189,190163,1,8,0:0:0:0:
255,189,190238,1,0,0:0:0:0:
255,189,190313,1,0,0:0:0:0:
255,189,190388,1,8,0:0:0:0:
255,189,190538,1,0,0:0:0:0:
255,189,190763,1,8,0:0:0:0:
255,189,190838,1,0,0:0:0:0:
255,189,190988,1,8,0:0:0:0:
255,189,191138,1,0,0:0:0:0:
255,189,191213,1,0,0:0:0:0:
255,189,191288,1,8,0:0:0:0:
255,189,191438,1,0,0:0:0:0:
255,189,191588,1,8,0:0:0:0:
255,189,191738,1,0,0:0:0:0:
255,189,191888,1,0,0:0:0:0:
255,189,191963,1,0,0:0:0:0:
255,189,192038,1,8,0:0:0:0:
255,189,192188,1,0,0:0:0:0:
255,189,192338,1,8,0:0:0:0:
255,189,192563,1,8,0:0:0:0:
255,189,192638,1,0,0:0:0:0:
255,189,192788,1,8,0:0:0:0:
255,189,192938,1,0,0:0:0:0:
255,189,193163,1,8,0:0:0:0:
255,189,193238,1,0,0:0:0:0:
255,189,193388,1,8,0:0:0:0:
255,189,193538,1,0,0:0:0:0:
255,189,193688,1,8,0:0:0:0:
255,189,193763,1,0,0:0:0:0:
255,189,193838,1,0,0:0:0:0:
255,189,193988,1,8,0:0:0:0:
255,189,194288,1,8,0:0:0:0:
255,189,194438,1,0,0:0:0:0:
255,189,194588,1,8,0:0:0:0:
255,189,194738,1,8,0:0:0:0:
255,189,195038,1,8,0:0:0:0:
255,189,195188,1,0,0:0:0:0:
255,189,195488,1,0,0:0:0:0:
255,189,195638,1,8,0:0:0:0:
255,189,195788,1,0,0:0:0:0:
255,189,195938,1,8,0:0:0:0:
255,189,196088,1,0,0:0:0:0:
255,189,196163,1,8,0:0:0:0:
255,189,196238,1,0,0:0:0:0:
255,189,196388,1,8,0:0:0:0:
255,189,196538,1,0,0:0:0:0:
255,189,196613,1,0,0:0:0:0:
255,189,196688,1,8,0:0:0:0:
255,189,196838,1,0,0:0:0:0:
255,189,196913,1,8,0:0:0:0:
255,189,196988,1,0,0:0:0:0:
255,189,197138,1,8,0:0:0:0:
255,189,197213,1,8,0:0:0:0:
255,189,197288,1,0,0:0:0:0:
255,189,197363,1,8,0:0:0:0:
255,189,197438,1,0,0:0:0:0:
255,189,197588,1,8,0:0:0:0:
255,189,197738,1,4,0:0:0:0:
255,189,197963,1,8,0:0:0:0:
255,189,198038,1,0,0:0:0:0:
255,189,198188,1,8,0:0:0:0:
255,189,198338,1,0,0:0:0:0:
255,189,198413,1,0,0:0:0:0:
255,189,198488,1,8,0:0:0:0:
255,189,198563,1,0,0:0:0:0:
255,189,198638,1,8,0:0:0:0:
255,189,198788,1,8,0:0:0:0:
255,189,198938,1,0,0:0:0:0:
255,189,199088,1,8,0:0:0:0:
255,189,199163,1,8,0:0:0:0:
255,189,199238,1,0,0:0:0:0:
255,189,199388,1,8,0:0:0:0:
256,192,199463,1,0,0:0:0:0:
255,189,199538,1,8,0:0:0:0:
255,189,199613,1,8,0:0:0:0:
255,189,199688,1,0,0:0:0:0:
255,189,199763,1,8,0:0:0:0:
255,189,199838,1,0,0:0:0:0:
255,189,199988,1,8,0:0:0:0:
255,189,200138,1,0,0:0:0:0:
255,189,200288,1,8,0:0:0:0:
255,189,200363,1,0,0:0:0:0:
255,189,200438,1,8,0:0:0:0:
256,192,200588,1,0,0:0:0:0:
255,189,200663,1,0,0:0:0:0:
255,189,200738,1,8,0:0:0:0:
255,189,200813,1,8,0:0:0:0:
255,189,200888,1,0,0:0:0:0:
256,160,200963,1,8,0:0:0:0:
255,189,201038,1,0,0:0:0:0:
256,192,201113,1,0,0:0:0:0:
255,189,201188,1,8,0:0:0:0:
255,189,201338,1,0,0:0:0:0:
255,189,201488,1,0,0:0:0:0:
255,189,201563,1,8,0:0:0:0:
255,189,201638,1,0,0:0:0:0:
255,189,201713,1,0,0:0:0:0:
255,189,201788,1,8,0:0:0:0:
256,192,201863,1,8,0:0:0:0:
255,189,201938,1,0,0:0:0:0:
255,189,202088,1,8,0:0:0:0:
255,189,202163,1,8,0:0:0:0:
255,189,202238,1,0,0:0:0:0:
256,192,202388,1,8,0:0:0:0:
255,189,202538,1,4,0:0:0:0:
256,192,202838,1,8,0:0:0:0:
255,189,202988,1,0,0:0:0:0:
255,189,203438,1,8,0:0:0:0:
256,192,203738,1,4,0:0:0:0:
255,189,204038,1,8,0:0:0:0:
255,189,204188,1,0,0:0:0:0:
256,192,204338,1,12,0:0:0:0:
256,192,204488,1,0,0:0:0:0:
256,192,204788,1,8,0:0:0:0:
255,189,204938,1,4,0:0:0:0:
256,192,205238,1,8,0:0:0:0:
256,192,205388,1,0,0:0:0:0:
256,192,205538,1,8,0:0:0:0:
256,192,205688,1,8,0:0:0:0:
256,192,205838,1,0,0:0:0:0:
255,189,205988,1,12,0:0:0:0:
255,189,206138,1,0,0:0:0:0:
255,189,206213,1,0,0:0:0:0:
255,189,206288,1,8,0:0:0:0:
255,189,206363,1,0,0:0:0:0:
255,189,206438,1,8,0:0:0:0:
255,189,206513,1,8,0:0:0:0:
255,189,206588,1,8,0:0:0:0:
255,189,206663,1,8,0:0:0:0:
255,189,206738,1,0,0:0:0:0:
255,189,206813,1,0,0:0:0:0:
255,189,206888,1,8,0:0:0:0:
255,189,206963,1,8,0:0:0:0:
255,189,207038,1,8,0:0:0:0:
255,189,207113,1,0,0:0:0:0:
255,189,207188,1,8,0:0:0:0:
255,189,207638,1,4,0:0:0:0:
255,189,207938,1,0,0:0:0:0:
255,189,208088,1,8,0:0:0:0:
255,189,208163,1,8,0:0:0:0:
255,189,208238,1,0,0:0:0:0:
255,189,208388,1,8,0:0:0:0:
255,189,208538,1,0,0:0:0:0:
255,189,208613,1,8,0:0:0:0:
255,189,208688,1,8,0:0:0:0:
255,189,208838,1,0,0:0:0:0:
255,189,208988,1,8,0:0:0:0:
255,189,209138,1,0,0:0:0:0:
255,189,209213,1,0,0:0:0:0:
255,189,209288,1,8,0:0:0:0:
255,189,209363,1,8,0:0:0:0:
255,189,209438,1,0,0:0:0:0:
255,189,209588,1,8,0:0:0:0:
255,189,210038,1,4,0:0:0:0:
255,189,210338,1,0,0:0:0:0:
255,189,210488,1,8,0:0:0:0:
255,189,210563,1,0,0:0:0:0:
255,189,210638,1,0,0:0:0:0:
255,189,210788,1,8,0:0:0:0:
255,189,210938,1,0,0:0:0:0:
255,189,211013,1,8,0:0:0:0:
255,189,211088,1,8,0:0:0:0:
255,189,211163,1,8,0:0:0:0:
255,189,211238,1,0,0:0:0:0:
255,189,211388,1,8,0:0:0:0:
255,189,211538,1,0,0:0:0:0:
255,189,211613,1,8,0:0:0:0:
255,189,211688,1,0,0:0:0:0:
255,189,211763,1,0,0:0:0:0:
255,189,211838,1,8,0:0:0:0:
255,189,211913,1,0,0:0:0:0:
255,189,211988,1,8,0:0:0:0:
255,189,212138,1,4,0:0:0:0:
255,189,212288,1,8,0:0:0:0:
255,189,212363,1,8,0:0:0:0:
255,189,212438,1,0,0:0:0:0:
255,189,212588,1,8,0:0:0:0:
255,189,212738,1,0,0:0:0:0:
255,189,212813,1,8,0:0:0:0:
255,189,212888,1,0,0:0:0:0:
255,189,212963,1,0,0:0:0:0:
255,189,213038,1,8,0:0:0:0:
255,189,213188,1,0,0:0:0:0:
255,189,213338,1,8,0:0:0:0:
255,189,213413,1,0,0:0:0:0:
255,189,213488,1,0,0:0:0:0:
255,189,213638,1,8,0:0:0:0:
255,189,213713,1,8,0:0:0:0:
255,189,213788,1,0,0:0:0:0:
255,189,213863,1,0,0:0:0:0:
255,189,213938,1,8,0:0:0:0:
255,189,214088,1,0,0:0:0:0:
255,189,214163,1,0,0:0:0:0:
255,189,214238,1,0,0:0:0:0:
255,189,214388,1,8,0:0:0:0:
255,189,214538,1,4,0:0:0:0:
255,189,214688,1,8,0:0:0:0:
255,189,214763,1,8,0:0:0:0:
255,189,214838,1,0,0:0:0:0:
255,189,214988,1,8,0:0:0:0:
255,189,215138,1,0,0:0:0:0:
255,189,215213,1,0,0:0:0:0:
255,189,215288,1,8,0:0:0:0:
255,189,215438,1,0,0:0:0:0:
255,189,215513,1,8,0:0:0:0:
255,189,215588,1,0,0:0:0:0:
255,189,215738,1,8,0:0:0:0:
255,189,215888,1,0,0:0:0:0:
255,189,215963,1,0,0:0:0:0:
255,189,216038,1,0,0:0:0:0:
255,189,216188,1,8,0:0:0:0:
255,189,216338,1,0,0:0:0:0:
255,189,216413,1,0,0:0:0:0:
255,189,216488,1,8,0:0:0:0:
255,189,216563,1,8,0:0:0:0:
255,189,216638,1,0,0:0:0:0:
255,189,216788,1,8,0:0:0:0:
255,189,216938,1,0,0:0:0:0:
255,189,217013,1,0,0:0:0:0:
255,189,217088,1,0,0:0:0:0:
255,189,217163,1,0,0:0:0:0:
255,189,217238,1,8,0:0:0:0:
255,189,217313,1,0,0:0:0:0:
255,189,217388,1,0,0:0:0:0:
255,189,217463,1,0,0:0:0:0:
255,189,217538,1,8,0:0:0:0:
255,189,217613,1,0,0:0:0:0:
255,189,217688,1,8,0:0:0:0:
255,189,217763,1,8,0:0:0:0:
255,189,217838,1,0,0:0:0:0:
255,189,217913,1,0,0:0:0:0:
255,189,217988,1,8,0:0:0:0:
255,189,218063,1,8,0:0:0:0:
255,189,218138,1,0,0:0:0:0:
255,189,218213,1,0,0:0:0:0:
255,189,218288,1,0,0:0:0:0:
255,189,218363,1,0,0:0:0:0:
255,189,218438,1,8,0:0:0:0:
255,189,218513,1,0,0:0:0:0:
255,189,218588,1,0,0:0:0:0:
255,189,218663,1,0,0:0:0:0:
255,189,218738,1,8,0:0:0:0:
255,189,218813,1,8,0:0:0:0:
255,189,218888,1,8,0:0:0:0:
255,189,218963,1,8,0:0:0:0:
255,189,219038,1,0,0:0:0:0:
255,189,219113,1,8,0:0:0:0:
255,189,219188,1,8,0:0:0:0:
255,189,219263,1,8,0:0:0:0:
255,189,219338,1,0,0:0:0:0:
255,189,219413,1,0,0:0:0:0:
255,189,219488,1,0,0:0:0:0:
255,189,219563,1,0,0:0:0:0:
255,189,219638,1,8,0:0:0:0:
255,189,219713,1,0,0:0:0:0:
255,189,219788,1,8,0:0:0:0:
255,189,219863,1,8,0:0:0:0:
255,189,219938,1,0,0:0:0:0:
255,189,220013,1,8,0:0:0:0:
255,189,220088,1,0,0:0:0:0:
255,189,220163,1,0,0:0:0:0:
255,189,220238,1,8,0:0:0:0:
255,189,220313,1,0,0:0:0:0:
255,189,220388,1,8,0:0:0:0:
255,189,220463,1,8,0:0:0:0:
255,189,220538,1,0,0:0:0:0:
255,189,220613,5,0,0:0:0:0:
255,189,220688,1,0,0:0:0:0:
255,189,220763,1,0,0:0:0:0:
255,189,220838,1,8,0:0:0:0:
255,189,220913,1,8,0:0:0:0:
255,189,220988,1,8,0:0:0:0:
255,189,221063,1,8,0:0:0:0:
255,189,221138,1,0,0:0:0:0:
255,189,221213,1,8,0:0:0:0:
255,189,221288,1,0,0:0:0:0:
255,189,221363,1,0,0:0:0:0:
255,189,221438,1,8,0:0:0:0:
255,189,221738,5,4,0:0:0:0:
255,189,221888,1,8,0:0:0:0:
255,189,221963,1,8,0:0:0:0:
255,189,222038,1,0,0:0:0:0:
255,189,222188,1,8,0:0:0:0:
255,189,222338,1,0,0:0:0:0:
255,189,222413,1,0,0:0:0:0:
255,189,222488,1,8,0:0:0:0:
255,189,222563,1,0,0:0:0:0:
255,189,222638,1,0,0:0:0:0:
255,189,222788,1,8,0:0:0:0:
255,189,222863,1,8,0:0:0:0:
255,189,222938,1,0,0:0:0:0:
255,189,223088,1,0,0:0:0:0:
255,189,223163,1,8,0:0:0:0:
255,189,223238,1,0,0:0:0:0:
256,192,223313,1,0,0:0:0:0:
255,189,223388,1,8,0:0:0:0:
255,189,223463,1,0,0:0:0:0:
255,189,223538,1,8,0:0:0:0:
255,189,223688,1,8,0:0:0:0:
255,189,223763,1,8,0:0:0:0:
255,189,223838,1,0,0:0:0:0:
255,189,223988,1,0,0:0:0:0:
256,192,224063,1,0,0:0:0:0:
255,189,224138,1,8,0:0:0:0:
256,192,224213,1,0,0:0:0:0:
255,189,224288,1,0,0:0:0:0:
255,189,224363,1,0,0:0:0:0:
255,189,224438,1,8,0:0:0:0:
256,192,224513,1,0,0:0:0:0:
255,189,224588,1,8,0:0:0:0:
256,192,224663,1,8,0:0:0:0:
255,189,224738,1,0,0:0:0:0:
255,189,224888,1,8,0:0:0:0:
255,189,224963,1,8,0:0:0:0:
255,189,225038,1,0,0:0:0:0:
255,189,225113,1,0,0:0:0:0:
255,189,225188,1,8,0:0:0:0:
255,189,225263,1,8,0:0:0:0:
255,189,225338,1,0,0:0:0:0:
255,189,225488,1,0,0:0:0:0:
255,189,225563,1,8,0:0:0:0:
255,189,225638,1,0,0:0:0:0:
255,189,225788,1,8,0:0:0:0:
255,189,225938,1,8,0:0:0:0:
255,189,226013,1,8,0:0:0:0:
255,189,226088,1,0,0:0:0:0:
255,189,226163,1,0,0:0:0:0:
255,189,226238,1,8,0:0:0:0:
255,189,226313,1,0,0:0:0:0:
255,189,226388,1,0,0:0:0:0:
255,189,226538,1,12,0:0:0:0:
255,189,226763,1,8,0:0:0:0:
255,189,226838,1,0,0:0:0:0:
255,189,226988,1,8,0:0:0:0:
255,189,227138,1,0,0:0:0:0:
255,189,227213,1,0,0:0:0:0:
255,189,227288,1,8,0:0:0:0:
255,189,227363,1,8,0:0:0:0:
255,189,227438,1,0,0:0:0:0:
255,189,227588,1,12,0:0:0:0:
255,189,227738,1,0,0:0:0:0:
255,189,227888,1,8,0:0:0:0:
255,189,227963,1,8,0:0:0:0:
255,189,228038,1,0,0:0:0:0:
255,189,228188,1,8,0:0:0:0:
256,192,228338,1,0,0:0:0:0:
256,192,228413,1,0,0:0:0:0:
255,189,228488,1,8,0:0:0:0:
255,189,228563,1,8,0:0:0:0:
255,189,228638,1,0,0:0:0:0:
255,189,228788,1,8,0:0:0:0:
255,189,228938,1,4,0:0:0:0:
255,189,229088,1,8,0:0:0:0:
255,189,229163,1,8,0:0:0:0:
255,189,229238,1,0,0:0:0:0:
255,189,229388,1,8,0:0:0:0:
255,189,229463,1,0,0:0:0:0:
255,189,229538,1,8,0:0:0:0:
255,189,229613,1,8,0:0:0:0:
255,189,229688,1,0,0:0:0:0:
255,189,229763,1,8,0:0:0:0:
255,189,229838,1,0,0:0:0:0:
255,189,229988,1,12,0:0:0:0:
255,189,230288,1,12,0:0:0:0:
255,189,230588,1,12,0:0:0:0:
255,189,230888,1,12,0:0:0:0:
255,189,231038,1,4,0:0:0:0:
255,189,231188,1,12,0:0:0:0:
255,189,231338,1,4,0:0:0:0:
255,189,231488,1,8,0:0:0:0:
255,189,231563,1,8,0:0:0:0:
255,189,231638,1,0,0:0:0:0:
255,189,231788,1,8,0:0:0:0:
255,189,231938,1,0,0:0:0:0:
255,189,232013,1,0,0:0:0:0:
255,189,232088,1,8,0:0:0:0:
255,189,232163,1,0,0:0:0:0:
255,189,232238,1,0,0:0:0:0:
255,189,232388,1,8,0:0:0:0:
255,189,232463,1,8,0:0:0:0:
255,189,232538,1,0,0:0:0:0:
255,189,232688,1,0,0:0:0:0:
255,189,232763,1,8,0:0:0:0:
255,189,232838,1,0,0:0:0:0:
256,192,232913,1,0,0:0:0:0:
255,189,232988,1,8,0:0:0:0:
255,189,233063,1,0,0:0:0:0:
255,189,233138,1,8,0:0:0:0:
255,189,233288,1,8,0:0:0:0:
255,189,233363,1,8,0:0:0:0:
255,189,233438,1,0,0:0:0:0:
255,189,233588,1,8,0:0:0:0:
256,192,233663,1,8,0:0:0:0:
255,189,233738,1,0,0:0:0:0:
256,192,233813,1,0,0:0:0:0:
255,189,233888,1,0,0:0:0:0:
255,189,233963,1,0,0:0:0:0:
255,189,234038,1,8,0:0:0:0:
256,192,234113,1,0,0:0:0:0:
255,189,234188,1,8,0:0:0:0:
256,192,234263,1,8,0:0:0:0:
255,189,234338,1,0,0:0:0:0:
255,189,234488,1,8,0:0:0:0:
255,189,234563,1,0,0:0:0:0:
255,189,234638,1,8,0:0:0:0:
255,189,234713,1,0,0:0:0:0:
255,189,234788,1,8,0:0:0:0:
255,189,234863,1,8,0:0:0:0:
255,189,234938,1,0,0:0:0:0:
255,189,235088,1,0,0:0:0:0:
255,189,235163,1,8,0:0:0:0:
255,189,235238,1,0,0:0:0:0:
255,189,235388,1,8,0:0:0:0:
255,189,235538,1,8,0:0:0:0:
255,189,235613,1,8,0:0:0:0:
255,189,235688,1,0,0:0:0:0:
255,189,235763,1,0,0:0:0:0:
255,189,235838,1,8,0:0:0:0:
255,189,235913,1,0,0:0:0:0:
255,189,235988,1,0,0:0:0:0:
255,189,236138,1,12,0:0:0:0:
255,189,236363,1,8,0:0:0:0:
255,189,236438,1,0,0:0:0:0:
255,189,236588,1,8,0:0:0:0:
255,189,236738,1,0,0:0:0:0:
255,189,236813,1,0,0:0:0:0:
255,189,236888,1,8,0:0:0:0:
255,189,236963,1,8,0:0:0:0:
255,189,237038,1,0,0:0:0:0:
255,189,237188,1,8,0:0:0:0:
255,189,237338,1,4,0:0:0:0:
255,189,237488,1,8,0:0:0:0:
255,189,237563,1,8,0:0:0:0:
255,189,237638,1,0,0:0:0:0:
255,189,237788,1,12,0:0:0:0:
256,192,237938,1,0,0:0:0:0:
256,192,238088,1,0,0:0:0:0:
256,192,238163,1,8,0:0:0:0:
256,192,238238,1,0,0:0:0:0:
256,192,238313,1,0,0:0:0:0:
256,192,238388,1,8,0:0:0:0:
256,192,238538,1,4,0:0:0:0:
255,189,238688,1,8,0:0:0:0:
255,189,238838,1,0,0:0:0:0:
255,189,238988,1,8,0:0:0:0:
255,189,239063,1,8,0:0:0:0:
255,189,239138,1,0,0:0:0:0:
255,189,239213,1,0,0:0:0:0:
255,189,239288,1,8,0:0:0:0:
255,189,239363,1,0,0:0:0:0:
255,189,239438,1,0,0:0:0:0:
255,189,239513,1,0,0:0:0:0:
255,189,239588,1,8,0:0:0:0:
255,189,239663,1,8,0:0:0:0:
255,189,239738,1,0,0:0:0:0:
255,189,239813,1,0,0:0:0:0:
255,189,239888,1,8,0:0:0:0:
255,189,239963,1,0,0:0:0:0:
255,189,240038,1,8,0:0:0:0:
255,189,240113,1,8,0:0:0:0:
255,189,240188,1,8,0:0:0:0:
255,189,240263,1,0,0:0:0:0:
255,189,240338,1,8,0:0:0:0:
255,189,240413,1,0,0:0:0:0:
255,189,240488,1,8,0:0:0:0:
255,189,240563,1,8,0:0:0:0:
255,189,240638,1,0,0:0:0:0:
255,189,240713,1,0,0:0:0:0:
255,189,240788,1,0,0:0:0:0:
255,189,240863,1,0,0:0:0:0:
255,189,240938,1,8,0:0:0:0:
256,192,241088,12,0,241988,0:0:0:0:
255,189,242138,5,4,0:0:0:0:
255,189,246938,1,4,0:0:0:0:
255,189,248138,1,4,0:0:0:0:
255,189,249338,1,4,0:0:0:0:
255,189,249938,1,4,0:0:0:0:
255,189,250538,1,4,0:0:0:0:
255,189,250838,1,0,0:0:0:0:
255,189,250988,1,8,0:0:0:0:
255,189,251138,1,0,0:0:0:0:
255,189,251288,1,8,0:0:0:0:
255,189,251363,1,8,0:0:0:0:
255,189,251438,1,0,0:0:0:0:
255,189,251513,1,0,0:0:0:0:
255,189,251588,1,8,0:0:0:0:
255,189,251663,1,8,0:0:0:0:
255,189,252038,1,4,0:0:0:0:
255,189,252188,1,8,0:0:0:0:
255,189,252338,1,0,0:0:0:0:
255,189,252413,1,0,0:0:0:0:
255,189,252488,1,8,0:0:0:0:
255,189,252638,1,0,0:0:0:0:
255,189,252788,1,8,0:0:0:0:
255,189,252938,1,0,0:0:0:0:
255,189,253088,1,8,0:0:0:0:
255,189,253163,1,8,0:0:0:0:
255,189,253238,1,0,0:0:0:0:
255,189,253388,1,8,0:0:0:0:
255,189,253538,1,0,0:0:0:0:
255,189,253613,1,0,0:0:0:0:
255,189,253688,1,8,0:0:0:0:
255,189,253763,1,8,0:0:0:0:
255,189,253838,1,0,0:0:0:0:
255,189,253988,1,8,0:0:0:0:
255,189,254138,1,0,0:0:0:0:
255,189,254288,1,8,0:0:0:0:
255,189,254363,1,8,0:0:0:0:
255,189,254438,1,0,0:0:0:0:
255,189,254513,1,0,0:0:0:0:
255,189,254588,1,8,0:0:0:0:
255,189,254738,1,0,0:0:0:0:
255,189,254888,1,8,0:0:0:0:
255,189,254963,1,0,0:0:0:0:
255,189,255038,1,0,0:0:0:0:
255,189,255188,1,8,0:0:0:0:
255,189,255338,1,0,0:0:0:0:
255,189,255488,1,8,0:0:0:0:
255,189,255563,1,8,0:0:0:0:
255,189,255638,1,0,0:0:0:0:
255,189,255788,1,8,0:0:0:0:
255,189,255938,1,0,0:0:0:0:
255,189,256013,1,0,0:0:0:0:
255,189,256088,1,8,0:0:0:0:
255,189,256163,1,8,0:0:0:0:
255,189,256238,1,0,0:0:0:0:
255,189,256388,1,8,0:0:0:0:
255,189,256538,1,0,0:0:0:0:
255,189,256763,1,8,0:0:0:0:
255,189,256838,1,0,0:0:0:0:
255,189,256988,1,8,0:0:0:0:
255,189,257138,1,0,0:0:0:0:
255,189,257213,1,0,0:0:0:0:
255,189,257288,1,8,0:0:0:0:
255,189,257438,1,0,0:0:0:0:
255,189,257588,1,8,0:0:0:0:
255,189,257738,1,0,0:0:0:0:
255,189,257888,1,8,0:0:0:0:
255,189,257963,1,0,0:0:0:0:
255,189,258038,1,0,0:0:0:0:
255,189,258188,1,8,0:0:0:0:
255,189,258488,1,0,0:0:0:0:
255,189,258563,1,0,0:0:0:0:
255,189,258638,1,8,0:0:0:0:
255,189,258713,1,0,0:0:0:0:
255,189,258788,1,8,0:0:0:0:
255,189,258938,1,0,0:0:0:0:
255,189,259088,1,8,0:0:0:0:
255,189,259238,1,0,0:0:0:0:
255,189,259388,1,8,0:0:0:0:
255,189,259463,1,0,0:0:0:0:
255,189,259538,1,8,0:0:0:0:
255,189,259613,1,8,0:0:0:0:
255,189,259688,1,0,0:0:0:0:
255,189,259763,1,8,0:0:0:0:
255,189,259838,1,0,0:0:0:0:
255,189,259913,1,0,0:0:0:0:
255,189,259988,1,8,0:0:0:0:
255,189,260063,1,8,0:0:0:0:
255,189,260138,1,0,0:0:0:0:
255,189,260213,1,0,0:0:0:0:
255,189,260288,1,0,0:0:0:0:
255,189,260363,1,0,0:0:0:0:
255,189,260438,1,8,0:0:0:0:
255,189,260513,1,0,0:0:0:0:
255,189,260588,1,0,0:0:0:0:
255,189,260663,1,0,0:0:0:0:
255,189,260738,1,8,0:0:0:0:
255,189,260813,1,8,0:0:0:0:
255,189,260888,1,0,0:0:0:0:
255,189,260963,1,8,0:0:0:0:
255,189,261038,1,0,0:0:0:0:
255,189,261113,1,0,0:0:0:0:
255,189,261188,1,8,0:0:0:0:
255,189,261263,1,8,0:0:0:0:
255,189,261338,1,0,0:0:0:0:
256,192,261488,12,0,262388,0:0:0:0:
255,189,262538,5,4,0:0:0:0:
255,189,262688,1,8,0:0:0:0:
255,189,262763,1,8,0:0:0:0:
255,189,262838,1,0,0:0:0:0:
255,189,262988,1,8,0:0:0:0:
255,189,263138,1,0,0:0:0:0:
255,189,263213,1,0,0:0:0:0:
255,189,263288,1,8,0:0:0:0:
255,189,263363,1,8,0:0:0:0:
255,189,263438,1,0,0:0:0:0:
255,189,263588,1,8,0:0:0:0:
255,189,263738,1,0,0:0:0:0:
255,189,263888,1,8,0:0:0:0:
255,189,263963,1,8,0:0:0:0:
255,189,264038,1,0,0:0:0:0:
255,189,264188,1,8,0:0:0:0:
255,189,264263,1,0,0:0:0:0:
255,189,264338,1,8,0:0:0:0:
255,189,264413,1,8,0:0:0:0:
255,189,264488,1,0,0:0:0:0:
256,192,264563,1,8,0:0:0:0:
255,189,264638,1,0,0:0:0:0:
255,189,264788,1,8,0:0:0:0:
255,189,264863,1,0,0:0:0:0:
255,189,264938,1,0,0:0:0:0:
255,189,265088,1,8,0:0:0:0:
255,189,265238,1,0,0:0:0:0:
255,189,265313,1,0,0:0:0:0:
255,189,265388,1,8,0:0:0:0:
255,189,265538,1,0,0:0:0:0:
255,189,265613,1,0,0:0:0:0:
255,189,265688,1,8,0:0:0:0:
255,189,265763,1,8,0:0:0:0:
255,189,265838,1,0,0:0:0:0:
256,192,265913,1,0,0:0:0:0:
255,189,265988,1,8,0:0:0:0:
255,189,266138,1,0,0:0:0:0:
255,189,266288,1,8,0:0:0:0:
255,189,266363,1,8,0:0:0:0:
255,189,266438,1,0,0:0:0:0:
255,189,266588,1,0,0:0:0:0:
256,192,266663,1,0,0:0:0:0:
255,189,266738,1,8,0:0:0:0:
256,192,266813,1,8,0:0:0:0:
255,189,266888,1,0,0:0:0:0:
255,189,266963,1,8,0:0:0:0:
255,189,267038,1,0,0:0:0:0:
255,189,267188,1,8,0:0:0:0:
256,192,267263,1,8,0:0:0:0:
255,189,267338,1,0,0:0:0:0:
255,189,267488,1,8,0:0:0:0:
255,189,267563,1,0,0:0:0:0:
255,189,267638,1,0,0:0:0:0:
255,189,267788,1,8,0:0:0:0:
255,189,267938,1,0,0:0:0:0:
255,189,268013,1,0,0:0:0:0:
255,189,268088,1,8,0:0:0:0:
255,189,268163,1,8,0:0:0:0:
255,189,268238,1,0,0:0:0:0:
255,189,268388,1,8,0:0:0:0:
255,189,268538,1,0,0:0:0:0:
255,189,268688,1,8,0:0:0:0:
255,189,268763,1,0,0:0:0:0:
255,189,268838,1,0,0:0:0:0:
255,189,268988,1,8,0:0:0:0:
255,189,269063,1,0,0:0:0:0:
255,189,269138,1,8,0:0:0:0:
255,189,269213,1,8,0:0:0:0:
255,189,269288,1,0,0:0:0:0:
255,189,269363,1,8,0:0:0:0:
255,189,269438,1,0,0:0:0:0:
255,189,269588,1,8,0:0:0:0:
255,189,269663,1,8,0:0:0:0:
255,189,269738,1,0,0:0:0:0:
255,189,269888,1,8,0:0:0:0:
255,189,270038,1,0,0:0:0:0:
255,189,270113,1,0,0:0:0:0:
255,189,270188,1,8,0:0:0:0:
255,189,270338,1,0,0:0:0:0:
255,189,270413,1,0,0:0:0:0:
255,189,270488,1,8,0:0:0:0:
255,189,270563,1,8,0:0:0:0:
255,189,270638,1,0,0:0:0:0:
255,189,270788,1,12,0:0:0:0:
255,189,271088,1,12,0:0:0:0:
255,189,271388,1,12,0:0:0:0:
255,189,271538,1,0,0:0:0:0:
255,189,271613,1,0,0:0:0:0:
255,189,271688,1,0,0:0:0:0:
255,189,271763,1,0,0:0:0:0:
255,189,271838,1,8,0:0:0:0:
255,189,271913,1,8,0:0:0:0:
255,189,271988,1,8,0:0:0:0:
255,189,272138,1,4,0:0:0:0:
255,189,272288,1,8,0:0:0:0:
255,189,272363,1,8,0:0:0:0:
255,189,272438,1,0,0:0:0:0:
255,189,272588,1,8,0:0:0:0:
255,189,272738,1,0,0:0:0:0:
255,189,272813,1,0,0:0:0:0:
255,189,272888,1,8,0:0:0:0:
255,189,272963,1,0,0:0:0:0:
255,189,273038,1,8,0:0:0:0:
256,192,273113,1,8,0:0:0:0:
255,189,273188,1,8,0:0:0:0:
255,189,273338,1,0,0:0:0:0:
255,189,273488,1,8,0:0:0:0:
255,189,273563,1,8,0:0:0:0:
255,189,273638,1,0,0:0:0:0:
255,189,273788,1,8,0:0:0:0:
255,189,273863,1,0,0:0:0:0:
255,189,273938,1,8,0:0:0:0:
255,189,274013,1,8,0:0:0:0:
255,189,274088,1,0,0:0:0:0:
256,192,274163,1,8,0:0:0:0:
255,189,274238,1,0,0:0:0:0:
255,189,274388,1,8,0:0:0:0:
255,189,274463,1,0,0:0:0:0:
255,189,274538,1,0,0:0:0:0:
255,189,274688,1,8,0:0:0:0:
255,189,274838,1,0,0:0:0:0:
255,189,274913,1,0,0:0:0:0:
255,189,274988,1,8,0:0:0:0:
255,189,275138,1,0,0:0:0:0:
255,189,275213,1,0,0:0:0:0:
255,189,275288,1,8,0:0:0:0:
255,189,275363,1,8,0:0:0:0:
255,189,275438,1,0,0:0:0:0:
256,192,275513,1,0,0:0:0:0:
255,189,275588,1,8,0:0:0:0:
255,189,275738,1,0,0:0:0:0:
255,189,275888,1,8,0:0:0:0:
255,189,275963,1,8,0:0:0:0:
255,189,276038,1,0,0:0:0:0:
255,189,276188,1,0,0:0:0:0:
256,192,276263,1,0,0:0:0:0:
255,189,276338,1,8,0:0:0:0:
256,192,276413,1,8,0:0:0:0:
255,189,276488,1,0,0:0:0:0:
255,189,276563,1,8,0:0:0:0:
255,189,276638,1,0,0:0:0:0:
255,189,276788,1,8,0:0:0:0:
256,192,276863,1,8,0:0:0:0:
255,189,276938,1,0,0:0:0:0:
255,189,277013,1,0,0:0:0:0:
255,189,277088,1,8,0:0:0:0:
255,189,277163,1,0,0:0:0:0:
255,189,277238,1,8,0:0:0:0:
255,189,277313,1,0,0:0:0:0:
255,189,277388,1,0,0:0:0:0:
255,189,277463,1,0,0:0:0:0:
255,189,277538,1,8,0:0:0:0:
255,189,277613,1,8,0:0:0:0:
255,189,277688,1,0,0:0:0:0:
255,189,277763,1,8,0:0:0:0:
255,189,277838,1,0,0:0:0:0:
255,189,277913,1,0,0:0:0:0:
255,189,277988,1,8,0:0:0:0:
255,189,278063,1,8,0:0:0:0:
255,189,278138,1,0,0:0:0:0:
255,189,278213,1,0,0:0:0:0:
255,189,278288,1,8,0:0:0:0:
255,189,278363,1,0,0:0:0:0:
255,189,278438,1,0,0:0:0:0:
255,189,278513,1,0,0:0:0:0:
255,189,278588,1,8,0:0:0:0:
255,189,278663,1,0,0:0:0:0:
255,189,278738,1,8,0:0:0:0:
255,189,278813,1,0,0:0:0:0:
255,189,278888,1,0,0:0:0:0:
255,189,278963,1,8,0:0:0:0:
255,189,279038,1,0,0:0:0:0:
255,189,279113,1,0,0:0:0:0:
255,189,279188,1,8,0:0:0:0:
255,189,279263,1,8,0:0:0:0:
255,189,279338,1,0,0:0:0:0:
255,189,279413,1,0,0:0:0:0:
255,189,279488,1,8,0:0:0:0:
255,189,279563,1,0,0:0:0:0:
255,189,279638,1,0,0:0:0:0:
255,189,279713,1,0,0:0:0:0:
255,189,279788,1,8,0:0:0:0:
255,189,279863,1,0,0:0:0:0:
255,189,279938,1,8,0:0:0:0:
255,189,280013,1,8,0:0:0:0:
255,189,280088,1,8,0:0:0:0:
255,189,280163,1,8,0:0:0:0:
255,189,280238,1,0,0:0:0:0:
255,189,280313,1,0,0:0:0:0:
255,189,280388,1,8,0:0:0:0:
255,189,280463,1,8,0:0:0:0:
256,192,281138,8,8,281588,0:0:0:0:
255,189,281738,5,4,0:0:0:0:
255,189,281888,1,8,0:0:0:0:
255,189,282038,1,0,0:0:0:0:
255,189,282113,1,0,0:0:0:0:
255,189,282188,1,8,0:0:0:0:
255,189,282263,1,8,0:0:0:0:
255,189,282338,1,0,0:0:0:0:
255,189,282488,1,8,0:0:0:0:
255,189,282638,1,0,0:0:0:0:
255,189,282713,1,0,0:0:0:0:
255,189,282788,1,8,0:0:0:0:
255,189,282938,1,0,0:0:0:0:
255,189,283088,1,8,0:0:0:0:
255,189,283163,1,8,0:0:0:0:
255,189,283238,1,0,0:0:0:0:
255,189,283313,1,0,0:0:0:0:
255,189,283388,1,8,0:0:0:0:
255,189,283538,1,0,0:0:0:0:
255,189,283688,1,8,0:0:0:0:
255,189,283838,1,0,0:0:0:0:
255,189,283913,1,0,0:0:0:0:
255,189,283988,1,8,0:0:0:0:
255,189,284138,1,0,0:0:0:0:
255,189,284288,1,8,0:0:0:0:
255,189,284438,1,0,0:0:0:0:
255,189,284513,1,0,0:0:0:0:
255,189,284588,1,8,0:0:0:0:
255,189,284663,1,8,0:0:0:0:
255,189,284738,1,0,0:0:0:0:
255,189,284888,1,8,0:0:0:0:
255,189,285038,1,0,0:0:0:0:
255,189,285113,1,0,0:0:0:0:
255,189,285188,1,8,0:0:0:0:
255,189,285338,1,0,0:0:0:0:
255,189,285488,1,8,0:0:0:0:
255,189,285563,1,8,0:0:0:0:
255,189,285638,1,0,0:0:0:0:
255,189,285713,1,0,0:0:0:0:
255,189,285788,1,8,0:0:0:0:
255,189,285938,1,0,0:0:0:0:
255,189,286088,1,8,0:0:0:0:
255,189,286238,1,0,0:0:0:0:
255,189,286313,1,0,0:0:0:0:
255,189,286388,1,8,0:0:0:0:
255,189,286463,1,8,0:0:0:0:
255,189,286538,1,0,0:0:0:0:
255,189,286763,1,0,0:0:0:0:
255,189,286838,1,8,0:0:0:0:
255,189,286988,1,0,0:0:0:0:
255,189,287138,1,8,0:0:0:0:
255,189,287213,1,8,0:0:0:0:
255,189,287288,1,0,0:0:0:0:
255,189,287438,1,8,0:0:0:0:
255,189,287588,1,0,0:0:0:0:
255,189,287663,1,0,0:0:0:0:
255,189,287738,1,0,0:0:0:0:
255,189,287888,1,8,0:0:0:0:
255,189,288038,1,0,0:0:0:0:
255,189,288113,1,0,0:0:0:0:
255,189,288188,1,8,0:0:0:0:
255,189,288338,1,0,0:0:0:0:
255,189,288488,1,8,0:0:0:0:
255,189,288563,1,8,0:0:0:0:
255,189,288638,1,0,0:0:0:0:
255,189,288713,1,0,0:0:0:0:
255,189,288788,1,8,0:0:0:0:
255,189,288938,1,0,0:0:0:0:
255,189,289163,5,0,0:0:0:0:
255,189,289238,1,8,0:0:0:0:
255,189,289388,1,0,0:0:0:0:
255,189,289538,1,8,0:0:0:0:
255,189,289613,1,0,0:0:0:0:
255,189,289688,1,0,0:0:0:0:
255,189,289838,1,8,0:0:0:0:
255,189,289988,1,0,0:0:0:0:
255,189,290063,1,0,0:0:0:0:
255,189,290138,1,0,0:0:0:0:
255,189,290288,1,8,0:0:0:0:
255,189,290363,1,0,0:0:0:0:
255,189,290438,1,8,0:0:0:0:
255,189,290513,1,0,0:0:0:0:
255,189,290588,1,8,0:0:0:0:
255,189,290738,1,0,0:0:0:0:
255,189,290888,1,8,0:0:0:0:
255,189,290963,1,0,0:0:0:0:
255,189,291038,1,8,0:0:0:0:
255,189,291338,1,4,0:0:0:0:
255,189,291488,1,8,0:0:0:0:
255,189,291563,1,8,0:0:0:0:
255,189,291638,1,0,0:0:0:0:
255,189,291788,1,8,0:0:0:0:
255,189,291938,1,0,0:0:0:0:
255,189,292013,1,0,0:0:0:0:
255,189,292088,1,8,0:0:0:0:
255,189,292238,1,0,0:0:0:0:
255,189,292313,1,0,0:0:0:0:
255,189,292388,1,8,0:0:0:0:
255,189,292463,1,8,0:0:0:0:
255,189,292538,1,0,0:0:0:0:
255,189,292688,1,8,0:0:0:0:
255,189,292838,1,0,0:0:0:0:
255,189,292913,1,0,0:0:0:0:
255,189,292988,1,8,0:0:0:0:
255,189,293138,1,0,0:0:0:0:
255,189,293288,1,8,0:0:0:0:
255,189,293363,1,8,0:0:0:0:
255,189,293438,1,0,0:0:0:0:
255,189,293513,1,0,0:0:0:0:
255,189,293588,1,8,0:0:0:0:
255,189,293738,1,0,0:0:0:0:
255,189,293888,1,8,0:0:0:0:
255,189,293963,1,8,0:0:0:0:
255,189,294038,1,0,0:0:0:0:
255,189,294188,1,8,0:0:0:0:
255,189,294338,1,0,0:0:0:0:
255,189,294413,1,8,0:0:0:0:
255,189,294488,1,0,0:0:0:0:
255,189,294563,1,0,0:0:0:0:
255,189,294638,1,8,0:0:0:0:
255,189,294788,1,0,0:0:0:0:
255,189,294938,1,8,0:0:0:0:
255,189,295088,1,0,0:0:0:0:
255,189,295163,1,0,0:0:0:0:
255,189,295238,1,8,0:0:0:0:
255,189,295388,1,0,0:0:0:0:
255,189,295538,1,8,0:0:0:0:
255,189,295613,1,0,0:0:0:0:
255,189,295688,1,8,0:0:0:0:
255,189,295763,1,8,0:0:0:0:
255,189,295838,1,0,0:0:0:0:
255,189,295988,1,8,0:0:0:0:
255,189,296138,1,0,0:0:0:0:
255,189,296288,1,8,0:0:0:0:
255,189,296363,1,8,0:0:0:0:
255,189,296438,1,0,0:0:0:0:
255,189,296588,1,8,0:0:0:0:
255,189,296738,1,0,0:0:0:0:
255,189,296813,1,0,0:0:0:0:
255,189,296888,1,8,0:0:0:0:
255,189,297038,1,0,0:0:0:0:
255,189,297188,1,8,0:0:0:0:
255,189,297338,1,0,0:0:0:0:
255,189,297488,1,8,0:0:0:0:
255,189,297563,1,8,0:0:0:0:
255,189,297638,1,0,0:0:0:0:
255,189,297713,1,0,0:0:0:0:
255,189,297788,1,8,0:0:0:0:
255,189,297938,1,0,0:0:0:0:
255,189,298088,1,8,0:0:0:0:
255,189,298238,1,0,0:0:0:0:
255,189,298313,1,0,0:0:0:0:
255,189,298388,1,8,0:0:0:0:
255,189,298538,1,0,0:0:0:0:
255,189,298613,1,0,0:0:0:0:
255,189,298688,1,8,0:0:0:0:
255,189,298763,1,8,0:0:0:0:
255,189,298838,1,0,0:0:0:0:
255,189,298913,1,0,0:0:0:0:
255,189,298988,1,0,0:0:0:0:
255,189,299063,1,0,0:0:0:0:
255,189,299138,1,8,0:0:0:0:
255,189,299213,5,0,0:0:0:0:
255,189,299288,1,0,0:0:0:0:
255,189,299363,1,0,0:0:0:0:
255,189,299438,1,8,0:0:0:0:
255,189,299513,1,0,0:0:0:0:
255,189,299588,1,8,0:0:0:0:
255,189,299663,1,8,0:0:0:0:
255,189,299738,1,0,0:0:0:0:
256,192,299888,8,0,300788,0:0:0:0:
257,188,300938,5,4,0:0:0:0:
257,188,301238,1,0,0:0:0:0:
257,188,301538,1,0,0:0:0:0:
257,188,301838,1,0,0:0:0:0:
257,188,302138,1,0,0:0:0:0:
257,188,302438,1,0,0:0:0:0:
257,188,302738,1,0,0:0:0:0:
257,188,303038,1,0,0:0:0:0:
257,188,303338,1,0,0:0:0:0:
257,188,303638,1,0,0:0:0:0:
257,188,303938,1,0,0:0:0:0:
257,188,304238,1,0,0:0:0:0:
257,188,304538,1,0,0:0:0:0:
257,188,304838,1,0,0:0:0:0:
257,188,305138,1,0,0:0:0:0:
257,188,305738,1,0,0:0:0:0:
257,188,306038,1,8,0:0:0:0:
257,188,306338,1,0,0:0:0:0:
257,188,306638,1,8,0:0:0:0:
257,188,306938,1,0,0:0:0:0:
257,188,307238,1,0,0:0:0:0:
257,188,307538,1,0,0:0:0:0:
257,188,307838,1,0,0:0:0:0:
257,188,308138,1,0,0:0:0:0:
257,188,308438,1,8,0:0:0:0:
257,188,308738,1,0,0:0:0:0:
257,188,309038,1,8,0:0:0:0:
257,188,309338,1,0,0:0:0:0:
257,188,309638,1,8,0:0:0:0:
256,192,309938,12,0,310388,0:0:0:0:
257,188,310538,5,4,0:0:0:0:
257,188,310688,1,8,0:0:0:0:
256,192,310763,1,0,0:0:0:0:
257,188,310838,1,0,0:0:0:0:
257,188,310988,1,8,0:0:0:0:
257,188,311138,1,0,0:0:0:0:
256,192,311213,1,0,0:0:0:0:
257,188,311288,1,8,0:0:0:0:
257,188,311438,1,0,0:0:0:0:
257,188,311588,1,8,0:0:0:0:
256,192,311663,1,8,0:0:0:0:
257,188,311738,1,0,0:0:0:0:
257,188,311888,1,8,0:0:0:0:
257,188,312038,1,0,0:0:0:0:
256,192,312113,1,0,0:0:0:0:
257,188,312188,1,8,0:0:0:0:
257,188,312338,1,0,0:0:0:0:
257,188,312413,1,0,0:0:0:0:
257,188,312488,1,8,0:0:0:0:
257,188,312563,1,8,0:0:0:0:
257,188,312638,1,0,0:0:0:0:
257,188,312788,1,8,0:0:0:0:
257,188,312938,1,0,0:0:0:0:
257,188,313088,1,8,0:0:0:0:
256,192,313163,1,8,0:0:0:0:
257,188,313238,1,0,0:0:0:0:
257,188,313388,1,8,0:0:0:0:
257,188,313538,1,0,0:0:0:0:
256,192,313613,1,0,0:0:0:0:
257,188,313688,1,8,0:0:0:0:
257,188,313763,1,8,0:0:0:0:
257,188,313838,1,0,0:0:0:0:
257,188,313988,1,8,0:0:0:0:
257,188,314063,1,0,0:0:0:0:
257,188,314138,1,0,0:0:0:0:
257,188,314288,1,8,0:0:0:0:
257,188,314438,1,0,0:0:0:0:
256,192,314513,1,0,0:0:0:0:
257,188,314588,1,8,0:0:0:0:
257,188,314738,1,0,0:0:0:0:
257,188,314813,1,0,0:0:0:0:
257,188,314888,1,8,0:0:0:0:
257,188,314963,1,8,0:0:0:0:
257,188,315038,1,0,0:0:0:0:
257,188,315188,1,8,0:0:0:0:
257,188,315338,1,0,0:0:0:0:
257,188,315413,1,0,0:0:0:0:
257,188,315488,1,8,0:0:0:0:
257,188,315563,1,0,0:0:0:0:
257,188,315638,1,0,0:0:0:0:
257,188,315713,1,0,0:0:0:0:
257,188,315788,1,8,0:0:0:0:
257,188,315863,1,8,0:0:0:0:
257,188,315938,1,0,0:0:0:0:
257,188,316013,1,0,0:0:0:0:
257,188,316088,1,8,0:0:0:0:
257,188,316163,1,0,0:0:0:0:
257,188,316238,1,8,0:0:0:0:
257,188,316313,1,8,0:0:0:0:
257,188,316388,1,8,0:0:0:0:
257,188,316463,1,8,0:0:0:0:
257,188,316538,1,0,0:0:0:0:
257,188,316613,1,0,0:0:0:0:
257,188,316688,1,8,0:0:0:0:
257,188,316763,1,0,0:0:0:0:
257,188,316838,1,0,0:0:0:0:
257,188,316913,1,0,0:0:0:0:
257,188,316988,1,8,0:0:0:0:
257,188,317063,1,8,0:0:0:0:
257,188,317138,1,0,0:0:0:0:
257,188,317213,1,0,0:0:0:0:
257,188,317288,1,8,0:0:0:0:
257,188,317363,1,8,0:0:0:0:
257,188,317438,1,8,0:0:0:0:
257,188,317513,1,0,0:0:0:0:
257,188,317588,1,8,0:0:0:0:
257,188,317663,1,8,0:0:0:0:
257,188,317738,1,0,0:0:0:0:
257,188,317813,1,0,0:0:0:0:
257,188,317888,1,8,0:0:0:0:
257,188,317963,1,0,0:0:0:0:
257,188,318038,1,0,0:0:0:0:
257,188,318113,1,0,0:0:0:0:
257,188,318188,1,8,0:0:0:0:
257,188,318263,1,8,0:0:0:0:
257,188,318338,1,0,0:0:0:0:
257,188,318413,1,0,0:0:0:0:
257,188,318488,1,8,0:0:0:0:
257,188,318563,1,0,0:0:0:0:
257,188,318638,1,8,0:0:0:0:
257,188,318713,1,8,0:0:0:0:
257,188,318788,1,8,0:0:0:0:
257,188,318938,1,4,0:0:0:0:
256,192,319088,8,0,319988,0:0:0:0:
255,192,320138,5,4,0:0:0:0:
256,192,320288,8,0,328538,0:0:0:0:
