osu file format v14

[General]
AudioFilename: audio.mp3
AudioLeadIn: 0
PreviewTime: 137026
Countdown: 0
SampleSet: Soft
StackLeniency: 0.7
Mode: 3
LetterboxInBreaks: 0
SpecialStyle: 0
WidescreenStoryboard: 0

[Editor]
Bookmarks: 50776,69976,108376,137176,156376,175576,204376,223576,242776,271576,290776,309976,329176,348376,368776
DistanceSpacing: 0.1
BeatDivisor: 4
GridSize: 32
TimelineZoom: 2.799999

[Metadata]
Title:Destin Victorica (Harddance Mix) (Nightcore Mix)
TitleUnicode:Destin Victorica (Harddance Mix) (Nightcore Mix)
Artist:Hayakore Tatsumi
ArtistUnicode:Hayakore Tatsumi
Creator:paulkappa
Version:Eternity
Source:GOSICK
Tags:arcwinolivirus collaboration marathon stamina chordstream brackets consistency 速核巽 tamolarm tatsumiyaharddance specialmegas japanese j-core jcore hardcore electronic remix bootleg sped up ver. speed up version 坂部剛 Sakabe Gou Watanabe Shio 渡部紫緒 -ゴシック- ゴシック anime opening story of fate gothic Histoire 吉木りさ yoshiki*lisa yoshiki*lisa yoshiki risa destiny history ヴィクトリカ・ド・ブロワ Victorique de Blois
BeatmapID:4034413
BeatmapSetID:1949034

[Difficulty]
HPDrainRate:8.5
CircleSize:7
OverallDifficulty:8.5
ApproachRate:5
SliderMultiplier:1.4
SliderTickRate:1

[Events]
//Background and Video events
0,0,"802184.jpg",0,0
//Break Periods
//Storyboard Layer 0 (Background)
//Storyboard Layer 1 (Fail)
//Storyboard Layer 2 (Pass)
//Storyboard Layer 3 (Foreground)
//Storyboard Layer 4 (Overlay)
//Storyboard Sound Samples

[TimingPoints]
9976,300,4,2,1,40,1,0

[HitObjects]
402,192,11176,5,0,0:0:0:0:
109,192,11176,1,0,0:0:0:0:
36,192,11176,1,0,0:0:0:0:
256,192,11176,1,0,0:0:0:0:
475,192,11176,1,0,0:0:0:0:
329,192,11326,1,0,0:0:0:0:
36,192,11326,1,0,0:0:0:0:
182,192,11326,1,0,0:0:0:0:
109,192,11476,1,0,0:0:0:0:
182,192,11476,1,0,0:0:0:0:
402,192,11476,1,0,0:0:0:0:
329,192,11476,1,0,0:0:0:0:
475,192,11626,1,0,0:0:0:0:
256,192,11626,1,0,0:0:0:0:
402,192,11701,1,0,0:0:0:0:
182,192,11701,1,0,0:0:0:0:
36,192,11776,1,0,0:0:0:0:
329,192,11776,1,0,0:0:0:0:
109,192,11776,1,0,0:0:0:0:
256,192,11851,1,0,0:0:0:0:
475,192,11926,1,0,0:0:0:0:
402,192,11926,1,0,0:0:0:0:
182,192,11926,1,0,0:0:0:0:
182,192,12076,1,0,0:0:0:0:
109,192,12076,1,0,0:0:0:0:
329,192,12076,1,0,0:0:0:0:
475,192,12076,1,0,0:0:0:0:
36,192,12226,1,0,0:0:0:0:
256,192,12226,1,0,0:0:0:0:
109,192,12301,1,0,0:0:0:0:
329,192,12301,1,0,0:0:0:0:
182,192,12376,1,0,0:0:0:0:
402,192,12376,1,0,0:0:0:0:
475,192,12376,1,0,0:0:0:0:
329,192,12526,1,0,0:0:0:0:
36,192,12526,1,0,0:0:0:0:
256,192,12526,1,0,0:0:0:0:
329,192,12676,1,0,0:0:0:0:
402,192,12676,1,0,0:0:0:0:
182,192,12676,1,0,0:0:0:0:
109,192,12676,1,0,0:0:0:0:
475,192,12826,1,0,0:0:0:0:
256,192,12826,1,0,0:0:0:0:
402,192,12901,1,0,0:0:0:0:
182,192,12901,1,0,0:0:0:0:
36,192,12976,1,0,0:0:0:0:
329,192,12976,1,0,0:0:0:0:
109,192,12976,1,0,0:0:0:0:
182,192,13051,1,0,0:0:0:0:
256,192,13126,1,0,0:0:0:0:
36,192,13126,1,0,0:0:0:0:
329,192,13201,1,0,0:0:0:0:
109,192,13201,1,0,0:0:0:0:
256,192,13276,1,0,0:0:0:0:
475,192,13276,1,0,0:0:0:0:
182,192,13276,1,0,0:0:0:0:
402,192,13276,1,0,0:0:0:0:
475,192,13426,1,0,0:0:0:0:
109,192,13426,1,0,0:0:0:0:
329,192,13426,1,0,0:0:0:0:
256,192,13501,1,0,0:0:0:0:
402,192,13576,1,0,0:0:0:0:
36,192,13576,1,0,0:0:0:0:
182,192,13576,1,0,0:0:0:0:
329,192,13651,1,0,0:0:0:0:
475,192,13726,1,0,0:0:0:0:
256,192,13726,1,0,0:0:0:0:
109,192,13726,1,0,0:0:0:0:
182,192,13876,1,0,0:0:0:0:
256,192,13876,1,0,0:0:0:0:
329,192,13876,1,0,0:0:0:0:
402,192,13876,1,0,0:0:0:0:
475,192,14026,1,0,0:0:0:0:
182,192,14026,1,0,0:0:0:0:
402,192,14101,1,0,0:0:0:0:
109,192,14101,1,0,0:0:0:0:
256,192,14176,1,0,0:0:0:0:
329,192,14176,1,0,0:0:0:0:
36,192,14176,1,0,0:0:0:0:
402,192,14251,1,0,0:0:0:0:
475,192,14326,1,0,0:0:0:0:
109,192,14326,1,0,0:0:0:0:
182,192,14326,1,0,0:0:0:0:
402,192,14476,1,0,0:0:0:0:
36,192,14476,1,0,0:0:0:0:
329,192,14476,1,0,0:0:0:0:
256,192,14476,1,0,0:0:0:0:
329,192,14626,1,0,0:0:0:0:
109,192,14626,1,0,0:0:0:0:
182,192,14701,1,0,0:0:0:0:
402,192,14701,1,0,0:0:0:0:
36,192,14776,1,0,0:0:0:0:
256,192,14776,1,0,0:0:0:0:
475,192,14776,1,0,0:0:0:0:
109,192,14926,1,0,0:0:0:0:
182,192,14926,1,0,0:0:0:0:
402,192,14926,1,0,0:0:0:0:
475,192,15076,1,0,0:0:0:0:
36,192,15076,1,0,0:0:0:0:
329,192,15076,1,0,0:0:0:0:
256,192,15076,1,0,0:0:0:0:
402,192,15226,1,0,0:0:0:0:
182,192,15226,1,0,0:0:0:0:
329,192,15301,1,0,0:0:0:0:
109,192,15301,1,0,0:0:0:0:
475,192,15376,1,0,0:0:0:0:
256,192,15376,1,0,0:0:0:0:
36,192,15376,1,0,0:0:0:0:
182,192,15451,1,0,0:0:0:0:
329,192,15526,1,0,0:0:0:0:
109,192,15526,1,0,0:0:0:0:
182,192,15601,1,0,0:0:0:0:
402,192,15601,1,0,0:0:0:0:
36,192,15676,1,0,0:0:0:0:
329,192,15676,1,0,0:0:0:0:
475,192,15676,1,0,0:0:0:0:
256,192,15676,1,0,0:0:0:0:
402,192,15826,1,0,0:0:0:0:
329,192,15826,1,0,0:0:0:0:
36,192,15901,1,0,0:0:0:0:
109,192,15901,1,0,0:0:0:0:
182,192,15901,1,0,0:0:0:0:
475,192,15976,1,0,0:0:0:0:
402,192,15976,1,0,0:0:0:0:
256,192,15976,1,0,0:0:0:0:
36,192,16051,1,0,0:0:0:0:
329,192,16126,1,0,0:0:0:0:
109,192,16126,1,0,0:0:0:0:
182,192,16126,1,0,0:0:0:0:
256,192,16201,1,0,0:0:0:0:
182,192,16276,1,0,0:0:0:0:
475,192,16276,1,0,0:0:0:0:
109,192,16276,1,0,0:0:0:0:
402,192,16276,1,0,0:0:0:0:
329,192,16426,1,0,0:0:0:0:
36,192,16426,1,0,0:0:0:0:
402,192,16501,1,0,0:0:0:0:
109,192,16501,1,0,0:0:0:0:
256,192,16576,1,0,0:0:0:0:
475,192,16576,1,0,0:0:0:0:
182,192,16576,1,0,0:0:0:0:
329,192,16651,1,0,0:0:0:0:
402,192,16726,1,0,0:0:0:0:
36,192,16726,1,0,0:0:0:0:
109,192,16726,1,0,0:0:0:0:
182,192,16876,1,0,0:0:0:0:
36,192,16876,1,0,0:0:0:0:
329,192,16876,1,0,0:0:0:0:
256,192,16876,1,0,0:0:0:0:
475,192,17026,1,0,0:0:0:0:
182,192,17026,1,0,0:0:0:0:
402,192,17101,1,0,0:0:0:0:
109,192,17101,1,0,0:0:0:0:
256,192,17176,1,0,0:0:0:0:
475,192,17176,1,0,0:0:0:0:
36,192,17176,1,0,0:0:0:0:
329,192,17176,1,0,0:0:0:0:
402,192,17326,1,0,0:0:0:0:
109,192,17326,1,0,0:0:0:0:
182,192,17326,1,0,0:0:0:0:
475,192,17476,1,0,0:0:0:0:
36,192,17476,1,0,0:0:0:0:
329,192,17476,1,0,0:0:0:0:
256,192,17476,1,0,0:0:0:0:
329,192,17626,1,0,0:0:0:0:
109,192,17626,1,0,0:0:0:0:
402,192,17701,1,0,0:0:0:0:
182,192,17701,1,0,0:0:0:0:
475,192,17776,1,0,0:0:0:0:
256,192,17776,1,0,0:0:0:0:
36,192,17776,1,0,0:0:0:0:
329,192,17851,1,0,0:0:0:0:
475,192,17926,1,0,0:0:0:0:
256,192,17926,1,0,0:0:0:0:
402,192,18001,1,0,0:0:0:0:
182,192,18001,1,0,0:0:0:0:
329,192,18076,1,0,0:0:0:0:
256,192,18076,1,0,0:0:0:0:
109,192,18076,1,0,0:0:0:0:
36,192,18076,1,0,0:0:0:0:
475,192,18226,1,0,0:0:0:0:
256,192,18226,1,0,0:0:0:0:
182,192,18301,1,0,0:0:0:0:
475,192,18376,1,0,0:0:0:0:
402,192,18376,1,0,0:0:0:0:
109,192,18376,1,0,0:0:0:0:
329,192,18376,1,0,0:0:0:0:
182,192,18451,1,0,0:0:0:0:
36,192,18526,1,0,0:0:0:0:
256,192,18526,1,0,0:0:0:0:
329,192,18601,1,0,0:0:0:0:
36,192,18676,1,0,0:0:0:0:
475,192,18676,1,0,0:0:0:0:
402,192,18676,1,0,0:0:0:0:
109,192,18676,1,0,0:0:0:0:
182,192,18751,1,0,0:0:0:0:
475,192,18826,1,0,0:0:0:0:
256,192,18826,1,0,0:0:0:0:
36,192,18901,1,0,0:0:0:0:
329,192,18901,1,0,0:0:0:0:
109,192,18976,1,0,0:0:0:0:
182,192,18976,1,0,0:0:0:0:
402,192,18976,1,0,0:0:0:0:
36,192,19051,1,0,0:0:0:0:
329,192,19051,1,0,0:0:0:0:
475,192,19126,1,0,0:0:0:0:
256,192,19126,1,0,0:0:0:0:
182,192,19201,1,0,0:0:0:0:
475,192,19276,1,0,0:0:0:0:
36,192,19276,1,0,0:0:0:0:
109,192,19276,1,0,0:0:0:0:
402,192,19276,1,0,0:0:0:0:
329,192,19351,1,0,0:0:0:0:
475,192,19426,1,0,0:0:0:0:
256,192,19426,1,0,0:0:0:0:
402,192,19501,1,0,0:0:0:0:
182,192,19501,1,0,0:0:0:0:
36,192,19576,1,0,0:0:0:0:
329,192,19576,1,0,0:0:0:0:
109,192,19576,1,0,0:0:0:0:
182,192,19651,1,0,0:0:0:0:
36,192,19726,1,0,0:0:0:0:
256,192,19726,1,0,0:0:0:0:
475,192,19726,1,0,0:0:0:0:
329,192,19801,1,0,0:0:0:0:
36,192,19876,1,0,0:0:0:0:
475,192,19876,1,0,0:0:0:0:
402,192,19876,1,0,0:0:0:0:
109,192,19876,1,0,0:0:0:0:
182,192,19951,1,0,0:0:0:0:
475,192,20026,1,0,0:0:0:0:
256,192,20026,1,0,0:0:0:0:
36,192,20101,1,0,0:0:0:0:
329,192,20101,1,0,0:0:0:0:
109,192,20176,1,0,0:0:0:0:
182,192,20176,1,0,0:0:0:0:
402,192,20176,1,0,0:0:0:0:
36,192,20251,1,0,0:0:0:0:
329,192,20251,1,0,0:0:0:0:
109,192,20326,1,0,0:0:0:0:
256,192,20326,1,0,0:0:0:0:
329,192,20401,1,0,0:0:0:0:
182,192,20401,1,0,0:0:0:0:
475,192,20476,1,0,0:0:0:0:
36,192,20476,1,0,0:0:0:0:
109,192,20476,1,0,0:0:0:0:
402,192,20476,1,0,0:0:0:0:
182,192,20551,1,0,0:0:0:0:
329,192,20551,1,0,0:0:0:0:
475,192,20626,1,0,0:0:0:0:
256,192,20626,1,0,0:0:0:0:
402,192,20701,1,0,0:0:0:0:
182,192,20701,1,0,0:0:0:0:
36,192,20776,1,0,0:0:0:0:
475,192,20776,1,0,0:0:0:0:
109,192,20776,1,0,0:0:0:0:
329,192,20776,1,0,0:0:0:0:
402,192,20926,1,0,0:0:0:0:
109,192,20926,1,0,0:0:0:0:
182,192,20926,1,0,0:0:0:0:
36,192,21076,1,0,0:0:0:0:
475,192,21076,1,0,0:0:0:0:
256,192,21076,1,0,0:0:0:0:
182,192,21076,1,0,0:0:0:0:
109,192,21226,1,0,0:0:0:0:
329,192,21226,1,0,0:0:0:0:
402,192,21226,1,0,0:0:0:0:
36,192,21376,1,0,0:0:0:0:
475,192,21376,1,0,0:0:0:0:
256,192,21376,1,0,0:0:0:0:
329,192,21451,1,0,0:0:0:0:
109,192,21526,1,0,0:0:0:0:
402,192,21526,1,0,0:0:0:0:
182,192,21601,1,0,0:0:0:0:
475,192,21676,1,0,0:0:0:0:
36,192,21676,1,0,0:0:0:0:
256,192,21676,1,0,0:0:0:0:
329,192,21676,1,0,0:0:0:0:
182,192,21751,1,0,0:0:0:0:
475,192,21826,1,0,0:0:0:0:
402,192,21826,1,0,0:0:0:0:
109,192,21826,1,0,0:0:0:0:
36,192,21901,1,0,0:0:0:0:
329,192,21901,1,0,0:0:0:0:
182,192,21976,1,0,0:0:0:0:
256,192,21976,1,0,0:0:0:0:
109,192,22051,1,0,0:0:0:0:
475,192,22126,1,0,0:0:0:0:
402,192,22126,1,0,0:0:0:0:
182,192,22126,1,0,0:0:0:0:
256,192,22201,1,0,0:0:0:0:
36,192,22276,1,0,0:0:0:0:
475,192,22276,1,0,0:0:0:0:
402,192,22276,1,0,0:0:0:0:
109,192,22276,1,0,0:0:0:0:
329,192,22351,1,0,0:0:0:0:
475,192,22426,1,0,0:0:0:0:
36,192,22426,1,0,0:0:0:0:
182,192,22426,1,0,0:0:0:0:
109,192,22501,1,0,0:0:0:0:
256,192,22501,1,0,0:0:0:0:
402,192,22576,1,0,0:0:0:0:
329,192,22576,1,0,0:0:0:0:
182,192,22651,1,0,0:0:0:0:
36,192,22726,1,0,0:0:0:0:
475,192,22726,1,0,0:0:0:0:
256,192,22726,1,0,0:0:0:0:
109,192,22801,1,0,0:0:0:0:
475,192,22876,1,0,0:0:0:0:
36,192,22876,1,0,0:0:0:0:
182,192,22876,1,0,0:0:0:0:
402,192,22876,1,0,0:0:0:0:
329,192,22951,1,0,0:0:0:0:
256,192,23026,1,0,0:0:0:0:
182,192,23026,1,0,0:0:0:0:
475,192,23026,1,0,0:0:0:0:
402,192,23101,1,0,0:0:0:0:
109,192,23101,1,0,0:0:0:0:
36,192,23176,1,0,0:0:0:0:
256,192,23176,1,0,0:0:0:0:
329,192,23251,1,0,0:0:0:0:
475,192,23326,1,0,0:0:0:0:
402,192,23326,1,0,0:0:0:0:
182,192,23326,1,0,0:0:0:0:
256,192,23401,1,0,0:0:0:0:
36,192,23476,1,0,0:0:0:0:
475,192,23476,1,0,0:0:0:0:
329,192,23476,1,0,0:0:0:0:
109,192,23476,1,0,0:0:0:0:
182,192,23551,1,0,0:0:0:0:
402,192,23626,1,0,0:0:0:0:
36,192,23626,1,0,0:0:0:0:
329,192,23626,1,0,0:0:0:0:
109,192,23701,1,0,0:0:0:0:
256,192,23701,1,0,0:0:0:0:
182,192,23776,1,0,0:0:0:0:
402,192,23776,1,0,0:0:0:0:
329,192,23851,1,0,0:0:0:0:
36,192,23926,1,0,0:0:0:0:
256,192,23926,1,0,0:0:0:0:
475,192,23926,1,0,0:0:0:0:
402,192,24001,1,0,0:0:0:0:
329,192,24076,1,0,0:0:0:0:
36,192,24076,1,0,0:0:0:0:
182,192,24076,1,0,0:0:0:0:
109,192,24076,1,0,0:0:0:0:
256,192,24151,1,0,0:0:0:0:
402,192,24226,1,0,0:0:0:0:
182,192,24226,1,0,0:0:0:0:
329,192,24301,1,0,0:0:0:0:
109,192,24301,1,0,0:0:0:0:
256,192,24376,1,0,0:0:0:0:
36,192,24376,1,0,0:0:0:0:
109,192,24451,1,0,0:0:0:0:
475,192,24526,1,0,0:0:0:0:
402,192,24526,1,0,0:0:0:0:
182,192,24526,1,0,0:0:0:0:
256,192,24601,1,0,0:0:0:0:
36,192,24676,1,0,0:0:0:0:
182,192,24676,1,0,0:0:0:0:
329,192,24676,1,0,0:0:0:0:
109,192,24676,1,0,0:0:0:0:
402,192,24751,1,0,0:0:0:0:
36,192,24826,1,0,0:0:0:0:
256,192,24826,1,0,0:0:0:0:
475,192,24826,1,0,0:0:0:0:
329,192,24901,1,0,0:0:0:0:
182,192,24976,1,0,0:0:0:0:
402,192,24976,1,0,0:0:0:0:
256,192,25051,1,0,0:0:0:0:
109,192,25126,1,0,0:0:0:0:
329,192,25126,1,0,0:0:0:0:
475,192,25126,1,0,0:0:0:0:
182,192,25201,1,0,0:0:0:0:
475,192,25276,1,0,0:0:0:0:
402,192,25276,1,0,0:0:0:0:
256,192,25276,1,0,0:0:0:0:
36,192,25276,1,0,0:0:0:0:
109,192,25351,1,0,0:0:0:0:
329,192,25426,1,0,0:0:0:0:
182,192,25426,1,0,0:0:0:0:
256,192,25501,1,0,0:0:0:0:
402,192,25576,1,0,0:0:0:0:
475,192,25576,1,0,0:0:0:0:
182,192,25576,1,0,0:0:0:0:
329,192,25651,1,0,0:0:0:0:
109,192,25651,1,0,0:0:0:0:
402,192,25726,1,0,0:0:0:0:
182,192,25726,1,0,0:0:0:0:
475,192,25801,1,0,0:0:0:0:
256,192,25801,1,0,0:0:0:0:
36,192,25876,1,0,0:0:0:0:
109,192,25876,1,0,0:0:0:0:
329,192,25876,1,0,0:0:0:0:
402,192,25951,1,0,0:0:0:0:
182,192,25951,1,0,0:0:0:0:
475,192,26026,1,0,0:0:0:0:
256,192,26026,1,0,0:0:0:0:
109,192,26101,1,0,0:0:0:0:
329,192,26101,1,0,0:0:0:0:
182,192,26176,1,0,0:0:0:0:
402,192,26176,1,0,0:0:0:0:
36,192,26251,1,0,0:0:0:0:
256,192,26251,1,0,0:0:0:0:
109,192,26326,1,0,0:0:0:0:
329,192,26326,1,0,0:0:0:0:
182,192,26401,1,0,0:0:0:0:
402,192,26401,1,0,0:0:0:0:
256,192,26476,1,0,0:0:0:0:
36,192,26476,1,0,0:0:0:0:
475,192,26476,1,0,0:0:0:0:
329,192,26551,1,0,0:0:0:0:
109,192,26551,1,0,0:0:0:0:
402,192,26626,1,0,0:0:0:0:
182,192,26626,1,0,0:0:0:0:
475,192,26701,1,0,0:0:0:0:
256,192,26701,1,0,0:0:0:0:
36,192,26776,1,0,0:0:0:0:
109,192,26776,1,0,0:0:0:0:
329,192,26776,1,0,0:0:0:0:
402,192,26851,1,0,0:0:0:0:
182,192,26851,1,0,0:0:0:0:
109,192,26926,1,0,0:0:0:0:
329,192,26926,1,0,0:0:0:0:
36,192,27001,1,0,0:0:0:0:
256,192,27001,1,0,0:0:0:0:
475,192,27076,1,0,0:0:0:0:
182,192,27076,1,0,0:0:0:0:
402,192,27076,1,0,0:0:0:0:
109,192,27151,1,0,0:0:0:0:
329,192,27151,1,0,0:0:0:0:
36,192,27226,1,0,0:0:0:0:
256,192,27226,1,0,0:0:0:0:
182,192,27301,1,0,0:0:0:0:
402,192,27301,1,0,0:0:0:0:
109,192,27376,1,0,0:0:0:0:
329,192,27376,1,0,0:0:0:0:
36,192,27451,1,0,0:0:0:0:
256,192,27451,1,0,0:0:0:0:
182,192,27526,1,0,0:0:0:0:
402,192,27526,1,0,0:0:0:0:
329,192,27601,1,0,0:0:0:0:
109,192,27601,1,0,0:0:0:0:
475,192,27676,1,0,0:0:0:0:
36,192,27676,1,0,0:0:0:0:
182,192,27676,1,0,0:0:0:0:
109,192,27751,1,0,0:0:0:0:
329,192,27751,1,0,0:0:0:0:
475,192,27826,1,0,0:0:0:0:
256,192,27826,1,0,0:0:0:0:
402,192,27901,1,0,0:0:0:0:
182,192,27901,1,0,0:0:0:0:
36,192,27976,1,0,0:0:0:0:
329,192,27976,1,0,0:0:0:0:
109,192,27976,1,0,0:0:0:0:
402,192,28051,1,0,0:0:0:0:
182,192,28051,1,0,0:0:0:0:
475,192,28126,1,0,0:0:0:0:
256,192,28126,1,0,0:0:0:0:
329,192,28201,1,0,0:0:0:0:
36,192,28201,1,0,0:0:0:0:
402,192,28276,1,0,0:0:0:0:
256,192,28276,1,0,0:0:0:0:
109,192,28276,1,0,0:0:0:0:
182,192,28351,1,0,0:0:0:0:
475,192,28351,1,0,0:0:0:0:
36,192,28426,1,0,0:0:0:0:
256,192,28426,1,0,0:0:0:0:
109,192,28501,1,0,0:0:0:0:
329,192,28501,1,0,0:0:0:0:
475,192,28576,1,0,0:0:0:0:
402,192,28576,1,0,0:0:0:0:
182,192,28576,1,0,0:0:0:0:
109,192,28651,1,0,0:0:0:0:
329,192,28651,1,0,0:0:0:0:
36,192,28726,1,0,0:0:0:0:
475,192,28726,1,0,0:0:0:0:
256,192,28726,1,0,0:0:0:0:
402,192,28801,1,0,0:0:0:0:
182,192,28801,1,0,0:0:0:0:
36,192,28876,1,0,0:0:0:0:
329,192,28876,1,0,0:0:0:0:
109,192,28876,1,0,0:0:0:0:
475,192,28951,1,0,0:0:0:0:
256,192,28951,1,0,0:0:0:0:
402,192,29026,1,0,0:0:0:0:
182,192,29026,1,0,0:0:0:0:
329,192,29101,1,0,0:0:0:0:
109,192,29101,1,0,0:0:0:0:
475,192,29176,1,0,0:0:0:0:
256,192,29176,1,0,0:0:0:0:
36,192,29176,1,0,0:0:0:0:
109,192,29251,1,0,0:0:0:0:
329,192,29251,1,0,0:0:0:0:
182,192,29326,1,0,0:0:0:0:
402,192,29326,1,0,0:0:0:0:
256,192,29401,1,0,0:0:0:0:
475,192,29401,1,0,0:0:0:0:
36,192,29476,1,0,0:0:0:0:
402,192,29476,1,0,0:0:0:0:
109,192,29476,1,0,0:0:0:0:
329,192,29551,1,0,0:0:0:0:
182,192,29551,1,0,0:0:0:0:
256,192,29626,1,0,0:0:0:0:
109,192,29626,1,0,0:0:0:0:
182,192,29701,1,0,0:0:0:0:
36,192,29701,1,0,0:0:0:0:
402,192,29776,1,0,0:0:0:0:
329,192,29776,1,0,0:0:0:0:
475,192,29776,1,0,0:0:0:0:
36,192,29851,1,0,0:0:0:0:
256,192,29851,1,0,0:0:0:0:
109,192,29926,1,0,0:0:0:0:
329,192,29926,1,0,0:0:0:0:
182,192,30001,1,0,0:0:0:0:
402,192,30001,1,0,0:0:0:0:
36,192,30076,1,0,0:0:0:0:
256,192,30076,1,0,0:0:0:0:
475,192,30076,1,0,0:0:0:0:
402,192,30151,1,0,0:0:0:0:
182,192,30151,1,0,0:0:0:0:
329,192,30226,1,0,0:0:0:0:
109,192,30226,1,0,0:0:0:0:
36,192,30301,1,0,0:0:0:0:
256,192,30301,1,0,0:0:0:0:
475,192,30376,1,0,0:0:0:0:
182,192,30376,1,0,0:0:0:0:
402,192,30376,1,0,0:0:0:0:
109,192,30376,1,0,0:0:0:0:
36,192,30451,1,0,0:0:0:0:
256,192,30451,1,0,0:0:0:0:
402,192,30526,1,0,0:0:0:0:
329,192,30526,1,0,0:0:0:0:
109,192,30526,1,0,0:0:0:0:
475,192,30601,1,0,0:0:0:0:
182,192,30601,1,0,0:0:0:0:
402,192,30676,1,0,0:0:0:0:
36,192,30676,1,0,0:0:0:0:
256,192,30676,1,0,0:0:0:0:
329,192,30676,1,0,0:0:0:0:
109,192,30751,1,0,0:0:0:0:
182,192,30751,1,0,0:0:0:0:
36,192,30826,1,0,0:0:0:0:
475,192,30826,1,0,0:0:0:0:
256,192,30826,1,0,0:0:0:0:
329,192,30901,1,0,0:0:0:0:
402,192,30901,1,0,0:0:0:0:
109,192,30976,1,0,0:0:0:0:
182,192,30976,1,0,0:0:0:0:
256,192,30976,1,0,0:0:0:0:
329,192,31051,1,0,0:0:0:0:
402,192,31051,1,0,0:0:0:0:
36,192,31126,1,0,0:0:0:0:
475,192,31126,1,0,0:0:0:0:
256,192,31126,1,0,0:0:0:0:
109,192,31201,1,0,0:0:0:0:
182,192,31201,1,0,0:0:0:0:
402,192,31276,1,0,0:0:0:0:
475,192,31276,1,0,0:0:0:0:
256,192,31276,1,0,0:0:0:0:
329,192,31276,1,0,0:0:0:0:
36,192,31351,1,0,0:0:0:0:
109,192,31351,1,0,0:0:0:0:
402,192,31426,1,0,0:0:0:0:
329,192,31426,1,0,0:0:0:0:
182,192,31426,1,0,0:0:0:0:
109,192,31501,1,0,0:0:0:0:
256,192,31501,1,0,0:0:0:0:
36,192,31576,1,0,0:0:0:0:
475,192,31576,1,0,0:0:0:0:
402,192,31576,1,0,0:0:0:0:
182,192,31651,1,0,0:0:0:0:
256,192,31651,1,0,0:0:0:0:
402,192,31726,1,0,0:0:0:0:
36,192,31726,1,0,0:0:0:0:
329,192,31726,1,0,0:0:0:0:
475,192,31801,1,0,0:0:0:0:
182,192,31801,1,0,0:0:0:0:
36,192,31876,1,0,0:0:0:0:
109,192,31876,1,0,0:0:0:0:
256,192,31876,1,0,0:0:0:0:
329,192,31876,1,0,0:0:0:0:
475,192,31951,1,0,0:0:0:0:
402,192,31951,1,0,0:0:0:0:
256,192,32026,1,0,0:0:0:0:
109,192,32026,1,0,0:0:0:0:
182,192,32026,1,0,0:0:0:0:
402,192,32101,1,0,0:0:0:0:
329,192,32101,1,0,0:0:0:0:
475,192,32176,1,0,0:0:0:0:
36,192,32176,1,0,0:0:0:0:
182,192,32176,1,0,0:0:0:0:
109,192,32251,1,0,0:0:0:0:
402,192,32251,1,0,0:0:0:0:
36,192,32326,1,0,0:0:0:0:
256,192,32326,1,0,0:0:0:0:
329,192,32326,1,0,0:0:0:0:
475,192,32401,1,0,0:0:0:0:
182,192,32401,1,0,0:0:0:0:
256,192,32476,1,0,0:0:0:0:
402,192,32476,1,0,0:0:0:0:
36,192,32476,1,0,0:0:0:0:
329,192,32476,1,0,0:0:0:0:
475,192,32551,1,0,0:0:0:0:
109,192,32551,1,0,0:0:0:0:
256,192,32626,1,0,0:0:0:0:
182,192,32626,1,0,0:0:0:0:
109,192,32701,1,0,0:0:0:0:
36,192,32701,1,0,0:0:0:0:
329,192,32701,1,0,0:0:0:0:
256,192,32776,1,0,0:0:0:0:
475,192,32776,1,0,0:0:0:0:
402,192,32776,1,0,0:0:0:0:
109,192,32851,1,0,0:0:0:0:
182,192,32851,1,0,0:0:0:0:
36,192,32926,1,0,0:0:0:0:
402,192,32926,1,0,0:0:0:0:
329,192,32926,1,0,0:0:0:0:
182,192,33001,1,0,0:0:0:0:
256,192,33001,1,0,0:0:0:0:
402,192,33076,1,0,0:0:0:0:
475,192,33076,1,0,0:0:0:0:
109,192,33076,1,0,0:0:0:0:
36,192,33076,1,0,0:0:0:0:
329,192,33151,1,0,0:0:0:0:
256,192,33151,1,0,0:0:0:0:
402,192,33226,1,0,0:0:0:0:
475,192,33226,1,0,0:0:0:0:
182,192,33226,1,0,0:0:0:0:
256,192,33301,1,0,0:0:0:0:
36,192,33301,1,0,0:0:0:0:
475,192,33376,1,0,0:0:0:0:
329,192,33376,1,0,0:0:0:0:
109,192,33376,1,0,0:0:0:0:
402,192,33451,1,0,0:0:0:0:
182,192,33451,1,0,0:0:0:0:
329,192,33526,1,0,0:0:0:0:
36,192,33526,1,0,0:0:0:0:
256,192,33526,1,0,0:0:0:0:
475,192,33601,1,0,0:0:0:0:
182,192,33601,1,0,0:0:0:0:
36,192,33676,1,0,0:0:0:0:
329,192,33676,1,0,0:0:0:0:
109,192,33676,1,0,0:0:0:0:
402,192,33676,1,0,0:0:0:0:
475,192,33751,1,0,0:0:0:0:
256,192,33751,1,0,0:0:0:0:
402,192,33826,1,0,0:0:0:0:
109,192,33826,1,0,0:0:0:0:
182,192,33826,1,0,0:0:0:0:
36,192,33901,1,0,0:0:0:0:
329,192,33901,1,0,0:0:0:0:
475,192,33976,1,0,0:0:0:0:
182,192,33976,1,0,0:0:0:0:
256,192,33976,1,0,0:0:0:0:
36,192,34051,1,0,0:0:0:0:
109,192,34051,1,0,0:0:0:0:
402,192,34126,1,0,0:0:0:0:
329,192,34126,1,0,0:0:0:0:
256,192,34126,1,0,0:0:0:0:
475,192,34201,1,0,0:0:0:0:
182,192,34201,1,0,0:0:0:0:
329,192,34276,1,0,0:0:0:0:
402,192,34276,1,0,0:0:0:0:
109,192,34276,1,0,0:0:0:0:
36,192,34276,1,0,0:0:0:0:
182,192,34351,1,0,0:0:0:0:
256,192,34351,1,0,0:0:0:0:
109,192,34426,1,0,0:0:0:0:
475,192,34426,1,0,0:0:0:0:
402,192,34426,1,0,0:0:0:0:
36,192,34501,1,0,0:0:0:0:
329,192,34501,1,0,0:0:0:0:
475,192,34576,1,0,0:0:0:0:
182,192,34576,1,0,0:0:0:0:
256,192,34576,1,0,0:0:0:0:
329,192,34651,1,0,0:0:0:0:
402,192,34651,1,0,0:0:0:0:
109,192,34726,1,0,0:0:0:0:
36,192,34726,1,0,0:0:0:0:
256,192,34726,1,0,0:0:0:0:
475,192,34801,1,0,0:0:0:0:
402,192,34801,1,0,0:0:0:0:
36,192,34876,1,0,0:0:0:0:
109,192,34876,1,0,0:0:0:0:
329,192,34876,1,0,0:0:0:0:
182,192,34876,1,0,0:0:0:0:
256,192,34951,1,0,0:0:0:0:
402,192,34951,1,0,0:0:0:0:
109,192,35026,1,0,0:0:0:0:
182,192,35026,1,0,0:0:0:0:
475,192,35026,1,0,0:0:0:0:
329,192,35101,1,0,0:0:0:0:
36,192,35101,1,0,0:0:0:0:
256,192,35176,1,0,0:0:0:0:
475,192,35176,1,0,0:0:0:0:
402,192,35176,1,0,0:0:0:0:
109,192,35251,1,0,0:0:0:0:
182,192,35251,1,0,0:0:0:0:
402,192,35326,1,0,0:0:0:0:
329,192,35326,1,0,0:0:0:0:
36,192,35326,1,0,0:0:0:0:
182,192,35401,1,0,0:0:0:0:
256,192,35401,1,0,0:0:0:0:
475,192,35476,1,0,0:0:0:0:
329,192,35476,1,0,0:0:0:0:
109,192,35476,1,0,0:0:0:0:
36,192,35476,1,0,0:0:0:0:
182,192,35551,1,0,0:0:0:0:
402,192,35551,1,0,0:0:0:0:
256,192,35626,1,0,0:0:0:0:
329,192,35626,1,0,0:0:0:0:
109,192,35626,1,0,0:0:0:0:
475,192,35701,1,0,0:0:0:0:
36,192,35701,1,0,0:0:0:0:
402,192,35776,1,0,0:0:0:0:
182,192,35776,1,0,0:0:0:0:
256,192,35776,1,0,0:0:0:0:
329,192,35851,1,0,0:0:0:0:
109,192,35851,1,0,0:0:0:0:
475,192,35926,1,0,0:0:0:0:
402,192,35926,1,0,0:0:0:0:
182,192,35926,1,0,0:0:0:0:
36,192,36001,1,0,0:0:0:0:
256,192,36001,1,0,0:0:0:0:
329,192,36076,1,0,0:0:0:0:
475,192,36076,1,0,0:0:0:0:
109,192,36076,1,0,0:0:0:0:
182,192,36076,1,0,0:0:0:0:
36,192,36151,1,0,0:0:0:0:
402,192,36151,1,0,0:0:0:0:
109,192,36226,1,0,0:0:0:0:
182,192,36226,1,0,0:0:0:0:
329,192,36226,1,0,0:0:0:0:
475,192,36301,1,0,0:0:0:0:
256,192,36301,1,0,0:0:0:0:
36,192,36376,1,0,0:0:0:0:
329,192,36376,1,0,0:0:0:0:
402,192,36376,1,0,0:0:0:0:
182,192,36451,1,0,0:0:0:0:
256,192,36451,1,0,0:0:0:0:
402,192,36526,1,0,0:0:0:0:
475,192,36526,1,0,0:0:0:0:
109,192,36526,1,0,0:0:0:0:
36,192,36601,1,0,0:0:0:0:
329,192,36601,1,0,0:0:0:0:
109,192,36676,1,0,0:0:0:0:
475,192,36676,1,0,0:0:0:0:
256,192,36676,1,0,0:0:0:0:
182,192,36676,1,0,0:0:0:0:
36,192,36751,1,0,0:0:0:0:
329,192,36751,1,0,0:0:0:0:
182,192,36826,1,0,0:0:0:0:
109,192,36826,1,0,0:0:0:0:
402,192,36826,1,0,0:0:0:0:
475,192,36901,1,0,0:0:0:0:
256,192,36901,1,0,0:0:0:0:
36,192,36976,1,0,0:0:0:0:
182,192,36976,1,0,0:0:0:0:
329,192,36976,1,0,0:0:0:0:
402,192,37051,1,0,0:0:0:0:
475,192,37051,1,0,0:0:0:0:
36,192,37126,1,0,0:0:0:0:
109,192,37126,1,0,0:0:0:0:
256,192,37126,1,0,0:0:0:0:
182,192,37201,1,0,0:0:0:0:
329,192,37201,1,0,0:0:0:0:
475,192,37276,1,0,0:0:0:0:
36,192,37276,1,0,0:0:0:0:
256,192,37276,1,0,0:0:0:0:
402,192,37276,1,0,0:0:0:0:
182,192,37351,1,0,0:0:0:0:
256,192,37426,1,0,0:0:0:0:
402,192,37426,1,0,0:0:0:0:
109,192,37426,1,0,0:0:0:0:
329,192,37501,1,0,0:0:0:0:
36,192,37501,1,0,0:0:0:0:
475,192,37576,1,0,0:0:0:0:
256,192,37576,1,0,0:0:0:0:
182,192,37576,1,0,0:0:0:0:
329,192,37651,1,0,0:0:0:0:
109,192,37651,1,0,0:0:0:0:
475,192,37726,1,0,0:0:0:0:
402,192,37726,1,0,0:0:0:0:
182,192,37726,1,0,0:0:0:0:
36,192,37801,1,0,0:0:0:0:
256,192,37801,1,0,0:0:0:0:
475,192,37876,1,0,0:0:0:0:
182,192,37876,1,0,0:0:0:0:
329,192,37876,1,0,0:0:0:0:
109,192,37876,1,0,0:0:0:0:
36,192,37951,1,0,0:0:0:0:
402,192,37951,1,0,0:0:0:0:
182,192,38026,1,0,0:0:0:0:
109,192,38026,1,0,0:0:0:0:
329,192,38026,1,0,0:0:0:0:
475,192,38101,1,0,0:0:0:0:
256,192,38101,1,0,0:0:0:0:
402,192,38176,1,0,0:0:0:0:
36,192,38176,1,0,0:0:0:0:
329,192,38176,1,0,0:0:0:0:
109,192,38251,1,0,0:0:0:0:
475,192,38251,1,0,0:0:0:0:
402,192,38326,1,0,0:0:0:0:
182,192,38326,1,0,0:0:0:0:
256,192,38326,1,0,0:0:0:0:
329,192,38401,1,0,0:0:0:0:
36,192,38401,1,0,0:0:0:0:
109,192,38476,1,0,0:0:0:0:
475,192,38476,1,0,0:0:0:0:
256,192,38476,1,0,0:0:0:0:
182,192,38476,1,0,0:0:0:0:
402,192,38551,1,0,0:0:0:0:
36,192,38551,1,0,0:0:0:0:
329,192,38626,1,0,0:0:0:0:
256,192,38626,1,0,0:0:0:0:
109,192,38626,1,0,0:0:0:0:
475,192,38701,1,0,0:0:0:0:
182,192,38701,1,0,0:0:0:0:
109,192,38776,1,0,0:0:0:0:
36,192,38776,1,0,0:0:0:0:
256,192,38776,1,0,0:0:0:0:
475,192,38851,1,0,0:0:0:0:
402,192,38851,1,0,0:0:0:0:
109,192,38926,1,0,0:0:0:0:
182,192,38926,1,0,0:0:0:0:
329,192,38926,1,0,0:0:0:0:
36,192,39001,1,0,0:0:0:0:
256,192,39001,1,0,0:0:0:0:
475,192,39076,1,0,0:0:0:0:
329,192,39076,1,0,0:0:0:0:
182,192,39076,1,0,0:0:0:0:
402,192,39076,1,0,0:0:0:0:
36,192,39151,1,0,0:0:0:0:
109,192,39151,1,0,0:0:0:0:
475,192,39226,1,0,0:0:0:0:
402,192,39226,1,0,0:0:0:0:
182,192,39226,1,0,0:0:0:0:
36,192,39301,1,0,0:0:0:0:
256,192,39301,1,0,0:0:0:0:
109,192,39376,1,0,0:0:0:0:
475,192,39376,1,0,0:0:0:0:
329,192,39376,1,0,0:0:0:0:
182,192,39451,1,0,0:0:0:0:
256,192,39451,1,0,0:0:0:0:
36,192,39526,1,0,0:0:0:0:
329,192,39526,1,0,0:0:0:0:
402,192,39526,1,0,0:0:0:0:
109,192,39601,1,0,0:0:0:0:
182,192,39601,1,0,0:0:0:0:
475,192,39676,1,0,0:0:0:0:
36,192,39676,1,0,0:0:0:0:
256,192,39676,1,0,0:0:0:0:
402,192,39676,1,0,0:0:0:0:
329,192,39751,1,0,0:0:0:0:
182,192,39751,1,0,0:0:0:0:
36,192,39826,1,0,0:0:0:0:
109,192,39826,1,0,0:0:0:0:
475,192,39826,1,0,0:0:0:0:
329,192,39901,1,0,0:0:0:0:
256,192,39901,1,0,0:0:0:0:
402,192,39976,1,0,0:0:0:0:
475,192,39976,1,0,0:0:0:0:
182,192,39976,1,0,0:0:0:0:
109,192,39976,1,0,0:0:0:0:
36,192,40051,1,0,0:0:0:0:
256,192,40051,1,0,0:0:0:0:
109,192,40126,1,0,0:0:0:0:
402,192,40126,1,0,0:0:0:0:
329,192,40126,1,0,0:0:0:0:
36,192,40201,1,0,0:0:0:0:
256,192,40201,1,0,0:0:0:0:
402,192,40276,1,0,0:0:0:0:
329,192,40276,1,0,0:0:0:0:
475,192,40276,1,0,0:0:0:0:
182,192,40276,1,0,0:0:0:0:
36,192,40351,1,0,0:0:0:0:
109,192,40351,1,0,0:0:0:0:
329,192,40426,1,0,0:0:0:0:
475,192,40426,1,0,0:0:0:0:
256,192,40426,1,0,0:0:0:0:
402,192,40501,1,0,0:0:0:0:
182,192,40501,1,0,0:0:0:0:
36,192,40576,1,0,0:0:0:0:
109,192,40576,1,0,0:0:0:0:
256,192,40576,1,0,0:0:0:0:
475,192,40651,1,0,0:0:0:0:
402,192,40651,1,0,0:0:0:0:
36,192,40726,1,0,0:0:0:0:
182,192,40726,1,0,0:0:0:0:
256,192,40726,1,0,0:0:0:0:
109,192,40801,1,0,0:0:0:0:
329,192,40801,1,0,0:0:0:0:
402,192,40876,1,0,0:0:0:0:
36,192,40876,1,0,0:0:0:0:
256,192,40876,1,0,0:0:0:0:
475,192,40876,1,0,0:0:0:0:
109,192,40951,1,0,0:0:0:0:
182,192,40951,1,0,0:0:0:0:
475,192,41026,1,0,0:0:0:0:
402,192,41026,1,0,0:0:0:0:
329,192,41026,1,0,0:0:0:0:
182,192,41101,1,0,0:0:0:0:
256,192,41101,1,0,0:0:0:0:
475,192,41176,1,0,0:0:0:0:
109,192,41176,1,0,0:0:0:0:
36,192,41176,1,0,0:0:0:0:
329,192,41251,1,0,0:0:0:0:
402,192,41251,1,0,0:0:0:0:
36,192,41326,1,0,0:0:0:0:
182,192,41326,1,0,0:0:0:0:
256,192,41326,1,0,0:0:0:0:
475,192,41401,1,0,0:0:0:0:
402,192,41401,1,0,0:0:0:0:
109,192,41476,1,0,0:0:0:0:
36,192,41476,1,0,0:0:0:0:
329,192,41476,1,0,0:0:0:0:
256,192,41476,1,0,0:0:0:0:
182,192,41551,1,0,0:0:0:0:
475,192,41551,1,0,0:0:0:0:
109,192,41626,1,0,0:0:0:0:
329,192,41626,1,0,0:0:0:0:
402,192,41626,1,0,0:0:0:0:
256,192,41701,1,0,0:0:0:0:
182,192,41701,1,0,0:0:0:0:
402,192,41776,1,0,0:0:0:0:
36,192,41776,1,0,0:0:0:0:
475,192,41776,1,0,0:0:0:0:
182,192,41851,1,0,0:0:0:0:
109,192,41851,1,0,0:0:0:0:
256,192,41926,1,0,0:0:0:0:
475,192,41926,1,0,0:0:0:0:
329,192,41926,1,0,0:0:0:0:
109,192,42001,1,0,0:0:0:0:
36,192,42001,1,0,0:0:0:0:
402,192,42076,1,0,0:0:0:0:
475,192,42076,1,0,0:0:0:0:
182,192,42076,1,0,0:0:0:0:
256,192,42076,1,0,0:0:0:0:
329,192,42151,1,0,0:0:0:0:
36,192,42151,1,0,0:0:0:0:
109,192,42226,1,0,0:0:0:0:
402,192,42226,1,0,0:0:0:0:
182,192,42226,1,0,0:0:0:0:
475,192,42301,1,0,0:0:0:0:
256,192,42301,1,0,0:0:0:0:
109,192,42376,1,0,0:0:0:0:
36,192,42376,1,0,0:0:0:0:
329,192,42376,1,0,0:0:0:0:
475,192,42451,1,0,0:0:0:0:
402,192,42451,1,0,0:0:0:0:
36,192,42526,1,0,0:0:0:0:
182,192,42526,1,0,0:0:0:0:
256,192,42526,1,0,0:0:0:0:
109,192,42601,1,0,0:0:0:0:
329,192,42601,1,0,0:0:0:0:
256,192,42676,1,0,0:0:0:0:
36,192,42676,1,0,0:0:0:0:
402,192,42676,1,0,0:0:0:0:
475,192,42676,1,0,0:0:0:0:
329,192,42751,1,0,0:0:0:0:
182,192,42751,1,0,0:0:0:0:
109,192,42826,1,0,0:0:0:0:
402,192,42826,1,0,0:0:0:0:
475,192,42826,1,0,0:0:0:0:
329,192,42901,1,0,0:0:0:0:
182,192,42901,1,0,0:0:0:0:
36,192,42976,1,0,0:0:0:0:
109,192,42976,1,0,0:0:0:0:
256,192,42976,1,0,0:0:0:0:
402,192,43051,1,0,0:0:0:0:
475,192,43051,1,0,0:0:0:0:
256,192,43126,1,0,0:0:0:0:
182,192,43126,1,0,0:0:0:0:
329,192,43126,1,0,0:0:0:0:
475,192,43201,1,0,0:0:0:0:
109,192,43201,1,0,0:0:0:0:
329,192,43276,1,0,0:0:0:0:
402,192,43276,1,0,0:0:0:0:
36,192,43276,1,0,0:0:0:0:
256,192,43276,1,0,0:0:0:0:
109,192,43351,1,0,0:0:0:0:
182,192,43351,1,0,0:0:0:0:
402,192,43426,1,0,0:0:0:0:
475,192,43426,1,0,0:0:0:0:
329,192,43426,1,0,0:0:0:0:
256,192,43501,1,0,0:0:0:0:
36,192,43501,1,0,0:0:0:0:
182,192,43501,1,0,0:0:0:0:
329,192,43576,1,0,0:0:0:0:
109,192,43576,1,0,0:0:0:0:
475,192,43576,1,0,0:0:0:0:
402,192,43651,1,0,0:0:0:0:
256,192,43651,1,0,0:0:0:0:
475,192,43726,1,0,0:0:0:0:
36,192,43726,1,0,0:0:0:0:
182,192,43726,1,0,0:0:0:0:
329,192,43801,1,0,0:0:0:0:
109,192,43801,1,0,0:0:0:0:
182,192,43876,1,0,0:0:0:0:
256,192,43876,1,0,0:0:0:0:
402,192,43876,1,0,0:0:0:0:
475,192,43876,1,0,0:0:0:0:
36,192,43951,1,0,0:0:0:0:
329,192,43951,1,0,0:0:0:0:
402,192,44026,1,0,0:0:0:0:
109,192,44026,1,0,0:0:0:0:
256,192,44026,1,0,0:0:0:0:
475,192,44101,1,0,0:0:0:0:
182,192,44101,1,0,0:0:0:0:
36,192,44176,1,0,0:0:0:0:
256,192,44176,1,0,0:0:0:0:
329,192,44176,1,0,0:0:0:0:
109,192,44251,1,0,0:0:0:0:
182,192,44251,1,0,0:0:0:0:
475,192,44326,1,0,0:0:0:0:
402,192,44326,1,0,0:0:0:0:
329,192,44326,1,0,0:0:0:0:
182,192,44401,1,0,0:0:0:0:
256,192,44401,1,0,0:0:0:0:
475,192,44476,1,0,0:0:0:0:
402,192,44476,1,0,0:0:0:0:
109,192,44476,1,0,0:0:0:0:
36,192,44476,1,0,0:0:0:0:
256,192,44551,1,0,0:0:0:0:
329,192,44626,1,0,0:0:0:0:
475,192,44626,1,0,0:0:0:0:
182,192,44626,1,0,0:0:0:0:
36,192,44626,1,0,0:0:0:0:
256,192,44701,1,0,0:0:0:0:
402,192,44776,1,0,0:0:0:0:
329,192,44776,1,0,0:0:0:0:
182,192,44776,1,0,0:0:0:0:
109,192,44776,1,0,0:0:0:0:
36,192,44851,1,0,0:0:0:0:
256,192,44851,1,0,0:0:0:0:
475,192,44926,1,0,0:0:0:0:
109,192,44926,1,0,0:0:0:0:
329,192,44926,1,0,0:0:0:0:
182,192,45001,1,0,0:0:0:0:
402,192,45001,1,0,0:0:0:0:
36,192,45076,1,0,0:0:0:0:
475,192,45076,1,0,0:0:0:0:
256,192,45076,1,0,0:0:0:0:
109,192,45076,1,0,0:0:0:0:
329,192,45151,1,0,0:0:0:0:
402,192,45151,1,0,0:0:0:0:
36,192,45226,1,0,0:0:0:0:
182,192,45226,1,0,0:0:0:0:
256,192,45226,1,0,0:0:0:0:
475,192,45301,1,0,0:0:0:0:
109,192,45301,1,0,0:0:0:0:
329,192,45376,1,0,0:0:0:0:
256,192,45376,1,0,0:0:0:0:
402,192,45376,1,0,0:0:0:0:
36,192,45451,1,0,0:0:0:0:
182,192,45451,1,0,0:0:0:0:
475,192,45526,1,0,0:0:0:0:
402,192,45526,1,0,0:0:0:0:
109,192,45526,1,0,0:0:0:0:
256,192,45601,1,0,0:0:0:0:
329,192,45601,1,0,0:0:0:0:
109,192,45676,1,0,0:0:0:0:
402,192,45676,1,0,0:0:0:0:
182,192,45676,1,0,0:0:0:0:
36,192,45676,1,0,0:0:0:0:
475,192,45751,1,0,0:0:0:0:
109,192,45826,1,0,0:0:0:0:
329,192,45826,1,0,0:0:0:0:
402,192,45826,1,0,0:0:0:0:
256,192,45826,1,0,0:0:0:0:
36,192,45901,1,0,0:0:0:0:
329,192,45976,1,0,0:0:0:0:
109,192,45976,1,0,0:0:0:0:
182,192,45976,1,0,0:0:0:0:
402,192,45976,1,0,0:0:0:0:
475,192,46051,1,0,0:0:0:0:
256,192,46051,1,0,0:0:0:0:
182,192,46126,1,0,0:0:0:0:
36,192,46126,1,0,0:0:0:0:
402,192,46126,1,0,0:0:0:0:
329,192,46201,1,0,0:0:0:0:
109,192,46201,1,0,0:0:0:0:
36,192,46276,1,0,0:0:0:0:
256,192,46276,1,0,0:0:0:0:
475,192,46276,1,0,0:0:0:0:
402,192,46276,1,0,0:0:0:0:
182,192,46351,1,0,0:0:0:0:
109,192,46351,1,0,0:0:0:0:
475,192,46426,1,0,0:0:0:0:
329,192,46426,1,0,0:0:0:0:
256,192,46426,1,0,0:0:0:0:
36,192,46501,1,0,0:0:0:0:
402,192,46501,1,0,0:0:0:0:
182,192,46576,1,0,0:0:0:0:
256,192,46576,1,0,0:0:0:0:
109,192,46576,1,0,0:0:0:0:
475,192,46651,1,0,0:0:0:0:
329,192,46651,1,0,0:0:0:0:
36,192,46726,1,0,0:0:0:0:
109,192,46726,1,0,0:0:0:0:
402,192,46726,1,0,0:0:0:0:
256,192,46801,1,0,0:0:0:0:
182,192,46801,1,0,0:0:0:0:
402,192,46876,1,0,0:0:0:0:
109,192,46876,1,0,0:0:0:0:
329,192,46876,1,0,0:0:0:0:
475,192,46876,1,0,0:0:0:0:
36,192,46951,1,0,0:0:0:0:
402,192,47026,1,0,0:0:0:0:
182,192,47026,1,0,0:0:0:0:
109,192,47026,1,0,0:0:0:0:
256,192,47026,1,0,0:0:0:0:
475,192,47101,1,0,0:0:0:0:
182,192,47176,1,0,0:0:0:0:
329,192,47176,1,0,0:0:0:0:
109,192,47176,1,0,0:0:0:0:
402,192,47176,1,0,0:0:0:0:
256,192,47251,1,0,0:0:0:0:
36,192,47251,1,0,0:0:0:0:
109,192,47326,1,0,0:0:0:0:
475,192,47326,1,0,0:0:0:0:
329,192,47326,1,0,0:0:0:0:
182,192,47401,1,0,0:0:0:0:
402,192,47401,1,0,0:0:0:0:
36,192,47476,1,0,0:0:0:0:
109,192,47476,1,0,0:0:0:0:
475,192,47476,1,0,0:0:0:0:
256,192,47476,1,0,0:0:0:0:
402,192,47551,1,0,0:0:0:0:
182,192,47626,1,0,0:0:0:0:
109,192,47626,1,0,0:0:0:0:
329,192,47626,1,0,0:0:0:0:
256,192,47626,1,0,0:0:0:0:
36,192,47701,1,0,0:0:0:0:
182,192,47776,1,0,0:0:0:0:
109,192,47776,1,0,0:0:0:0:
402,192,47776,1,0,0:0:0:0:
329,192,47776,1,0,0:0:0:0:
475,192,47851,1,0,0:0:0:0:
256,192,47851,1,0,0:0:0:0:
36,192,47926,1,0,0:0:0:0:
402,192,47926,1,0,0:0:0:0:
182,192,47926,1,0,0:0:0:0:
109,192,48001,1,0,0:0:0:0:
329,192,48001,1,0,0:0:0:0:
402,192,48076,1,0,0:0:0:0:
256,192,48076,1,0,0:0:0:0:
475,192,48076,1,0,0:0:0:0:
36,192,48076,1,0,0:0:0:0:
109,192,48151,1,0,0:0:0:0:
329,192,48226,1,0,0:0:0:0:
475,192,48226,1,0,0:0:0:0:
182,192,48226,1,0,0:0:0:0:
36,192,48226,1,0,0:0:0:0:
402,192,48301,1,0,0:0:0:0:
475,192,48376,1,0,0:0:0:0:
182,192,48376,1,0,0:0:0:0:
256,192,48376,1,0,0:0:0:0:
36,192,48376,1,0,0:0:0:0:
109,192,48451,1,0,0:0:0:0:
329,192,48451,1,0,0:0:0:0:
402,192,48526,1,0,0:0:0:0:
182,192,48526,1,0,0:0:0:0:
475,192,48601,1,0,0:0:0:0:
256,192,48601,1,0,0:0:0:0:
402,192,48676,1,0,0:0:0:0:
329,192,48676,1,0,0:0:0:0:
109,192,48676,1,0,0:0:0:0:
36,192,48676,1,0,0:0:0:0:
256,192,48751,1,0,0:0:0:0:
475,192,48751,1,0,0:0:0:0:
182,192,48826,1,0,0:0:0:0:
402,192,48826,1,0,0:0:0:0:
36,192,48826,1,0,0:0:0:0:
329,192,48901,1,0,0:0:0:0:
109,192,48901,1,0,0:0:0:0:
475,192,48976,1,0,0:0:0:0:
36,192,48976,1,0,0:0:0:0:
182,192,48976,1,0,0:0:0:0:
256,192,48976,1,0,0:0:0:0:
329,192,49051,1,0,0:0:0:0:
109,192,49051,1,0,0:0:0:0:
182,192,49126,1,0,0:0:0:0:
402,192,49126,1,0,0:0:0:0:
256,192,49201,1,0,0:0:0:0:
475,192,49201,1,0,0:0:0:0:
109,192,49276,1,0,0:0:0:0:
36,192,49276,1,0,0:0:0:0:
402,192,49276,1,0,0:0:0:0:
329,192,49276,1,0,0:0:0:0:
475,192,49351,1,0,0:0:0:0:
256,192,49351,1,0,0:0:0:0:
36,192,49426,1,0,0:0:0:0:
402,192,49426,1,0,0:0:0:0:
182,192,49426,1,0,0:0:0:0:
109,192,49501,1,0,0:0:0:0:
329,192,49501,1,0,0:0:0:0:
256,192,49576,1,0,0:0:0:0:
36,192,49576,1,0,0:0:0:0:
475,192,49576,1,0,0:0:0:0:
109,192,49651,1,0,0:0:0:0:
182,192,49726,1,0,0:0:0:0:
256,192,49801,1,0,0:0:0:0:
109,192,49876,1,0,0:0:0:0:
475,192,49876,1,0,0:0:0:0:
329,192,49876,1,0,0:0:0:0:
402,192,49951,1,0,0:0:0:0:
329,192,50026,1,0,0:0:0:0:
256,192,50101,1,0,0:0:0:0:
402,192,50176,1,0,0:0:0:0:
182,192,50176,1,0,0:0:0:0:
109,192,50251,1,0,0:0:0:0:
475,192,50326,1,0,0:0:0:0:
36,192,50326,1,0,0:0:0:0:
402,192,50401,1,0,0:0:0:0:
109,192,50401,1,0,0:0:0:0:
329,192,50476,1,0,0:0:0:0:
182,192,50476,1,0,0:0:0:0:
36,192,50551,1,0,0:0:0:0:
475,192,50551,1,0,0:0:0:0:
256,192,50551,1,0,0:0:0:0:
182,192,50626,1,0,0:0:0:0:
329,192,50626,1,0,0:0:0:0:
109,192,50701,1,0,0:0:0:0:
402,192,50701,1,0,0:0:0:0:
256,192,50776,1,0,0:0:0:0:
36,192,50776,1,0,0:0:0:0:
475,192,50776,1,0,0:0:0:0:
329,192,50926,1,0,0:0:0:0:
109,192,50926,1,0,0:0:0:0:
402,192,51076,1,0,0:0:0:0:
182,192,51076,1,0,0:0:0:0:
329,192,51151,1,0,0:0:0:0:
109,192,51151,1,0,0:0:0:0:
256,192,51226,1,0,0:0:0:0:
36,192,51226,1,0,0:0:0:0:
402,192,51376,1,0,0:0:0:0:
182,192,51376,1,0,0:0:0:0:
329,192,51526,1,0,0:0:0:0:
109,192,51526,1,0,0:0:0:0:
402,192,51601,1,0,0:0:0:0:
182,192,51601,1,0,0:0:0:0:
475,192,51676,1,0,0:0:0:0:
256,192,51676,1,0,0:0:0:0:
182,192,51751,1,0,0:0:0:0:
402,192,51826,1,0,0:0:0:0:
109,192,51826,1,0,0:0:0:0:
36,192,51976,1,0,0:0:0:0:
329,192,51976,1,0,0:0:0:0:
475,192,52126,1,0,0:0:0:0:
256,192,52126,1,0,0:0:0:0:
402,192,52276,1,0,0:0:0:0:
182,192,52276,1,0,0:0:0:0:
329,192,52351,1,0,0:0:0:0:
109,192,52351,1,0,0:0:0:0:
256,192,52426,1,0,0:0:0:0:
36,192,52426,1,0,0:0:0:0:
329,192,52501,1,0,0:0:0:0:
182,192,52576,1,0,0:0:0:0:
402,192,52576,1,0,0:0:0:0:
109,192,52726,1,0,0:0:0:0:
329,192,52726,1,0,0:0:0:0:
402,192,52801,1,0,0:0:0:0:
182,192,52801,1,0,0:0:0:0:
475,192,52876,1,0,0:0:0:0:
256,192,52876,1,0,0:0:0:0:
182,192,52951,1,0,0:0:0:0:
402,192,53026,1,0,0:0:0:0:
109,192,53026,1,0,0:0:0:0:
36,192,53176,1,0,0:0:0:0:
329,192,53176,1,0,0:0:0:0:
475,192,53326,1,0,0:0:0:0:
256,192,53326,1,0,0:0:0:0:
402,192,53476,1,0,0:0:0:0:
182,192,53476,1,0,0:0:0:0:
329,192,53551,1,0,0:0:0:0:
109,192,53551,1,0,0:0:0:0:
256,192,53626,1,0,0:0:0:0:
36,192,53626,1,0,0:0:0:0:
329,192,53701,1,0,0:0:0:0:
182,192,53776,1,0,0:0:0:0:
402,192,53776,1,0,0:0:0:0:
256,192,53926,1,0,0:0:0:0:
36,192,53926,1,0,0:0:0:0:
109,192,54001,1,0,0:0:0:0:
329,192,54001,1,0,0:0:0:0:
182,192,54076,1,0,0:0:0:0:
402,192,54076,1,0,0:0:0:0:
475,192,54226,1,0,0:0:0:0:
256,192,54226,1,0,0:0:0:0:
36,192,54376,1,0,0:0:0:0:
329,192,54376,1,0,0:0:0:0:
475,192,54526,1,0,0:0:0:0:
256,192,54526,1,0,0:0:0:0:
402,192,54676,1,0,0:0:0:0:
182,192,54676,1,0,0:0:0:0:
109,192,54751,1,0,0:0:0:0:
329,192,54751,1,0,0:0:0:0:
36,192,54826,1,0,0:0:0:0:
256,192,54826,1,0,0:0:0:0:
329,192,54901,1,0,0:0:0:0:
182,192,54976,1,0,0:0:0:0:
402,192,54976,1,0,0:0:0:0:
329,192,55126,1,0,0:0:0:0:
109,192,55126,1,0,0:0:0:0:
402,192,55201,1,0,0:0:0:0:
182,192,55201,1,0,0:0:0:0:
475,192,55276,1,0,0:0:0:0:
256,192,55276,1,0,0:0:0:0:
109,192,55426,1,0,0:0:0:0:
329,192,55426,1,0,0:0:0:0:
256,192,55576,1,0,0:0:0:0:
36,192,55576,1,0,0:0:0:0:
182,192,55726,1,0,0:0:0:0:
402,192,55726,1,0,0:0:0:0:
36,192,55876,1,0,0:0:0:0:
256,192,55876,1,0,0:0:0:0:
109,192,55951,1,0,0:0:0:0:
329,192,55951,1,0,0:0:0:0:
182,192,56026,1,0,0:0:0:0:
402,192,56026,1,0,0:0:0:0:
329,192,56101,1,0,0:0:0:0:
36,192,56176,1,0,0:0:0:0:
256,192,56176,1,0,0:0:0:0:
402,192,56326,1,0,0:0:0:0:
182,192,56326,1,0,0:0:0:0:
329,192,56401,1,0,0:0:0:0:
109,192,56401,1,0,0:0:0:0:
256,192,56476,1,0,0:0:0:0:
36,192,56476,1,0,0:0:0:0:
475,192,56626,1,0,0:0:0:0:
182,192,56626,1,0,0:0:0:0:
36,192,56776,1,0,0:0:0:0:
329,192,56776,1,0,0:0:0:0:
182,192,56926,1,0,0:0:0:0:
475,192,56926,1,0,0:0:0:0:
109,192,57076,1,0,0:0:0:0:
329,192,57076,1,0,0:0:0:0:
182,192,57151,1,0,0:0:0:0:
402,192,57151,1,0,0:0:0:0:
256,192,57226,1,0,0:0:0:0:
475,192,57226,1,0,0:0:0:0:
36,192,57376,1,0,0:0:0:0:
329,192,57376,1,0,0:0:0:0:
109,192,57526,1,0,0:0:0:0:
402,192,57526,1,0,0:0:0:0:
182,192,57601,1,0,0:0:0:0:
329,192,57601,1,0,0:0:0:0:
36,192,57676,1,0,0:0:0:0:
475,192,57676,1,0,0:0:0:0:
256,192,57676,1,0,0:0:0:0:
329,192,57751,1,0,0:0:0:0:
182,192,57751,1,0,0:0:0:0:
402,192,57826,1,0,0:0:0:0:
109,192,57826,1,0,0:0:0:0:
475,192,57976,1,0,0:0:0:0:
36,192,57976,1,0,0:0:0:0:
256,192,57976,1,0,0:0:0:0:
329,192,58126,1,0,0:0:0:0:
182,192,58126,1,0,0:0:0:0:
475,192,58276,1,0,0:0:0:0:
256,192,58276,1,0,0:0:0:0:
402,192,58351,1,0,0:0:0:0:
182,192,58351,1,0,0:0:0:0:
329,192,58426,1,0,0:0:0:0:
109,192,58426,1,0,0:0:0:0:
402,192,58501,1,0,0:0:0:0:
475,192,58576,1,0,0:0:0:0:
182,192,58576,1,0,0:0:0:0:
256,192,58726,1,0,0:0:0:0:
36,192,58726,1,0,0:0:0:0:
329,192,58801,1,0,0:0:0:0:
109,192,58801,1,0,0:0:0:0:
402,192,58876,1,0,0:0:0:0:
182,192,58876,1,0,0:0:0:0:
329,192,58951,1,0,0:0:0:0:
36,192,59026,1,0,0:0:0:0:
256,192,59026,1,0,0:0:0:0:
475,192,59176,1,0,0:0:0:0:
182,192,59176,1,0,0:0:0:0:
36,192,59326,1,0,0:0:0:0:
402,192,59326,1,0,0:0:0:0:
329,192,59476,1,0,0:0:0:0:
109,192,59476,1,0,0:0:0:0:
402,192,59551,1,0,0:0:0:0:
182,192,59551,1,0,0:0:0:0:
475,192,59626,1,0,0:0:0:0:
256,192,59626,1,0,0:0:0:0:
36,192,59776,1,0,0:0:0:0:
329,192,59776,1,0,0:0:0:0:
182,192,59926,1,0,0:0:0:0:
475,192,59926,1,0,0:0:0:0:
402,192,60001,1,0,0:0:0:0:
36,192,60076,1,0,0:0:0:0:
329,192,60076,1,0,0:0:0:0:
256,192,60151,1,0,0:0:0:0:
475,192,60226,1,0,0:0:0:0:
182,192,60226,1,0,0:0:0:0:
109,192,60301,1,0,0:0:0:0:
402,192,60376,1,0,0:0:0:0:
256,192,60376,1,0,0:0:0:0:
36,192,60376,1,0,0:0:0:0:
329,192,60376,1,0,0:0:0:0:
109,192,60451,1,0,0:0:0:0:
182,192,60451,1,0,0:0:0:0:
402,192,60526,1,0,0:0:0:0:
329,192,60526,1,0,0:0:0:0:
475,192,60676,1,0,0:0:0:0:
36,192,60676,1,0,0:0:0:0:
109,192,60676,1,0,0:0:0:0:
182,192,60751,1,0,0:0:0:0:
256,192,60751,1,0,0:0:0:0:
329,192,60826,1,0,0:0:0:0:
402,192,60826,1,0,0:0:0:0:
109,192,60901,1,0,0:0:0:0:
182,192,60901,1,0,0:0:0:0:
256,192,60976,1,0,0:0:0:0:
475,192,60976,1,0,0:0:0:0:
329,192,60976,1,0,0:0:0:0:
402,192,60976,1,0,0:0:0:0:
36,192,61126,1,0,0:0:0:0:
109,192,61126,1,0,0:0:0:0:
402,192,61201,1,0,0:0:0:0:
329,192,61201,1,0,0:0:0:0:
256,192,61276,1,0,0:0:0:0:
109,192,61276,1,0,0:0:0:0:
182,192,61276,1,0,0:0:0:0:
475,192,61351,1,0,0:0:0:0:
402,192,61351,1,0,0:0:0:0:
109,192,61426,1,0,0:0:0:0:
36,192,61426,1,0,0:0:0:0:
256,192,61426,1,0,0:0:0:0:
182,192,61426,1,0,0:0:0:0:
402,192,61576,1,0,0:0:0:0:
475,192,61576,1,0,0:0:0:0:
329,192,61576,1,0,0:0:0:0:
256,192,61576,1,0,0:0:0:0:
329,192,61726,1,0,0:0:0:0:
36,192,61726,1,0,0:0:0:0:
109,192,61726,1,0,0:0:0:0:
475,192,61876,1,0,0:0:0:0:
182,192,61876,1,0,0:0:0:0:
256,192,61876,1,0,0:0:0:0:
402,192,61876,1,0,0:0:0:0:
36,192,61951,1,0,0:0:0:0:
109,192,61951,1,0,0:0:0:0:
402,192,62026,1,0,0:0:0:0:
475,192,62026,1,0,0:0:0:0:
182,192,62026,1,0,0:0:0:0:
329,192,62026,1,0,0:0:0:0:
256,192,62176,1,0,0:0:0:0:
329,192,62176,1,0,0:0:0:0:
109,192,62176,1,0,0:0:0:0:
36,192,62176,1,0,0:0:0:0:
475,192,62251,1,0,0:0:0:0:
402,192,62251,1,0,0:0:0:0:
109,192,62326,1,0,0:0:0:0:
36,192,62326,1,0,0:0:0:0:
329,192,62326,1,0,0:0:0:0:
182,192,62326,1,0,0:0:0:0:
475,192,62476,1,0,0:0:0:0:
402,192,62476,1,0,0:0:0:0:
256,192,62476,1,0,0:0:0:0:
329,192,62551,1,0,0:0:0:0:
402,192,62626,1,0,0:0:0:0:
475,192,62626,1,0,0:0:0:0:
182,192,62626,1,0,0:0:0:0:
256,192,62776,1,0,0:0:0:0:
36,192,62776,1,0,0:0:0:0:
109,192,62776,1,0,0:0:0:0:
402,192,62851,1,0,0:0:0:0:
329,192,62851,1,0,0:0:0:0:
475,192,62926,1,0,0:0:0:0:
109,192,62926,1,0,0:0:0:0:
182,192,62926,1,0,0:0:0:0:
402,192,63076,1,0,0:0:0:0:
36,192,63076,1,0,0:0:0:0:
182,192,63076,1,0,0:0:0:0:
256,192,63076,1,0,0:0:0:0:
329,192,63151,1,0,0:0:0:0:
402,192,63226,1,0,0:0:0:0:
256,192,63226,1,0,0:0:0:0:
475,192,63226,1,0,0:0:0:0:
182,192,63301,1,0,0:0:0:0:
109,192,63301,1,0,0:0:0:0:
402,192,63376,1,0,0:0:0:0:
329,192,63376,1,0,0:0:0:0:
36,192,63376,1,0,0:0:0:0:
109,192,63526,1,0,0:0:0:0:
256,192,63526,1,0,0:0:0:0:
329,192,63526,1,0,0:0:0:0:
475,192,63601,1,0,0:0:0:0:
402,192,63601,1,0,0:0:0:0:
109,192,63676,1,0,0:0:0:0:
182,192,63676,1,0,0:0:0:0:
256,192,63676,1,0,0:0:0:0:
329,192,63751,1,0,0:0:0:0:
475,192,63826,1,0,0:0:0:0:
36,192,63826,1,0,0:0:0:0:
402,192,63826,1,0,0:0:0:0:
329,192,63976,1,0,0:0:0:0:
109,192,63976,1,0,0:0:0:0:
36,192,63976,1,0,0:0:0:0:
402,192,64126,1,0,0:0:0:0:
182,192,64126,1,0,0:0:0:0:
109,192,64126,1,0,0:0:0:0:
329,192,64201,1,0,0:0:0:0:
256,192,64276,1,0,0:0:0:0:
182,192,64276,1,0,0:0:0:0:
402,192,64351,1,0,0:0:0:0:
36,192,64351,1,0,0:0:0:0:
475,192,64351,1,0,0:0:0:0:
109,192,64426,1,0,0:0:0:0:
329,192,64426,1,0,0:0:0:0:
256,192,64426,1,0,0:0:0:0:
475,192,64576,1,0,0:0:0:0:
182,192,64576,1,0,0:0:0:0:
329,192,64576,1,0,0:0:0:0:
402,192,64576,1,0,0:0:0:0:
256,192,64726,1,0,0:0:0:0:
329,192,64726,1,0,0:0:0:0:
36,192,64801,1,0,0:0:0:0:
475,192,64801,1,0,0:0:0:0:
109,192,64801,1,0,0:0:0:0:
182,192,64876,1,0,0:0:0:0:
329,192,64876,1,0,0:0:0:0:
402,192,64876,1,0,0:0:0:0:
256,192,64876,1,0,0:0:0:0:
402,192,65026,1,0,0:0:0:0:
109,192,65026,1,0,0:0:0:0:
182,192,65026,1,0,0:0:0:0:
256,192,65176,1,0,0:0:0:0:
475,192,65176,1,0,0:0:0:0:
109,192,65176,1,0,0:0:0:0:
36,192,65176,1,0,0:0:0:0:
329,192,65251,1,0,0:0:0:0:
402,192,65251,1,0,0:0:0:0:
475,192,65326,1,0,0:0:0:0:
182,192,65326,1,0,0:0:0:0:
256,192,65326,1,0,0:0:0:0:
36,192,65401,1,0,0:0:0:0:
109,192,65401,1,0,0:0:0:0:
182,192,65476,1,0,0:0:0:0:
475,192,65476,1,0,0:0:0:0:
402,192,65476,1,0,0:0:0:0:
329,192,65551,1,0,0:0:0:0:
256,192,65551,1,0,0:0:0:0:
36,192,65626,1,0,0:0:0:0:
109,192,65626,1,0,0:0:0:0:
402,192,65701,1,0,0:0:0:0:
329,192,65701,1,0,0:0:0:0:
36,192,65776,1,0,0:0:0:0:
475,192,65776,1,0,0:0:0:0:
256,192,65776,1,0,0:0:0:0:
182,192,65776,1,0,0:0:0:0:
402,192,65851,1,0,0:0:0:0:
109,192,65851,1,0,0:0:0:0:
329,192,65926,1,0,0:0:0:0:
256,192,65926,1,0,0:0:0:0:
109,192,66001,1,0,0:0:0:0:
182,192,66001,1,0,0:0:0:0:
36,192,66076,1,0,0:0:0:0:
475,192,66076,1,0,0:0:0:0:
402,192,66076,1,0,0:0:0:0:
182,192,66151,1,0,0:0:0:0:
256,192,66151,1,0,0:0:0:0:
402,192,66226,1,0,0:0:0:0:
109,192,66226,1,0,0:0:0:0:
329,192,66301,1,0,0:0:0:0:
256,192,66301,1,0,0:0:0:0:
475,192,66376,1,0,0:0:0:0:
402,192,66376,1,0,0:0:0:0:
182,192,66376,1,0,0:0:0:0:
36,192,66376,1,0,0:0:0:0:
109,192,66451,1,0,0:0:0:0:
329,192,66451,1,0,0:0:0:0:
475,192,66526,1,0,0:0:0:0:
182,192,66526,1,0,0:0:0:0:
256,192,66526,1,0,0:0:0:0:
36,192,66601,1,0,0:0:0:0:
109,192,66601,1,0,0:0:0:0:
402,192,66676,1,0,0:0:0:0:
475,192,66676,1,0,0:0:0:0:
256,192,66676,1,0,0:0:0:0:
329,192,66676,1,0,0:0:0:0:
36,192,66751,1,0,0:0:0:0:
182,192,66751,1,0,0:0:0:0:
402,192,66826,1,0,0:0:0:0:
329,192,66826,1,0,0:0:0:0:
109,192,66826,1,0,0:0:0:0:
475,192,66901,1,0,0:0:0:0:
256,192,66901,1,0,0:0:0:0:
402,192,66976,1,0,0:0:0:0:
109,192,66976,1,0,0:0:0:0:
182,192,66976,1,0,0:0:0:0:
36,192,66976,1,0,0:0:0:0:
256,192,67051,1,0,0:0:0:0:
329,192,67051,1,0,0:0:0:0:
402,192,67126,1,0,0:0:0:0:
182,192,67126,1,0,0:0:0:0:
475,192,67126,1,0,0:0:0:0:
329,192,67201,1,0,0:0:0:0:
109,192,67201,1,0,0:0:0:0:
36,192,67276,1,0,0:0:0:0:
475,192,67276,1,0,0:0:0:0:
402,192,67276,1,0,0:0:0:0:
182,192,67351,1,0,0:0:0:0:
256,192,67351,1,0,0:0:0:0:
36,192,67426,1,0,0:0:0:0:
109,192,67426,1,0,0:0:0:0:
475,192,67426,1,0,0:0:0:0:
256,192,67501,1,0,0:0:0:0:
329,192,67501,1,0,0:0:0:0:
182,192,67576,1,0,0:0:0:0:
36,192,67576,1,0,0:0:0:0:
402,192,67576,1,0,0:0:0:0:
475,192,67576,1,0,0:0:0:0:
329,192,67651,1,0,0:0:0:0:
256,192,67651,1,0,0:0:0:0:
182,192,67726,1,0,0:0:0:0:
109,192,67726,1,0,0:0:0:0:
402,192,67726,1,0,0:0:0:0:
475,192,67801,1,0,0:0:0:0:
36,192,67801,1,0,0:0:0:0:
402,192,67876,1,0,0:0:0:0:
256,192,67876,1,0,0:0:0:0:
182,192,67876,1,0,0:0:0:0:
329,192,67951,1,0,0:0:0:0:
109,192,67951,1,0,0:0:0:0:
182,192,68026,1,0,0:0:0:0:
475,192,68026,1,0,0:0:0:0:
402,192,68026,1,0,0:0:0:0:
36,192,68101,1,0,0:0:0:0:
256,192,68101,1,0,0:0:0:0:
329,192,68101,1,0,0:0:0:0:
475,192,68176,1,0,0:0:0:0:
402,192,68176,1,0,0:0:0:0:
109,192,68176,1,0,0:0:0:0:
182,192,68176,1,0,0:0:0:0:
36,192,68251,1,0,0:0:0:0:
329,192,68251,1,0,0:0:0:0:
475,192,68326,1,0,0:0:0:0:
182,192,68326,1,0,0:0:0:0:
109,192,68326,1,0,0:0:0:0:
36,192,68401,1,0,0:0:0:0:
402,192,68401,1,0,0:0:0:0:
256,192,68401,1,0,0:0:0:0:
475,192,68476,1,0,0:0:0:0:
109,192,68476,1,0,0:0:0:0:
329,192,68476,1,0,0:0:0:0:
402,192,68551,1,0,0:0:0:0:
182,192,68551,1,0,0:0:0:0:
256,192,68551,1,0,0:0:0:0:
475,192,68626,1,0,0:0:0:0:
36,192,68626,1,0,0:0:0:0:
329,192,68626,1,0,0:0:0:0:
256,192,68701,1,0,0:0:0:0:
182,192,68701,1,0,0:0:0:0:
475,192,68776,1,0,0:0:0:0:
36,192,68776,1,0,0:0:0:0:
329,192,68776,1,0,0:0:0:0:
402,192,68776,1,0,0:0:0:0:
109,192,68851,1,0,0:0:0:0:
182,192,68851,1,0,0:0:0:0:
36,192,68926,1,0,0:0:0:0:
402,192,68926,1,0,0:0:0:0:
256,192,68926,1,0,0:0:0:0:
475,192,69001,1,0,0:0:0:0:
109,192,69001,1,0,0:0:0:0:
182,192,69076,1,0,0:0:0:0:
256,192,69076,1,0,0:0:0:0:
329,192,69076,1,0,0:0:0:0:
402,192,69076,1,0,0:0:0:0:
36,192,69151,1,0,0:0:0:0:
109,192,69226,1,0,0:0:0:0:
256,192,69226,1,0,0:0:0:0:
329,192,69226,1,0,0:0:0:0:
182,192,69226,1,0,0:0:0:0:
475,192,69301,1,0,0:0:0:0:
36,192,69376,1,0,0:0:0:0:
182,192,69376,1,0,0:0:0:0:
402,192,69376,1,0,0:0:0:0:
329,192,69451,1,0,0:0:0:0:
475,192,69451,1,0,0:0:0:0:
256,192,69451,1,0,0:0:0:0:
109,192,69451,1,0,0:0:0:0:
402,192,69526,1,0,0:0:0:0:
182,192,69526,1,0,0:0:0:0:
36,192,69601,1,0,0:0:0:0:
256,192,69601,1,0,0:0:0:0:
329,192,69676,1,0,0:0:0:0:
109,192,69676,1,0,0:0:0:0:
402,192,69751,1,0,0:0:0:0:
182,192,69751,1,0,0:0:0:0:
36,192,69826,1,0,0:0:0:0:
475,192,69826,1,0,0:0:0:0:
256,192,69826,1,0,0:0:0:0:
182,192,69901,1,0,0:0:0:0:
329,192,69901,1,0,0:0:0:0:
256,192,69976,1,0,0:0:0:0:
109,192,69976,1,0,0:0:0:0:
36,192,69976,1,0,0:0:0:0:
475,192,69976,1,0,0:0:0:0:
402,192,70051,1,0,0:0:0:0:
329,192,70051,1,0,0:0:0:0:
256,192,70126,1,0,0:0:0:0:
182,192,70126,1,0,0:0:0:0:
36,192,70126,1,0,0:0:0:0:
402,192,70201,1,0,0:0:0:0:
475,192,70201,1,0,0:0:0:0:
329,192,70276,1,0,0:0:0:0:
256,192,70276,1,0,0:0:0:0:
182,192,70276,1,0,0:0:0:0:
109,192,70276,1,0,0:0:0:0:
36,192,70276,1,0,0:0:0:0:
475,192,70351,1,0,0:0:0:0:
402,192,70351,1,0,0:0:0:0:
329,192,70426,1,0,0:0:0:0:
182,192,70426,1,0,0:0:0:0:
109,192,70426,1,0,0:0:0:0:
36,192,70501,1,0,0:0:0:0:
256,192,70501,1,0,0:0:0:0:
109,192,70576,1,0,0:0:0:0:
329,192,70576,1,0,0:0:0:0:
475,192,70576,1,0,0:0:0:0:
402,192,70576,1,0,0:0:0:0:
256,192,70651,1,0,0:0:0:0:
182,192,70651,1,0,0:0:0:0:
329,192,70726,1,0,0:0:0:0:
36,192,70726,1,0,0:0:0:0:
475,192,70726,1,0,0:0:0:0:
109,192,70801,1,0,0:0:0:0:
402,192,70801,1,0,0:0:0:0:
329,192,70876,1,0,0:0:0:0:
256,192,70876,1,0,0:0:0:0:
36,192,70876,1,0,0:0:0:0:
182,192,70876,1,0,0:0:0:0:
475,192,70876,1,0,0:0:0:0:
402,192,70951,1,0,0:0:0:0:
109,192,70951,1,0,0:0:0:0:
256,192,71026,1,0,0:0:0:0:
182,192,71026,1,0,0:0:0:0:
36,192,71026,1,0,0:0:0:0:
329,192,71101,1,0,0:0:0:0:
402,192,71101,1,0,0:0:0:0:
475,192,71176,1,0,0:0:0:0:
256,192,71176,1,0,0:0:0:0:
109,192,71176,1,0,0:0:0:0:
182,192,71176,1,0,0:0:0:0:
36,192,71251,1,0,0:0:0:0:
329,192,71251,1,0,0:0:0:0:
109,192,71326,1,0,0:0:0:0:
402,192,71326,1,0,0:0:0:0:
475,192,71326,1,0,0:0:0:0:
182,192,71401,1,0,0:0:0:0:
256,192,71401,1,0,0:0:0:0:
329,192,71476,1,0,0:0:0:0:
402,192,71476,1,0,0:0:0:0:
475,192,71476,1,0,0:0:0:0:
36,192,71476,1,0,0:0:0:0:
109,192,71476,1,0,0:0:0:0:
256,192,71551,1,0,0:0:0:0:
182,192,71551,1,0,0:0:0:0:
329,192,71626,1,0,0:0:0:0:
109,192,71626,1,0,0:0:0:0:
402,192,71626,1,0,0:0:0:0:
36,192,71701,1,0,0:0:0:0:
475,192,71701,1,0,0:0:0:0:
182,192,71776,1,0,0:0:0:0:
256,192,71776,1,0,0:0:0:0:
329,192,71776,1,0,0:0:0:0:
109,192,71776,1,0,0:0:0:0:
475,192,71851,1,0,0:0:0:0:
402,192,71851,1,0,0:0:0:0:
329,192,71926,1,0,0:0:0:0:
182,192,71926,1,0,0:0:0:0:
36,192,71926,1,0,0:0:0:0:
109,192,72001,1,0,0:0:0:0:
402,192,72001,1,0,0:0:0:0:
329,192,72076,1,0,0:0:0:0:
182,192,72076,1,0,0:0:0:0:
36,192,72076,1,0,0:0:0:0:
256,192,72076,1,0,0:0:0:0:
475,192,72076,1,0,0:0:0:0:
109,192,72151,1,0,0:0:0:0:
402,192,72151,1,0,0:0:0:0:
36,192,72226,1,0,0:0:0:0:
475,192,72226,1,0,0:0:0:0:
256,192,72226,1,0,0:0:0:0:
329,192,72301,1,0,0:0:0:0:
182,192,72301,1,0,0:0:0:0:
402,192,72376,1,0,0:0:0:0:
256,192,72376,1,0,0:0:0:0:
109,192,72376,1,0,0:0:0:0:
475,192,72376,1,0,0:0:0:0:
36,192,72451,1,0,0:0:0:0:
329,192,72451,1,0,0:0:0:0:
256,192,72526,1,0,0:0:0:0:
182,192,72526,1,0,0:0:0:0:
402,192,72526,1,0,0:0:0:0:
109,192,72601,1,0,0:0:0:0:
475,192,72601,1,0,0:0:0:0:
182,192,72676,1,0,0:0:0:0:
36,192,72676,1,0,0:0:0:0:
256,192,72676,1,0,0:0:0:0:
329,192,72676,1,0,0:0:0:0:
402,192,72676,1,0,0:0:0:0:
475,192,72751,1,0,0:0:0:0:
109,192,72751,1,0,0:0:0:0:
182,192,72826,1,0,0:0:0:0:
329,192,72826,1,0,0:0:0:0:
36,192,72826,1,0,0:0:0:0:
402,192,72901,1,0,0:0:0:0:
256,192,72901,1,0,0:0:0:0:
109,192,72976,1,0,0:0:0:0:
36,192,72976,1,0,0:0:0:0:
329,192,72976,1,0,0:0:0:0:
475,192,72976,1,0,0:0:0:0:
182,192,73051,1,0,0:0:0:0:
402,192,73051,1,0,0:0:0:0:
109,192,73126,1,0,0:0:0:0:
256,192,73126,1,0,0:0:0:0:
475,192,73201,1,0,0:0:0:0:
329,192,73201,1,0,0:0:0:0:
402,192,73276,1,0,0:0:0:0:
182,192,73276,1,0,0:0:0:0:
256,192,73276,1,0,0:0:0:0:
109,192,73276,1,0,0:0:0:0:
36,192,73276,1,0,0:0:0:0:
329,192,73351,1,0,0:0:0:0:
475,192,73351,1,0,0:0:0:0:
109,192,73426,1,0,0:0:0:0:
36,192,73426,1,0,0:0:0:0:
182,192,73426,1,0,0:0:0:0:
329,192,73501,1,0,0:0:0:0:
402,192,73501,1,0,0:0:0:0:
256,192,73576,1,0,0:0:0:0:
475,192,73576,1,0,0:0:0:0:
182,192,73576,1,0,0:0:0:0:
36,192,73576,1,0,0:0:0:0:
402,192,73651,1,0,0:0:0:0:
109,192,73726,1,0,0:0:0:0:
329,192,73726,1,0,0:0:0:0:
475,192,73726,1,0,0:0:0:0:
256,192,73726,1,0,0:0:0:0:
36,192,73801,1,0,0:0:0:0:
402,192,73876,1,0,0:0:0:0:
475,192,73876,1,0,0:0:0:0:
182,192,73876,1,0,0:0:0:0:
256,192,73876,1,0,0:0:0:0:
109,192,73876,1,0,0:0:0:0:
329,192,73951,1,0,0:0:0:0:
256,192,74026,1,0,0:0:0:0:
402,192,74026,1,0,0:0:0:0:
36,192,74026,1,0,0:0:0:0:
109,192,74026,1,0,0:0:0:0:
182,192,74101,1,0,0:0:0:0:
329,192,74101,1,0,0:0:0:0:
109,192,74176,1,0,0:0:0:0:
36,192,74176,1,0,0:0:0:0:
402,192,74176,1,0,0:0:0:0:
475,192,74176,1,0,0:0:0:0:
256,192,74251,1,0,0:0:0:0:
182,192,74251,1,0,0:0:0:0:
329,192,74326,1,0,0:0:0:0:
109,192,74326,1,0,0:0:0:0:
475,192,74326,1,0,0:0:0:0:
402,192,74401,1,0,0:0:0:0:
36,192,74401,1,0,0:0:0:0:
256,192,74476,1,0,0:0:0:0:
182,192,74476,1,0,0:0:0:0:
329,192,74476,1,0,0:0:0:0:
109,192,74476,1,0,0:0:0:0:
475,192,74476,1,0,0:0:0:0:
402,192,74551,1,0,0:0:0:0:
36,192,74551,1,0,0:0:0:0:
329,192,74626,1,0,0:0:0:0:
182,192,74626,1,0,0:0:0:0:
256,192,74626,1,0,0:0:0:0:
36,192,74701,1,0,0:0:0:0:
475,192,74701,1,0,0:0:0:0:
109,192,74701,1,0,0:0:0:0:
256,192,74776,1,0,0:0:0:0:
329,192,74776,1,0,0:0:0:0:
402,192,74776,1,0,0:0:0:0:
182,192,74776,1,0,0:0:0:0:
109,192,74851,1,0,0:0:0:0:
475,192,74851,1,0,0:0:0:0:
36,192,74926,1,0,0:0:0:0:
256,192,74926,1,0,0:0:0:0:
402,192,74926,1,0,0:0:0:0:
182,192,75001,1,0,0:0:0:0:
329,192,75001,1,0,0:0:0:0:
109,192,75076,1,0,0:0:0:0:
36,192,75076,1,0,0:0:0:0:
256,192,75076,1,0,0:0:0:0:
475,192,75076,1,0,0:0:0:0:
402,192,75076,1,0,0:0:0:0:
329,192,75151,1,0,0:0:0:0:
182,192,75151,1,0,0:0:0:0:
475,192,75226,1,0,0:0:0:0:
109,192,75226,1,0,0:0:0:0:
36,192,75226,1,0,0:0:0:0:
402,192,75301,1,0,0:0:0:0:
329,192,75301,1,0,0:0:0:0:
256,192,75376,1,0,0:0:0:0:
182,192,75376,1,0,0:0:0:0:
109,192,75376,1,0,0:0:0:0:
475,192,75376,1,0,0:0:0:0:
36,192,75451,1,0,0:0:0:0:
402,192,75451,1,0,0:0:0:0:
329,192,75526,1,0,0:0:0:0:
182,192,75526,1,0,0:0:0:0:
256,192,75526,1,0,0:0:0:0:
36,192,75601,1,0,0:0:0:0:
109,192,75601,1,0,0:0:0:0:
182,192,75676,1,0,0:0:0:0:
475,192,75676,1,0,0:0:0:0:
402,192,75676,1,0,0:0:0:0:
329,192,75676,1,0,0:0:0:0:
256,192,75676,1,0,0:0:0:0:
109,192,75751,1,0,0:0:0:0:
36,192,75751,1,0,0:0:0:0:
329,192,75826,1,0,0:0:0:0:
402,192,75826,1,0,0:0:0:0:
475,192,75826,1,0,0:0:0:0:
256,192,75901,1,0,0:0:0:0:
109,192,75901,1,0,0:0:0:0:
182,192,75976,1,0,0:0:0:0:
36,192,75976,1,0,0:0:0:0:
402,192,75976,1,0,0:0:0:0:
475,192,75976,1,0,0:0:0:0:
329,192,76051,1,0,0:0:0:0:
109,192,76051,1,0,0:0:0:0:
182,192,76126,1,0,0:0:0:0:
36,192,76126,1,0,0:0:0:0:
256,192,76126,1,0,0:0:0:0:
402,192,76201,1,0,0:0:0:0:
329,192,76201,1,0,0:0:0:0:
256,192,76276,1,0,0:0:0:0:
182,192,76276,1,0,0:0:0:0:
109,192,76276,1,0,0:0:0:0:
36,192,76276,1,0,0:0:0:0:
475,192,76276,1,0,0:0:0:0:
329,192,76351,1,0,0:0:0:0:
402,192,76351,1,0,0:0:0:0:
109,192,76426,1,0,0:0:0:0:
256,192,76426,1,0,0:0:0:0:
475,192,76426,1,0,0:0:0:0:
36,192,76501,1,0,0:0:0:0:
402,192,76501,1,0,0:0:0:0:
182,192,76576,1,0,0:0:0:0:
109,192,76576,1,0,0:0:0:0:
329,192,76576,1,0,0:0:0:0:
475,192,76576,1,0,0:0:0:0:
256,192,76651,1,0,0:0:0:0:
36,192,76651,1,0,0:0:0:0:
109,192,76726,1,0,0:0:0:0:
402,192,76726,1,0,0:0:0:0:
329,192,76726,1,0,0:0:0:0:
182,192,76801,1,0,0:0:0:0:
475,192,76801,1,0,0:0:0:0:
36,192,76876,1,0,0:0:0:0:
402,192,76876,1,0,0:0:0:0:
109,192,76876,1,0,0:0:0:0:
256,192,76876,1,0,0:0:0:0:
329,192,76951,1,0,0:0:0:0:
182,192,76951,1,0,0:0:0:0:
256,192,77026,1,0,0:0:0:0:
402,192,77026,1,0,0:0:0:0:
475,192,77026,1,0,0:0:0:0:
182,192,77101,1,0,0:0:0:0:
329,192,77101,1,0,0:0:0:0:
475,192,77176,1,0,0:0:0:0:
402,192,77176,1,0,0:0:0:0:
36,192,77176,1,0,0:0:0:0:
109,192,77176,1,0,0:0:0:0:
182,192,77251,1,0,0:0:0:0:
329,192,77251,1,0,0:0:0:0:
475,192,77326,1,0,0:0:0:0:
256,192,77326,1,0,0:0:0:0:
109,192,77326,1,0,0:0:0:0:
402,192,77401,1,0,0:0:0:0:
36,192,77401,1,0,0:0:0:0:
329,192,77401,1,0,0:0:0:0:
109,192,77476,1,0,0:0:0:0:
256,192,77476,1,0,0:0:0:0:
475,192,77476,1,0,0:0:0:0:
182,192,77476,1,0,0:0:0:0:
36,192,77551,1,0,0:0:0:0:
402,192,77551,1,0,0:0:0:0:
182,192,77626,1,0,0:0:0:0:
109,192,77626,1,0,0:0:0:0:
329,192,77626,1,0,0:0:0:0:
402,192,77701,1,0,0:0:0:0:
256,192,77701,1,0,0:0:0:0:
475,192,77701,1,0,0:0:0:0:
329,192,77776,1,0,0:0:0:0:
109,192,77776,1,0,0:0:0:0:
182,192,77776,1,0,0:0:0:0:
36,192,77776,1,0,0:0:0:0:
475,192,77851,1,0,0:0:0:0:
256,192,77851,1,0,0:0:0:0:
36,192,77926,1,0,0:0:0:0:
402,192,77926,1,0,0:0:0:0:
182,192,77926,1,0,0:0:0:0:
329,192,78001,1,0,0:0:0:0:
109,192,78001,1,0,0:0:0:0:
475,192,78001,1,0,0:0:0:0:
256,192,78076,1,0,0:0:0:0:
182,192,78076,1,0,0:0:0:0:
36,192,78076,1,0,0:0:0:0:
402,192,78076,1,0,0:0:0:0:
329,192,78151,1,0,0:0:0:0:
109,192,78151,1,0,0:0:0:0:
475,192,78226,1,0,0:0:0:0:
402,192,78226,1,0,0:0:0:0:
256,192,78226,1,0,0:0:0:0:
36,192,78301,1,0,0:0:0:0:
329,192,78301,1,0,0:0:0:0:
182,192,78301,1,0,0:0:0:0:
475,192,78376,1,0,0:0:0:0:
256,192,78376,1,0,0:0:0:0:
402,192,78376,1,0,0:0:0:0:
109,192,78451,1,0,0:0:0:0:
36,192,78451,1,0,0:0:0:0:
182,192,78451,1,0,0:0:0:0:
256,192,78526,1,0,0:0:0:0:
475,192,78526,1,0,0:0:0:0:
329,192,78526,1,0,0:0:0:0:
402,192,78601,1,0,0:0:0:0:
109,192,78601,1,0,0:0:0:0:
36,192,78601,1,0,0:0:0:0:
182,192,78676,1,0,0:0:0:0:
329,192,78676,1,0,0:0:0:0:
475,192,78676,1,0,0:0:0:0:
109,192,78751,1,0,0:0:0:0:
36,192,78751,1,0,0:0:0:0:
256,192,78751,1,0,0:0:0:0:
475,192,78826,1,0,0:0:0:0:
402,192,78826,1,0,0:0:0:0:
182,192,78826,1,0,0:0:0:0:
109,192,78901,1,0,0:0:0:0:
329,192,78901,1,0,0:0:0:0:
256,192,78901,1,0,0:0:0:0:
36,192,78976,1,0,0:0:0:0:
402,192,78976,1,0,0:0:0:0:
182,192,78976,1,0,0:0:0:0:
475,192,78976,1,0,0:0:0:0:
329,192,79126,1,0,0:0:0:0:
402,192,79126,1,0,0:0:0:0:
109,192,79126,1,0,0:0:0:0:
36,192,79126,1,0,0:0:0:0:
475,192,79201,1,0,0:0:0:0:
256,192,79201,1,0,0:0:0:0:
402,192,79276,1,0,0:0:0:0:
182,192,79276,1,0,0:0:0:0:
109,192,79351,1,0,0:0:0:0:
329,192,79351,1,0,0:0:0:0:
36,192,79426,1,0,0:0:0:0:
256,192,79426,1,0,0:0:0:0:
109,192,79501,1,0,0:0:0:0:
329,192,79501,1,0,0:0:0:0:
256,192,79576,1,0,0:0:0:0:
36,192,79576,1,0,0:0:0:0:
475,192,79576,1,0,0:0:0:0:
402,192,79576,1,0,0:0:0:0:
182,192,79576,1,0,0:0:0:0:
109,192,79651,1,0,0:0:0:0:
329,192,79651,1,0,0:0:0:0:
402,192,79726,1,0,0:0:0:0:
475,192,79726,1,0,0:0:0:0:
182,192,79726,1,0,0:0:0:0:
36,192,79801,1,0,0:0:0:0:
256,192,79801,1,0,0:0:0:0:
402,192,79876,1,0,0:0:0:0:
475,192,79876,1,0,0:0:0:0:
329,192,79876,1,0,0:0:0:0:
109,192,79876,1,0,0:0:0:0:
182,192,79876,1,0,0:0:0:0:
256,192,79951,1,0,0:0:0:0:
36,192,79951,1,0,0:0:0:0:
402,192,80026,1,0,0:0:0:0:
329,192,80026,1,0,0:0:0:0:
109,192,80026,1,0,0:0:0:0:
256,192,80101,1,0,0:0:0:0:
475,192,80101,1,0,0:0:0:0:
182,192,80176,1,0,0:0:0:0:
402,192,80176,1,0,0:0:0:0:
109,192,80176,1,0,0:0:0:0:
36,192,80176,1,0,0:0:0:0:
329,192,80251,1,0,0:0:0:0:
475,192,80251,1,0,0:0:0:0:
36,192,80326,1,0,0:0:0:0:
182,192,80326,1,0,0:0:0:0:
256,192,80326,1,0,0:0:0:0:
402,192,80401,1,0,0:0:0:0:
109,192,80401,1,0,0:0:0:0:
475,192,80476,1,0,0:0:0:0:
36,192,80476,1,0,0:0:0:0:
182,192,80476,1,0,0:0:0:0:
256,192,80476,1,0,0:0:0:0:
329,192,80476,1,0,0:0:0:0:
109,192,80551,1,0,0:0:0:0:
402,192,80551,1,0,0:0:0:0:
36,192,80626,1,0,0:0:0:0:
475,192,80626,1,0,0:0:0:0:
256,192,80626,1,0,0:0:0:0:
182,192,80701,1,0,0:0:0:0:
329,192,80701,1,0,0:0:0:0:
36,192,80776,1,0,0:0:0:0:
402,192,80776,1,0,0:0:0:0:
475,192,80776,1,0,0:0:0:0:
109,192,80776,1,0,0:0:0:0:
182,192,80851,1,0,0:0:0:0:
256,192,80851,1,0,0:0:0:0:
475,192,80926,1,0,0:0:0:0:
109,192,80926,1,0,0:0:0:0:
329,192,80926,1,0,0:0:0:0:
402,192,81001,1,0,0:0:0:0:
256,192,81001,1,0,0:0:0:0:
109,192,81076,1,0,0:0:0:0:
36,192,81076,1,0,0:0:0:0:
182,192,81076,1,0,0:0:0:0:
475,192,81076,1,0,0:0:0:0:
329,192,81076,1,0,0:0:0:0:
402,192,81151,1,0,0:0:0:0:
256,192,81151,1,0,0:0:0:0:
329,192,81226,1,0,0:0:0:0:
182,192,81226,1,0,0:0:0:0:
36,192,81226,1,0,0:0:0:0:
402,192,81301,1,0,0:0:0:0:
109,192,81301,1,0,0:0:0:0:
36,192,81376,1,0,0:0:0:0:
256,192,81376,1,0,0:0:0:0:
475,192,81376,1,0,0:0:0:0:
182,192,81376,1,0,0:0:0:0:
329,192,81451,1,0,0:0:0:0:
109,192,81451,1,0,0:0:0:0:
402,192,81526,1,0,0:0:0:0:
256,192,81526,1,0,0:0:0:0:
182,192,81601,1,0,0:0:0:0:
36,192,81601,1,0,0:0:0:0:
402,192,81676,1,0,0:0:0:0:
256,192,81676,1,0,0:0:0:0:
475,192,81676,1,0,0:0:0:0:
109,192,81676,1,0,0:0:0:0:
329,192,81676,1,0,0:0:0:0:
36,192,81751,1,0,0:0:0:0:
475,192,81826,1,0,0:0:0:0:
109,192,81826,1,0,0:0:0:0:
329,192,81826,1,0,0:0:0:0:
182,192,81826,1,0,0:0:0:0:
402,192,81901,1,0,0:0:0:0:
256,192,81976,1,0,0:0:0:0:
329,192,81976,1,0,0:0:0:0:
109,192,81976,1,0,0:0:0:0:
36,192,81976,1,0,0:0:0:0:
475,192,82051,1,0,0:0:0:0:
182,192,82051,1,0,0:0:0:0:
36,192,82126,1,0,0:0:0:0:
256,192,82126,1,0,0:0:0:0:
402,192,82126,1,0,0:0:0:0:
475,192,82201,1,0,0:0:0:0:
329,192,82201,1,0,0:0:0:0:
36,192,82276,1,0,0:0:0:0:
402,192,82276,1,0,0:0:0:0:
182,192,82276,1,0,0:0:0:0:
109,192,82276,1,0,0:0:0:0:
256,192,82276,1,0,0:0:0:0:
329,192,82351,1,0,0:0:0:0:
109,192,82426,1,0,0:0:0:0:
256,192,82426,1,0,0:0:0:0:
402,192,82426,1,0,0:0:0:0:
475,192,82501,1,0,0:0:0:0:
182,192,82501,1,0,0:0:0:0:
402,192,82576,1,0,0:0:0:0:
36,192,82576,1,0,0:0:0:0:
109,192,82576,1,0,0:0:0:0:
329,192,82576,1,0,0:0:0:0:
182,192,82651,1,0,0:0:0:0:
475,192,82651,1,0,0:0:0:0:
256,192,82726,1,0,0:0:0:0:
36,192,82726,1,0,0:0:0:0:
329,192,82726,1,0,0:0:0:0:
402,192,82801,1,0,0:0:0:0:
109,192,82801,1,0,0:0:0:0:
475,192,82876,1,0,0:0:0:0:
36,192,82876,1,0,0:0:0:0:
329,192,82876,1,0,0:0:0:0:
182,192,82876,1,0,0:0:0:0:
256,192,82876,1,0,0:0:0:0:
109,192,82951,1,0,0:0:0:0:
402,192,82951,1,0,0:0:0:0:
475,192,83026,1,0,0:0:0:0:
256,192,83026,1,0,0:0:0:0:
182,192,83026,1,0,0:0:0:0:
109,192,83101,1,0,0:0:0:0:
36,192,83101,1,0,0:0:0:0:
329,192,83101,1,0,0:0:0:0:
475,192,83176,1,0,0:0:0:0:
256,192,83176,1,0,0:0:0:0:
182,192,83176,1,0,0:0:0:0:
402,192,83176,1,0,0:0:0:0:
36,192,83251,1,0,0:0:0:0:
329,192,83326,1,0,0:0:0:0:
402,192,83326,1,0,0:0:0:0:
109,192,83326,1,0,0:0:0:0:
182,192,83326,1,0,0:0:0:0:
256,192,83401,1,0,0:0:0:0:
109,192,83476,1,0,0:0:0:0:
182,192,83476,1,0,0:0:0:0:
36,192,83476,1,0,0:0:0:0:
329,192,83476,1,0,0:0:0:0:
402,192,83476,1,0,0:0:0:0:
475,192,83551,1,0,0:0:0:0:
256,192,83626,1,0,0:0:0:0:
36,192,83626,1,0,0:0:0:0:
109,192,83626,1,0,0:0:0:0:
329,192,83626,1,0,0:0:0:0:
182,192,83701,1,0,0:0:0:0:
36,192,83776,1,0,0:0:0:0:
109,192,83776,1,0,0:0:0:0:
402,192,83776,1,0,0:0:0:0:
256,192,83776,1,0,0:0:0:0:
329,192,83851,1,0,0:0:0:0:
182,192,83926,1,0,0:0:0:0:
475,192,83926,1,0,0:0:0:0:
256,192,83926,1,0,0:0:0:0:
402,192,84001,1,0,0:0:0:0:
109,192,84001,1,0,0:0:0:0:
475,192,84076,1,0,0:0:0:0:
329,192,84076,1,0,0:0:0:0:
182,192,84076,1,0,0:0:0:0:
36,192,84076,1,0,0:0:0:0:
109,192,84151,1,0,0:0:0:0:
36,192,84226,1,0,0:0:0:0:
402,192,84226,1,0,0:0:0:0:
256,192,84226,1,0,0:0:0:0:
329,192,84226,1,0,0:0:0:0:
475,192,84301,1,0,0:0:0:0:
182,192,84301,1,0,0:0:0:0:
109,192,84301,1,0,0:0:0:0:
256,192,84376,1,0,0:0:0:0:
36,192,84376,1,0,0:0:0:0:
402,192,84376,1,0,0:0:0:0:
329,192,84376,1,0,0:0:0:0:
475,192,84451,1,0,0:0:0:0:
182,192,84451,1,0,0:0:0:0:
256,192,84526,1,0,0:0:0:0:
109,192,84526,1,0,0:0:0:0:
329,192,84526,1,0,0:0:0:0:
36,192,84601,1,0,0:0:0:0:
475,192,84601,1,0,0:0:0:0:
402,192,84676,1,0,0:0:0:0:
256,192,84676,1,0,0:0:0:0:
182,192,84676,1,0,0:0:0:0:
109,192,84676,1,0,0:0:0:0:
329,192,84676,1,0,0:0:0:0:
36,192,84751,1,0,0:0:0:0:
475,192,84751,1,0,0:0:0:0:
402,192,84826,1,0,0:0:0:0:
182,192,84826,1,0,0:0:0:0:
109,192,84826,1,0,0:0:0:0:
36,192,84901,1,0,0:0:0:0:
256,192,84901,1,0,0:0:0:0:
402,192,84976,1,0,0:0:0:0:
182,192,84976,1,0,0:0:0:0:
475,192,84976,1,0,0:0:0:0:
109,192,84976,1,0,0:0:0:0:
36,192,85051,1,0,0:0:0:0:
256,192,85051,1,0,0:0:0:0:
329,192,85126,1,0,0:0:0:0:
402,192,85126,1,0,0:0:0:0:
109,192,85126,1,0,0:0:0:0:
475,192,85201,1,0,0:0:0:0:
182,192,85201,1,0,0:0:0:0:
256,192,85201,1,0,0:0:0:0:
36,192,85276,1,0,0:0:0:0:
329,192,85276,1,0,0:0:0:0:
402,192,85276,1,0,0:0:0:0:
109,192,85276,1,0,0:0:0:0:
475,192,85351,1,0,0:0:0:0:
182,192,85351,1,0,0:0:0:0:
402,192,85426,1,0,0:0:0:0:
256,192,85426,1,0,0:0:0:0:
36,192,85426,1,0,0:0:0:0:
109,192,85501,1,0,0:0:0:0:
256,192,85576,1,0,0:0:0:0:
475,192,85576,1,0,0:0:0:0:
36,192,85576,1,0,0:0:0:0:
329,192,85576,1,0,0:0:0:0:
182,192,85576,1,0,0:0:0:0:
109,192,85651,1,0,0:0:0:0:
402,192,85651,1,0,0:0:0:0:
329,192,85726,1,0,0:0:0:0:
182,192,85726,1,0,0:0:0:0:
475,192,85726,1,0,0:0:0:0:
36,192,85801,1,0,0:0:0:0:
256,192,85801,1,0,0:0:0:0:
475,192,85876,1,0,0:0:0:0:
182,192,85876,1,0,0:0:0:0:
329,192,85876,1,0,0:0:0:0:
109,192,85876,1,0,0:0:0:0:
402,192,85876,1,0,0:0:0:0:
256,192,85951,1,0,0:0:0:0:
36,192,85951,1,0,0:0:0:0:
475,192,86026,1,0,0:0:0:0:
402,192,86026,1,0,0:0:0:0:
109,192,86026,1,0,0:0:0:0:
182,192,86101,1,0,0:0:0:0:
329,192,86101,1,0,0:0:0:0:
109,192,86176,1,0,0:0:0:0:
36,192,86176,1,0,0:0:0:0:
256,192,86176,1,0,0:0:0:0:
402,192,86176,1,0,0:0:0:0:
475,192,86251,1,0,0:0:0:0:
329,192,86251,1,0,0:0:0:0:
36,192,86326,1,0,0:0:0:0:
402,192,86326,1,0,0:0:0:0:
182,192,86326,1,0,0:0:0:0:
329,192,86401,1,0,0:0:0:0:
256,192,86401,1,0,0:0:0:0:
109,192,86476,1,0,0:0:0:0:
36,192,86476,1,0,0:0:0:0:
475,192,86476,1,0,0:0:0:0:
182,192,86476,1,0,0:0:0:0:
402,192,86476,1,0,0:0:0:0:
256,192,86551,1,0,0:0:0:0:
329,192,86626,1,0,0:0:0:0:
109,192,86626,1,0,0:0:0:0:
475,192,86626,1,0,0:0:0:0:
182,192,86626,1,0,0:0:0:0:
36,192,86701,1,0,0:0:0:0:
256,192,86701,1,0,0:0:0:0:
475,192,86776,1,0,0:0:0:0:
182,192,86776,1,0,0:0:0:0:
402,192,86776,1,0,0:0:0:0:
329,192,86776,1,0,0:0:0:0:
109,192,86776,1,0,0:0:0:0:
36,192,86851,1,0,0:0:0:0:
402,192,86926,1,0,0:0:0:0:
256,192,86926,1,0,0:0:0:0:
182,192,86926,1,0,0:0:0:0:
109,192,87001,1,0,0:0:0:0:
329,192,87001,1,0,0:0:0:0:
36,192,87076,1,0,0:0:0:0:
402,192,87076,1,0,0:0:0:0:
475,192,87076,1,0,0:0:0:0:
256,192,87076,1,0,0:0:0:0:
182,192,87151,1,0,0:0:0:0:
109,192,87151,1,0,0:0:0:0:
475,192,87226,1,0,0:0:0:0:
329,192,87226,1,0,0:0:0:0:
36,192,87226,1,0,0:0:0:0:
402,192,87301,1,0,0:0:0:0:
256,192,87301,1,0,0:0:0:0:
182,192,87301,1,0,0:0:0:0:
329,192,87376,1,0,0:0:0:0:
475,192,87376,1,0,0:0:0:0:
36,192,87376,1,0,0:0:0:0:
109,192,87376,1,0,0:0:0:0:
402,192,87451,1,0,0:0:0:0:
256,192,87451,1,0,0:0:0:0:
182,192,87526,1,0,0:0:0:0:
475,192,87526,1,0,0:0:0:0:
109,192,87526,1,0,0:0:0:0:
256,192,87601,1,0,0:0:0:0:
329,192,87601,1,0,0:0:0:0:
36,192,87601,1,0,0:0:0:0:
402,192,87676,1,0,0:0:0:0:
475,192,87676,1,0,0:0:0:0:
109,192,87676,1,0,0:0:0:0:
182,192,87676,1,0,0:0:0:0:
36,192,87751,1,0,0:0:0:0:
329,192,87751,1,0,0:0:0:0:
402,192,87826,1,0,0:0:0:0:
182,192,87826,1,0,0:0:0:0:
256,192,87826,1,0,0:0:0:0:
109,192,87901,1,0,0:0:0:0:
475,192,87901,1,0,0:0:0:0:
402,192,87976,1,0,0:0:0:0:
182,192,87976,1,0,0:0:0:0:
36,192,87976,1,0,0:0:0:0:
256,192,87976,1,0,0:0:0:0:
109,192,88051,5,0,0:0:0:0:
329,192,88051,1,0,0:0:0:0:
36,192,88126,1,0,0:0:0:0:
475,192,88126,1,0,0:0:0:0:
402,192,88126,1,0,0:0:0:0:
182,192,88201,1,0,0:0:0:0:
256,192,88201,1,0,0:0:0:0:
329,192,88201,1,0,0:0:0:0:
402,192,88276,1,0,0:0:0:0:
475,192,88276,1,0,0:0:0:0:
109,192,88276,1,0,0:0:0:0:
36,192,88276,1,0,0:0:0:0:
256,192,88351,1,0,0:0:0:0:
182,192,88351,1,0,0:0:0:0:
109,192,88426,1,0,0:0:0:0:
329,192,88426,1,0,0:0:0:0:
475,192,88426,1,0,0:0:0:0:
36,192,88501,1,0,0:0:0:0:
182,192,88501,1,0,0:0:0:0:
402,192,88501,1,0,0:0:0:0:
329,192,88576,1,0,0:0:0:0:
475,192,88576,1,0,0:0:0:0:
109,192,88576,1,0,0:0:0:0:
256,192,88576,1,0,0:0:0:0:
402,192,88651,1,0,0:0:0:0:
36,192,88651,1,0,0:0:0:0:
329,192,88726,1,0,0:0:0:0:
182,192,88726,1,0,0:0:0:0:
256,192,88726,1,0,0:0:0:0:
402,192,88801,1,0,0:0:0:0:
475,192,88801,1,0,0:0:0:0:
109,192,88801,1,0,0:0:0:0:
256,192,88876,1,0,0:0:0:0:
182,192,88876,1,0,0:0:0:0:
36,192,88876,1,0,0:0:0:0:
109,192,88951,1,0,0:0:0:0:
329,192,88951,1,0,0:0:0:0:
182,192,89026,1,0,0:0:0:0:
475,192,89026,1,0,0:0:0:0:
402,192,89026,1,0,0:0:0:0:
329,192,89101,1,0,0:0:0:0:
36,192,89101,1,0,0:0:0:0:
256,192,89101,1,0,0:0:0:0:
182,192,89176,5,0,0:0:0:0:
402,192,89176,1,0,0:0:0:0:
109,192,89176,1,0,0:0:0:0:
475,192,89176,1,0,0:0:0:0:
256,192,89251,1,0,0:0:0:0:
475,192,89326,1,0,0:0:0:0:
182,192,89326,1,0,0:0:0:0:
36,192,89326,1,0,0:0:0:0:
402,192,89401,1,0,0:0:0:0:
109,192,89401,1,0,0:0:0:0:
329,192,89476,1,0,0:0:0:0:
36,192,89476,1,0,0:0:0:0:
256,192,89476,1,0,0:0:0:0:
475,192,89476,1,0,0:0:0:0:
109,192,89551,1,0,0:0:0:0:
182,192,89626,1,0,0:0:0:0:
402,192,89626,1,0,0:0:0:0:
329,192,89626,1,0,0:0:0:0:
475,192,89701,1,0,0:0:0:0:
256,192,89701,1,0,0:0:0:0:
329,192,89776,1,0,0:0:0:0:
109,192,89776,1,0,0:0:0:0:
36,192,89776,1,0,0:0:0:0:
402,192,89851,1,0,0:0:0:0:
256,192,89926,1,0,0:0:0:0:
475,192,89926,1,0,0:0:0:0:
109,192,89926,1,0,0:0:0:0:
182,192,90001,1,0,0:0:0:0:
402,192,90001,1,0,0:0:0:0:
109,192,90076,1,0,0:0:0:0:
329,192,90076,1,0,0:0:0:0:
36,192,90076,1,0,0:0:0:0:
475,192,90076,1,0,0:0:0:0:
256,192,90151,1,0,0:0:0:0:
36,192,90226,1,0,0:0:0:0:
329,192,90226,1,0,0:0:0:0:
182,192,90226,1,0,0:0:0:0:
109,192,90301,1,0,0:0:0:0:
402,192,90301,1,0,0:0:0:0:
182,192,90376,1,0,0:0:0:0:
475,192,90376,1,0,0:0:0:0:
256,192,90376,1,0,0:0:0:0:
329,192,90451,1,0,0:0:0:0:
256,192,90526,1,0,0:0:0:0:
475,192,90526,1,0,0:0:0:0:
36,192,90526,1,0,0:0:0:0:
182,192,90601,1,0,0:0:0:0:
402,192,90601,1,0,0:0:0:0:
109,192,90676,1,0,0:0:0:0:
329,192,90676,1,0,0:0:0:0:
36,192,90676,1,0,0:0:0:0:
475,192,90676,1,0,0:0:0:0:
182,192,90751,1,0,0:0:0:0:
256,192,90826,1,0,0:0:0:0:
36,192,90826,1,0,0:0:0:0:
402,192,90826,1,0,0:0:0:0:
329,192,90901,1,0,0:0:0:0:
109,192,90901,1,0,0:0:0:0:
402,192,90976,1,0,0:0:0:0:
182,192,90976,1,0,0:0:0:0:
475,192,90976,1,0,0:0:0:0:
256,192,91051,1,0,0:0:0:0:
182,192,91126,1,0,0:0:0:0:
475,192,91126,1,0,0:0:0:0:
329,192,91126,1,0,0:0:0:0:
109,192,91201,1,0,0:0:0:0:
402,192,91201,1,0,0:0:0:0:
36,192,91276,1,0,0:0:0:0:
329,192,91276,1,0,0:0:0:0:
182,192,91276,1,0,0:0:0:0:
475,192,91276,1,0,0:0:0:0:
256,192,91351,1,0,0:0:0:0:
109,192,91426,1,0,0:0:0:0:
329,192,91426,1,0,0:0:0:0:
36,192,91426,1,0,0:0:0:0:
182,192,91501,1,0,0:0:0:0:
402,192,91501,1,0,0:0:0:0:
256,192,91576,1,0,0:0:0:0:
36,192,91576,1,0,0:0:0:0:
109,192,91576,1,0,0:0:0:0:
329,192,91651,1,0,0:0:0:0:
182,192,91726,1,0,0:0:0:0:
402,192,91726,1,0,0:0:0:0:
475,192,91726,1,0,0:0:0:0:
109,192,91801,1,0,0:0:0:0:
329,192,91801,1,0,0:0:0:0:
36,192,91876,1,0,0:0:0:0:
256,192,91876,1,0,0:0:0:0:
402,192,91876,1,0,0:0:0:0:
475,192,91876,1,0,0:0:0:0:
182,192,91951,1,0,0:0:0:0:
256,192,92026,1,0,0:0:0:0:
36,192,92026,1,0,0:0:0:0:
475,192,92026,1,0,0:0:0:0:
329,192,92101,1,0,0:0:0:0:
109,192,92101,1,0,0:0:0:0:
402,192,92176,1,0,0:0:0:0:
182,192,92176,1,0,0:0:0:0:
475,192,92176,1,0,0:0:0:0:
329,192,92251,1,0,0:0:0:0:
256,192,92326,1,0,0:0:0:0:
475,192,92326,1,0,0:0:0:0:
36,192,92326,1,0,0:0:0:0:
182,192,92401,1,0,0:0:0:0:
402,192,92401,1,0,0:0:0:0:
109,192,92476,1,0,0:0:0:0:
329,192,92476,1,0,0:0:0:0:
36,192,92476,1,0,0:0:0:0:
475,192,92476,1,0,0:0:0:0:
182,192,92551,1,0,0:0:0:0:
256,192,92626,1,0,0:0:0:0:
36,192,92626,1,0,0:0:0:0:
402,192,92626,1,0,0:0:0:0:
109,192,92701,1,0,0:0:0:0:
329,192,92701,1,0,0:0:0:0:
182,192,92776,1,0,0:0:0:0:
402,192,92776,1,0,0:0:0:0:
475,192,92776,1,0,0:0:0:0:
329,192,92851,1,0,0:0:0:0:
256,192,92926,1,0,0:0:0:0:
475,192,92926,1,0,0:0:0:0:
36,192,92926,1,0,0:0:0:0:
182,192,93001,1,0,0:0:0:0:
402,192,93001,1,0,0:0:0:0:
109,192,93076,1,0,0:0:0:0:
329,192,93076,1,0,0:0:0:0:
36,192,93076,1,0,0:0:0:0:
475,192,93076,1,0,0:0:0:0:
182,192,93151,1,0,0:0:0:0:
256,192,93226,1,0,0:0:0:0:
36,192,93226,1,0,0:0:0:0:
402,192,93226,1,0,0:0:0:0:
329,192,93301,1,0,0:0:0:0:
109,192,93301,1,0,0:0:0:0:
402,192,93376,1,0,0:0:0:0:
182,192,93376,1,0,0:0:0:0:
475,192,93376,1,0,0:0:0:0:
256,192,93451,1,0,0:0:0:0:
182,192,93526,1,0,0:0:0:0:
475,192,93526,1,0,0:0:0:0:
329,192,93526,1,0,0:0:0:0:
109,192,93601,1,0,0:0:0:0:
402,192,93601,1,0,0:0:0:0:
36,192,93676,1,0,0:0:0:0:
329,192,93676,1,0,0:0:0:0:
256,192,93676,1,0,0:0:0:0:
475,192,93676,1,0,0:0:0:0:
182,192,93751,1,0,0:0:0:0:
256,192,93826,1,0,0:0:0:0:
36,192,93826,1,0,0:0:0:0:
402,192,93826,1,0,0:0:0:0:
329,192,93901,1,0,0:0:0:0:
109,192,93901,1,0,0:0:0:0:
402,192,93976,1,0,0:0:0:0:
182,192,93976,1,0,0:0:0:0:
475,192,93976,1,0,0:0:0:0:
256,192,94051,1,0,0:0:0:0:
109,192,94126,1,0,0:0:0:0:
36,192,94126,1,0,0:0:0:0:
329,192,94126,1,0,0:0:0:0:
402,192,94201,1,0,0:0:0:0:
182,192,94201,1,0,0:0:0:0:
109,192,94276,1,0,0:0:0:0:
36,192,94276,1,0,0:0:0:0:
256,192,94276,1,0,0:0:0:0:
475,192,94276,1,0,0:0:0:0:
402,192,94351,1,0,0:0:0:0:
109,192,94426,1,0,0:0:0:0:
36,192,94426,1,0,0:0:0:0:
329,192,94426,1,0,0:0:0:0:
256,192,94501,1,0,0:0:0:0:
475,192,94501,1,0,0:0:0:0:
402,192,94576,1,0,0:0:0:0:
182,192,94576,1,0,0:0:0:0:
36,192,94576,1,0,0:0:0:0:
256,192,94651,1,0,0:0:0:0:
109,192,94726,1,0,0:0:0:0:
329,192,94726,1,0,0:0:0:0:
475,192,94726,1,0,0:0:0:0:
182,192,94801,1,0,0:0:0:0:
402,192,94801,1,0,0:0:0:0:
329,192,94876,1,0,0:0:0:0:
475,192,94876,1,0,0:0:0:0:
36,192,94876,1,0,0:0:0:0:
109,192,94876,1,0,0:0:0:0:
256,192,94951,1,0,0:0:0:0:
182,192,95026,1,0,0:0:0:0:
402,192,95026,1,0,0:0:0:0:
109,192,95026,1,0,0:0:0:0:
256,192,95101,1,0,0:0:0:0:
475,192,95101,1,0,0:0:0:0:
109,192,95176,1,0,0:0:0:0:
36,192,95176,1,0,0:0:0:0:
329,192,95176,1,0,0:0:0:0:
256,192,95251,1,0,0:0:0:0:
182,192,95326,1,0,0:0:0:0:
475,192,95326,1,0,0:0:0:0:
402,192,95326,1,0,0:0:0:0:
109,192,95401,1,0,0:0:0:0:
329,192,95401,1,0,0:0:0:0:
475,192,95476,1,0,0:0:0:0:
36,192,95476,1,0,0:0:0:0:
402,192,95476,1,0,0:0:0:0:
256,192,95476,1,0,0:0:0:0:
109,192,95551,1,0,0:0:0:0:
402,192,95626,1,0,0:0:0:0:
475,192,95626,1,0,0:0:0:0:
182,192,95626,1,0,0:0:0:0:
36,192,95701,1,0,0:0:0:0:
256,192,95701,1,0,0:0:0:0:
109,192,95776,1,0,0:0:0:0:
182,192,95776,1,0,0:0:0:0:
475,192,95776,1,0,0:0:0:0:
329,192,95776,1,0,0:0:0:0:
256,192,95851,1,0,0:0:0:0:
182,192,95926,1,0,0:0:0:0:
402,192,95926,1,0,0:0:0:0:
36,192,95926,1,0,0:0:0:0:
109,192,96001,1,0,0:0:0:0:
329,192,96001,1,0,0:0:0:0:
475,192,96076,1,0,0:0:0:0:
182,192,96076,1,0,0:0:0:0:
402,192,96076,1,0,0:0:0:0:
36,192,96076,1,0,0:0:0:0:
256,192,96151,1,0,0:0:0:0:
329,192,96226,1,0,0:0:0:0:
109,192,96226,1,0,0:0:0:0:
402,192,96226,1,0,0:0:0:0:
256,192,96301,1,0,0:0:0:0:
36,192,96301,1,0,0:0:0:0:
182,192,96376,1,0,0:0:0:0:
475,192,96376,1,0,0:0:0:0:
329,192,96376,1,0,0:0:0:0:
109,192,96451,1,0,0:0:0:0:
402,192,96451,1,0,0:0:0:0:
36,192,96526,1,0,0:0:0:0:
329,192,96526,1,0,0:0:0:0:
182,192,96526,1,0,0:0:0:0:
256,192,96601,1,0,0:0:0:0:
475,192,96601,1,0,0:0:0:0:
182,192,96676,1,0,0:0:0:0:
402,192,96676,1,0,0:0:0:0:
329,192,96676,1,0,0:0:0:0:
36,192,96676,1,0,0:0:0:0:
109,192,96751,1,0,0:0:0:0:
36,192,96826,1,0,0:0:0:0:
182,192,96826,1,0,0:0:0:0:
256,192,96826,1,0,0:0:0:0:
402,192,96901,1,0,0:0:0:0:
475,192,96901,1,0,0:0:0:0:
329,192,96976,1,0,0:0:0:0:
256,192,96976,1,0,0:0:0:0:
109,192,96976,1,0,0:0:0:0:
402,192,97051,1,0,0:0:0:0:
182,192,97051,1,0,0:0:0:0:
475,192,97126,1,0,0:0:0:0:
36,192,97126,1,0,0:0:0:0:
256,192,97126,1,0,0:0:0:0:
109,192,97201,1,0,0:0:0:0:
329,192,97201,1,0,0:0:0:0:
182,192,97276,1,0,0:0:0:0:
402,192,97276,1,0,0:0:0:0:
475,192,97276,1,0,0:0:0:0:
36,192,97276,1,0,0:0:0:0:
256,192,97351,1,0,0:0:0:0:
329,192,97426,1,0,0:0:0:0:
182,192,97426,1,0,0:0:0:0:
109,192,97426,1,0,0:0:0:0:
402,192,97501,1,0,0:0:0:0:
36,192,97501,1,0,0:0:0:0:
475,192,97576,1,0,0:0:0:0:
329,192,97576,1,0,0:0:0:0:
256,192,97576,1,0,0:0:0:0:
109,192,97651,1,0,0:0:0:0:
182,192,97726,1,0,0:0:0:0:
402,192,97726,1,0,0:0:0:0:
475,192,97726,1,0,0:0:0:0:
256,192,97801,1,0,0:0:0:0:
36,192,97801,1,0,0:0:0:0:
329,192,97876,1,0,0:0:0:0:
475,192,97876,1,0,0:0:0:0:
182,192,97876,1,0,0:0:0:0:
109,192,97876,1,0,0:0:0:0:
402,192,97951,1,0,0:0:0:0:
329,192,98026,1,0,0:0:0:0:
109,192,98026,1,0,0:0:0:0:
36,192,98026,1,0,0:0:0:0:
256,192,98101,1,0,0:0:0:0:
475,192,98101,1,0,0:0:0:0:
182,192,98176,1,0,0:0:0:0:
36,192,98176,1,0,0:0:0:0:
402,192,98176,1,0,0:0:0:0:
109,192,98251,1,0,0:0:0:0:
182,192,98326,1,0,0:0:0:0:
402,192,98326,1,0,0:0:0:0:
475,192,98326,1,0,0:0:0:0:
256,192,98401,1,0,0:0:0:0:
329,192,98476,1,0,0:0:0:0:
109,192,98476,1,0,0:0:0:0:
36,192,98476,1,0,0:0:0:0:
402,192,98551,1,0,0:0:0:0:
475,192,98626,1,0,0:0:0:0:
109,192,98626,1,0,0:0:0:0:
36,192,98626,1,0,0:0:0:0:
256,192,98701,1,0,0:0:0:0:
182,192,98701,1,0,0:0:0:0:
402,192,98776,1,0,0:0:0:0:
109,192,98776,1,0,0:0:0:0:
36,192,98776,1,0,0:0:0:0:
329,192,98776,1,0,0:0:0:0:
256,192,98851,1,0,0:0:0:0:
402,192,98926,1,0,0:0:0:0:
475,192,98926,1,0,0:0:0:0:
182,192,98926,1,0,0:0:0:0:
109,192,99001,1,0,0:0:0:0:
329,192,99001,1,0,0:0:0:0:
402,192,99076,1,0,0:0:0:0:
475,192,99076,1,0,0:0:0:0:
256,192,99076,1,0,0:0:0:0:
36,192,99076,1,0,0:0:0:0:
109,192,99151,1,0,0:0:0:0:
402,192,99226,1,0,0:0:0:0:
475,192,99226,1,0,0:0:0:0:
182,192,99226,1,0,0:0:0:0:
256,192,99301,1,0,0:0:0:0:
36,192,99301,1,0,0:0:0:0:
109,192,99376,1,0,0:0:0:0:
329,192,99376,1,0,0:0:0:0:
475,192,99376,1,0,0:0:0:0:
256,192,99451,1,0,0:0:0:0:
402,192,99526,1,0,0:0:0:0:
182,192,99526,1,0,0:0:0:0:
36,192,99526,1,0,0:0:0:0:
329,192,99601,1,0,0:0:0:0:
109,192,99601,1,0,0:0:0:0:
182,192,99676,1,0,0:0:0:0:
36,192,99676,1,0,0:0:0:0:
475,192,99676,1,0,0:0:0:0:
402,192,99676,1,0,0:0:0:0:
256,192,99751,1,0,0:0:0:0:
329,192,99826,1,0,0:0:0:0:
109,192,99826,1,0,0:0:0:0:
402,192,99826,1,0,0:0:0:0:
256,192,99901,1,0,0:0:0:0:
36,192,99901,1,0,0:0:0:0:
402,192,99976,1,0,0:0:0:0:
475,192,99976,1,0,0:0:0:0:
182,192,99976,1,0,0:0:0:0:
256,192,100051,1,0,0:0:0:0:
329,192,100126,1,0,0:0:0:0:
36,192,100126,1,0,0:0:0:0:
109,192,100126,1,0,0:0:0:0:
402,192,100201,1,0,0:0:0:0:
182,192,100201,1,0,0:0:0:0:
36,192,100276,1,0,0:0:0:0:
475,192,100276,1,0,0:0:0:0:
109,192,100276,1,0,0:0:0:0:
256,192,100276,1,0,0:0:0:0:
402,192,100351,1,0,0:0:0:0:
109,192,100426,1,0,0:0:0:0:
36,192,100426,1,0,0:0:0:0:
329,192,100426,1,0,0:0:0:0:
475,192,100501,1,0,0:0:0:0:
256,192,100501,1,0,0:0:0:0:
402,192,100576,1,0,0:0:0:0:
329,192,100576,1,0,0:0:0:0:
36,192,100576,1,0,0:0:0:0:
182,192,100576,1,0,0:0:0:0:
256,192,100651,1,0,0:0:0:0:
329,192,100726,1,0,0:0:0:0:
109,192,100726,1,0,0:0:0:0:
475,192,100726,1,0,0:0:0:0:
402,192,100801,1,0,0:0:0:0:
182,192,100801,1,0,0:0:0:0:
36,192,100876,1,0,0:0:0:0:
329,192,100876,1,0,0:0:0:0:
109,192,100876,1,0,0:0:0:0:
475,192,100876,1,0,0:0:0:0:
256,192,100951,1,0,0:0:0:0:
182,192,101026,1,0,0:0:0:0:
402,192,101026,1,0,0:0:0:0:
109,192,101026,1,0,0:0:0:0:
256,192,101101,1,0,0:0:0:0:
475,192,101101,1,0,0:0:0:0:
109,192,101176,1,0,0:0:0:0:
329,192,101176,1,0,0:0:0:0:
36,192,101176,1,0,0:0:0:0:
402,192,101176,1,0,0:0:0:0:
256,192,101251,1,0,0:0:0:0:
402,192,101326,1,0,0:0:0:0:
475,192,101326,1,0,0:0:0:0:
182,192,101326,1,0,0:0:0:0:
109,192,101401,1,0,0:0:0:0:
329,192,101401,1,0,0:0:0:0:
402,192,101476,1,0,0:0:0:0:
475,192,101476,1,0,0:0:0:0:
256,192,101476,1,0,0:0:0:0:
36,192,101476,1,0,0:0:0:0:
109,192,101551,1,0,0:0:0:0:
402,192,101626,1,0,0:0:0:0:
475,192,101626,1,0,0:0:0:0:
182,192,101626,1,0,0:0:0:0:
256,192,101701,1,0,0:0:0:0:
36,192,101701,1,0,0:0:0:0:
109,192,101776,1,0,0:0:0:0:
329,192,101776,1,0,0:0:0:0:
475,192,101776,1,0,0:0:0:0:
256,192,101851,1,0,0:0:0:0:
402,192,101926,1,0,0:0:0:0:
182,192,101926,1,0,0:0:0:0:
36,192,101926,1,0,0:0:0:0:
329,192,102001,1,0,0:0:0:0:
109,192,102001,1,0,0:0:0:0:
182,192,102076,1,0,0:0:0:0:
36,192,102076,1,0,0:0:0:0:
475,192,102076,1,0,0:0:0:0:
402,192,102076,1,0,0:0:0:0:
256,192,102151,1,0,0:0:0:0:
329,192,102226,1,0,0:0:0:0:
109,192,102226,1,0,0:0:0:0:
402,192,102226,1,0,0:0:0:0:
256,192,102301,1,0,0:0:0:0:
36,192,102301,1,0,0:0:0:0:
402,192,102376,1,0,0:0:0:0:
475,192,102376,1,0,0:0:0:0:
182,192,102376,1,0,0:0:0:0:
256,192,102451,1,0,0:0:0:0:
329,192,102526,1,0,0:0:0:0:
36,192,102526,1,0,0:0:0:0:
109,192,102526,1,0,0:0:0:0:
402,192,102601,1,0,0:0:0:0:
182,192,102601,1,0,0:0:0:0:
36,192,102676,1,0,0:0:0:0:
475,192,102676,1,0,0:0:0:0:
109,192,102676,1,0,0:0:0:0:
256,192,102676,1,0,0:0:0:0:
402,192,102751,1,0,0:0:0:0:
109,192,102826,1,0,0:0:0:0:
36,192,102826,1,0,0:0:0:0:
329,192,102826,1,0,0:0:0:0:
475,192,102901,1,0,0:0:0:0:
256,192,102901,1,0,0:0:0:0:
402,192,102976,1,0,0:0:0:0:
329,192,102976,1,0,0:0:0:0:
36,192,102976,1,0,0:0:0:0:
182,192,102976,1,0,0:0:0:0:
256,192,103051,1,0,0:0:0:0:
329,192,103126,1,0,0:0:0:0:
109,192,103126,1,0,0:0:0:0:
475,192,103126,1,0,0:0:0:0:
402,192,103201,1,0,0:0:0:0:
182,192,103201,1,0,0:0:0:0:
36,192,103276,1,0,0:0:0:0:
329,192,103276,1,0,0:0:0:0:
109,192,103276,1,0,0:0:0:0:
475,192,103276,1,0,0:0:0:0:
256,192,103351,1,0,0:0:0:0:
182,192,103426,1,0,0:0:0:0:
402,192,103426,1,0,0:0:0:0:
109,192,103426,1,0,0:0:0:0:
256,192,103501,1,0,0:0:0:0:
475,192,103501,1,0,0:0:0:0:
402,192,103576,1,0,0:0:0:0:
329,192,103576,1,0,0:0:0:0:
36,192,103576,1,0,0:0:0:0:
109,192,103576,1,0,0:0:0:0:
109,192,103726,1,0,0:0:0:0:
36,192,103726,1,0,0:0:0:0:
256,192,103726,1,0,0:0:0:0:
475,192,103801,1,0,0:0:0:0:
402,192,103801,1,0,0:0:0:0:
329,192,103876,1,0,0:0:0:0:
256,192,103876,1,0,0:0:0:0:
182,192,103876,1,0,0:0:0:0:
109,192,103951,1,0,0:0:0:0:
36,192,103951,1,0,0:0:0:0:
475,192,104026,1,0,0:0:0:0:
402,192,104026,1,0,0:0:0:0:
256,192,104026,1,0,0:0:0:0:
182,192,104101,1,0,0:0:0:0:
109,192,104101,1,0,0:0:0:0:
402,192,104176,1,0,0:0:0:0:
475,192,104176,1,0,0:0:0:0:
36,192,104176,1,0,0:0:0:0:
256,192,104251,1,0,0:0:0:0:
329,192,104326,1,0,0:0:0:0:
402,192,104326,1,0,0:0:0:0:
109,192,104326,1,0,0:0:0:0:
475,192,104401,1,0,0:0:0:0:
182,192,104401,1,0,0:0:0:0:
109,192,104476,1,0,0:0:0:0:
36,192,104476,1,0,0:0:0:0:
256,192,104476,1,0,0:0:0:0:
329,192,104476,1,0,0:0:0:0:
402,192,104551,1,0,0:0:0:0:
475,192,104551,1,0,0:0:0:0:
182,192,104626,1,0,0:0:0:0:
109,192,104626,1,0,0:0:0:0:
329,192,104626,1,0,0:0:0:0:
256,192,104626,1,0,0:0:0:0:
36,192,104701,1,0,0:0:0:0:
402,192,104776,1,0,0:0:0:0:
475,192,104776,1,0,0:0:0:0:
182,192,104776,1,0,0:0:0:0:
109,192,104776,1,0,0:0:0:0:
402,192,104926,1,0,0:0:0:0:
475,192,104926,1,0,0:0:0:0:
256,192,104926,1,0,0:0:0:0:
36,192,105001,1,0,0:0:0:0:
109,192,105001,1,0,0:0:0:0:
182,192,105076,1,0,0:0:0:0:
256,192,105076,1,0,0:0:0:0:
329,192,105076,1,0,0:0:0:0:
402,192,105151,1,0,0:0:0:0:
475,192,105151,1,0,0:0:0:0:
36,192,105226,1,0,0:0:0:0:
109,192,105226,1,0,0:0:0:0:
256,192,105226,1,0,0:0:0:0:
329,192,105301,1,0,0:0:0:0:
402,192,105301,1,0,0:0:0:0:
109,192,105376,1,0,0:0:0:0:
36,192,105376,1,0,0:0:0:0:
475,192,105376,1,0,0:0:0:0:
256,192,105451,1,0,0:0:0:0:
182,192,105526,1,0,0:0:0:0:
109,192,105526,1,0,0:0:0:0:
402,192,105526,1,0,0:0:0:0:
36,192,105601,1,0,0:0:0:0:
329,192,105601,1,0,0:0:0:0:
402,192,105676,1,0,0:0:0:0:
475,192,105676,1,0,0:0:0:0:
256,192,105676,1,0,0:0:0:0:
182,192,105676,1,0,0:0:0:0:
109,192,105751,1,0,0:0:0:0:
36,192,105751,1,0,0:0:0:0:
329,192,105826,1,0,0:0:0:0:
402,192,105826,1,0,0:0:0:0:
182,192,105826,1,0,0:0:0:0:
256,192,105826,1,0,0:0:0:0:
475,192,105901,1,0,0:0:0:0:
109,192,105976,1,0,0:0:0:0:
36,192,105976,1,0,0:0:0:0:
329,192,105976,1,0,0:0:0:0:
402,192,105976,1,0,0:0:0:0:
182,192,106051,1,0,0:0:0:0:
256,192,106126,1,0,0:0:0:0:
402,192,106126,1,0,0:0:0:0:
475,192,106126,1,0,0:0:0:0:
182,192,106201,1,0,0:0:0:0:
109,192,106201,1,0,0:0:0:0:
475,192,106276,1,0,0:0:0:0:
256,192,106276,1,0,0:0:0:0:
36,192,106276,1,0,0:0:0:0:
329,192,106351,1,0,0:0:0:0:
109,192,106426,1,0,0:0:0:0:
402,192,106426,1,0,0:0:0:0:
182,192,106426,1,0,0:0:0:0:
256,192,106426,1,0,0:0:0:0:
475,192,106501,1,0,0:0:0:0:
402,192,106576,1,0,0:0:0:0:
182,192,106576,1,0,0:0:0:0:
109,192,106576,1,0,0:0:0:0:
36,192,106576,1,0,0:0:0:0:
329,192,106651,1,0,0:0:0:0:
256,192,106726,1,0,0:0:0:0:
109,192,106726,1,0,0:0:0:0:
36,192,106726,1,0,0:0:0:0:
329,192,106801,1,0,0:0:0:0:
182,192,106801,1,0,0:0:0:0:
256,192,106876,1,0,0:0:0:0:
36,192,106876,1,0,0:0:0:0:
402,192,106876,1,0,0:0:0:0:
475,192,106876,1,0,0:0:0:0:
182,192,106951,1,0,0:0:0:0:
109,192,107026,1,0,0:0:0:0:
329,192,107026,1,0,0:0:0:0:
402,192,107026,1,0,0:0:0:0:
475,192,107026,1,0,0:0:0:0:
36,192,107101,1,0,0:0:0:0:
109,192,107176,1,0,0:0:0:0:
329,192,107176,1,0,0:0:0:0:
402,192,107176,1,0,0:0:0:0:
475,192,107176,1,0,0:0:0:0:
182,192,107251,1,0,0:0:0:0:
36,192,107251,1,0,0:0:0:0:
109,192,107326,1,0,0:0:0:0:
256,192,107326,1,0,0:0:0:0:
329,192,107401,1,0,0:0:0:0:
475,192,107401,1,0,0:0:0:0:
402,192,107476,1,0,0:0:0:0:
182,192,107476,1,0,0:0:0:0:
109,192,107476,1,0,0:0:0:0:
36,192,107476,1,0,0:0:0:0:
329,192,107551,1,0,0:0:0:0:
475,192,107551,1,0,0:0:0:0:
256,192,107626,1,0,0:0:0:0:
109,192,107626,1,0,0:0:0:0:
182,192,107701,1,0,0:0:0:0:
36,192,107701,1,0,0:0:0:0:
109,192,107776,1,0,0:0:0:0:
475,192,107776,1,0,0:0:0:0:
402,192,107776,1,0,0:0:0:0:
329,192,107776,1,0,0:0:0:0:
182,192,107851,1,0,0:0:0:0:
36,192,107851,1,0,0:0:0:0:
256,192,107926,1,0,0:0:0:0:
402,192,107926,1,0,0:0:0:0:
329,192,108001,1,0,0:0:0:0:
475,192,108001,1,0,0:0:0:0:
402,192,108076,1,0,0:0:0:0:
182,192,108076,1,0,0:0:0:0:
36,192,108076,1,0,0:0:0:0:
109,192,108076,1,0,0:0:0:0:
329,192,108151,1,0,0:0:0:0:
475,192,108151,1,0,0:0:0:0:
256,192,108226,1,0,0:0:0:0:
109,192,108226,1,0,0:0:0:0:
36,192,108301,1,0,0:0:0:0:
182,192,108301,1,0,0:0:0:0:
109,192,108376,1,0,0:0:0:0:
402,192,108376,1,0,0:0:0:0:
329,192,108376,1,0,0:0:0:0:
475,192,108376,1,0,0:0:0:0:
256,192,108526,1,0,0:0:0:0:
36,192,108526,1,0,0:0:0:0:
329,192,108676,1,0,0:0:0:0:
109,192,108676,1,0,0:0:0:0:
182,192,108751,1,0,0:0:0:0:
402,192,108751,1,0,0:0:0:0:
475,192,108826,1,0,0:0:0:0:
256,192,108826,1,0,0:0:0:0:
36,192,108976,1,0,0:0:0:0:
329,192,108976,1,0,0:0:0:0:
182,192,109126,1,0,0:0:0:0:
402,192,109126,1,0,0:0:0:0:
109,192,109201,1,0,0:0:0:0:
329,192,109201,1,0,0:0:0:0:
36,192,109276,1,0,0:0:0:0:
256,192,109276,1,0,0:0:0:0:
109,192,109426,1,0,0:0:0:0:
329,192,109426,1,0,0:0:0:0:
182,192,109576,1,0,0:0:0:0:
402,192,109576,1,0,0:0:0:0:
256,192,109726,1,0,0:0:0:0:
36,192,109726,1,0,0:0:0:0:
329,192,109876,1,0,0:0:0:0:
109,192,109876,1,0,0:0:0:0:
182,192,109951,1,0,0:0:0:0:
402,192,109951,1,0,0:0:0:0:
256,192,110026,1,0,0:0:0:0:
475,192,110026,1,0,0:0:0:0:
36,192,110176,1,0,0:0:0:0:
329,192,110176,1,0,0:0:0:0:
109,192,110326,1,0,0:0:0:0:
329,192,110326,1,0,0:0:0:0:
182,192,110401,1,0,0:0:0:0:
402,192,110401,1,0,0:0:0:0:
256,192,110476,1,0,0:0:0:0:
475,192,110476,1,0,0:0:0:0:
329,192,110626,1,0,0:0:0:0:
36,192,110626,1,0,0:0:0:0:
402,192,110776,1,0,0:0:0:0:
475,192,110776,1,0,0:0:0:0:
109,192,110776,1,0,0:0:0:0:
182,192,110776,1,0,0:0:0:0:
329,192,110926,1,0,0:0:0:0:
36,192,110926,1,0,0:0:0:0:
109,192,111076,1,0,0:0:0:0:
329,192,111076,1,0,0:0:0:0:
182,192,111151,1,0,0:0:0:0:
402,192,111151,1,0,0:0:0:0:
475,192,111226,1,0,0:0:0:0:
256,192,111226,1,0,0:0:0:0:
329,192,111376,1,0,0:0:0:0:
36,192,111376,1,0,0:0:0:0:
109,192,111526,1,0,0:0:0:0:
329,192,111526,1,0,0:0:0:0:
182,192,111601,1,0,0:0:0:0:
402,192,111601,1,0,0:0:0:0:
256,192,111676,1,0,0:0:0:0:
475,192,111676,1,0,0:0:0:0:
182,192,111826,1,0,0:0:0:0:
402,192,111826,1,0,0:0:0:0:
329,192,111976,1,0,0:0:0:0:
109,192,111976,1,0,0:0:0:0:
256,192,112126,1,0,0:0:0:0:
475,192,112126,1,0,0:0:0:0:
182,192,112276,1,0,0:0:0:0:
402,192,112276,1,0,0:0:0:0:
329,192,112351,1,0,0:0:0:0:
109,192,112351,1,0,0:0:0:0:
256,192,112426,1,0,0:0:0:0:
36,192,112426,1,0,0:0:0:0:
109,192,112576,1,0,0:0:0:0:
475,192,112576,1,0,0:0:0:0:
402,192,112726,1,0,0:0:0:0:
182,192,112726,1,0,0:0:0:0:
329,192,112801,1,0,0:0:0:0:
109,192,112801,1,0,0:0:0:0:
256,192,112876,1,0,0:0:0:0:
36,192,112876,1,0,0:0:0:0:
109,192,113026,1,0,0:0:0:0:
182,192,113026,1,0,0:0:0:0:
402,192,113026,1,0,0:0:0:0:
475,192,113026,1,0,0:0:0:0:
182,192,113176,1,0,0:0:0:0:
36,192,113176,1,0,0:0:0:0:
329,192,113176,1,0,0:0:0:0:
475,192,113176,1,0,0:0:0:0:
256,192,113176,1,0,0:0:0:0:
109,192,113326,1,0,0:0:0:0:
402,192,113326,1,0,0:0:0:0:
182,192,113476,1,0,0:0:0:0:
475,192,113476,1,0,0:0:0:0:
109,192,113551,1,0,0:0:0:0:
402,192,113551,1,0,0:0:0:0:
36,192,113626,1,0,0:0:0:0:
329,192,113626,1,0,0:0:0:0:
109,192,113776,1,0,0:0:0:0:
402,192,113776,1,0,0:0:0:0:
182,192,113926,1,0,0:0:0:0:
475,192,113926,1,0,0:0:0:0:
109,192,114001,1,0,0:0:0:0:
402,192,114001,1,0,0:0:0:0:
36,192,114076,1,0,0:0:0:0:
329,192,114076,1,0,0:0:0:0:
182,192,114226,1,0,0:0:0:0:
109,192,114226,1,0,0:0:0:0:
402,192,114226,1,0,0:0:0:0:
475,192,114226,1,0,0:0:0:0:
182,192,114376,1,0,0:0:0:0:
36,192,114376,1,0,0:0:0:0:
329,192,114376,1,0,0:0:0:0:
475,192,114376,1,0,0:0:0:0:
256,192,114376,1,0,0:0:0:0:
109,192,114526,1,0,0:0:0:0:
402,192,114526,1,0,0:0:0:0:
182,192,114676,1,0,0:0:0:0:
329,192,114676,1,0,0:0:0:0:
402,192,114751,1,0,0:0:0:0:
109,192,114751,1,0,0:0:0:0:
475,192,114826,1,0,0:0:0:0:
36,192,114826,1,0,0:0:0:0:
329,192,114826,1,0,0:0:0:0:
182,192,114826,1,0,0:0:0:0:
182,192,114976,1,0,0:0:0:0:
475,192,114976,1,0,0:0:0:0:
329,192,114976,1,0,0:0:0:0:
36,192,114976,1,0,0:0:0:0:
256,192,114976,1,0,0:0:0:0:
109,192,115126,1,0,0:0:0:0:
402,192,115126,1,0,0:0:0:0:
182,192,115201,1,0,0:0:0:0:
329,192,115201,1,0,0:0:0:0:
256,192,115276,1,0,0:0:0:0:
475,192,115276,1,0,0:0:0:0:
36,192,115276,1,0,0:0:0:0:
182,192,115426,1,0,0:0:0:0:
109,192,115426,1,0,0:0:0:0:
329,192,115426,1,0,0:0:0:0:
402,192,115426,1,0,0:0:0:0:
256,192,115576,1,0,0:0:0:0:
109,192,115576,1,0,0:0:0:0:
36,192,115576,1,0,0:0:0:0:
402,192,115576,1,0,0:0:0:0:
475,192,115576,1,0,0:0:0:0:
182,192,115726,1,0,0:0:0:0:
329,192,115726,1,0,0:0:0:0:
109,192,115876,1,0,0:0:0:0:
36,192,115876,1,0,0:0:0:0:
256,192,115876,1,0,0:0:0:0:
402,192,115876,1,0,0:0:0:0:
475,192,115876,1,0,0:0:0:0:
329,192,116026,1,0,0:0:0:0:
182,192,116026,1,0,0:0:0:0:
36,192,116176,1,0,0:0:0:0:
109,192,116176,1,0,0:0:0:0:
256,192,116176,1,0,0:0:0:0:
475,192,116176,1,0,0:0:0:0:
402,192,116176,1,0,0:0:0:0:
329,192,116326,5,0,0:0:0:0:
182,192,116326,1,0,0:0:0:0:
402,192,116476,1,0,0:0:0:0:
475,192,116476,1,0,0:0:0:0:
256,192,116476,1,0,0:0:0:0:
109,192,116476,1,0,0:0:0:0:
36,192,116476,1,0,0:0:0:0:
182,192,116626,1,0,0:0:0:0:
329,192,116626,1,0,0:0:0:0:
256,192,116776,1,0,0:0:0:0:
329,192,116776,1,0,0:0:0:0:
402,192,116776,1,0,0:0:0:0:
475,192,116776,1,0,0:0:0:0:
36,192,116776,1,0,0:0:0:0:
402,192,116926,1,0,0:0:0:0:
256,192,116926,1,0,0:0:0:0:
329,192,116926,1,0,0:0:0:0:
182,192,116926,1,0,0:0:0:0:
329,192,117076,1,0,0:0:0:0:
182,192,117076,1,0,0:0:0:0:
109,192,117076,1,0,0:0:0:0:
256,192,117076,1,0,0:0:0:0:
475,192,117076,1,0,0:0:0:0:
256,192,117226,1,0,0:0:0:0:
182,192,117226,1,0,0:0:0:0:
109,192,117226,1,0,0:0:0:0:
36,192,117226,1,0,0:0:0:0:
329,192,117376,5,0,0:0:0:0:
36,192,117376,1,0,0:0:0:0:
109,192,117376,1,0,0:0:0:0:
402,192,117376,1,0,0:0:0:0:
475,192,117376,1,0,0:0:0:0:
182,192,117526,1,0,0:0:0:0:
109,192,117526,1,0,0:0:0:0:
402,192,117526,1,0,0:0:0:0:
475,192,117526,1,0,0:0:0:0:
329,192,117676,1,0,0:0:0:0:
256,192,117676,1,0,0:0:0:0:
36,192,117676,1,0,0:0:0:0:
402,192,117751,1,0,0:0:0:0:
475,192,117751,1,0,0:0:0:0:
182,192,117751,1,0,0:0:0:0:
36,192,117826,1,0,0:0:0:0:
109,192,117826,1,0,0:0:0:0:
329,192,117826,1,0,0:0:0:0:
182,192,117901,1,0,0:0:0:0:
256,192,117901,1,0,0:0:0:0:
402,192,117976,1,0,0:0:0:0:
475,192,117976,1,0,0:0:0:0:
329,192,117976,1,0,0:0:0:0:
109,192,117976,1,0,0:0:0:0:
36,192,117976,1,0,0:0:0:0:
256,192,118051,1,0,0:0:0:0:
182,192,118126,1,0,0:0:0:0:
109,192,118126,1,0,0:0:0:0:
402,192,118126,1,0,0:0:0:0:
329,192,118201,1,0,0:0:0:0:
475,192,118201,1,0,0:0:0:0:
256,192,118276,1,0,0:0:0:0:
182,192,118276,1,0,0:0:0:0:
36,192,118276,1,0,0:0:0:0:
402,192,118276,1,0,0:0:0:0:
109,192,118351,1,0,0:0:0:0:
475,192,118351,1,0,0:0:0:0:
329,192,118426,1,0,0:0:0:0:
402,192,118426,1,0,0:0:0:0:
36,192,118426,1,0,0:0:0:0:
256,192,118501,1,0,0:0:0:0:
182,192,118501,1,0,0:0:0:0:
329,192,118576,1,0,0:0:0:0:
109,192,118576,1,0,0:0:0:0:
36,192,118576,1,0,0:0:0:0:
402,192,118651,1,0,0:0:0:0:
182,192,118651,1,0,0:0:0:0:
475,192,118726,1,0,0:0:0:0:
256,192,118726,1,0,0:0:0:0:
109,192,118726,1,0,0:0:0:0:
182,192,118801,1,0,0:0:0:0:
329,192,118801,1,0,0:0:0:0:
402,192,118876,1,0,0:0:0:0:
256,192,118876,1,0,0:0:0:0:
475,192,118876,1,0,0:0:0:0:
36,192,118876,1,0,0:0:0:0:
109,192,118951,1,0,0:0:0:0:
329,192,118951,1,0,0:0:0:0:
36,192,119026,1,0,0:0:0:0:
256,192,119026,1,0,0:0:0:0:
402,192,119026,1,0,0:0:0:0:
329,192,119101,1,0,0:0:0:0:
182,192,119101,1,0,0:0:0:0:
256,192,119176,1,0,0:0:0:0:
475,192,119176,1,0,0:0:0:0:
109,192,119176,1,0,0:0:0:0:
402,192,119251,1,0,0:0:0:0:
329,192,119251,1,0,0:0:0:0:
182,192,119326,1,0,0:0:0:0:
109,192,119326,1,0,0:0:0:0:
36,192,119326,1,0,0:0:0:0:
256,192,119401,1,0,0:0:0:0:
329,192,119401,1,0,0:0:0:0:
475,192,119476,1,0,0:0:0:0:
402,192,119476,1,0,0:0:0:0:
182,192,119476,1,0,0:0:0:0:
36,192,119476,1,0,0:0:0:0:
109,192,119551,1,0,0:0:0:0:
256,192,119551,1,0,0:0:0:0:
36,192,119626,1,0,0:0:0:0:
329,192,119626,1,0,0:0:0:0:
402,192,119626,1,0,0:0:0:0:
182,192,119701,1,0,0:0:0:0:
256,192,119701,1,0,0:0:0:0:
109,192,119776,1,0,0:0:0:0:
36,192,119776,1,0,0:0:0:0:
475,192,119776,1,0,0:0:0:0:
256,192,119851,1,0,0:0:0:0:
329,192,119851,1,0,0:0:0:0:
402,192,119926,1,0,0:0:0:0:
36,192,119926,1,0,0:0:0:0:
475,192,119926,1,0,0:0:0:0:
182,192,120001,1,0,0:0:0:0:
329,192,120001,1,0,0:0:0:0:
36,192,120076,1,0,0:0:0:0:
256,192,120076,1,0,0:0:0:0:
109,192,120076,1,0,0:0:0:0:
402,192,120076,1,0,0:0:0:0:
182,192,120151,1,0,0:0:0:0:
475,192,120151,1,0,0:0:0:0:
256,192,120226,1,0,0:0:0:0:
109,192,120226,1,0,0:0:0:0:
329,192,120226,1,0,0:0:0:0:
402,192,120301,1,0,0:0:0:0:
36,192,120301,1,0,0:0:0:0:
256,192,120376,1,0,0:0:0:0:
329,192,120376,1,0,0:0:0:0:
475,192,120376,1,0,0:0:0:0:
36,192,120451,1,0,0:0:0:0:
182,192,120451,1,0,0:0:0:0:
109,192,120526,1,0,0:0:0:0:
256,192,120526,1,0,0:0:0:0:
402,192,120526,1,0,0:0:0:0:
475,192,120601,1,0,0:0:0:0:
329,192,120601,1,0,0:0:0:0:
182,192,120676,1,0,0:0:0:0:
109,192,120676,1,0,0:0:0:0:
36,192,120676,1,0,0:0:0:0:
402,192,120676,1,0,0:0:0:0:
256,192,120751,1,0,0:0:0:0:
329,192,120751,1,0,0:0:0:0:
182,192,120826,1,0,0:0:0:0:
36,192,120826,1,0,0:0:0:0:
475,192,120826,1,0,0:0:0:0:
402,192,120901,1,0,0:0:0:0:
329,192,120901,1,0,0:0:0:0:
256,192,120976,1,0,0:0:0:0:
109,192,120976,1,0,0:0:0:0:
475,192,120976,1,0,0:0:0:0:
182,192,121051,1,0,0:0:0:0:
402,192,121051,1,0,0:0:0:0:
475,192,121126,1,0,0:0:0:0:
36,192,121126,1,0,0:0:0:0:
329,192,121126,1,0,0:0:0:0:
109,192,121201,1,0,0:0:0:0:
182,192,121201,1,0,0:0:0:0:
402,192,121276,1,0,0:0:0:0:
36,192,121276,1,0,0:0:0:0:
256,192,121276,1,0,0:0:0:0:
475,192,121276,1,0,0:0:0:0:
329,192,121351,1,0,0:0:0:0:
109,192,121351,1,0,0:0:0:0:
36,192,121426,1,0,0:0:0:0:
402,192,121426,1,0,0:0:0:0:
182,192,121426,1,0,0:0:0:0:
475,192,121501,1,0,0:0:0:0:
329,192,121501,1,0,0:0:0:0:
109,192,121576,1,0,0:0:0:0:
36,192,121576,1,0,0:0:0:0:
256,192,121576,1,0,0:0:0:0:
402,192,121651,1,0,0:0:0:0:
475,192,121651,1,0,0:0:0:0:
182,192,121726,1,0,0:0:0:0:
36,192,121726,1,0,0:0:0:0:
329,192,121726,1,0,0:0:0:0:
256,192,121801,1,0,0:0:0:0:
475,192,121801,1,0,0:0:0:0:
109,192,121876,1,0,0:0:0:0:
182,192,121876,1,0,0:0:0:0:
329,192,121876,1,0,0:0:0:0:
402,192,121876,1,0,0:0:0:0:
36,192,121951,1,0,0:0:0:0:
256,192,121951,1,0,0:0:0:0:
182,192,122026,1,0,0:0:0:0:
329,192,122026,1,0,0:0:0:0:
475,192,122026,1,0,0:0:0:0:
402,192,122101,1,0,0:0:0:0:
109,192,122101,1,0,0:0:0:0:
36,192,122176,1,0,0:0:0:0:
329,192,122176,1,0,0:0:0:0:
256,192,122176,1,0,0:0:0:0:
182,192,122251,1,0,0:0:0:0:
109,192,122251,1,0,0:0:0:0:
256,192,122326,1,0,0:0:0:0:
402,192,122326,1,0,0:0:0:0:
475,192,122326,1,0,0:0:0:0:
329,192,122401,1,0,0:0:0:0:
36,192,122401,1,0,0:0:0:0:
402,192,122476,1,0,0:0:0:0:
182,192,122476,1,0,0:0:0:0:
109,192,122476,1,0,0:0:0:0:
475,192,122476,1,0,0:0:0:0:
256,192,122551,1,0,0:0:0:0:
329,192,122626,1,0,0:0:0:0:
402,192,122626,1,0,0:0:0:0:
36,192,122626,1,0,0:0:0:0:
109,192,122701,1,0,0:0:0:0:
182,192,122701,1,0,0:0:0:0:
475,192,122701,1,0,0:0:0:0:
329,192,122776,1,0,0:0:0:0:
256,192,122776,1,0,0:0:0:0:
36,192,122776,1,0,0:0:0:0:
402,192,122776,1,0,0:0:0:0:
109,192,122851,1,0,0:0:0:0:
475,192,122851,1,0,0:0:0:0:
256,192,122926,1,0,0:0:0:0:
182,192,122926,1,0,0:0:0:0:
329,192,122926,1,0,0:0:0:0:
109,192,123001,1,0,0:0:0:0:
36,192,123001,1,0,0:0:0:0:
182,192,123076,1,0,0:0:0:0:
329,192,123076,1,0,0:0:0:0:
402,192,123076,1,0,0:0:0:0:
475,192,123076,1,0,0:0:0:0:
109,192,123151,1,0,0:0:0:0:
256,192,123151,1,0,0:0:0:0:
36,192,123226,1,0,0:0:0:0:
182,192,123226,1,0,0:0:0:0:
402,192,123226,1,0,0:0:0:0:
329,192,123301,1,0,0:0:0:0:
475,192,123301,1,0,0:0:0:0:
256,192,123376,1,0,0:0:0:0:
182,192,123376,1,0,0:0:0:0:
109,192,123376,1,0,0:0:0:0:
329,192,123451,1,0,0:0:0:0:
402,192,123451,1,0,0:0:0:0:
36,192,123526,1,0,0:0:0:0:
109,192,123526,1,0,0:0:0:0:
475,192,123526,1,0,0:0:0:0:
329,192,123601,1,0,0:0:0:0:
182,192,123601,1,0,0:0:0:0:
402,192,123601,1,0,0:0:0:0:
109,192,123676,1,0,0:0:0:0:
36,192,123676,1,0,0:0:0:0:
256,192,123676,1,0,0:0:0:0:
475,192,123676,1,0,0:0:0:0:
182,192,123751,1,0,0:0:0:0:
329,192,123751,1,0,0:0:0:0:
402,192,123826,1,0,0:0:0:0:
36,192,123826,1,0,0:0:0:0:
475,192,123826,1,0,0:0:0:0:
182,192,123901,1,0,0:0:0:0:
109,192,123901,1,0,0:0:0:0:
329,192,123901,1,0,0:0:0:0:
256,192,123976,1,0,0:0:0:0:
402,192,123976,1,0,0:0:0:0:
36,192,123976,1,0,0:0:0:0:
475,192,123976,1,0,0:0:0:0:
182,192,124051,1,0,0:0:0:0:
109,192,124051,1,0,0:0:0:0:
402,192,124126,1,0,0:0:0:0:
256,192,124126,1,0,0:0:0:0:
329,192,124126,1,0,0:0:0:0:
475,192,124201,1,0,0:0:0:0:
36,192,124201,1,0,0:0:0:0:
329,192,124276,1,0,0:0:0:0:
402,192,124276,1,0,0:0:0:0:
109,192,124276,1,0,0:0:0:0:
182,192,124276,1,0,0:0:0:0:
36,192,124351,1,0,0:0:0:0:
256,192,124351,1,0,0:0:0:0:
109,192,124426,1,0,0:0:0:0:
475,192,124426,1,0,0:0:0:0:
182,192,124426,1,0,0:0:0:0:
329,192,124501,1,0,0:0:0:0:
256,192,124501,1,0,0:0:0:0:
36,192,124576,1,0,0:0:0:0:
475,192,124576,1,0,0:0:0:0:
402,192,124576,1,0,0:0:0:0:
182,192,124651,1,0,0:0:0:0:
329,192,124651,1,0,0:0:0:0:
109,192,124726,1,0,0:0:0:0:
256,192,124726,1,0,0:0:0:0:
475,192,124726,1,0,0:0:0:0:
182,192,124801,1,0,0:0:0:0:
402,192,124801,1,0,0:0:0:0:
329,192,124876,1,0,0:0:0:0:
256,192,124876,1,0,0:0:0:0:
36,192,124876,1,0,0:0:0:0:
475,192,124876,1,0,0:0:0:0:
109,192,124951,1,0,0:0:0:0:
182,192,124951,1,0,0:0:0:0:
36,192,125026,1,0,0:0:0:0:
329,192,125026,1,0,0:0:0:0:
402,192,125026,1,0,0:0:0:0:
256,192,125101,1,0,0:0:0:0:
182,192,125101,1,0,0:0:0:0:
109,192,125176,1,0,0:0:0:0:
36,192,125176,1,0,0:0:0:0:
402,192,125176,1,0,0:0:0:0:
475,192,125176,1,0,0:0:0:0:
256,192,125251,1,0,0:0:0:0:
329,192,125251,1,0,0:0:0:0:
182,192,125326,1,0,0:0:0:0:
402,192,125326,1,0,0:0:0:0:
109,192,125326,1,0,0:0:0:0:
475,192,125401,1,0,0:0:0:0:
36,192,125401,1,0,0:0:0:0:
182,192,125476,1,0,0:0:0:0:
256,192,125476,1,0,0:0:0:0:
402,192,125476,1,0,0:0:0:0:
329,192,125476,1,0,0:0:0:0:
36,192,125551,1,0,0:0:0:0:
109,192,125551,1,0,0:0:0:0:
182,192,125626,1,0,0:0:0:0:
256,192,125626,1,0,0:0:0:0:
475,192,125626,1,0,0:0:0:0:
329,192,125701,1,0,0:0:0:0:
402,192,125701,1,0,0:0:0:0:
475,192,125776,1,0,0:0:0:0:
109,192,125776,1,0,0:0:0:0:
36,192,125776,1,0,0:0:0:0:
256,192,125851,1,0,0:0:0:0:
329,192,125851,1,0,0:0:0:0:
402,192,125926,1,0,0:0:0:0:
475,192,125926,1,0,0:0:0:0:
182,192,125926,1,0,0:0:0:0:
109,192,126001,1,0,0:0:0:0:
329,192,126001,1,0,0:0:0:0:
36,192,126076,1,0,0:0:0:0:
256,192,126076,1,0,0:0:0:0:
402,192,126076,1,0,0:0:0:0:
475,192,126076,1,0,0:0:0:0:
182,192,126151,1,0,0:0:0:0:
109,192,126151,1,0,0:0:0:0:
329,192,126226,1,0,0:0:0:0:
402,192,126226,1,0,0:0:0:0:
182,192,126301,1,0,0:0:0:0:
109,192,126301,1,0,0:0:0:0:
36,192,126376,1,0,0:0:0:0:
329,192,126376,1,0,0:0:0:0:
256,192,126376,1,0,0:0:0:0:
109,192,126451,1,0,0:0:0:0:
402,192,126451,1,0,0:0:0:0:
182,192,126526,1,0,0:0:0:0:
475,192,126526,1,0,0:0:0:0:
256,192,126601,1,0,0:0:0:0:
36,192,126601,1,0,0:0:0:0:
329,192,126676,1,0,0:0:0:0:
109,192,126676,1,0,0:0:0:0:
475,192,126676,1,0,0:0:0:0:
256,192,126751,1,0,0:0:0:0:
36,192,126751,1,0,0:0:0:0:
182,192,126826,1,0,0:0:0:0:
402,192,126826,1,0,0:0:0:0:
109,192,126901,1,0,0:0:0:0:
329,192,126901,1,0,0:0:0:0:
36,192,126976,1,0,0:0:0:0:
475,192,126976,1,0,0:0:0:0:
256,192,126976,1,0,0:0:0:0:
402,192,127051,1,0,0:0:0:0:
182,192,127051,1,0,0:0:0:0:
329,192,127126,1,0,0:0:0:0:
109,192,127126,1,0,0:0:0:0:
256,192,127201,1,0,0:0:0:0:
475,192,127201,1,0,0:0:0:0:
182,192,127276,1,0,0:0:0:0:
402,192,127276,1,0,0:0:0:0:
109,192,127276,1,0,0:0:0:0:
256,192,127351,1,0,0:0:0:0:
329,192,127351,1,0,0:0:0:0:
36,192,127351,1,0,0:0:0:0:
475,192,127426,1,0,0:0:0:0:
182,192,127426,1,0,0:0:0:0:
402,192,127426,1,0,0:0:0:0:
36,192,127501,1,0,0:0:0:0:
109,192,127501,1,0,0:0:0:0:
475,192,127576,1,0,0:0:0:0:
256,192,127576,1,0,0:0:0:0:
402,192,127576,1,0,0:0:0:0:
329,192,127576,1,0,0:0:0:0:
182,192,127651,1,0,0:0:0:0:
109,192,127726,1,0,0:0:0:0:
256,192,127726,1,0,0:0:0:0:
329,192,127726,1,0,0:0:0:0:
475,192,127801,1,0,0:0:0:0:
36,192,127801,1,0,0:0:0:0:
182,192,127876,1,0,0:0:0:0:
109,192,127876,1,0,0:0:0:0:
329,192,127876,1,0,0:0:0:0:
256,192,127876,1,0,0:0:0:0:
402,192,127951,1,0,0:0:0:0:
36,192,127951,1,0,0:0:0:0:
182,192,128026,1,0,0:0:0:0:
109,192,128026,1,0,0:0:0:0:
475,192,128026,1,0,0:0:0:0:
256,192,128101,1,0,0:0:0:0:
329,192,128101,1,0,0:0:0:0:
402,192,128176,1,0,0:0:0:0:
475,192,128176,1,0,0:0:0:0:
36,192,128176,1,0,0:0:0:0:
109,192,128251,1,0,0:0:0:0:
182,192,128251,1,0,0:0:0:0:
402,192,128326,1,0,0:0:0:0:
475,192,128326,1,0,0:0:0:0:
36,192,128326,1,0,0:0:0:0:
256,192,128401,1,0,0:0:0:0:
329,192,128401,1,0,0:0:0:0:
109,192,128476,1,0,0:0:0:0:
36,192,128476,1,0,0:0:0:0:
182,192,128476,1,0,0:0:0:0:
475,192,128476,1,0,0:0:0:0:
256,192,128551,1,0,0:0:0:0:
402,192,128551,1,0,0:0:0:0:
329,192,128626,1,0,0:0:0:0:
182,192,128626,1,0,0:0:0:0:
109,192,128626,1,0,0:0:0:0:
36,192,128701,1,0,0:0:0:0:
475,192,128701,1,0,0:0:0:0:
182,192,128776,1,0,0:0:0:0:
256,192,128776,1,0,0:0:0:0:
329,192,128776,1,0,0:0:0:0:
36,192,128851,1,0,0:0:0:0:
475,192,128851,1,0,0:0:0:0:
109,192,128926,1,0,0:0:0:0:
256,192,128926,1,0,0:0:0:0:
402,192,128926,1,0,0:0:0:0:
182,192,129001,1,0,0:0:0:0:
475,192,129001,1,0,0:0:0:0:
329,192,129076,1,0,0:0:0:0:
402,192,129076,1,0,0:0:0:0:
109,192,129076,1,0,0:0:0:0:
36,192,129076,1,0,0:0:0:0:
256,192,129151,1,0,0:0:0:0:
182,192,129151,1,0,0:0:0:0:
475,192,129226,1,0,0:0:0:0:
36,192,129226,1,0,0:0:0:0:
402,192,129226,1,0,0:0:0:0:
329,192,129301,1,0,0:0:0:0:
256,192,129301,1,0,0:0:0:0:
109,192,129376,1,0,0:0:0:0:
36,192,129376,1,0,0:0:0:0:
475,192,129376,1,0,0:0:0:0:
402,192,129451,1,0,0:0:0:0:
329,192,129451,1,0,0:0:0:0:
256,192,129526,1,0,0:0:0:0:
182,192,129526,1,0,0:0:0:0:
109,192,129526,1,0,0:0:0:0:
402,192,129601,1,0,0:0:0:0:
475,192,129601,1,0,0:0:0:0:
36,192,129601,1,0,0:0:0:0:
329,192,129676,1,0,0:0:0:0:
256,192,129676,1,0,0:0:0:0:
182,192,129676,1,0,0:0:0:0:
109,192,129676,1,0,0:0:0:0:
475,192,129751,1,0,0:0:0:0:
36,192,129751,1,0,0:0:0:0:
329,192,129826,1,0,0:0:0:0:
182,192,129826,1,0,0:0:0:0:
256,192,129901,1,0,0:0:0:0:
402,192,129901,1,0,0:0:0:0:
109,192,129901,1,0,0:0:0:0:
36,192,129976,1,0,0:0:0:0:
329,192,129976,1,0,0:0:0:0:
475,192,129976,1,0,0:0:0:0:
402,192,130051,1,0,0:0:0:0:
256,192,130051,1,0,0:0:0:0:
329,192,130126,1,0,0:0:0:0:
109,192,130126,1,0,0:0:0:0:
182,192,130126,1,0,0:0:0:0:
256,192,130201,1,0,0:0:0:0:
475,192,130201,1,0,0:0:0:0:
402,192,130276,1,0,0:0:0:0:
36,192,130276,1,0,0:0:0:0:
109,192,130276,1,0,0:0:0:0:
329,192,130276,1,0,0:0:0:0:
182,192,130351,1,0,0:0:0:0:
475,192,130351,1,0,0:0:0:0:
36,192,130426,1,0,0:0:0:0:
256,192,130426,1,0,0:0:0:0:
402,192,130426,1,0,0:0:0:0:
329,192,130501,1,0,0:0:0:0:
182,192,130501,1,0,0:0:0:0:
109,192,130501,1,0,0:0:0:0:
402,192,130576,1,0,0:0:0:0:
36,192,130576,1,0,0:0:0:0:
475,192,130576,1,0,0:0:0:0:
329,192,130651,1,0,0:0:0:0:
256,192,130651,1,0,0:0:0:0:
182,192,130726,1,0,0:0:0:0:
109,192,130726,1,0,0:0:0:0:
475,192,130726,1,0,0:0:0:0:
402,192,130801,1,0,0:0:0:0:
256,192,130801,1,0,0:0:0:0:
36,192,130801,1,0,0:0:0:0:
329,192,130876,1,0,0:0:0:0:
109,192,130876,1,0,0:0:0:0:
475,192,130876,1,0,0:0:0:0:
182,192,130876,1,0,0:0:0:0:
402,192,130951,1,0,0:0:0:0:
256,192,130951,1,0,0:0:0:0:
329,192,131026,1,0,0:0:0:0:
36,192,131026,1,0,0:0:0:0:
475,192,131026,1,0,0:0:0:0:
256,192,131101,1,0,0:0:0:0:
109,192,131101,1,0,0:0:0:0:
402,192,131101,1,0,0:0:0:0:
182,192,131176,1,0,0:0:0:0:
36,192,131176,1,0,0:0:0:0:
329,192,131176,1,0,0:0:0:0:
402,192,131251,1,0,0:0:0:0:
109,192,131251,1,0,0:0:0:0:
475,192,131326,1,0,0:0:0:0:
182,192,131326,1,0,0:0:0:0:
256,192,131326,1,0,0:0:0:0:
329,192,131401,1,0,0:0:0:0:
36,192,131401,1,0,0:0:0:0:
109,192,131476,1,0,0:0:0:0:
182,192,131476,1,0,0:0:0:0:
402,192,131476,1,0,0:0:0:0:
475,192,131476,1,0,0:0:0:0:
256,192,131551,1,0,0:0:0:0:
329,192,131551,1,0,0:0:0:0:
36,192,131626,1,0,0:0:0:0:
402,192,131626,1,0,0:0:0:0:
475,192,131626,1,0,0:0:0:0:
182,192,131701,1,0,0:0:0:0:
256,192,131701,1,0,0:0:0:0:
329,192,131701,1,0,0:0:0:0:
109,192,131776,1,0,0:0:0:0:
475,192,131776,1,0,0:0:0:0:
36,192,131776,1,0,0:0:0:0:
402,192,131851,1,0,0:0:0:0:
182,192,131851,1,0,0:0:0:0:
256,192,131926,1,0,0:0:0:0:
329,192,131926,1,0,0:0:0:0:
36,192,131926,1,0,0:0:0:0:
475,192,132001,1,0,0:0:0:0:
182,192,132001,1,0,0:0:0:0:
109,192,132076,1,0,0:0:0:0:
36,192,132076,1,0,0:0:0:0:
402,192,132076,1,0,0:0:0:0:
329,192,132076,1,0,0:0:0:0:
256,192,132151,1,0,0:0:0:0:
475,192,132151,1,0,0:0:0:0:
182,192,132226,1,0,0:0:0:0:
109,192,132226,1,0,0:0:0:0:
402,192,132226,1,0,0:0:0:0:
329,192,132301,1,0,0:0:0:0:
36,192,132301,1,0,0:0:0:0:
256,192,132376,1,0,0:0:0:0:
182,192,132376,1,0,0:0:0:0:
475,192,132376,1,0,0:0:0:0:
109,192,132376,1,0,0:0:0:0:
329,192,132451,1,0,0:0:0:0:
402,192,132526,1,0,0:0:0:0:
256,192,132526,1,0,0:0:0:0:
36,192,132526,1,0,0:0:0:0:
109,192,132601,1,0,0:0:0:0:
475,192,132601,1,0,0:0:0:0:
182,192,132676,1,0,0:0:0:0:
256,192,132676,1,0,0:0:0:0:
329,192,132676,1,0,0:0:0:0:
402,192,132676,1,0,0:0:0:0:
475,192,132751,1,0,0:0:0:0:
109,192,132751,1,0,0:0:0:0:
329,192,132826,1,0,0:0:0:0:
36,192,132826,1,0,0:0:0:0:
182,192,132826,1,0,0:0:0:0:
256,192,132901,1,0,0:0:0:0:
402,192,132901,1,0,0:0:0:0:
109,192,132976,1,0,0:0:0:0:
475,192,132976,1,0,0:0:0:0:
329,192,132976,1,0,0:0:0:0:
36,192,133051,1,0,0:0:0:0:
182,192,133051,1,0,0:0:0:0:
256,192,133126,1,0,0:0:0:0:
402,192,133126,1,0,0:0:0:0:
475,192,133126,1,0,0:0:0:0:
109,192,133201,1,0,0:0:0:0:
36,192,133201,1,0,0:0:0:0:
329,192,133201,1,0,0:0:0:0:
256,192,133276,1,0,0:0:0:0:
182,192,133276,1,0,0:0:0:0:
402,192,133276,1,0,0:0:0:0:
475,192,133276,1,0,0:0:0:0:
36,192,133351,1,0,0:0:0:0:
329,192,133351,1,0,0:0:0:0:
109,192,133426,1,0,0:0:0:0:
182,192,133426,1,0,0:0:0:0:
402,192,133426,1,0,0:0:0:0:
256,192,133501,1,0,0:0:0:0:
475,192,133501,1,0,0:0:0:0:
329,192,133576,1,0,0:0:0:0:
182,192,133576,1,0,0:0:0:0:
109,192,133576,1,0,0:0:0:0:
36,192,133576,1,0,0:0:0:0:
402,192,133651,1,0,0:0:0:0:
256,192,133651,1,0,0:0:0:0:
329,192,133726,1,0,0:0:0:0:
475,192,133726,1,0,0:0:0:0:
109,192,133726,1,0,0:0:0:0:
256,192,133801,1,0,0:0:0:0:
36,192,133801,1,0,0:0:0:0:
182,192,133876,1,0,0:0:0:0:
402,192,133876,1,0,0:0:0:0:
475,192,133876,1,0,0:0:0:0:
109,192,133951,1,0,0:0:0:0:
256,192,133951,1,0,0:0:0:0:
182,192,134026,1,0,0:0:0:0:
329,192,134026,1,0,0:0:0:0:
402,192,134026,1,0,0:0:0:0:
475,192,134101,1,0,0:0:0:0:
36,192,134101,1,0,0:0:0:0:
109,192,134176,1,0,0:0:0:0:
182,192,134176,1,0,0:0:0:0:
256,192,134176,1,0,0:0:0:0:
329,192,134251,1,0,0:0:0:0:
402,192,134251,1,0,0:0:0:0:
256,192,134326,1,0,0:0:0:0:
475,192,134326,1,0,0:0:0:0:
36,192,134326,1,0,0:0:0:0:
402,192,134401,1,0,0:0:0:0:
182,192,134401,1,0,0:0:0:0:
109,192,134401,1,0,0:0:0:0:
329,192,134476,1,0,0:0:0:0:
475,192,134476,1,0,0:0:0:0:
36,192,134476,1,0,0:0:0:0:
256,192,134476,1,0,0:0:0:0:
182,192,134551,1,0,0:0:0:0:
109,192,134551,1,0,0:0:0:0:
36,192,134626,1,0,0:0:0:0:
256,192,134626,1,0,0:0:0:0:
475,192,134626,1,0,0:0:0:0:
109,192,134701,1,0,0:0:0:0:
402,192,134701,1,0,0:0:0:0:
329,192,134701,1,0,0:0:0:0:
256,192,134776,1,0,0:0:0:0:
36,192,134776,1,0,0:0:0:0:
475,192,134776,1,0,0:0:0:0:
182,192,134776,1,0,0:0:0:0:
402,192,134851,1,0,0:0:0:0:
109,192,134851,1,0,0:0:0:0:
256,192,134926,1,0,0:0:0:0:
329,192,134926,1,0,0:0:0:0:
182,192,134926,1,0,0:0:0:0:
402,192,135001,1,0,0:0:0:0:
36,192,135001,1,0,0:0:0:0:
109,192,135076,1,0,0:0:0:0:
256,192,135076,1,0,0:0:0:0:
329,192,135076,1,0,0:0:0:0:
475,192,135076,1,0,0:0:0:0:
402,192,135151,1,0,0:0:0:0:
182,192,135151,1,0,0:0:0:0:
256,192,135226,1,0,0:0:0:0:
36,192,135226,1,0,0:0:0:0:
475,192,135226,1,0,0:0:0:0:
329,192,135301,1,0,0:0:0:0:
109,192,135301,1,0,0:0:0:0:
402,192,135376,1,0,0:0:0:0:
182,192,135376,1,0,0:0:0:0:
475,192,135376,1,0,0:0:0:0:
109,192,135451,1,0,0:0:0:0:
329,192,135451,1,0,0:0:0:0:
36,192,135526,1,0,0:0:0:0:
256,192,135526,1,0,0:0:0:0:
475,192,135526,1,0,0:0:0:0:
182,192,135601,1,0,0:0:0:0:
402,192,135601,1,0,0:0:0:0:
329,192,135601,1,0,0:0:0:0:
109,192,135676,1,0,0:0:0:0:
36,192,135676,1,0,0:0:0:0:
256,192,135676,1,0,0:0:0:0:
402,192,135751,1,0,0:0:0:0:
329,192,135826,1,0,0:0:0:0:
182,192,135826,1,0,0:0:0:0:
109,192,135826,1,0,0:0:0:0:
256,192,135901,1,0,0:0:0:0:
109,192,135976,1,0,0:0:0:0:
402,192,135976,1,0,0:0:0:0:
475,192,135976,1,0,0:0:0:0:
36,192,135976,1,0,0:0:0:0:
256,192,136051,5,0,0:0:0:0:
329,192,136126,1,0,0:0:0:0:
182,192,136126,1,0,0:0:0:0:
109,192,136126,1,0,0:0:0:0:
402,192,136201,1,0,0:0:0:0:
475,192,136276,1,0,0:0:0:0:
109,192,136276,1,0,0:0:0:0:
36,192,136276,1,0,0:0:0:0:
329,192,136276,1,0,0:0:0:0:
256,192,136351,1,0,0:0:0:0:
182,192,136426,1,0,0:0:0:0:
329,192,136426,1,0,0:0:0:0:
402,192,136426,1,0,0:0:0:0:
109,192,136501,1,0,0:0:0:0:
36,192,136576,1,0,0:0:0:0:
402,192,136576,1,0,0:0:0:0:
475,192,136576,1,0,0:0:0:0:
182,192,136576,1,0,0:0:0:0:
256,192,136651,1,0,0:0:0:0:
329,192,136726,1,0,0:0:0:0:
182,192,136726,1,0,0:0:0:0:
109,192,136726,1,0,0:0:0:0:
402,192,136801,1,0,0:0:0:0:
475,192,136876,1,0,0:0:0:0:
109,192,136876,1,0,0:0:0:0:
36,192,136876,1,0,0:0:0:0:
329,192,136876,1,0,0:0:0:0:
256,192,136951,1,0,0:0:0:0:
182,192,137026,1,0,0:0:0:0:
329,192,137026,1,0,0:0:0:0:
402,192,137026,1,0,0:0:0:0:
109,192,137101,1,0,0:0:0:0:
256,192,137176,1,0,0:0:0:0:
402,192,137176,1,0,0:0:0:0:
475,192,137176,1,0,0:0:0:0:
36,192,137176,1,0,0:0:0:0:
109,192,137251,1,0,0:0:0:0:
182,192,137251,1,0,0:0:0:0:
256,192,137326,1,0,0:0:0:0:
329,192,137326,1,0,0:0:0:0:
475,192,137326,1,0,0:0:0:0:
109,192,137401,1,0,0:0:0:0:
36,192,137401,1,0,0:0:0:0:
182,192,137476,1,0,0:0:0:0:
256,192,137476,1,0,0:0:0:0:
329,192,137476,1,0,0:0:0:0:
402,192,137476,1,0,0:0:0:0:
475,192,137476,1,0,0:0:0:0:
36,192,137551,1,0,0:0:0:0:
109,192,137551,1,0,0:0:0:0:
182,192,137626,1,0,0:0:0:0:
329,192,137626,1,0,0:0:0:0:
402,192,137626,1,0,0:0:0:0:
475,192,137701,1,0,0:0:0:0:
256,192,137701,1,0,0:0:0:0:
402,192,137776,1,0,0:0:0:0:
182,192,137776,1,0,0:0:0:0:
36,192,137776,1,0,0:0:0:0:
109,192,137776,1,0,0:0:0:0:
256,192,137851,1,0,0:0:0:0:
329,192,137851,1,0,0:0:0:0:
182,192,137926,1,0,0:0:0:0:
475,192,137926,1,0,0:0:0:0:
36,192,137926,1,0,0:0:0:0:
402,192,138001,1,0,0:0:0:0:
109,192,138001,1,0,0:0:0:0:
182,192,138076,1,0,0:0:0:0:
256,192,138076,1,0,0:0:0:0:
475,192,138076,1,0,0:0:0:0:
329,192,138076,1,0,0:0:0:0:
36,192,138076,1,0,0:0:0:0:
109,192,138151,1,0,0:0:0:0:
402,192,138151,1,0,0:0:0:0:
256,192,138226,1,0,0:0:0:0:
329,192,138226,1,0,0:0:0:0:
475,192,138226,1,0,0:0:0:0:
182,192,138301,1,0,0:0:0:0:
109,192,138301,1,0,0:0:0:0:
36,192,138376,1,0,0:0:0:0:
256,192,138376,1,0,0:0:0:0:
402,192,138376,1,0,0:0:0:0:
329,192,138376,1,0,0:0:0:0:
475,192,138451,1,0,0:0:0:0:
182,192,138451,1,0,0:0:0:0:
402,192,138526,1,0,0:0:0:0:
109,192,138526,1,0,0:0:0:0:
36,192,138526,1,0,0:0:0:0:
329,192,138601,1,0,0:0:0:0:
256,192,138601,1,0,0:0:0:0:
182,192,138676,1,0,0:0:0:0:
109,192,138676,1,0,0:0:0:0:
36,192,138676,1,0,0:0:0:0:
475,192,138676,1,0,0:0:0:0:
402,192,138676,1,0,0:0:0:0:
256,192,138751,1,0,0:0:0:0:
329,192,138751,1,0,0:0:0:0:
182,192,138826,1,0,0:0:0:0:
402,192,138826,1,0,0:0:0:0:
109,192,138826,1,0,0:0:0:0:
475,192,138901,1,0,0:0:0:0:
36,192,138901,1,0,0:0:0:0:
329,192,138976,1,0,0:0:0:0:
256,192,138976,1,0,0:0:0:0:
182,192,138976,1,0,0:0:0:0:
402,192,138976,1,0,0:0:0:0:
36,192,139051,1,0,0:0:0:0:
109,192,139051,1,0,0:0:0:0:
182,192,139126,1,0,0:0:0:0:
329,192,139126,1,0,0:0:0:0:
475,192,139126,1,0,0:0:0:0:
402,192,139201,1,0,0:0:0:0:
109,192,139201,1,0,0:0:0:0:
182,192,139276,1,0,0:0:0:0:
329,192,139276,1,0,0:0:0:0:
475,192,139276,1,0,0:0:0:0:
256,192,139276,1,0,0:0:0:0:
36,192,139276,1,0,0:0:0:0:
402,192,139351,1,0,0:0:0:0:
109,192,139351,1,0,0:0:0:0:
475,192,139426,1,0,0:0:0:0:
36,192,139426,1,0,0:0:0:0:
256,192,139426,1,0,0:0:0:0:
182,192,139501,1,0,0:0:0:0:
329,192,139501,1,0,0:0:0:0:
109,192,139576,1,0,0:0:0:0:
256,192,139576,1,0,0:0:0:0:
402,192,139576,1,0,0:0:0:0:
36,192,139576,1,0,0:0:0:0:
475,192,139651,1,0,0:0:0:0:
182,192,139651,1,0,0:0:0:0:
256,192,139726,1,0,0:0:0:0:
329,192,139726,1,0,0:0:0:0:
109,192,139726,1,0,0:0:0:0:
402,192,139801,1,0,0:0:0:0:
36,192,139801,1,0,0:0:0:0:
329,192,139876,1,0,0:0:0:0:
475,192,139876,1,0,0:0:0:0:
256,192,139876,1,0,0:0:0:0:
182,192,139876,1,0,0:0:0:0:
109,192,139876,1,0,0:0:0:0:
36,192,139951,1,0,0:0:0:0:
402,192,139951,1,0,0:0:0:0:
329,192,140026,1,0,0:0:0:0:
182,192,140026,1,0,0:0:0:0:
475,192,140026,1,0,0:0:0:0:
109,192,140101,1,0,0:0:0:0:
256,192,140101,1,0,0:0:0:0:
402,192,140176,1,0,0:0:0:0:
475,192,140176,1,0,0:0:0:0:
182,192,140176,1,0,0:0:0:0:
36,192,140176,1,0,0:0:0:0:
329,192,140251,1,0,0:0:0:0:
109,192,140251,1,0,0:0:0:0:
402,192,140326,1,0,0:0:0:0:
256,192,140326,1,0,0:0:0:0:
36,192,140401,1,0,0:0:0:0:
182,192,140401,1,0,0:0:0:0:
109,192,140476,1,0,0:0:0:0:
329,192,140476,1,0,0:0:0:0:
256,192,140476,1,0,0:0:0:0:
402,192,140476,1,0,0:0:0:0:
475,192,140476,1,0,0:0:0:0:
182,192,140551,1,0,0:0:0:0:
36,192,140551,1,0,0:0:0:0:
402,192,140626,1,0,0:0:0:0:
475,192,140626,1,0,0:0:0:0:
329,192,140626,1,0,0:0:0:0:
182,192,140701,1,0,0:0:0:0:
109,192,140701,1,0,0:0:0:0:
256,192,140776,1,0,0:0:0:0:
36,192,140776,1,0,0:0:0:0:
329,192,140776,1,0,0:0:0:0:
475,192,140776,1,0,0:0:0:0:
109,192,140851,1,0,0:0:0:0:
402,192,140926,1,0,0:0:0:0:
182,192,140926,1,0,0:0:0:0:
36,192,140926,1,0,0:0:0:0:
256,192,140926,1,0,0:0:0:0:
475,192,141001,1,0,0:0:0:0:
109,192,141076,1,0,0:0:0:0:
36,192,141076,1,0,0:0:0:0:
329,192,141076,1,0,0:0:0:0:
256,192,141076,1,0,0:0:0:0:
402,192,141076,1,0,0:0:0:0:
182,192,141151,1,0,0:0:0:0:
256,192,141226,1,0,0:0:0:0:
109,192,141226,1,0,0:0:0:0:
475,192,141226,1,0,0:0:0:0:
402,192,141226,1,0,0:0:0:0:
329,192,141301,1,0,0:0:0:0:
182,192,141301,1,0,0:0:0:0:
402,192,141376,1,0,0:0:0:0:
475,192,141376,1,0,0:0:0:0:
109,192,141376,1,0,0:0:0:0:
36,192,141376,1,0,0:0:0:0:
256,192,141451,1,0,0:0:0:0:
329,192,141451,1,0,0:0:0:0:
182,192,141526,1,0,0:0:0:0:
402,192,141526,1,0,0:0:0:0:
36,192,141526,1,0,0:0:0:0:
109,192,141601,1,0,0:0:0:0:
475,192,141601,1,0,0:0:0:0:
256,192,141676,1,0,0:0:0:0:
329,192,141676,1,0,0:0:0:0:
182,192,141676,1,0,0:0:0:0:
402,192,141676,1,0,0:0:0:0:
36,192,141676,1,0,0:0:0:0:
109,192,141751,1,0,0:0:0:0:
475,192,141751,1,0,0:0:0:0:
182,192,141826,1,0,0:0:0:0:
329,192,141826,1,0,0:0:0:0:
256,192,141826,1,0,0:0:0:0:
475,192,141901,1,0,0:0:0:0:
36,192,141901,1,0,0:0:0:0:
402,192,141901,1,0,0:0:0:0:
256,192,141976,1,0,0:0:0:0:
182,192,141976,1,0,0:0:0:0:
109,192,141976,1,0,0:0:0:0:
329,192,141976,1,0,0:0:0:0:
402,192,142051,1,0,0:0:0:0:
36,192,142051,1,0,0:0:0:0:
475,192,142126,1,0,0:0:0:0:
256,192,142126,1,0,0:0:0:0:
109,192,142126,1,0,0:0:0:0:
329,192,142201,1,0,0:0:0:0:
182,192,142201,1,0,0:0:0:0:
402,192,142276,1,0,0:0:0:0:
475,192,142276,1,0,0:0:0:0:
256,192,142276,1,0,0:0:0:0:
36,192,142276,1,0,0:0:0:0:
109,192,142276,1,0,0:0:0:0:
182,192,142351,1,0,0:0:0:0:
329,192,142351,1,0,0:0:0:0:
36,192,142426,1,0,0:0:0:0:
402,192,142426,1,0,0:0:0:0:
475,192,142426,1,0,0:0:0:0:
109,192,142501,1,0,0:0:0:0:
182,192,142501,1,0,0:0:0:0:
256,192,142576,1,0,0:0:0:0:
329,192,142576,1,0,0:0:0:0:
402,192,142576,1,0,0:0:0:0:
36,192,142576,1,0,0:0:0:0:
475,192,142651,1,0,0:0:0:0:
109,192,142651,1,0,0:0:0:0:
182,192,142726,1,0,0:0:0:0:
329,192,142726,1,0,0:0:0:0:
256,192,142726,1,0,0:0:0:0:
475,192,142801,1,0,0:0:0:0:
402,192,142801,1,0,0:0:0:0:
329,192,142876,1,0,0:0:0:0:
36,192,142876,1,0,0:0:0:0:
109,192,142876,1,0,0:0:0:0:
182,192,142876,1,0,0:0:0:0:
256,192,142876,1,0,0:0:0:0:
402,192,142951,1,0,0:0:0:0:
475,192,142951,1,0,0:0:0:0:
182,192,143026,1,0,0:0:0:0:
109,192,143026,1,0,0:0:0:0:
36,192,143026,1,0,0:0:0:0:
256,192,143101,1,0,0:0:0:0:
402,192,143101,1,0,0:0:0:0:
329,192,143176,1,0,0:0:0:0:
475,192,143176,1,0,0:0:0:0:
109,192,143176,1,0,0:0:0:0:
36,192,143176,1,0,0:0:0:0:
182,192,143251,1,0,0:0:0:0:
402,192,143251,1,0,0:0:0:0:
329,192,143326,1,0,0:0:0:0:
475,192,143326,1,0,0:0:0:0:
256,192,143326,1,0,0:0:0:0:
109,192,143401,1,0,0:0:0:0:
182,192,143401,1,0,0:0:0:0:
256,192,143476,1,0,0:0:0:0:
329,192,143476,1,0,0:0:0:0:
402,192,143476,1,0,0:0:0:0:
475,192,143476,1,0,0:0:0:0:
36,192,143476,1,0,0:0:0:0:
182,192,143551,1,0,0:0:0:0:
109,192,143551,1,0,0:0:0:0:
402,192,143626,1,0,0:0:0:0:
256,192,143626,1,0,0:0:0:0:
36,192,143626,1,0,0:0:0:0:
475,192,143701,1,0,0:0:0:0:
109,192,143701,1,0,0:0:0:0:
329,192,143776,1,0,0:0:0:0:
402,192,143776,1,0,0:0:0:0:
182,192,143776,1,0,0:0:0:0:
36,192,143776,1,0,0:0:0:0:
256,192,143851,1,0,0:0:0:0:
475,192,143851,1,0,0:0:0:0:
402,192,143926,1,0,0:0:0:0:
109,192,143926,1,0,0:0:0:0:
182,192,143926,1,0,0:0:0:0:
329,192,144001,1,0,0:0:0:0:
36,192,144001,1,0,0:0:0:0:
475,192,144076,1,0,0:0:0:0:
109,192,144076,1,0,0:0:0:0:
402,192,144076,1,0,0:0:0:0:
256,192,144076,1,0,0:0:0:0:
182,192,144151,1,0,0:0:0:0:
329,192,144151,1,0,0:0:0:0:
256,192,144226,1,0,0:0:0:0:
109,192,144226,1,0,0:0:0:0:
36,192,144226,1,0,0:0:0:0:
329,192,144301,1,0,0:0:0:0:
182,192,144301,1,0,0:0:0:0:
36,192,144376,1,0,0:0:0:0:
109,192,144376,1,0,0:0:0:0:
475,192,144376,1,0,0:0:0:0:
402,192,144376,1,0,0:0:0:0:
329,192,144451,1,0,0:0:0:0:
182,192,144451,1,0,0:0:0:0:
36,192,144526,1,0,0:0:0:0:
256,192,144526,1,0,0:0:0:0:
402,192,144526,1,0,0:0:0:0:
109,192,144601,1,0,0:0:0:0:
475,192,144601,1,0,0:0:0:0:
402,192,144676,1,0,0:0:0:0:
256,192,144676,1,0,0:0:0:0:
36,192,144676,1,0,0:0:0:0:
329,192,144676,1,0,0:0:0:0:
182,192,144676,1,0,0:0:0:0:
475,192,144751,1,0,0:0:0:0:
109,192,144751,1,0,0:0:0:0:
329,192,144826,1,0,0:0:0:0:
402,192,144826,1,0,0:0:0:0:
182,192,144826,1,0,0:0:0:0:
109,192,144901,1,0,0:0:0:0:
256,192,144901,1,0,0:0:0:0:
36,192,144901,1,0,0:0:0:0:
182,192,144976,1,0,0:0:0:0:
402,192,144976,1,0,0:0:0:0:
329,192,144976,1,0,0:0:0:0:
475,192,144976,1,0,0:0:0:0:
36,192,145051,1,0,0:0:0:0:
256,192,145051,1,0,0:0:0:0:
475,192,145126,1,0,0:0:0:0:
109,192,145126,1,0,0:0:0:0:
329,192,145126,1,0,0:0:0:0:
182,192,145201,1,0,0:0:0:0:
402,192,145201,1,0,0:0:0:0:
36,192,145201,1,0,0:0:0:0:
256,192,145276,1,0,0:0:0:0:
329,192,145276,1,0,0:0:0:0:
475,192,145276,1,0,0:0:0:0:
109,192,145276,1,0,0:0:0:0:
182,192,145351,1,0,0:0:0:0:
402,192,145351,1,0,0:0:0:0:
36,192,145426,1,0,0:0:0:0:
109,192,145426,1,0,0:0:0:0:
256,192,145426,1,0,0:0:0:0:
475,192,145501,1,0,0:0:0:0:
182,192,145501,1,0,0:0:0:0:
329,192,145501,1,0,0:0:0:0:
36,192,145576,1,0,0:0:0:0:
256,192,145576,1,0,0:0:0:0:
109,192,145576,1,0,0:0:0:0:
402,192,145651,1,0,0:0:0:0:
475,192,145651,1,0,0:0:0:0:
329,192,145651,1,0,0:0:0:0:
256,192,145726,1,0,0:0:0:0:
36,192,145726,1,0,0:0:0:0:
182,192,145726,1,0,0:0:0:0:
109,192,145801,1,0,0:0:0:0:
402,192,145801,1,0,0:0:0:0:
475,192,145801,1,0,0:0:0:0:
329,192,145876,1,0,0:0:0:0:
182,192,145876,1,0,0:0:0:0:
36,192,145876,1,0,0:0:0:0:
402,192,145951,1,0,0:0:0:0:
475,192,145951,1,0,0:0:0:0:
256,192,145951,1,0,0:0:0:0:
36,192,146026,1,0,0:0:0:0:
109,192,146026,1,0,0:0:0:0:
329,192,146026,1,0,0:0:0:0:
402,192,146101,1,0,0:0:0:0:
182,192,146101,1,0,0:0:0:0:
256,192,146101,1,0,0:0:0:0:
475,192,146176,1,0,0:0:0:0:
109,192,146176,1,0,0:0:0:0:
329,192,146176,1,0,0:0:0:0:
36,192,146176,1,0,0:0:0:0:
182,192,146326,1,0,0:0:0:0:
109,192,146326,1,0,0:0:0:0:
402,192,146326,1,0,0:0:0:0:
475,192,146326,1,0,0:0:0:0:
36,192,146401,1,0,0:0:0:0:
256,192,146401,1,0,0:0:0:0:
109,192,146476,1,0,0:0:0:0:
329,192,146476,1,0,0:0:0:0:
402,192,146551,1,0,0:0:0:0:
182,192,146551,1,0,0:0:0:0:
475,192,146626,1,0,0:0:0:0:
256,192,146626,1,0,0:0:0:0:
402,192,146701,1,0,0:0:0:0:
182,192,146701,1,0,0:0:0:0:
256,192,146776,1,0,0:0:0:0:
475,192,146776,1,0,0:0:0:0:
36,192,146776,1,0,0:0:0:0:
109,192,146776,1,0,0:0:0:0:
329,192,146776,1,0,0:0:0:0:
402,192,146851,1,0,0:0:0:0:
182,192,146851,1,0,0:0:0:0:
109,192,146926,1,0,0:0:0:0:
36,192,146926,1,0,0:0:0:0:
329,192,146926,1,0,0:0:0:0:
475,192,147001,1,0,0:0:0:0:
256,192,147001,1,0,0:0:0:0:
109,192,147076,1,0,0:0:0:0:
36,192,147076,1,0,0:0:0:0:
182,192,147076,1,0,0:0:0:0:
402,192,147076,1,0,0:0:0:0:
329,192,147076,1,0,0:0:0:0:
256,192,147151,1,0,0:0:0:0:
475,192,147151,1,0,0:0:0:0:
109,192,147226,1,0,0:0:0:0:
182,192,147226,1,0,0:0:0:0:
402,192,147226,1,0,0:0:0:0:
256,192,147301,1,0,0:0:0:0:
36,192,147301,1,0,0:0:0:0:
329,192,147376,1,0,0:0:0:0:
109,192,147376,1,0,0:0:0:0:
402,192,147376,1,0,0:0:0:0:
475,192,147376,1,0,0:0:0:0:
182,192,147451,1,0,0:0:0:0:
36,192,147451,1,0,0:0:0:0:
475,192,147526,1,0,0:0:0:0:
329,192,147526,1,0,0:0:0:0:
256,192,147526,1,0,0:0:0:0:
109,192,147601,1,0,0:0:0:0:
402,192,147601,1,0,0:0:0:0:
36,192,147676,1,0,0:0:0:0:
475,192,147676,1,0,0:0:0:0:
329,192,147676,1,0,0:0:0:0:
256,192,147676,1,0,0:0:0:0:
182,192,147676,1,0,0:0:0:0:
402,192,147751,1,0,0:0:0:0:
109,192,147751,1,0,0:0:0:0:
475,192,147826,1,0,0:0:0:0:
36,192,147826,1,0,0:0:0:0:
256,192,147826,1,0,0:0:0:0:
329,192,147901,1,0,0:0:0:0:
182,192,147901,1,0,0:0:0:0:
475,192,147976,1,0,0:0:0:0:
109,192,147976,1,0,0:0:0:0:
36,192,147976,1,0,0:0:0:0:
402,192,147976,1,0,0:0:0:0:
329,192,148051,1,0,0:0:0:0:
256,192,148051,1,0,0:0:0:0:
36,192,148126,1,0,0:0:0:0:
402,192,148126,1,0,0:0:0:0:
182,192,148126,1,0,0:0:0:0:
109,192,148201,1,0,0:0:0:0:
256,192,148201,1,0,0:0:0:0:
402,192,148276,1,0,0:0:0:0:
475,192,148276,1,0,0:0:0:0:
329,192,148276,1,0,0:0:0:0:
36,192,148276,1,0,0:0:0:0:
182,192,148276,1,0,0:0:0:0:
109,192,148351,1,0,0:0:0:0:
256,192,148351,1,0,0:0:0:0:
182,192,148426,1,0,0:0:0:0:
329,192,148426,1,0,0:0:0:0:
475,192,148426,1,0,0:0:0:0:
109,192,148501,1,0,0:0:0:0:
402,192,148501,1,0,0:0:0:0:
475,192,148576,1,0,0:0:0:0:
256,192,148576,1,0,0:0:0:0:
36,192,148576,1,0,0:0:0:0:
329,192,148576,1,0,0:0:0:0:
182,192,148651,1,0,0:0:0:0:
402,192,148651,1,0,0:0:0:0:
109,192,148726,1,0,0:0:0:0:
36,192,148726,1,0,0:0:0:0:
256,192,148726,1,0,0:0:0:0:
329,192,148801,1,0,0:0:0:0:
475,192,148801,1,0,0:0:0:0:
109,192,148876,1,0,0:0:0:0:
256,192,148876,1,0,0:0:0:0:
36,192,148876,1,0,0:0:0:0:
402,192,148876,1,0,0:0:0:0:
182,192,148876,1,0,0:0:0:0:
475,192,148951,1,0,0:0:0:0:
36,192,149026,1,0,0:0:0:0:
402,192,149026,1,0,0:0:0:0:
182,192,149026,1,0,0:0:0:0:
329,192,149026,1,0,0:0:0:0:
109,192,149101,1,0,0:0:0:0:
256,192,149176,1,0,0:0:0:0:
182,192,149176,1,0,0:0:0:0:
402,192,149176,1,0,0:0:0:0:
475,192,149176,1,0,0:0:0:0:
36,192,149251,1,0,0:0:0:0:
329,192,149251,1,0,0:0:0:0:
475,192,149326,1,0,0:0:0:0:
256,192,149326,1,0,0:0:0:0:
109,192,149326,1,0,0:0:0:0:
36,192,149401,1,0,0:0:0:0:
182,192,149401,1,0,0:0:0:0:
475,192,149476,1,0,0:0:0:0:
109,192,149476,1,0,0:0:0:0:
329,192,149476,1,0,0:0:0:0:
402,192,149476,1,0,0:0:0:0:
256,192,149476,1,0,0:0:0:0:
182,192,149551,1,0,0:0:0:0:
402,192,149626,1,0,0:0:0:0:
256,192,149626,1,0,0:0:0:0:
109,192,149626,1,0,0:0:0:0:
36,192,149701,1,0,0:0:0:0:
329,192,149701,1,0,0:0:0:0:
109,192,149776,1,0,0:0:0:0:
475,192,149776,1,0,0:0:0:0:
402,192,149776,1,0,0:0:0:0:
182,192,149776,1,0,0:0:0:0:
329,192,149851,1,0,0:0:0:0:
36,192,149851,1,0,0:0:0:0:
256,192,149926,1,0,0:0:0:0:
475,192,149926,1,0,0:0:0:0:
182,192,149926,1,0,0:0:0:0:
109,192,150001,1,0,0:0:0:0:
402,192,150001,1,0,0:0:0:0:
36,192,150076,1,0,0:0:0:0:
475,192,150076,1,0,0:0:0:0:
182,192,150076,1,0,0:0:0:0:
329,192,150076,1,0,0:0:0:0:
256,192,150076,1,0,0:0:0:0:
402,192,150151,1,0,0:0:0:0:
109,192,150151,1,0,0:0:0:0:
36,192,150226,1,0,0:0:0:0:
256,192,150226,1,0,0:0:0:0:
329,192,150226,1,0,0:0:0:0:
402,192,150301,1,0,0:0:0:0:
475,192,150301,1,0,0:0:0:0:
182,192,150301,1,0,0:0:0:0:
36,192,150376,1,0,0:0:0:0:
256,192,150376,1,0,0:0:0:0:
329,192,150376,1,0,0:0:0:0:
109,192,150376,1,0,0:0:0:0:
475,192,150451,1,0,0:0:0:0:
182,192,150526,1,0,0:0:0:0:
109,192,150526,1,0,0:0:0:0:
402,192,150526,1,0,0:0:0:0:
329,192,150526,1,0,0:0:0:0:
256,192,150601,1,0,0:0:0:0:
402,192,150676,1,0,0:0:0:0:
329,192,150676,1,0,0:0:0:0:
475,192,150676,1,0,0:0:0:0:
182,192,150676,1,0,0:0:0:0:
109,192,150676,1,0,0:0:0:0:
36,192,150751,1,0,0:0:0:0:
256,192,150826,1,0,0:0:0:0:
475,192,150826,1,0,0:0:0:0:
402,192,150826,1,0,0:0:0:0:
182,192,150826,1,0,0:0:0:0:
329,192,150901,1,0,0:0:0:0:
475,192,150976,1,0,0:0:0:0:
402,192,150976,1,0,0:0:0:0:
109,192,150976,1,0,0:0:0:0:
256,192,150976,1,0,0:0:0:0:
182,192,151051,1,0,0:0:0:0:
329,192,151126,1,0,0:0:0:0:
36,192,151126,1,0,0:0:0:0:
256,192,151126,1,0,0:0:0:0:
109,192,151201,1,0,0:0:0:0:
402,192,151201,1,0,0:0:0:0:
36,192,151276,1,0,0:0:0:0:
182,192,151276,1,0,0:0:0:0:
329,192,151276,1,0,0:0:0:0:
475,192,151276,1,0,0:0:0:0:
402,192,151351,1,0,0:0:0:0:
475,192,151426,1,0,0:0:0:0:
109,192,151426,1,0,0:0:0:0:
256,192,151426,1,0,0:0:0:0:
182,192,151426,1,0,0:0:0:0:
36,192,151501,1,0,0:0:0:0:
329,192,151501,1,0,0:0:0:0:
402,192,151501,1,0,0:0:0:0:
256,192,151576,1,0,0:0:0:0:
475,192,151576,1,0,0:0:0:0:
109,192,151576,1,0,0:0:0:0:
182,192,151576,1,0,0:0:0:0:
36,192,151651,1,0,0:0:0:0:
329,192,151651,1,0,0:0:0:0:
256,192,151726,1,0,0:0:0:0:
402,192,151726,1,0,0:0:0:0:
182,192,151726,1,0,0:0:0:0:
475,192,151801,1,0,0:0:0:0:
36,192,151801,1,0,0:0:0:0:
109,192,151876,1,0,0:0:0:0:
256,192,151876,1,0,0:0:0:0:
329,192,151876,1,0,0:0:0:0:
402,192,151876,1,0,0:0:0:0:
182,192,151876,1,0,0:0:0:0:
475,192,151951,1,0,0:0:0:0:
36,192,151951,1,0,0:0:0:0:
109,192,152026,1,0,0:0:0:0:
329,192,152026,1,0,0:0:0:0:
402,192,152026,1,0,0:0:0:0:
475,192,152101,1,0,0:0:0:0:
256,192,152101,1,0,0:0:0:0:
109,192,152176,1,0,0:0:0:0:
329,192,152176,1,0,0:0:0:0:
36,192,152176,1,0,0:0:0:0:
402,192,152176,1,0,0:0:0:0:
475,192,152251,1,0,0:0:0:0:
256,192,152251,1,0,0:0:0:0:
182,192,152251,1,0,0:0:0:0:
109,192,152326,1,0,0:0:0:0:
402,192,152326,1,0,0:0:0:0:
36,192,152401,1,0,0:0:0:0:
329,192,152401,1,0,0:0:0:0:
182,192,152401,1,0,0:0:0:0:
475,192,152476,1,0,0:0:0:0:
256,192,152476,1,0,0:0:0:0:
109,192,152476,1,0,0:0:0:0:
402,192,152476,1,0,0:0:0:0:
36,192,152551,1,0,0:0:0:0:
329,192,152551,1,0,0:0:0:0:
109,192,152626,1,0,0:0:0:0:
256,192,152626,1,0,0:0:0:0:
475,192,152626,1,0,0:0:0:0:
402,192,152701,1,0,0:0:0:0:
256,192,152776,1,0,0:0:0:0:
36,192,152776,1,0,0:0:0:0:
475,192,152776,1,0,0:0:0:0:
182,192,152776,1,0,0:0:0:0:
329,192,152776,1,0,0:0:0:0:
402,192,152851,1,0,0:0:0:0:
109,192,152851,1,0,0:0:0:0:
182,192,152926,1,0,0:0:0:0:
329,192,152926,1,0,0:0:0:0:
36,192,152926,1,0,0:0:0:0:
475,192,153001,1,0,0:0:0:0:
256,192,153001,1,0,0:0:0:0:
36,192,153076,1,0,0:0:0:0:
329,192,153076,1,0,0:0:0:0:
182,192,153076,1,0,0:0:0:0:
402,192,153076,1,0,0:0:0:0:
109,192,153076,1,0,0:0:0:0:
256,192,153151,1,0,0:0:0:0:
475,192,153151,1,0,0:0:0:0:
36,192,153226,1,0,0:0:0:0:
109,192,153226,1,0,0:0:0:0:
402,192,153226,1,0,0:0:0:0:
329,192,153301,1,0,0:0:0:0:
182,192,153301,1,0,0:0:0:0:
402,192,153376,1,0,0:0:0:0:
475,192,153376,1,0,0:0:0:0:
256,192,153376,1,0,0:0:0:0:
109,192,153376,1,0,0:0:0:0:
36,192,153451,1,0,0:0:0:0:
182,192,153451,1,0,0:0:0:0:
475,192,153526,1,0,0:0:0:0:
109,192,153526,1,0,0:0:0:0:
329,192,153526,1,0,0:0:0:0:
182,192,153601,1,0,0:0:0:0:
256,192,153601,1,0,0:0:0:0:
402,192,153676,1,0,0:0:0:0:
475,192,153676,1,0,0:0:0:0:
36,192,153676,1,0,0:0:0:0:
329,192,153676,1,0,0:0:0:0:
109,192,153676,1,0,0:0:0:0:
256,192,153751,1,0,0:0:0:0:
182,192,153826,1,0,0:0:0:0:
402,192,153826,1,0,0:0:0:0:
36,192,153826,1,0,0:0:0:0:
329,192,153826,1,0,0:0:0:0:
475,192,153901,1,0,0:0:0:0:
256,192,153901,1,0,0:0:0:0:
36,192,153976,1,0,0:0:0:0:
329,192,153976,1,0,0:0:0:0:
109,192,153976,1,0,0:0:0:0:
182,192,153976,1,0,0:0:0:0:
402,192,153976,1,0,0:0:0:0:
475,192,154051,1,0,0:0:0:0:
109,192,154126,1,0,0:0:0:0:
256,192,154126,1,0,0:0:0:0:
329,192,154126,1,0,0:0:0:0:
402,192,154201,1,0,0:0:0:0:
182,192,154201,1,0,0:0:0:0:
475,192,154276,1,0,0:0:0:0:
109,192,154276,1,0,0:0:0:0:
36,192,154276,1,0,0:0:0:0:
256,192,154276,1,0,0:0:0:0:
329,192,154351,1,0,0:0:0:0:
402,192,154351,1,0,0:0:0:0:
36,192,154426,1,0,0:0:0:0:
182,192,154426,1,0,0:0:0:0:
475,192,154426,1,0,0:0:0:0:
109,192,154501,1,0,0:0:0:0:
256,192,154501,1,0,0:0:0:0:
329,192,154501,1,0,0:0:0:0:
182,192,154576,1,0,0:0:0:0:
36,192,154576,1,0,0:0:0:0:
475,192,154576,1,0,0:0:0:0:
402,192,154576,1,0,0:0:0:0:
109,192,154651,1,0,0:0:0:0:
256,192,154651,1,0,0:0:0:0:
329,192,154726,1,0,0:0:0:0:
36,192,154726,1,0,0:0:0:0:
402,192,154726,1,0,0:0:0:0:
256,192,154801,1,0,0:0:0:0:
182,192,154801,1,0,0:0:0:0:
475,192,154801,1,0,0:0:0:0:
109,192,154876,1,0,0:0:0:0:
36,192,154876,1,0,0:0:0:0:
402,192,154876,1,0,0:0:0:0:
329,192,154876,1,0,0:0:0:0:
475,192,154951,1,0,0:0:0:0:
182,192,154951,1,0,0:0:0:0:
109,192,155026,1,0,0:0:0:0:
329,192,155026,1,0,0:0:0:0:
256,192,155026,1,0,0:0:0:0:
402,192,155101,1,0,0:0:0:0:
36,192,155101,1,0,0:0:0:0:
109,192,155176,1,0,0:0:0:0:
329,192,155176,1,0,0:0:0:0:
475,192,155176,1,0,0:0:0:0:
256,192,155176,1,0,0:0:0:0:
402,192,155251,5,0,0:0:0:0:
182,192,155251,1,0,0:0:0:0:
475,192,155326,1,0,0:0:0:0:
36,192,155326,1,0,0:0:0:0:
109,192,155326,1,0,0:0:0:0:
329,192,155401,1,0,0:0:0:0:
256,192,155401,1,0,0:0:0:0:
182,192,155401,1,0,0:0:0:0:
109,192,155476,1,0,0:0:0:0:
36,192,155476,1,0,0:0:0:0:
402,192,155476,1,0,0:0:0:0:
475,192,155476,1,0,0:0:0:0:
256,192,155551,1,0,0:0:0:0:
329,192,155551,1,0,0:0:0:0:
402,192,155626,1,0,0:0:0:0:
182,192,155626,1,0,0:0:0:0:
36,192,155626,1,0,0:0:0:0:
475,192,155701,1,0,0:0:0:0:
329,192,155701,1,0,0:0:0:0:
109,192,155701,1,0,0:0:0:0:
182,192,155776,1,0,0:0:0:0:
36,192,155776,1,0,0:0:0:0:
402,192,155776,1,0,0:0:0:0:
256,192,155776,1,0,0:0:0:0:
109,192,155851,1,0,0:0:0:0:
475,192,155851,1,0,0:0:0:0:
182,192,155926,1,0,0:0:0:0:
329,192,155926,1,0,0:0:0:0:
256,192,155926,1,0,0:0:0:0:
109,192,156001,1,0,0:0:0:0:
36,192,156001,1,0,0:0:0:0:
402,192,156001,1,0,0:0:0:0:
256,192,156076,1,0,0:0:0:0:
329,192,156076,1,0,0:0:0:0:
475,192,156076,1,0,0:0:0:0:
402,192,156151,1,0,0:0:0:0:
182,192,156151,1,0,0:0:0:0:
329,192,156226,1,0,0:0:0:0:
36,192,156226,1,0,0:0:0:0:
109,192,156226,1,0,0:0:0:0:
182,192,156301,1,0,0:0:0:0:
475,192,156301,1,0,0:0:0:0:
256,192,156301,1,0,0:0:0:0:
402,192,156376,1,0,0:0:0:0:
329,192,156376,1,0,0:0:0:0:
109,192,156376,1,0,0:0:0:0:
36,192,156376,1,0,0:0:0:0:
256,192,156451,1,0,0:0:0:0:
36,192,156526,1,0,0:0:0:0:
329,192,156526,1,0,0:0:0:0:
475,192,156526,1,0,0:0:0:0:
109,192,156601,1,0,0:0:0:0:
402,192,156601,1,0,0:0:0:0:
182,192,156676,1,0,0:0:0:0:
475,192,156676,1,0,0:0:0:0:
256,192,156676,1,0,0:0:0:0:
36,192,156676,1,0,0:0:0:0:
402,192,156751,1,0,0:0:0:0:
329,192,156826,1,0,0:0:0:0:
109,192,156826,1,0,0:0:0:0:
182,192,156826,1,0,0:0:0:0:
36,192,156901,1,0,0:0:0:0:
256,192,156901,1,0,0:0:0:0:
182,192,156976,1,0,0:0:0:0:
402,192,156976,1,0,0:0:0:0:
475,192,156976,1,0,0:0:0:0:
109,192,157051,1,0,0:0:0:0:
256,192,157126,1,0,0:0:0:0:
36,192,157126,1,0,0:0:0:0:
402,192,157126,1,0,0:0:0:0:
329,192,157201,1,0,0:0:0:0:
109,192,157201,1,0,0:0:0:0:
402,192,157276,1,0,0:0:0:0:
182,192,157276,1,0,0:0:0:0:
475,192,157276,1,0,0:0:0:0:
36,192,157276,1,0,0:0:0:0:
256,192,157351,1,0,0:0:0:0:
475,192,157426,1,0,0:0:0:0:
182,192,157426,1,0,0:0:0:0:
329,192,157426,1,0,0:0:0:0:
402,192,157501,1,0,0:0:0:0:
109,192,157501,1,0,0:0:0:0:
329,192,157576,1,0,0:0:0:0:
36,192,157576,1,0,0:0:0:0:
256,192,157576,1,0,0:0:0:0:
182,192,157651,1,0,0:0:0:0:
256,192,157726,1,0,0:0:0:0:
36,192,157726,1,0,0:0:0:0:
475,192,157726,1,0,0:0:0:0:
329,192,157801,1,0,0:0:0:0:
109,192,157801,1,0,0:0:0:0:
402,192,157876,1,0,0:0:0:0:
182,192,157876,1,0,0:0:0:0:
475,192,157876,1,0,0:0:0:0:
36,192,157876,1,0,0:0:0:0:
329,192,157951,1,0,0:0:0:0:
256,192,158026,1,0,0:0:0:0:
475,192,158026,1,0,0:0:0:0:
109,192,158026,1,0,0:0:0:0:
182,192,158101,1,0,0:0:0:0:
402,192,158101,1,0,0:0:0:0:
109,192,158176,1,0,0:0:0:0:
329,192,158176,1,0,0:0:0:0:
36,192,158176,1,0,0:0:0:0:
256,192,158251,1,0,0:0:0:0:
329,192,158326,1,0,0:0:0:0:
36,192,158326,1,0,0:0:0:0:
182,192,158326,1,0,0:0:0:0:
402,192,158401,1,0,0:0:0:0:
109,192,158401,1,0,0:0:0:0:
475,192,158476,1,0,0:0:0:0:
182,192,158476,1,0,0:0:0:0:
329,192,158476,1,0,0:0:0:0:
36,192,158476,1,0,0:0:0:0:
256,192,158551,1,0,0:0:0:0:
402,192,158626,1,0,0:0:0:0:
182,192,158626,1,0,0:0:0:0:
475,192,158626,1,0,0:0:0:0:
329,192,158701,1,0,0:0:0:0:
109,192,158701,1,0,0:0:0:0:
256,192,158776,1,0,0:0:0:0:
475,192,158776,1,0,0:0:0:0:
402,192,158776,1,0,0:0:0:0:
182,192,158851,1,0,0:0:0:0:
329,192,158926,1,0,0:0:0:0:
109,192,158926,1,0,0:0:0:0:
36,192,158926,1,0,0:0:0:0:
402,192,159001,1,0,0:0:0:0:
182,192,159001,1,0,0:0:0:0:
475,192,159076,1,0,0:0:0:0:
256,192,159076,1,0,0:0:0:0:
109,192,159076,1,0,0:0:0:0:
36,192,159076,1,0,0:0:0:0:
329,192,159151,1,0,0:0:0:0:
256,192,159226,1,0,0:0:0:0:
475,192,159226,1,0,0:0:0:0:
36,192,159226,1,0,0:0:0:0:
182,192,159301,1,0,0:0:0:0:
402,192,159301,1,0,0:0:0:0:
109,192,159376,1,0,0:0:0:0:
329,192,159376,1,0,0:0:0:0:
36,192,159376,1,0,0:0:0:0:
182,192,159451,1,0,0:0:0:0:
256,192,159526,1,0,0:0:0:0:
36,192,159526,1,0,0:0:0:0:
475,192,159526,1,0,0:0:0:0:
329,192,159601,1,0,0:0:0:0:
109,192,159601,1,0,0:0:0:0:
402,192,159676,1,0,0:0:0:0:
182,192,159676,1,0,0:0:0:0:
475,192,159676,1,0,0:0:0:0:
36,192,159676,1,0,0:0:0:0:
329,192,159751,1,0,0:0:0:0:
256,192,159826,1,0,0:0:0:0:
475,192,159826,1,0,0:0:0:0:
109,192,159826,1,0,0:0:0:0:
402,192,159901,1,0,0:0:0:0:
182,192,159901,1,0,0:0:0:0:
329,192,159976,1,0,0:0:0:0:
109,192,159976,1,0,0:0:0:0:
36,192,159976,1,0,0:0:0:0:
182,192,160051,1,0,0:0:0:0:
256,192,160126,1,0,0:0:0:0:
36,192,160126,1,0,0:0:0:0:
475,192,160126,1,0,0:0:0:0:
329,192,160201,1,0,0:0:0:0:
109,192,160201,1,0,0:0:0:0:
402,192,160276,1,0,0:0:0:0:
182,192,160276,1,0,0:0:0:0:
475,192,160276,1,0,0:0:0:0:
36,192,160276,1,0,0:0:0:0:
329,192,160351,1,0,0:0:0:0:
256,192,160426,1,0,0:0:0:0:
475,192,160426,1,0,0:0:0:0:
109,192,160426,1,0,0:0:0:0:
182,192,160501,1,0,0:0:0:0:
402,192,160501,1,0,0:0:0:0:
109,192,160576,1,0,0:0:0:0:
329,192,160576,1,0,0:0:0:0:
36,192,160576,1,0,0:0:0:0:
256,192,160651,1,0,0:0:0:0:
329,192,160726,1,0,0:0:0:0:
36,192,160726,1,0,0:0:0:0:
182,192,160726,1,0,0:0:0:0:
402,192,160801,1,0,0:0:0:0:
109,192,160801,1,0,0:0:0:0:
475,192,160876,1,0,0:0:0:0:
182,192,160876,1,0,0:0:0:0:
256,192,160876,1,0,0:0:0:0:
36,192,160876,1,0,0:0:0:0:
329,192,160951,1,0,0:0:0:0:
256,192,161026,1,0,0:0:0:0:
475,192,161026,1,0,0:0:0:0:
109,192,161026,1,0,0:0:0:0:
182,192,161101,1,0,0:0:0:0:
402,192,161101,1,0,0:0:0:0:
109,192,161176,1,0,0:0:0:0:
329,192,161176,1,0,0:0:0:0:
36,192,161176,1,0,0:0:0:0:
256,192,161251,1,0,0:0:0:0:
402,192,161326,1,0,0:0:0:0:
475,192,161326,1,0,0:0:0:0:
182,192,161326,1,0,0:0:0:0:
109,192,161401,1,0,0:0:0:0:
329,192,161401,1,0,0:0:0:0:
402,192,161476,1,0,0:0:0:0:
475,192,161476,1,0,0:0:0:0:
256,192,161476,1,0,0:0:0:0:
36,192,161476,1,0,0:0:0:0:
109,192,161551,1,0,0:0:0:0:
402,192,161626,1,0,0:0:0:0:
475,192,161626,1,0,0:0:0:0:
182,192,161626,1,0,0:0:0:0:
256,192,161701,1,0,0:0:0:0:
36,192,161701,1,0,0:0:0:0:
109,192,161776,1,0,0:0:0:0:
329,192,161776,1,0,0:0:0:0:
475,192,161776,1,0,0:0:0:0:
256,192,161851,1,0,0:0:0:0:
402,192,161926,1,0,0:0:0:0:
182,192,161926,1,0,0:0:0:0:
36,192,161926,1,0,0:0:0:0:
329,192,162001,1,0,0:0:0:0:
109,192,162001,1,0,0:0:0:0:
182,192,162076,1,0,0:0:0:0:
36,192,162076,1,0,0:0:0:0:
475,192,162076,1,0,0:0:0:0:
402,192,162076,1,0,0:0:0:0:
256,192,162151,1,0,0:0:0:0:
329,192,162226,1,0,0:0:0:0:
109,192,162226,1,0,0:0:0:0:
402,192,162226,1,0,0:0:0:0:
256,192,162301,1,0,0:0:0:0:
36,192,162301,1,0,0:0:0:0:
402,192,162376,1,0,0:0:0:0:
475,192,162376,1,0,0:0:0:0:
182,192,162376,1,0,0:0:0:0:
256,192,162451,1,0,0:0:0:0:
329,192,162526,1,0,0:0:0:0:
36,192,162526,1,0,0:0:0:0:
109,192,162526,1,0,0:0:0:0:
402,192,162601,1,0,0:0:0:0:
182,192,162601,1,0,0:0:0:0:
36,192,162676,1,0,0:0:0:0:
475,192,162676,1,0,0:0:0:0:
109,192,162676,1,0,0:0:0:0:
256,192,162676,1,0,0:0:0:0:
402,192,162751,1,0,0:0:0:0:
109,192,162826,1,0,0:0:0:0:
36,192,162826,1,0,0:0:0:0:
329,192,162826,1,0,0:0:0:0:
475,192,162901,1,0,0:0:0:0:
256,192,162901,1,0,0:0:0:0:
402,192,162976,1,0,0:0:0:0:
329,192,162976,1,0,0:0:0:0:
36,192,162976,1,0,0:0:0:0:
182,192,162976,1,0,0:0:0:0:
256,192,163051,1,0,0:0:0:0:
329,192,163126,1,0,0:0:0:0:
109,192,163126,1,0,0:0:0:0:
475,192,163126,1,0,0:0:0:0:
402,192,163201,1,0,0:0:0:0:
182,192,163201,1,0,0:0:0:0:
36,192,163276,1,0,0:0:0:0:
329,192,163276,1,0,0:0:0:0:
109,192,163276,1,0,0:0:0:0:
475,192,163276,1,0,0:0:0:0:
256,192,163351,1,0,0:0:0:0:
182,192,163426,1,0,0:0:0:0:
402,192,163426,1,0,0:0:0:0:
109,192,163426,1,0,0:0:0:0:
256,192,163501,1,0,0:0:0:0:
475,192,163501,1,0,0:0:0:0:
329,192,163576,1,0,0:0:0:0:
36,192,163576,1,0,0:0:0:0:
182,192,163576,1,0,0:0:0:0:
402,192,163651,1,0,0:0:0:0:
109,192,163651,1,0,0:0:0:0:
475,192,163726,1,0,0:0:0:0:
182,192,163726,1,0,0:0:0:0:
329,192,163726,1,0,0:0:0:0:
256,192,163801,1,0,0:0:0:0:
36,192,163801,1,0,0:0:0:0:
329,192,163876,1,0,0:0:0:0:
109,192,163876,1,0,0:0:0:0:
182,192,163876,1,0,0:0:0:0:
475,192,163876,1,0,0:0:0:0:
402,192,163951,1,0,0:0:0:0:
475,192,164026,1,0,0:0:0:0:
329,192,164026,1,0,0:0:0:0:
256,192,164026,1,0,0:0:0:0:
109,192,164101,1,0,0:0:0:0:
36,192,164101,1,0,0:0:0:0:
182,192,164176,1,0,0:0:0:0:
256,192,164176,1,0,0:0:0:0:
402,192,164176,1,0,0:0:0:0:
109,192,164251,1,0,0:0:0:0:
329,192,164251,1,0,0:0:0:0:
36,192,164326,1,0,0:0:0:0:
475,192,164326,1,0,0:0:0:0:
256,192,164326,1,0,0:0:0:0:
402,192,164401,1,0,0:0:0:0:
182,192,164401,1,0,0:0:0:0:
329,192,164476,1,0,0:0:0:0:
109,192,164476,1,0,0:0:0:0:
36,192,164476,1,0,0:0:0:0:
475,192,164476,1,0,0:0:0:0:
256,192,164551,1,0,0:0:0:0:
182,192,164626,1,0,0:0:0:0:
329,192,164626,1,0,0:0:0:0:
402,192,164626,1,0,0:0:0:0:
109,192,164701,1,0,0:0:0:0:
475,192,164701,1,0,0:0:0:0:
36,192,164776,1,0,0:0:0:0:
182,192,164776,1,0,0:0:0:0:
256,192,164776,1,0,0:0:0:0:
402,192,164851,1,0,0:0:0:0:
329,192,164926,1,0,0:0:0:0:
109,192,164926,1,0,0:0:0:0:
36,192,164926,1,0,0:0:0:0:
256,192,165001,1,0,0:0:0:0:
475,192,165001,1,0,0:0:0:0:
182,192,165076,1,0,0:0:0:0:
36,192,165076,1,0,0:0:0:0:
329,192,165076,1,0,0:0:0:0:
402,192,165076,1,0,0:0:0:0:
109,192,165151,1,0,0:0:0:0:
182,192,165226,1,0,0:0:0:0:
402,192,165226,1,0,0:0:0:0:
475,192,165226,1,0,0:0:0:0:
256,192,165301,1,0,0:0:0:0:
36,192,165301,1,0,0:0:0:0:
329,192,165376,1,0,0:0:0:0:
475,192,165376,1,0,0:0:0:0:
109,192,165376,1,0,0:0:0:0:
402,192,165451,1,0,0:0:0:0:
329,192,165526,1,0,0:0:0:0:
109,192,165526,1,0,0:0:0:0:
36,192,165526,1,0,0:0:0:0:
256,192,165601,1,0,0:0:0:0:
182,192,165676,1,0,0:0:0:0:
402,192,165676,1,0,0:0:0:0:
475,192,165676,1,0,0:0:0:0:
109,192,165751,1,0,0:0:0:0:
36,192,165826,1,0,0:0:0:0:
475,192,165826,1,0,0:0:0:0:
402,192,165826,1,0,0:0:0:0:
329,192,165901,1,0,0:0:0:0:
256,192,165901,1,0,0:0:0:0:
402,192,165976,1,0,0:0:0:0:
182,192,165976,1,0,0:0:0:0:
475,192,165976,1,0,0:0:0:0:
109,192,165976,1,0,0:0:0:0:
256,192,166051,1,0,0:0:0:0:
109,192,166126,1,0,0:0:0:0:
36,192,166126,1,0,0:0:0:0:
329,192,166126,1,0,0:0:0:0:
402,192,166201,1,0,0:0:0:0:
182,192,166201,1,0,0:0:0:0:
109,192,166276,1,0,0:0:0:0:
36,192,166276,1,0,0:0:0:0:
256,192,166276,1,0,0:0:0:0:
475,192,166276,1,0,0:0:0:0:
402,192,166351,1,0,0:0:0:0:
109,192,166426,1,0,0:0:0:0:
36,192,166426,1,0,0:0:0:0:
329,192,166426,1,0,0:0:0:0:
256,192,166501,1,0,0:0:0:0:
475,192,166501,1,0,0:0:0:0:
402,192,166576,1,0,0:0:0:0:
182,192,166576,1,0,0:0:0:0:
36,192,166576,1,0,0:0:0:0:
256,192,166651,1,0,0:0:0:0:
109,192,166726,1,0,0:0:0:0:
329,192,166726,1,0,0:0:0:0:
475,192,166726,1,0,0:0:0:0:
182,192,166801,1,0,0:0:0:0:
402,192,166801,1,0,0:0:0:0:
329,192,166876,1,0,0:0:0:0:
475,192,166876,1,0,0:0:0:0:
36,192,166876,1,0,0:0:0:0:
109,192,166876,1,0,0:0:0:0:
256,192,166951,1,0,0:0:0:0:
182,192,167026,1,0,0:0:0:0:
402,192,167026,1,0,0:0:0:0:
109,192,167026,1,0,0:0:0:0:
256,192,167101,1,0,0:0:0:0:
475,192,167101,1,0,0:0:0:0:
109,192,167176,1,0,0:0:0:0:
36,192,167176,1,0,0:0:0:0:
329,192,167176,1,0,0:0:0:0:
256,192,167251,1,0,0:0:0:0:
182,192,167326,1,0,0:0:0:0:
475,192,167326,1,0,0:0:0:0:
402,192,167326,1,0,0:0:0:0:
109,192,167401,1,0,0:0:0:0:
329,192,167401,1,0,0:0:0:0:
475,192,167476,1,0,0:0:0:0:
36,192,167476,1,0,0:0:0:0:
402,192,167476,1,0,0:0:0:0:
256,192,167476,1,0,0:0:0:0:
109,192,167551,1,0,0:0:0:0:
402,192,167626,1,0,0:0:0:0:
475,192,167626,1,0,0:0:0:0:
182,192,167626,1,0,0:0:0:0:
36,192,167701,1,0,0:0:0:0:
256,192,167701,1,0,0:0:0:0:
109,192,167776,1,0,0:0:0:0:
182,192,167776,1,0,0:0:0:0:
475,192,167776,1,0,0:0:0:0:
329,192,167776,1,0,0:0:0:0:
256,192,167851,1,0,0:0:0:0:
182,192,167926,1,0,0:0:0:0:
402,192,167926,1,0,0:0:0:0:
36,192,167926,1,0,0:0:0:0:
109,192,168001,1,0,0:0:0:0:
329,192,168001,1,0,0:0:0:0:
475,192,168076,1,0,0:0:0:0:
182,192,168076,1,0,0:0:0:0:
402,192,168076,1,0,0:0:0:0:
36,192,168076,1,0,0:0:0:0:
256,192,168151,1,0,0:0:0:0:
329,192,168226,1,0,0:0:0:0:
109,192,168226,1,0,0:0:0:0:
402,192,168226,1,0,0:0:0:0:
256,192,168301,1,0,0:0:0:0:
36,192,168301,1,0,0:0:0:0:
402,192,168376,1,0,0:0:0:0:
182,192,168376,1,0,0:0:0:0:
475,192,168376,1,0,0:0:0:0:
109,192,168376,1,0,0:0:0:0:
256,192,168451,1,0,0:0:0:0:
109,192,168526,1,0,0:0:0:0:
36,192,168526,1,0,0:0:0:0:
329,192,168526,1,0,0:0:0:0:
402,192,168601,1,0,0:0:0:0:
182,192,168601,1,0,0:0:0:0:
109,192,168676,1,0,0:0:0:0:
36,192,168676,1,0,0:0:0:0:
256,192,168676,1,0,0:0:0:0:
475,192,168676,1,0,0:0:0:0:
402,192,168751,1,0,0:0:0:0:
109,192,168826,1,0,0:0:0:0:
36,192,168826,1,0,0:0:0:0:
329,192,168826,1,0,0:0:0:0:
256,192,168901,1,0,0:0:0:0:
475,192,168901,1,0,0:0:0:0:
402,192,168976,1,0,0:0:0:0:
182,192,168976,1,0,0:0:0:0:
36,192,168976,1,0,0:0:0:0:
256,192,169051,1,0,0:0:0:0:
109,192,169126,1,0,0:0:0:0:
329,192,169126,1,0,0:0:0:0:
475,192,169126,1,0,0:0:0:0:
182,192,169201,1,0,0:0:0:0:
402,192,169201,1,0,0:0:0:0:
329,192,169276,1,0,0:0:0:0:
475,192,169276,1,0,0:0:0:0:
36,192,169276,1,0,0:0:0:0:
109,192,169276,1,0,0:0:0:0:
256,192,169351,1,0,0:0:0:0:
182,192,169426,1,0,0:0:0:0:
402,192,169426,1,0,0:0:0:0:
109,192,169426,1,0,0:0:0:0:
256,192,169501,1,0,0:0:0:0:
475,192,169501,1,0,0:0:0:0:
109,192,169576,1,0,0:0:0:0:
36,192,169576,1,0,0:0:0:0:
329,192,169576,1,0,0:0:0:0:
256,192,169651,1,0,0:0:0:0:
182,192,169726,1,0,0:0:0:0:
475,192,169726,1,0,0:0:0:0:
402,192,169726,1,0,0:0:0:0:
109,192,169801,1,0,0:0:0:0:
329,192,169801,1,0,0:0:0:0:
475,192,169876,1,0,0:0:0:0:
36,192,169876,1,0,0:0:0:0:
402,192,169876,1,0,0:0:0:0:
256,192,169876,1,0,0:0:0:0:
109,192,169951,1,0,0:0:0:0:
402,192,170026,1,0,0:0:0:0:
475,192,170026,1,0,0:0:0:0:
182,192,170026,1,0,0:0:0:0:
36,192,170101,1,0,0:0:0:0:
256,192,170101,1,0,0:0:0:0:
109,192,170176,1,0,0:0:0:0:
182,192,170176,1,0,0:0:0:0:
475,192,170176,1,0,0:0:0:0:
329,192,170176,1,0,0:0:0:0:
256,192,170251,1,0,0:0:0:0:
182,192,170326,1,0,0:0:0:0:
402,192,170326,1,0,0:0:0:0:
36,192,170326,1,0,0:0:0:0:
109,192,170401,1,0,0:0:0:0:
329,192,170401,1,0,0:0:0:0:
475,192,170476,1,0,0:0:0:0:
182,192,170476,1,0,0:0:0:0:
402,192,170476,1,0,0:0:0:0:
36,192,170476,1,0,0:0:0:0:
256,192,170551,1,0,0:0:0:0:
329,192,170626,1,0,0:0:0:0:
109,192,170626,1,0,0:0:0:0:
402,192,170626,1,0,0:0:0:0:
256,192,170701,1,0,0:0:0:0:
36,192,170701,1,0,0:0:0:0:
109,192,170776,1,0,0:0:0:0:
182,192,170776,1,0,0:0:0:0:
475,192,170776,1,0,0:0:0:0:
402,192,170776,1,0,0:0:0:0:
402,192,170926,1,0,0:0:0:0:
475,192,170926,1,0,0:0:0:0:
256,192,170926,1,0,0:0:0:0:
36,192,171001,1,0,0:0:0:0:
109,192,171001,1,0,0:0:0:0:
182,192,171076,1,0,0:0:0:0:
256,192,171076,1,0,0:0:0:0:
329,192,171076,1,0,0:0:0:0:
402,192,171151,1,0,0:0:0:0:
475,192,171151,1,0,0:0:0:0:
36,192,171226,1,0,0:0:0:0:
109,192,171226,1,0,0:0:0:0:
256,192,171226,1,0,0:0:0:0:
329,192,171301,1,0,0:0:0:0:
402,192,171301,1,0,0:0:0:0:
109,192,171376,1,0,0:0:0:0:
36,192,171376,1,0,0:0:0:0:
475,192,171376,1,0,0:0:0:0:
256,192,171451,1,0,0:0:0:0:
182,192,171526,1,0,0:0:0:0:
109,192,171526,1,0,0:0:0:0:
402,192,171526,1,0,0:0:0:0:
36,192,171601,1,0,0:0:0:0:
329,192,171601,1,0,0:0:0:0:
402,192,171676,1,0,0:0:0:0:
475,192,171676,1,0,0:0:0:0:
256,192,171676,1,0,0:0:0:0:
182,192,171676,1,0,0:0:0:0:
109,192,171751,1,0,0:0:0:0:
36,192,171751,1,0,0:0:0:0:
329,192,171826,1,0,0:0:0:0:
402,192,171826,1,0,0:0:0:0:
182,192,171826,1,0,0:0:0:0:
256,192,171826,1,0,0:0:0:0:
475,192,171901,1,0,0:0:0:0:
109,192,171976,1,0,0:0:0:0:
36,192,171976,1,0,0:0:0:0:
329,192,171976,1,0,0:0:0:0:
402,192,171976,1,0,0:0:0:0:
109,192,172126,1,0,0:0:0:0:
36,192,172126,1,0,0:0:0:0:
256,192,172126,1,0,0:0:0:0:
475,192,172201,1,0,0:0:0:0:
402,192,172201,1,0,0:0:0:0:
329,192,172276,1,0,0:0:0:0:
256,192,172276,1,0,0:0:0:0:
182,192,172276,1,0,0:0:0:0:
109,192,172351,1,0,0:0:0:0:
36,192,172351,1,0,0:0:0:0:
475,192,172426,1,0,0:0:0:0:
402,192,172426,1,0,0:0:0:0:
256,192,172426,1,0,0:0:0:0:
182,192,172501,1,0,0:0:0:0:
109,192,172501,1,0,0:0:0:0:
402,192,172576,1,0,0:0:0:0:
475,192,172576,1,0,0:0:0:0:
36,192,172576,1,0,0:0:0:0:
256,192,172651,1,0,0:0:0:0:
329,192,172726,1,0,0:0:0:0:
402,192,172726,1,0,0:0:0:0:
109,192,172726,1,0,0:0:0:0:
475,192,172801,1,0,0:0:0:0:
182,192,172801,1,0,0:0:0:0:
109,192,172876,1,0,0:0:0:0:
36,192,172876,1,0,0:0:0:0:
256,192,172876,1,0,0:0:0:0:
329,192,172876,1,0,0:0:0:0:
402,192,172951,1,0,0:0:0:0:
475,192,172951,1,0,0:0:0:0:
182,192,173026,1,0,0:0:0:0:
109,192,173026,1,0,0:0:0:0:
329,192,173026,1,0,0:0:0:0:
256,192,173026,1,0,0:0:0:0:
36,192,173101,1,0,0:0:0:0:
402,192,173176,1,0,0:0:0:0:
475,192,173176,1,0,0:0:0:0:
182,192,173176,1,0,0:0:0:0:
109,192,173176,1,0,0:0:0:0:
329,192,173251,1,0,0:0:0:0:
256,192,173326,1,0,0:0:0:0:
109,192,173326,1,0,0:0:0:0:
36,192,173326,1,0,0:0:0:0:
329,192,173401,1,0,0:0:0:0:
402,192,173401,1,0,0:0:0:0:
36,192,173476,1,0,0:0:0:0:
256,192,173476,1,0,0:0:0:0:
475,192,173476,1,0,0:0:0:0:
182,192,173551,1,0,0:0:0:0:
402,192,173626,1,0,0:0:0:0:
109,192,173626,1,0,0:0:0:0:
329,192,173626,1,0,0:0:0:0:
256,192,173626,1,0,0:0:0:0:
36,192,173701,1,0,0:0:0:0:
109,192,173776,1,0,0:0:0:0:
329,192,173776,1,0,0:0:0:0:
402,192,173776,1,0,0:0:0:0:
475,192,173776,1,0,0:0:0:0:
182,192,173851,1,0,0:0:0:0:
256,192,173926,1,0,0:0:0:0:
402,192,173926,1,0,0:0:0:0:
475,192,173926,1,0,0:0:0:0:
182,192,174001,1,0,0:0:0:0:
329,192,174001,1,0,0:0:0:0:
256,192,174076,1,0,0:0:0:0:
475,192,174076,1,0,0:0:0:0:
109,192,174076,1,0,0:0:0:0:
36,192,174076,1,0,0:0:0:0:
329,192,174151,1,0,0:0:0:0:
402,192,174226,1,0,0:0:0:0:
182,192,174226,1,0,0:0:0:0:
109,192,174226,1,0,0:0:0:0:
36,192,174226,1,0,0:0:0:0:
475,192,174301,1,0,0:0:0:0:
402,192,174376,1,0,0:0:0:0:
182,192,174376,1,0,0:0:0:0:
109,192,174376,1,0,0:0:0:0:
36,192,174376,1,0,0:0:0:0:
329,192,174451,5,0,0:0:0:0:
256,192,174526,1,0,0:0:0:0:
182,192,174601,1,0,0:0:0:0:
109,192,174676,1,0,0:0:0:0:
475,192,174676,1,0,0:0:0:0:
402,192,174751,1,0,0:0:0:0:
329,192,174826,1,0,0:0:0:0:
182,192,174826,1,0,0:0:0:0:
109,192,174901,1,0,0:0:0:0:
36,192,174976,1,0,0:0:0:0:
402,192,174976,1,0,0:0:0:0:
475,192,174976,1,0,0:0:0:0:
182,192,175051,1,0,0:0:0:0:
256,192,175051,1,0,0:0:0:0:
256,192,175201,1,0,0:0:0:0:
329,192,175201,1,0,0:0:0:0:
109,192,175276,1,0,0:0:0:0:
36,192,175276,1,0,0:0:0:0:
475,192,175276,1,0,0:0:0:0:
329,192,175351,1,0,0:0:0:0:
256,192,175351,1,0,0:0:0:0:
402,192,175426,1,0,0:0:0:0:
109,192,175426,1,0,0:0:0:0:
256,192,175501,1,0,0:0:0:0:
182,192,175501,1,0,0:0:0:0:
329,192,175576,1,0,0:0:0:0:
475,192,175576,1,0,0:0:0:0:
36,192,175576,1,0,0:0:0:0:
109,192,175576,1,0,0:0:0:0:
402,192,175726,1,0,0:0:0:0:
182,192,175726,1,0,0:0:0:0:
329,192,175876,1,0,0:0:0:0:
109,192,175876,1,0,0:0:0:0:
182,192,176026,1,0,0:0:0:0:
402,192,176026,1,0,0:0:0:0:
36,192,176176,1,0,0:0:0:0:
329,192,176176,1,0,0:0:0:0:
256,192,176326,1,0,0:0:0:0:
182,192,176326,1,0,0:0:0:0:
402,192,176401,1,0,0:0:0:0:
475,192,176401,1,0,0:0:0:0:
109,192,176476,1,0,0:0:0:0:
182,192,176476,1,0,0:0:0:0:
329,192,176551,1,0,0:0:0:0:
402,192,176551,1,0,0:0:0:0:
109,192,176626,1,0,0:0:0:0:
36,192,176626,1,0,0:0:0:0:
256,192,176701,1,0,0:0:0:0:
329,192,176701,1,0,0:0:0:0:
182,192,176776,1,0,0:0:0:0:
475,192,176776,1,0,0:0:0:0:
402,192,176926,1,0,0:0:0:0:
109,192,176926,1,0,0:0:0:0:
329,192,177076,1,0,0:0:0:0:
36,192,177076,1,0,0:0:0:0:
109,192,177226,1,0,0:0:0:0:
402,192,177226,1,0,0:0:0:0:
475,192,177376,1,0,0:0:0:0:
182,192,177376,1,0,0:0:0:0:
256,192,177526,1,0,0:0:0:0:
329,192,177526,1,0,0:0:0:0:
109,192,177601,1,0,0:0:0:0:
36,192,177601,1,0,0:0:0:0:
402,192,177676,1,0,0:0:0:0:
329,192,177676,1,0,0:0:0:0:
182,192,177751,1,0,0:0:0:0:
109,192,177751,1,0,0:0:0:0:
475,192,177826,1,0,0:0:0:0:
402,192,177826,1,0,0:0:0:0:
182,192,177901,1,0,0:0:0:0:
256,192,177901,1,0,0:0:0:0:
109,192,177976,1,0,0:0:0:0:
402,192,177976,1,0,0:0:0:0:
36,192,177976,1,0,0:0:0:0:
329,192,177976,1,0,0:0:0:0:
256,192,178126,1,0,0:0:0:0:
475,192,178126,1,0,0:0:0:0:
329,192,178276,1,0,0:0:0:0:
109,192,178276,1,0,0:0:0:0:
182,192,178426,1,0,0:0:0:0:
402,192,178426,1,0,0:0:0:0:
256,192,178576,1,0,0:0:0:0:
36,192,178576,1,0,0:0:0:0:
402,192,178726,1,0,0:0:0:0:
475,192,178726,1,0,0:0:0:0:
256,192,178801,1,0,0:0:0:0:
182,192,178801,1,0,0:0:0:0:
329,192,178876,1,0,0:0:0:0:
402,192,178876,1,0,0:0:0:0:
109,192,178951,1,0,0:0:0:0:
182,192,178951,1,0,0:0:0:0:
256,192,179026,1,0,0:0:0:0:
329,192,179026,1,0,0:0:0:0:
36,192,179101,1,0,0:0:0:0:
109,192,179101,1,0,0:0:0:0:
182,192,179176,1,0,0:0:0:0:
402,192,179176,1,0,0:0:0:0:
256,192,179326,1,0,0:0:0:0:
36,192,179326,1,0,0:0:0:0:
182,192,179476,1,0,0:0:0:0:
402,192,179476,1,0,0:0:0:0:
329,192,179626,1,0,0:0:0:0:
109,192,179626,1,0,0:0:0:0:
256,192,179776,1,0,0:0:0:0:
475,192,179776,1,0,0:0:0:0:
109,192,179926,1,0,0:0:0:0:
36,192,179926,1,0,0:0:0:0:
256,192,180001,1,0,0:0:0:0:
329,192,180001,1,0,0:0:0:0:
182,192,180076,1,0,0:0:0:0:
109,192,180076,1,0,0:0:0:0:
402,192,180151,1,0,0:0:0:0:
329,192,180151,1,0,0:0:0:0:
36,192,180226,1,0,0:0:0:0:
182,192,180226,1,0,0:0:0:0:
109,192,180226,1,0,0:0:0:0:
475,192,180301,1,0,0:0:0:0:
402,192,180301,1,0,0:0:0:0:
256,192,180376,1,0,0:0:0:0:
36,192,180376,1,0,0:0:0:0:
182,192,180376,1,0,0:0:0:0:
109,192,180376,1,0,0:0:0:0:
329,192,180526,1,0,0:0:0:0:
475,192,180526,1,0,0:0:0:0:
36,192,180676,1,0,0:0:0:0:
182,192,180676,1,0,0:0:0:0:
402,192,180826,1,0,0:0:0:0:
256,192,180826,1,0,0:0:0:0:
329,192,180976,1,0,0:0:0:0:
182,192,180976,1,0,0:0:0:0:
109,192,181126,1,0,0:0:0:0:
36,192,181126,1,0,0:0:0:0:
182,192,181201,1,0,0:0:0:0:
256,192,181201,1,0,0:0:0:0:
402,192,181276,1,0,0:0:0:0:
475,192,181276,1,0,0:0:0:0:
329,192,181351,1,0,0:0:0:0:
256,192,181351,1,0,0:0:0:0:
182,192,181426,1,0,0:0:0:0:
109,192,181426,1,0,0:0:0:0:
36,192,181426,1,0,0:0:0:0:
329,192,181501,1,0,0:0:0:0:
256,192,181501,1,0,0:0:0:0:
402,192,181576,1,0,0:0:0:0:
475,192,181576,1,0,0:0:0:0:
109,192,181576,1,0,0:0:0:0:
36,192,181576,1,0,0:0:0:0:
329,192,181726,1,0,0:0:0:0:
182,192,181726,1,0,0:0:0:0:
109,192,181876,1,0,0:0:0:0:
256,192,181876,1,0,0:0:0:0:
329,192,182026,1,0,0:0:0:0:
475,192,182026,1,0,0:0:0:0:
402,192,182026,1,0,0:0:0:0:
36,192,182176,1,0,0:0:0:0:
109,192,182176,1,0,0:0:0:0:
256,192,182176,1,0,0:0:0:0:
182,192,182176,1,0,0:0:0:0:
109,192,182326,1,0,0:0:0:0:
36,192,182326,1,0,0:0:0:0:
329,192,182401,1,0,0:0:0:0:
402,192,182401,1,0,0:0:0:0:
182,192,182476,1,0,0:0:0:0:
256,192,182476,1,0,0:0:0:0:
475,192,182551,1,0,0:0:0:0:
402,192,182551,1,0,0:0:0:0:
182,192,182626,1,0,0:0:0:0:
109,192,182626,1,0,0:0:0:0:
36,192,182626,1,0,0:0:0:0:
329,192,182701,1,0,0:0:0:0:
256,192,182701,1,0,0:0:0:0:
402,192,182776,1,0,0:0:0:0:
475,192,182776,1,0,0:0:0:0:
109,192,182776,1,0,0:0:0:0:
36,192,182776,1,0,0:0:0:0:
329,192,182851,1,0,0:0:0:0:
256,192,182926,1,0,0:0:0:0:
182,192,182926,1,0,0:0:0:0:
109,192,182926,1,0,0:0:0:0:
475,192,183076,1,0,0:0:0:0:
109,192,183076,1,0,0:0:0:0:
36,192,183076,1,0,0:0:0:0:
402,192,183076,1,0,0:0:0:0:
182,192,183151,1,0,0:0:0:0:
329,192,183226,1,0,0:0:0:0:
256,192,183226,1,0,0:0:0:0:
402,192,183226,1,0,0:0:0:0:
109,192,183376,1,0,0:0:0:0:
475,192,183376,1,0,0:0:0:0:
402,192,183376,1,0,0:0:0:0:
36,192,183376,1,0,0:0:0:0:
329,192,183451,1,0,0:0:0:0:
182,192,183526,1,0,0:0:0:0:
256,192,183526,1,0,0:0:0:0:
109,192,183526,1,0,0:0:0:0:
36,192,183676,1,0,0:0:0:0:
109,192,183676,1,0,0:0:0:0:
402,192,183676,1,0,0:0:0:0:
475,192,183676,1,0,0:0:0:0:
182,192,183751,1,0,0:0:0:0:
256,192,183826,1,0,0:0:0:0:
329,192,183826,1,0,0:0:0:0:
402,192,183826,1,0,0:0:0:0:
402,192,183976,1,0,0:0:0:0:
475,192,183976,1,0,0:0:0:0:
36,192,183976,1,0,0:0:0:0:
109,192,183976,1,0,0:0:0:0:
475,192,184126,1,0,0:0:0:0:
182,192,184126,1,0,0:0:0:0:
256,192,184126,1,0,0:0:0:0:
109,192,184201,1,0,0:0:0:0:
402,192,184201,1,0,0:0:0:0:
36,192,184276,1,0,0:0:0:0:
329,192,184276,1,0,0:0:0:0:
256,192,184276,1,0,0:0:0:0:
402,192,184426,1,0,0:0:0:0:
109,192,184426,1,0,0:0:0:0:
475,192,184426,1,0,0:0:0:0:
182,192,184501,1,0,0:0:0:0:
256,192,184501,1,0,0:0:0:0:
36,192,184576,1,0,0:0:0:0:
109,192,184576,1,0,0:0:0:0:
329,192,184651,1,0,0:0:0:0:
402,192,184651,1,0,0:0:0:0:
182,192,184726,1,0,0:0:0:0:
256,192,184726,1,0,0:0:0:0:
402,192,184801,1,0,0:0:0:0:
475,192,184801,1,0,0:0:0:0:
256,192,184876,1,0,0:0:0:0:
109,192,184876,1,0,0:0:0:0:
36,192,184876,1,0,0:0:0:0:
182,192,184951,1,0,0:0:0:0:
329,192,184951,1,0,0:0:0:0:
475,192,185026,1,0,0:0:0:0:
402,192,185026,1,0,0:0:0:0:
256,192,185026,1,0,0:0:0:0:
109,192,185101,1,0,0:0:0:0:
36,192,185101,1,0,0:0:0:0:
329,192,185176,1,0,0:0:0:0:
182,192,185176,1,0,0:0:0:0:
402,192,185176,1,0,0:0:0:0:
475,192,185176,1,0,0:0:0:0:
256,192,185251,1,0,0:0:0:0:
329,192,185326,1,0,0:0:0:0:
402,192,185326,1,0,0:0:0:0:
109,192,185326,1,0,0:0:0:0:
475,192,185401,1,0,0:0:0:0:
36,192,185401,1,0,0:0:0:0:
256,192,185476,1,0,0:0:0:0:
329,192,185476,1,0,0:0:0:0:
182,192,185476,1,0,0:0:0:0:
109,192,185476,1,0,0:0:0:0:
402,192,185551,1,0,0:0:0:0:
36,192,185626,1,0,0:0:0:0:
109,192,185626,1,0,0:0:0:0:
475,192,185626,1,0,0:0:0:0:
256,192,185701,1,0,0:0:0:0:
329,192,185701,1,0,0:0:0:0:
182,192,185701,1,0,0:0:0:0:
36,192,185776,1,0,0:0:0:0:
402,192,185776,1,0,0:0:0:0:
475,192,185776,1,0,0:0:0:0:
182,192,185851,1,0,0:0:0:0:
109,192,185926,1,0,0:0:0:0:
256,192,185926,1,0,0:0:0:0:
475,192,185926,1,0,0:0:0:0:
402,192,186001,1,0,0:0:0:0:
182,192,186001,1,0,0:0:0:0:
109,192,186076,1,0,0:0:0:0:
256,192,186076,1,0,0:0:0:0:
36,192,186076,1,0,0:0:0:0:
329,192,186076,1,0,0:0:0:0:
475,192,186151,1,0,0:0:0:0:
402,192,186226,1,0,0:0:0:0:
329,192,186226,1,0,0:0:0:0:
182,192,186226,1,0,0:0:0:0:
36,192,186301,1,0,0:0:0:0:
256,192,186301,1,0,0:0:0:0:
475,192,186376,1,0,0:0:0:0:
109,192,186376,1,0,0:0:0:0:
402,192,186376,1,0,0:0:0:0:
182,192,186451,1,0,0:0:0:0:
36,192,186526,1,0,0:0:0:0:
329,192,186526,1,0,0:0:0:0:
256,192,186526,1,0,0:0:0:0:
109,192,186526,1,0,0:0:0:0:
182,192,186601,1,0,0:0:0:0:
402,192,186601,1,0,0:0:0:0:
36,192,186676,1,0,0:0:0:0:
109,192,186676,1,0,0:0:0:0:
256,192,186676,1,0,0:0:0:0:
475,192,186676,1,0,0:0:0:0:
329,192,186751,1,0,0:0:0:0:
182,192,186826,1,0,0:0:0:0:
402,192,186826,1,0,0:0:0:0:
36,192,186826,1,0,0:0:0:0:
256,192,186901,1,0,0:0:0:0:
475,192,186901,1,0,0:0:0:0:
402,192,186976,1,0,0:0:0:0:
182,192,186976,1,0,0:0:0:0:
109,192,186976,1,0,0:0:0:0:
329,192,187051,1,0,0:0:0:0:
475,192,187126,1,0,0:0:0:0:
256,192,187126,1,0,0:0:0:0:
36,192,187126,1,0,0:0:0:0:
402,192,187201,1,0,0:0:0:0:
182,192,187201,1,0,0:0:0:0:
329,192,187276,1,0,0:0:0:0:
256,192,187276,1,0,0:0:0:0:
36,192,187276,1,0,0:0:0:0:
109,192,187276,1,0,0:0:0:0:
182,192,187351,1,0,0:0:0:0:
109,192,187426,1,0,0:0:0:0:
475,192,187426,1,0,0:0:0:0:
329,192,187426,1,0,0:0:0:0:
36,192,187501,1,0,0:0:0:0:
402,192,187501,1,0,0:0:0:0:
329,192,187576,1,0,0:0:0:0:
182,192,187576,1,0,0:0:0:0:
256,192,187576,1,0,0:0:0:0:
36,192,187651,1,0,0:0:0:0:
475,192,187726,1,0,0:0:0:0:
256,192,187726,1,0,0:0:0:0:
109,192,187726,1,0,0:0:0:0:
402,192,187801,1,0,0:0:0:0:
182,192,187801,1,0,0:0:0:0:
329,192,187876,1,0,0:0:0:0:
36,192,187876,1,0,0:0:0:0:
475,192,187876,1,0,0:0:0:0:
109,192,187876,1,0,0:0:0:0:
182,192,187951,1,0,0:0:0:0:
256,192,188026,1,0,0:0:0:0:
402,192,188026,1,0,0:0:0:0:
36,192,188026,1,0,0:0:0:0:
109,192,188101,1,0,0:0:0:0:
329,192,188101,1,0,0:0:0:0:
256,192,188176,1,0,0:0:0:0:
475,192,188176,1,0,0:0:0:0:
182,192,188176,1,0,0:0:0:0:
402,192,188251,1,0,0:0:0:0:
36,192,188326,1,0,0:0:0:0:
329,192,188326,1,0,0:0:0:0:
182,192,188326,1,0,0:0:0:0:
475,192,188401,1,0,0:0:0:0:
256,192,188401,1,0,0:0:0:0:
109,192,188476,1,0,0:0:0:0:
402,192,188476,1,0,0:0:0:0:
182,192,188476,1,0,0:0:0:0:
36,192,188476,1,0,0:0:0:0:
329,192,188551,1,0,0:0:0:0:
402,192,188626,1,0,0:0:0:0:
182,192,188626,1,0,0:0:0:0:
256,192,188626,1,0,0:0:0:0:
36,192,188701,1,0,0:0:0:0:
109,192,188701,1,0,0:0:0:0:
402,192,188776,1,0,0:0:0:0:
475,192,188776,1,0,0:0:0:0:
256,192,188776,1,0,0:0:0:0:
109,192,188851,1,0,0:0:0:0:
329,192,188926,1,0,0:0:0:0:
475,192,188926,1,0,0:0:0:0:
182,192,188926,1,0,0:0:0:0:
256,192,189001,1,0,0:0:0:0:
36,192,189001,1,0,0:0:0:0:
402,192,189076,1,0,0:0:0:0:
329,192,189076,1,0,0:0:0:0:
182,192,189076,1,0,0:0:0:0:
109,192,189076,1,0,0:0:0:0:
475,192,189151,1,0,0:0:0:0:
329,192,189226,1,0,0:0:0:0:
182,192,189226,1,0,0:0:0:0:
36,192,189226,1,0,0:0:0:0:
109,192,189301,1,0,0:0:0:0:
402,192,189301,1,0,0:0:0:0:
475,192,189376,1,0,0:0:0:0:
182,192,189376,1,0,0:0:0:0:
256,192,189376,1,0,0:0:0:0:
329,192,189451,1,0,0:0:0:0:
109,192,189526,1,0,0:0:0:0:
402,192,189526,1,0,0:0:0:0:
36,192,189526,1,0,0:0:0:0:
182,192,189601,1,0,0:0:0:0:
475,192,189601,1,0,0:0:0:0:
109,192,189676,1,0,0:0:0:0:
329,192,189676,1,0,0:0:0:0:
402,192,189676,1,0,0:0:0:0:
36,192,189676,1,0,0:0:0:0:
256,192,189751,1,0,0:0:0:0:
36,192,189826,1,0,0:0:0:0:
109,192,189826,1,0,0:0:0:0:
475,192,189826,1,0,0:0:0:0:
402,192,189826,1,0,0:0:0:0:
329,192,189901,1,0,0:0:0:0:
182,192,189901,1,0,0:0:0:0:
109,192,189976,1,0,0:0:0:0:
256,192,189976,1,0,0:0:0:0:
475,192,189976,1,0,0:0:0:0:
36,192,189976,1,0,0:0:0:0:
402,192,189976,1,0,0:0:0:0:
182,192,190051,1,0,0:0:0:0:
256,192,190126,1,0,0:0:0:0:
329,192,190126,1,0,0:0:0:0:
475,192,190126,1,0,0:0:0:0:
402,192,190201,1,0,0:0:0:0:
182,192,190201,1,0,0:0:0:0:
256,192,190276,1,0,0:0:0:0:
109,192,190276,1,0,0:0:0:0:
329,192,190276,1,0,0:0:0:0:
36,192,190276,1,0,0:0:0:0:
475,192,190351,1,0,0:0:0:0:
402,192,190426,1,0,0:0:0:0:
329,192,190426,1,0,0:0:0:0:
182,192,190426,1,0,0:0:0:0:
109,192,190501,1,0,0:0:0:0:
36,192,190501,1,0,0:0:0:0:
256,192,190576,1,0,0:0:0:0:
329,192,190576,1,0,0:0:0:0:
475,192,190576,1,0,0:0:0:0:
36,192,190651,1,0,0:0:0:0:
256,192,190726,1,0,0:0:0:0:
109,192,190726,1,0,0:0:0:0:
402,192,190726,1,0,0:0:0:0:
182,192,190801,1,0,0:0:0:0:
329,192,190801,1,0,0:0:0:0:
109,192,190876,1,0,0:0:0:0:
475,192,190876,1,0,0:0:0:0:
256,192,190876,1,0,0:0:0:0:
36,192,190876,1,0,0:0:0:0:
329,192,190951,1,0,0:0:0:0:
182,192,191026,1,0,0:0:0:0:
402,192,191026,1,0,0:0:0:0:
256,192,191101,1,0,0:0:0:0:
475,192,191101,1,0,0:0:0:0:
36,192,191176,1,0,0:0:0:0:
109,192,191176,1,0,0:0:0:0:
329,192,191176,1,0,0:0:0:0:
402,192,191176,1,0,0:0:0:0:
182,192,191176,1,0,0:0:0:0:
256,192,191251,1,0,0:0:0:0:
182,192,191326,1,0,0:0:0:0:
475,192,191326,1,0,0:0:0:0:
402,192,191326,1,0,0:0:0:0:
109,192,191401,1,0,0:0:0:0:
329,192,191401,1,0,0:0:0:0:
182,192,191476,1,0,0:0:0:0:
36,192,191476,1,0,0:0:0:0:
256,192,191476,1,0,0:0:0:0:
475,192,191476,1,0,0:0:0:0:
402,192,191551,1,0,0:0:0:0:
329,192,191626,1,0,0:0:0:0:
256,192,191626,1,0,0:0:0:0:
109,192,191626,1,0,0:0:0:0:
475,192,191701,1,0,0:0:0:0:
182,192,191701,1,0,0:0:0:0:
329,192,191776,1,0,0:0:0:0:
36,192,191776,1,0,0:0:0:0:
109,192,191776,1,0,0:0:0:0:
402,192,191851,1,0,0:0:0:0:
475,192,191926,1,0,0:0:0:0:
256,192,191926,1,0,0:0:0:0:
36,192,191926,1,0,0:0:0:0:
329,192,192001,1,0,0:0:0:0:
109,192,192001,1,0,0:0:0:0:
182,192,192076,1,0,0:0:0:0:
256,192,192076,1,0,0:0:0:0:
475,192,192076,1,0,0:0:0:0:
36,192,192076,1,0,0:0:0:0:
402,192,192151,1,0,0:0:0:0:
329,192,192226,1,0,0:0:0:0:
182,192,192226,1,0,0:0:0:0:
109,192,192226,1,0,0:0:0:0:
256,192,192301,1,0,0:0:0:0:
36,192,192301,1,0,0:0:0:0:
402,192,192376,1,0,0:0:0:0:
475,192,192376,1,0,0:0:0:0:
109,192,192376,1,0,0:0:0:0:
329,192,192376,1,0,0:0:0:0:
182,192,192376,1,0,0:0:0:0:
256,192,192451,1,0,0:0:0:0:
182,192,192526,1,0,0:0:0:0:
329,192,192526,1,0,0:0:0:0:
402,192,192526,1,0,0:0:0:0:
36,192,192601,1,0,0:0:0:0:
475,192,192601,1,0,0:0:0:0:
329,192,192676,1,0,0:0:0:0:
256,192,192676,1,0,0:0:0:0:
109,192,192676,1,0,0:0:0:0:
182,192,192676,1,0,0:0:0:0:
475,192,192751,1,0,0:0:0:0:
402,192,192826,1,0,0:0:0:0:
256,192,192826,1,0,0:0:0:0:
182,192,192826,1,0,0:0:0:0:
109,192,192901,1,0,0:0:0:0:
329,192,192901,1,0,0:0:0:0:
256,192,192976,1,0,0:0:0:0:
402,192,192976,1,0,0:0:0:0:
475,192,192976,1,0,0:0:0:0:
36,192,192976,1,0,0:0:0:0:
182,192,192976,1,0,0:0:0:0:
329,192,193051,1,0,0:0:0:0:
109,192,193126,1,0,0:0:0:0:
36,192,193126,1,0,0:0:0:0:
475,192,193126,1,0,0:0:0:0:
402,192,193201,1,0,0:0:0:0:
182,192,193201,1,0,0:0:0:0:
329,192,193276,1,0,0:0:0:0:
256,192,193276,1,0,0:0:0:0:
109,192,193276,1,0,0:0:0:0:
36,192,193276,1,0,0:0:0:0:
475,192,193351,1,0,0:0:0:0:
402,192,193351,1,0,0:0:0:0:
182,192,193426,1,0,0:0:0:0:
109,192,193426,1,0,0:0:0:0:
329,192,193501,1,0,0:0:0:0:
256,192,193501,1,0,0:0:0:0:
475,192,193576,1,0,0:0:0:0:
109,192,193576,1,0,0:0:0:0:
36,192,193576,1,0,0:0:0:0:
402,192,193651,1,0,0:0:0:0:
182,192,193651,1,0,0:0:0:0:
329,192,193726,1,0,0:0:0:0:
109,192,193726,1,0,0:0:0:0:
256,192,193801,1,0,0:0:0:0:
182,192,193801,1,0,0:0:0:0:
402,192,193876,1,0,0:0:0:0:
475,192,193876,1,0,0:0:0:0:
36,192,193876,1,0,0:0:0:0:
329,192,193951,1,0,0:0:0:0:
109,192,193951,1,0,0:0:0:0:
182,192,194026,1,0,0:0:0:0:
402,192,194026,1,0,0:0:0:0:
256,192,194101,1,0,0:0:0:0:
329,192,194101,1,0,0:0:0:0:
36,192,194176,1,0,0:0:0:0:
109,192,194176,1,0,0:0:0:0:
475,192,194176,1,0,0:0:0:0:
182,192,194251,1,0,0:0:0:0:
402,192,194251,1,0,0:0:0:0:
329,192,194326,1,0,0:0:0:0:
109,192,194326,1,0,0:0:0:0:
182,192,194401,1,0,0:0:0:0:
256,192,194401,1,0,0:0:0:0:
402,192,194476,1,0,0:0:0:0:
36,192,194476,1,0,0:0:0:0:
475,192,194476,1,0,0:0:0:0:
329,192,194551,1,0,0:0:0:0:
109,192,194551,1,0,0:0:0:0:
182,192,194626,1,0,0:0:0:0:
402,192,194626,1,0,0:0:0:0:
329,192,194701,1,0,0:0:0:0:
256,192,194701,1,0,0:0:0:0:
36,192,194776,1,0,0:0:0:0:
475,192,194776,1,0,0:0:0:0:
109,192,194776,1,0,0:0:0:0:
182,192,194776,1,0,0:0:0:0:
402,192,194776,1,0,0:0:0:0:
329,192,194851,1,0,0:0:0:0:
256,192,194926,1,0,0:0:0:0:
109,192,194926,1,0,0:0:0:0:
36,192,194926,1,0,0:0:0:0:
402,192,195001,1,0,0:0:0:0:
475,192,195001,1,0,0:0:0:0:
329,192,195076,1,0,0:0:0:0:
256,192,195076,1,0,0:0:0:0:
109,192,195076,1,0,0:0:0:0:
182,192,195076,1,0,0:0:0:0:
36,192,195151,1,0,0:0:0:0:
475,192,195151,1,0,0:0:0:0:
329,192,195226,1,0,0:0:0:0:
256,192,195226,1,0,0:0:0:0:
109,192,195226,1,0,0:0:0:0:
402,192,195301,1,0,0:0:0:0:
182,192,195301,1,0,0:0:0:0:
109,192,195376,1,0,0:0:0:0:
329,192,195376,1,0,0:0:0:0:
475,192,195376,1,0,0:0:0:0:
36,192,195376,1,0,0:0:0:0:
402,192,195451,1,0,0:0:0:0:
256,192,195451,1,0,0:0:0:0:
182,192,195526,1,0,0:0:0:0:
475,192,195526,1,0,0:0:0:0:
329,192,195601,1,0,0:0:0:0:
109,192,195601,1,0,0:0:0:0:
402,192,195676,1,0,0:0:0:0:
475,192,195676,1,0,0:0:0:0:
36,192,195676,1,0,0:0:0:0:
256,192,195676,1,0,0:0:0:0:
182,192,195751,1,0,0:0:0:0:
329,192,195751,1,0,0:0:0:0:
36,192,195826,1,0,0:0:0:0:
109,192,195826,1,0,0:0:0:0:
402,192,195826,1,0,0:0:0:0:
475,192,195901,1,0,0:0:0:0:
256,192,195901,1,0,0:0:0:0:
36,192,195976,1,0,0:0:0:0:
402,192,195976,1,0,0:0:0:0:
329,192,195976,1,0,0:0:0:0:
109,192,195976,1,0,0:0:0:0:
182,192,196051,1,0,0:0:0:0:
256,192,196126,1,0,0:0:0:0:
402,192,196126,1,0,0:0:0:0:
475,192,196126,1,0,0:0:0:0:
109,192,196201,1,0,0:0:0:0:
36,192,196201,1,0,0:0:0:0:
182,192,196276,1,0,0:0:0:0:
256,192,196276,1,0,0:0:0:0:
402,192,196276,1,0,0:0:0:0:
329,192,196276,1,0,0:0:0:0:
475,192,196351,1,0,0:0:0:0:
36,192,196351,1,0,0:0:0:0:
182,192,196426,1,0,0:0:0:0:
256,192,196426,1,0,0:0:0:0:
402,192,196426,1,0,0:0:0:0:
109,192,196501,1,0,0:0:0:0:
329,192,196501,1,0,0:0:0:0:
402,192,196576,1,0,0:0:0:0:
182,192,196576,1,0,0:0:0:0:
36,192,196576,1,0,0:0:0:0:
475,192,196576,1,0,0:0:0:0:
109,192,196651,1,0,0:0:0:0:
256,192,196651,1,0,0:0:0:0:
329,192,196726,1,0,0:0:0:0:
36,192,196726,1,0,0:0:0:0:
182,192,196801,1,0,0:0:0:0:
402,192,196801,1,0,0:0:0:0:
109,192,196876,1,0,0:0:0:0:
36,192,196876,1,0,0:0:0:0:
475,192,196876,1,0,0:0:0:0:
256,192,196876,1,0,0:0:0:0:
329,192,196951,1,0,0:0:0:0:
182,192,196951,1,0,0:0:0:0:
475,192,197026,1,0,0:0:0:0:
402,192,197026,1,0,0:0:0:0:
109,192,197026,1,0,0:0:0:0:
36,192,197101,1,0,0:0:0:0:
329,192,197101,1,0,0:0:0:0:
402,192,197176,1,0,0:0:0:0:
475,192,197176,1,0,0:0:0:0:
182,192,197176,1,0,0:0:0:0:
256,192,197176,1,0,0:0:0:0:
109,192,197251,1,0,0:0:0:0:
36,192,197326,1,0,0:0:0:0:
402,192,197326,1,0,0:0:0:0:
329,192,197326,1,0,0:0:0:0:
256,192,197401,1,0,0:0:0:0:
182,192,197401,1,0,0:0:0:0:
109,192,197476,1,0,0:0:0:0:
475,192,197476,1,0,0:0:0:0:
329,192,197476,1,0,0:0:0:0:
36,192,197476,1,0,0:0:0:0:
402,192,197551,1,0,0:0:0:0:
182,192,197551,1,0,0:0:0:0:
329,192,197626,1,0,0:0:0:0:
256,192,197626,1,0,0:0:0:0:
109,192,197626,1,0,0:0:0:0:
475,192,197701,1,0,0:0:0:0:
36,192,197701,1,0,0:0:0:0:
402,192,197776,1,0,0:0:0:0:
182,192,197776,1,0,0:0:0:0:
329,192,197776,1,0,0:0:0:0:
109,192,197851,1,0,0:0:0:0:
256,192,197851,1,0,0:0:0:0:
36,192,197926,1,0,0:0:0:0:
475,192,197926,1,0,0:0:0:0:
182,192,198001,1,0,0:0:0:0:
402,192,198001,1,0,0:0:0:0:
329,192,198001,1,0,0:0:0:0:
256,192,198076,1,0,0:0:0:0:
109,192,198076,1,0,0:0:0:0:
36,192,198076,1,0,0:0:0:0:
475,192,198076,1,0,0:0:0:0:
182,192,198151,1,0,0:0:0:0:
329,192,198151,1,0,0:0:0:0:
402,192,198226,1,0,0:0:0:0:
36,192,198226,1,0,0:0:0:0:
256,192,198226,1,0,0:0:0:0:
109,192,198301,1,0,0:0:0:0:
475,192,198301,1,0,0:0:0:0:
329,192,198376,1,0,0:0:0:0:
256,192,198376,1,0,0:0:0:0:
182,192,198376,1,0,0:0:0:0:
402,192,198376,1,0,0:0:0:0:
36,192,198451,1,0,0:0:0:0:
109,192,198451,1,0,0:0:0:0:
402,192,198526,1,0,0:0:0:0:
475,192,198526,1,0,0:0:0:0:
182,192,198526,1,0,0:0:0:0:
256,192,198601,1,0,0:0:0:0:
329,192,198601,1,0,0:0:0:0:
182,192,198676,1,0,0:0:0:0:
402,192,198676,1,0,0:0:0:0:
109,192,198676,1,0,0:0:0:0:
36,192,198676,1,0,0:0:0:0:
256,192,198751,1,0,0:0:0:0:
475,192,198751,1,0,0:0:0:0:
329,192,198826,1,0,0:0:0:0:
109,192,198826,1,0,0:0:0:0:
182,192,198826,1,0,0:0:0:0:
475,192,198901,1,0,0:0:0:0:
256,192,198901,1,0,0:0:0:0:
402,192,198976,1,0,0:0:0:0:
36,192,198976,1,0,0:0:0:0:
182,192,198976,1,0,0:0:0:0:
109,192,199051,1,0,0:0:0:0:
329,192,199051,1,0,0:0:0:0:
256,192,199126,1,0,0:0:0:0:
36,192,199126,1,0,0:0:0:0:
475,192,199126,1,0,0:0:0:0:
182,192,199201,1,0,0:0:0:0:
329,192,199201,1,0,0:0:0:0:
402,192,199276,1,0,0:0:0:0:
475,192,199276,1,0,0:0:0:0:
109,192,199276,1,0,0:0:0:0:
256,192,199276,1,0,0:0:0:0:
329,192,199351,1,0,0:0:0:0:
36,192,199351,1,0,0:0:0:0:
475,192,199426,1,0,0:0:0:0:
402,192,199426,1,0,0:0:0:0:
109,192,199426,1,0,0:0:0:0:
182,192,199426,1,0,0:0:0:0:
36,192,199501,1,0,0:0:0:0:
256,192,199501,1,0,0:0:0:0:
182,192,199576,1,0,0:0:0:0:
475,192,199576,1,0,0:0:0:0:
329,192,199576,1,0,0:0:0:0:
402,192,199576,1,0,0:0:0:0:
109,192,199576,1,0,0:0:0:0:
256,192,199651,1,0,0:0:0:0:
329,192,199726,1,0,0:0:0:0:
36,192,199726,1,0,0:0:0:0:
475,192,199726,1,0,0:0:0:0:
402,192,199801,1,0,0:0:0:0:
182,192,199801,1,0,0:0:0:0:
329,192,199876,1,0,0:0:0:0:
256,192,199876,1,0,0:0:0:0:
109,192,199876,1,0,0:0:0:0:
36,192,199876,1,0,0:0:0:0:
475,192,199951,1,0,0:0:0:0:
182,192,199951,1,0,0:0:0:0:
402,192,200026,1,0,0:0:0:0:
36,192,200026,1,0,0:0:0:0:
109,192,200026,1,0,0:0:0:0:
256,192,200101,1,0,0:0:0:0:
329,192,200101,1,0,0:0:0:0:
402,192,200176,1,0,0:0:0:0:
475,192,200176,1,0,0:0:0:0:
182,192,200176,1,0,0:0:0:0:
109,192,200251,1,0,0:0:0:0:
36,192,200251,1,0,0:0:0:0:
329,192,200326,1,0,0:0:0:0:
182,192,200326,1,0,0:0:0:0:
402,192,200326,1,0,0:0:0:0:
256,192,200401,1,0,0:0:0:0:
475,192,200401,1,0,0:0:0:0:
402,192,200476,1,0,0:0:0:0:
329,192,200476,1,0,0:0:0:0:
109,192,200476,1,0,0:0:0:0:
36,192,200476,1,0,0:0:0:0:
256,192,200551,1,0,0:0:0:0:
475,192,200551,1,0,0:0:0:0:
329,192,200626,1,0,0:0:0:0:
109,192,200626,1,0,0:0:0:0:
182,192,200626,1,0,0:0:0:0:
36,192,200701,1,0,0:0:0:0:
402,192,200701,1,0,0:0:0:0:
329,192,200776,1,0,0:0:0:0:
256,192,200776,1,0,0:0:0:0:
182,192,200776,1,0,0:0:0:0:
109,192,200776,1,0,0:0:0:0:
475,192,200776,1,0,0:0:0:0:
36,192,200851,1,0,0:0:0:0:
182,192,200926,1,0,0:0:0:0:
475,192,200926,1,0,0:0:0:0:
402,192,200926,1,0,0:0:0:0:
109,192,201001,1,0,0:0:0:0:
329,192,201001,1,0,0:0:0:0:
182,192,201076,1,0,0:0:0:0:
256,192,201076,1,0,0:0:0:0:
402,192,201076,1,0,0:0:0:0:
475,192,201076,1,0,0:0:0:0:
36,192,201151,1,0,0:0:0:0:
329,192,201151,1,0,0:0:0:0:
109,192,201226,1,0,0:0:0:0:
256,192,201226,1,0,0:0:0:0:
402,192,201226,1,0,0:0:0:0:
475,192,201301,1,0,0:0:0:0:
182,192,201301,1,0,0:0:0:0:
109,192,201376,1,0,0:0:0:0:
36,192,201376,1,0,0:0:0:0:
329,192,201376,1,0,0:0:0:0:
402,192,201451,1,0,0:0:0:0:
475,192,201451,1,0,0:0:0:0:
182,192,201526,1,0,0:0:0:0:
36,192,201526,1,0,0:0:0:0:
109,192,201526,1,0,0:0:0:0:
256,192,201601,1,0,0:0:0:0:
329,192,201601,1,0,0:0:0:0:
36,192,201676,1,0,0:0:0:0:
109,192,201676,1,0,0:0:0:0:
402,192,201676,1,0,0:0:0:0:
475,192,201676,1,0,0:0:0:0:
329,192,201751,1,0,0:0:0:0:
256,192,201751,1,0,0:0:0:0:
475,192,201826,1,0,0:0:0:0:
182,192,201826,1,0,0:0:0:0:
402,192,201826,1,0,0:0:0:0:
256,192,201901,1,0,0:0:0:0:
109,192,201901,1,0,0:0:0:0:
36,192,201976,1,0,0:0:0:0:
182,192,201976,1,0,0:0:0:0:
329,192,201976,1,0,0:0:0:0:
475,192,201976,1,0,0:0:0:0:
402,192,201976,1,0,0:0:0:0:
256,192,202051,1,0,0:0:0:0:
182,192,202126,1,0,0:0:0:0:
109,192,202126,1,0,0:0:0:0:
329,192,202126,1,0,0:0:0:0:
475,192,202201,1,0,0:0:0:0:
402,192,202201,1,0,0:0:0:0:
329,192,202276,1,0,0:0:0:0:
256,192,202276,1,0,0:0:0:0:
109,192,202276,1,0,0:0:0:0:
36,192,202276,1,0,0:0:0:0:
182,192,202351,1,0,0:0:0:0:
402,192,202351,1,0,0:0:0:0:
256,192,202426,1,0,0:0:0:0:
475,192,202426,1,0,0:0:0:0:
36,192,202426,1,0,0:0:0:0:
182,192,202501,1,0,0:0:0:0:
329,192,202501,1,0,0:0:0:0:
109,192,202576,1,0,0:0:0:0:
402,192,202576,1,0,0:0:0:0:
36,192,202576,1,0,0:0:0:0:
256,192,202576,1,0,0:0:0:0:
475,192,202576,1,0,0:0:0:0:
329,192,202651,1,0,0:0:0:0:
182,192,202651,1,0,0:0:0:0:
402,192,202726,1,0,0:0:0:0:
256,192,202726,1,0,0:0:0:0:
36,192,202726,1,0,0:0:0:0:
475,192,202801,1,0,0:0:0:0:
109,192,202801,1,0,0:0:0:0:
402,192,202876,1,0,0:0:0:0:
182,192,202876,1,0,0:0:0:0:
256,192,202876,1,0,0:0:0:0:
329,192,202876,1,0,0:0:0:0:
36,192,202951,1,0,0:0:0:0:
475,192,202951,1,0,0:0:0:0:
329,192,203026,1,0,0:0:0:0:
182,192,203026,1,0,0:0:0:0:
256,192,203101,1,0,0:0:0:0:
402,192,203101,1,0,0:0:0:0:
36,192,203176,5,0,0:0:0:0:
475,192,203176,1,0,0:0:0:0:
109,192,203176,1,0,0:0:0:0:
182,192,203251,1,0,0:0:0:0:
256,192,203251,1,0,0:0:0:0:
329,192,203326,1,0,0:0:0:0:
402,192,203326,1,0,0:0:0:0:
182,192,203401,1,0,0:0:0:0:
109,192,203401,1,0,0:0:0:0:
475,192,203476,1,0,0:0:0:0:
36,192,203476,1,0,0:0:0:0:
402,192,203476,1,0,0:0:0:0:
329,192,203551,1,0,0:0:0:0:
256,192,203551,1,0,0:0:0:0:
182,192,203626,1,0,0:0:0:0:
109,192,203626,1,0,0:0:0:0:
402,192,203701,1,0,0:0:0:0:
475,192,203701,1,0,0:0:0:0:
36,192,203776,1,0,0:0:0:0:
329,192,203776,1,0,0:0:0:0:
109,192,203776,1,0,0:0:0:0:
256,192,203851,1,0,0:0:0:0:
475,192,203851,1,0,0:0:0:0:
329,192,203926,1,0,0:0:0:0:
36,192,203926,1,0,0:0:0:0:
256,192,204001,1,0,0:0:0:0:
109,192,204001,1,0,0:0:0:0:
475,192,204076,1,0,0:0:0:0:
182,192,204076,1,0,0:0:0:0:
402,192,204076,1,0,0:0:0:0:
256,192,204151,1,0,0:0:0:0:
36,192,204151,1,0,0:0:0:0:
475,192,204226,1,0,0:0:0:0:
182,192,204226,1,0,0:0:0:0:
256,192,204301,1,0,0:0:0:0:
109,192,204301,1,0,0:0:0:0:
475,192,204376,1,0,0:0:0:0:
36,192,204376,1,0,0:0:0:0:
329,192,204376,1,0,0:0:0:0:
402,192,204376,1,0,0:0:0:0:
182,192,204451,1,0,0:0:0:0:
109,192,204451,1,0,0:0:0:0:
475,192,204526,1,0,0:0:0:0:
402,192,204526,1,0,0:0:0:0:
256,192,204526,1,0,0:0:0:0:
329,192,204601,1,0,0:0:0:0:
182,192,204601,1,0,0:0:0:0:
402,192,204676,1,0,0:0:0:0:
475,192,204676,1,0,0:0:0:0:
36,192,204676,1,0,0:0:0:0:
109,192,204676,1,0,0:0:0:0:
256,192,204676,1,0,0:0:0:0:
329,192,204751,1,0,0:0:0:0:
182,192,204751,1,0,0:0:0:0:
109,192,204826,1,0,0:0:0:0:
402,192,204826,1,0,0:0:0:0:
256,192,204826,1,0,0:0:0:0:
475,192,204901,1,0,0:0:0:0:
36,192,204901,1,0,0:0:0:0:
182,192,204976,1,0,0:0:0:0:
402,192,204976,1,0,0:0:0:0:
256,192,204976,1,0,0:0:0:0:
329,192,204976,1,0,0:0:0:0:
109,192,205051,1,0,0:0:0:0:
475,192,205051,1,0,0:0:0:0:
182,192,205126,1,0,0:0:0:0:
36,192,205126,1,0,0:0:0:0:
329,192,205126,1,0,0:0:0:0:
256,192,205201,1,0,0:0:0:0:
109,192,205201,1,0,0:0:0:0:
182,192,205276,1,0,0:0:0:0:
475,192,205276,1,0,0:0:0:0:
36,192,205276,1,0,0:0:0:0:
329,192,205276,1,0,0:0:0:0:
402,192,205276,1,0,0:0:0:0:
109,192,205351,1,0,0:0:0:0:
256,192,205351,1,0,0:0:0:0:
36,192,205426,1,0,0:0:0:0:
475,192,205426,1,0,0:0:0:0:
402,192,205426,1,0,0:0:0:0:
182,192,205501,1,0,0:0:0:0:
329,192,205501,1,0,0:0:0:0:
109,192,205576,1,0,0:0:0:0:
402,192,205576,1,0,0:0:0:0:
36,192,205576,1,0,0:0:0:0:
256,192,205576,1,0,0:0:0:0:
329,192,205651,1,0,0:0:0:0:
475,192,205651,1,0,0:0:0:0:
256,192,205726,1,0,0:0:0:0:
182,192,205726,1,0,0:0:0:0:
109,192,205726,1,0,0:0:0:0:
475,192,205801,1,0,0:0:0:0:
36,192,205801,1,0,0:0:0:0:
182,192,205876,1,0,0:0:0:0:
109,192,205876,1,0,0:0:0:0:
256,192,205876,1,0,0:0:0:0:
329,192,205876,1,0,0:0:0:0:
402,192,205876,1,0,0:0:0:0:
36,192,205951,1,0,0:0:0:0:
475,192,205951,1,0,0:0:0:0:
256,192,206026,1,0,0:0:0:0:
109,192,206026,1,0,0:0:0:0:
329,192,206026,1,0,0:0:0:0:
402,192,206101,1,0,0:0:0:0:
182,192,206101,1,0,0:0:0:0:
475,192,206176,1,0,0:0:0:0:
109,192,206176,1,0,0:0:0:0:
36,192,206176,1,0,0:0:0:0:
256,192,206176,1,0,0:0:0:0:
402,192,206251,1,0,0:0:0:0:
329,192,206251,1,0,0:0:0:0:
36,192,206326,1,0,0:0:0:0:
182,192,206326,1,0,0:0:0:0:
256,192,206326,1,0,0:0:0:0:
402,192,206401,1,0,0:0:0:0:
109,192,206401,1,0,0:0:0:0:
256,192,206476,1,0,0:0:0:0:
475,192,206476,1,0,0:0:0:0:
36,192,206476,1,0,0:0:0:0:
329,192,206476,1,0,0:0:0:0:
182,192,206476,1,0,0:0:0:0:
402,192,206551,1,0,0:0:0:0:
109,192,206551,1,0,0:0:0:0:
256,192,206626,1,0,0:0:0:0:
475,192,206626,1,0,0:0:0:0:
329,192,206626,1,0,0:0:0:0:
109,192,206701,1,0,0:0:0:0:
36,192,206701,1,0,0:0:0:0:
182,192,206776,1,0,0:0:0:0:
475,192,206776,1,0,0:0:0:0:
402,192,206776,1,0,0:0:0:0:
329,192,206776,1,0,0:0:0:0:
256,192,206851,1,0,0:0:0:0:
36,192,206851,1,0,0:0:0:0:
329,192,206926,1,0,0:0:0:0:
182,192,206926,1,0,0:0:0:0:
109,192,206926,1,0,0:0:0:0:
475,192,207001,1,0,0:0:0:0:
402,192,207001,1,0,0:0:0:0:
109,192,207076,1,0,0:0:0:0:
329,192,207076,1,0,0:0:0:0:
256,192,207076,1,0,0:0:0:0:
182,192,207076,1,0,0:0:0:0:
36,192,207076,1,0,0:0:0:0:
402,192,207151,1,0,0:0:0:0:
475,192,207151,1,0,0:0:0:0:
36,192,207226,1,0,0:0:0:0:
256,192,207226,1,0,0:0:0:0:
109,192,207226,1,0,0:0:0:0:
329,192,207301,1,0,0:0:0:0:
402,192,207301,1,0,0:0:0:0:
182,192,207376,1,0,0:0:0:0:
475,192,207376,1,0,0:0:0:0:
256,192,207376,1,0,0:0:0:0:
36,192,207376,1,0,0:0:0:0:
402,192,207451,1,0,0:0:0:0:
329,192,207451,1,0,0:0:0:0:
182,192,207526,1,0,0:0:0:0:
109,192,207526,1,0,0:0:0:0:
475,192,207526,1,0,0:0:0:0:
329,192,207601,1,0,0:0:0:0:
36,192,207601,1,0,0:0:0:0:
109,192,207676,1,0,0:0:0:0:
182,192,207676,1,0,0:0:0:0:
256,192,207676,1,0,0:0:0:0:
402,192,207676,1,0,0:0:0:0:
475,192,207676,1,0,0:0:0:0:
329,192,207751,1,0,0:0:0:0:
36,192,207751,1,0,0:0:0:0:
402,192,207826,1,0,0:0:0:0:
256,192,207826,1,0,0:0:0:0:
182,192,207826,1,0,0:0:0:0:
475,192,207901,1,0,0:0:0:0:
109,192,207901,1,0,0:0:0:0:
329,192,207976,1,0,0:0:0:0:
36,192,207976,1,0,0:0:0:0:
182,192,207976,1,0,0:0:0:0:
402,192,207976,1,0,0:0:0:0:
475,192,208051,1,0,0:0:0:0:
256,192,208051,1,0,0:0:0:0:
402,192,208126,1,0,0:0:0:0:
109,192,208126,1,0,0:0:0:0:
36,192,208126,1,0,0:0:0:0:
329,192,208201,1,0,0:0:0:0:
182,192,208201,1,0,0:0:0:0:
256,192,208276,1,0,0:0:0:0:
36,192,208276,1,0,0:0:0:0:
109,192,208276,1,0,0:0:0:0:
402,192,208276,1,0,0:0:0:0:
475,192,208276,1,0,0:0:0:0:
329,192,208351,1,0,0:0:0:0:
182,192,208351,1,0,0:0:0:0:
402,192,208426,1,0,0:0:0:0:
475,192,208426,1,0,0:0:0:0:
256,192,208426,1,0,0:0:0:0:
36,192,208501,1,0,0:0:0:0:
182,192,208501,1,0,0:0:0:0:
402,192,208576,1,0,0:0:0:0:
475,192,208576,1,0,0:0:0:0:
329,192,208576,1,0,0:0:0:0:
109,192,208576,1,0,0:0:0:0:
182,192,208651,1,0,0:0:0:0:
256,192,208651,1,0,0:0:0:0:
36,192,208726,1,0,0:0:0:0:
329,192,208726,1,0,0:0:0:0:
109,192,208726,1,0,0:0:0:0:
402,192,208801,1,0,0:0:0:0:
475,192,208801,1,0,0:0:0:0:
109,192,208876,1,0,0:0:0:0:
36,192,208876,1,0,0:0:0:0:
182,192,208876,1,0,0:0:0:0:
329,192,208876,1,0,0:0:0:0:
256,192,208876,1,0,0:0:0:0:
402,192,208951,1,0,0:0:0:0:
475,192,208951,1,0,0:0:0:0:
256,192,209026,1,0,0:0:0:0:
182,192,209026,1,0,0:0:0:0:
329,192,209026,1,0,0:0:0:0:
109,192,209101,1,0,0:0:0:0:
402,192,209101,1,0,0:0:0:0:
36,192,209176,1,0,0:0:0:0:
475,192,209176,1,0,0:0:0:0:
182,192,209176,1,0,0:0:0:0:
256,192,209176,1,0,0:0:0:0:
329,192,209176,1,0,0:0:0:0:
109,192,209251,1,0,0:0:0:0:
402,192,209251,1,0,0:0:0:0:
475,192,209326,1,0,0:0:0:0:
256,192,209326,1,0,0:0:0:0:
36,192,209326,1,0,0:0:0:0:
182,192,209401,1,0,0:0:0:0:
329,192,209401,1,0,0:0:0:0:
475,192,209476,1,0,0:0:0:0:
109,192,209476,1,0,0:0:0:0:
256,192,209476,1,0,0:0:0:0:
402,192,209476,1,0,0:0:0:0:
36,192,209476,1,0,0:0:0:0:
329,192,209551,1,0,0:0:0:0:
182,192,209551,1,0,0:0:0:0:
36,192,209626,1,0,0:0:0:0:
402,192,209626,1,0,0:0:0:0:
109,192,209626,1,0,0:0:0:0:
329,192,209701,1,0,0:0:0:0:
256,192,209701,1,0,0:0:0:0:
402,192,209776,1,0,0:0:0:0:
475,192,209776,1,0,0:0:0:0:
182,192,209776,1,0,0:0:0:0:
109,192,209776,1,0,0:0:0:0:
256,192,209851,1,0,0:0:0:0:
36,192,209851,1,0,0:0:0:0:
475,192,209926,1,0,0:0:0:0:
329,192,209926,1,0,0:0:0:0:
182,192,209926,1,0,0:0:0:0:
109,192,210001,1,0,0:0:0:0:
36,192,210001,1,0,0:0:0:0:
182,192,210076,1,0,0:0:0:0:
256,192,210076,1,0,0:0:0:0:
475,192,210076,1,0,0:0:0:0:
329,192,210076,1,0,0:0:0:0:
402,192,210076,1,0,0:0:0:0:
36,192,210151,1,0,0:0:0:0:
109,192,210151,1,0,0:0:0:0:
402,192,210226,1,0,0:0:0:0:
329,192,210226,1,0,0:0:0:0:
182,192,210226,1,0,0:0:0:0:
109,192,210301,1,0,0:0:0:0:
256,192,210301,1,0,0:0:0:0:
402,192,210376,1,0,0:0:0:0:
475,192,210376,1,0,0:0:0:0:
329,192,210376,1,0,0:0:0:0:
36,192,210376,1,0,0:0:0:0:
109,192,210451,1,0,0:0:0:0:
182,192,210451,1,0,0:0:0:0:
256,192,210526,1,0,0:0:0:0:
36,192,210526,1,0,0:0:0:0:
329,192,210526,1,0,0:0:0:0:
182,192,210601,1,0,0:0:0:0:
402,192,210601,1,0,0:0:0:0:
36,192,210676,1,0,0:0:0:0:
475,192,210676,1,0,0:0:0:0:
109,192,210676,1,0,0:0:0:0:
256,192,210676,1,0,0:0:0:0:
329,192,210676,1,0,0:0:0:0:
402,192,210751,1,0,0:0:0:0:
182,192,210751,1,0,0:0:0:0:
475,192,210826,1,0,0:0:0:0:
256,192,210826,1,0,0:0:0:0:
109,192,210826,1,0,0:0:0:0:
329,192,210901,1,0,0:0:0:0:
36,192,210901,1,0,0:0:0:0:
182,192,210976,1,0,0:0:0:0:
475,192,210976,1,0,0:0:0:0:
402,192,210976,1,0,0:0:0:0:
109,192,210976,1,0,0:0:0:0:
36,192,211051,1,0,0:0:0:0:
329,192,211051,1,0,0:0:0:0:
182,192,211126,1,0,0:0:0:0:
256,192,211126,1,0,0:0:0:0:
109,192,211126,1,0,0:0:0:0:
475,192,211201,1,0,0:0:0:0:
402,192,211201,1,0,0:0:0:0:
329,192,211276,1,0,0:0:0:0:
256,192,211276,1,0,0:0:0:0:
182,192,211276,1,0,0:0:0:0:
36,192,211276,1,0,0:0:0:0:
109,192,211276,1,0,0:0:0:0:
402,192,211351,1,0,0:0:0:0:
182,192,211426,1,0,0:0:0:0:
475,192,211426,1,0,0:0:0:0:
36,192,211426,1,0,0:0:0:0:
256,192,211426,1,0,0:0:0:0:
329,192,211501,1,0,0:0:0:0:
109,192,211501,1,0,0:0:0:0:
256,192,211576,1,0,0:0:0:0:
402,192,211576,1,0,0:0:0:0:
475,192,211576,1,0,0:0:0:0:
36,192,211576,1,0,0:0:0:0:
329,192,211651,1,0,0:0:0:0:
182,192,211651,1,0,0:0:0:0:
402,192,211726,1,0,0:0:0:0:
475,192,211726,1,0,0:0:0:0:
256,192,211726,1,0,0:0:0:0:
36,192,211801,1,0,0:0:0:0:
182,192,211801,1,0,0:0:0:0:
109,192,211801,1,0,0:0:0:0:
475,192,211876,1,0,0:0:0:0:
329,192,211876,1,0,0:0:0:0:
402,192,211876,1,0,0:0:0:0:
256,192,211876,1,0,0:0:0:0:
182,192,211951,1,0,0:0:0:0:
36,192,211951,1,0,0:0:0:0:
109,192,212026,1,0,0:0:0:0:
402,192,212026,1,0,0:0:0:0:
329,192,212026,1,0,0:0:0:0:
475,192,212101,1,0,0:0:0:0:
256,192,212101,1,0,0:0:0:0:
182,192,212101,1,0,0:0:0:0:
329,192,212176,1,0,0:0:0:0:
36,192,212176,1,0,0:0:0:0:
109,192,212176,1,0,0:0:0:0:
402,192,212176,1,0,0:0:0:0:
256,192,212251,1,0,0:0:0:0:
475,192,212251,1,0,0:0:0:0:
182,192,212326,1,0,0:0:0:0:
109,192,212326,1,0,0:0:0:0:
36,192,212326,1,0,0:0:0:0:
402,192,212401,1,0,0:0:0:0:
475,192,212401,1,0,0:0:0:0:
256,192,212401,1,0,0:0:0:0:
329,192,212476,1,0,0:0:0:0:
109,192,212476,1,0,0:0:0:0:
182,192,212476,1,0,0:0:0:0:
36,192,212476,1,0,0:0:0:0:
402,192,212551,1,0,0:0:0:0:
475,192,212551,1,0,0:0:0:0:
256,192,212626,1,0,0:0:0:0:
182,192,212626,1,0,0:0:0:0:
329,192,212626,1,0,0:0:0:0:
109,192,212701,1,0,0:0:0:0:
36,192,212701,1,0,0:0:0:0:
402,192,212701,1,0,0:0:0:0:
329,192,212776,1,0,0:0:0:0:
256,192,212776,1,0,0:0:0:0:
475,192,212776,1,0,0:0:0:0:
182,192,212851,1,0,0:0:0:0:
36,192,212851,1,0,0:0:0:0:
402,192,212851,1,0,0:0:0:0:
329,192,212926,1,0,0:0:0:0:
109,192,212926,1,0,0:0:0:0:
256,192,212926,1,0,0:0:0:0:
402,192,213001,1,0,0:0:0:0:
182,192,213001,1,0,0:0:0:0:
475,192,213001,1,0,0:0:0:0:
109,192,213076,1,0,0:0:0:0:
36,192,213076,1,0,0:0:0:0:
329,192,213076,1,0,0:0:0:0:
256,192,213151,1,0,0:0:0:0:
402,192,213151,1,0,0:0:0:0:
475,192,213151,1,0,0:0:0:0:
182,192,213226,1,0,0:0:0:0:
109,192,213226,1,0,0:0:0:0:
36,192,213226,1,0,0:0:0:0:
402,192,213301,1,0,0:0:0:0:
329,192,213301,1,0,0:0:0:0:
475,192,213301,1,0,0:0:0:0:
182,192,213376,1,0,0:0:0:0:
256,192,213376,1,0,0:0:0:0:
36,192,213376,1,0,0:0:0:0:
109,192,213376,1,0,0:0:0:0:
402,192,213526,1,0,0:0:0:0:
256,192,213526,1,0,0:0:0:0:
475,192,213526,1,0,0:0:0:0:
329,192,213526,1,0,0:0:0:0:
182,192,213601,1,0,0:0:0:0:
36,192,213601,1,0,0:0:0:0:
329,192,213676,1,0,0:0:0:0:
475,192,213676,1,0,0:0:0:0:
182,192,213751,1,0,0:0:0:0:
109,192,213751,1,0,0:0:0:0:
256,192,213826,1,0,0:0:0:0:
36,192,213826,1,0,0:0:0:0:
475,192,213826,1,0,0:0:0:0:
182,192,213901,1,0,0:0:0:0:
402,192,213901,1,0,0:0:0:0:
109,192,213976,1,0,0:0:0:0:
329,192,213976,1,0,0:0:0:0:
475,192,213976,1,0,0:0:0:0:
256,192,213976,1,0,0:0:0:0:
36,192,213976,1,0,0:0:0:0:
182,192,214051,1,0,0:0:0:0:
402,192,214051,1,0,0:0:0:0:
329,192,214126,1,0,0:0:0:0:
475,192,214126,1,0,0:0:0:0:
109,192,214126,1,0,0:0:0:0:
256,192,214201,1,0,0:0:0:0:
36,192,214201,1,0,0:0:0:0:
402,192,214276,1,0,0:0:0:0:
329,192,214276,1,0,0:0:0:0:
182,192,214276,1,0,0:0:0:0:
109,192,214276,1,0,0:0:0:0:
475,192,214276,1,0,0:0:0:0:
36,192,214351,1,0,0:0:0:0:
256,192,214351,1,0,0:0:0:0:
402,192,214426,1,0,0:0:0:0:
182,192,214426,1,0,0:0:0:0:
109,192,214426,1,0,0:0:0:0:
475,192,214501,1,0,0:0:0:0:
329,192,214501,1,0,0:0:0:0:
256,192,214501,1,0,0:0:0:0:
402,192,214576,1,0,0:0:0:0:
36,192,214576,1,0,0:0:0:0:
182,192,214576,1,0,0:0:0:0:
109,192,214576,1,0,0:0:0:0:
256,192,214651,1,0,0:0:0:0:
329,192,214651,1,0,0:0:0:0:
475,192,214726,1,0,0:0:0:0:
182,192,214726,1,0,0:0:0:0:
36,192,214726,1,0,0:0:0:0:
402,192,214801,1,0,0:0:0:0:
109,192,214801,1,0,0:0:0:0:
256,192,214876,1,0,0:0:0:0:
182,192,214876,1,0,0:0:0:0:
329,192,214876,1,0,0:0:0:0:
475,192,214876,1,0,0:0:0:0:
36,192,214876,1,0,0:0:0:0:
109,192,214951,1,0,0:0:0:0:
402,192,214951,1,0,0:0:0:0:
256,192,215026,1,0,0:0:0:0:
475,192,215026,1,0,0:0:0:0:
36,192,215026,1,0,0:0:0:0:
182,192,215101,1,0,0:0:0:0:
329,192,215101,1,0,0:0:0:0:
475,192,215176,1,0,0:0:0:0:
402,192,215176,1,0,0:0:0:0:
36,192,215176,1,0,0:0:0:0:
109,192,215176,1,0,0:0:0:0:
256,192,215251,1,0,0:0:0:0:
329,192,215251,1,0,0:0:0:0:
182,192,215326,1,0,0:0:0:0:
402,192,215326,1,0,0:0:0:0:
109,192,215326,1,0,0:0:0:0:
256,192,215401,1,0,0:0:0:0:
475,192,215401,1,0,0:0:0:0:
109,192,215476,1,0,0:0:0:0:
182,192,215476,1,0,0:0:0:0:
329,192,215476,1,0,0:0:0:0:
402,192,215476,1,0,0:0:0:0:
36,192,215476,1,0,0:0:0:0:
256,192,215551,1,0,0:0:0:0:
475,192,215551,1,0,0:0:0:0:
36,192,215626,1,0,0:0:0:0:
329,192,215626,1,0,0:0:0:0:
182,192,215626,1,0,0:0:0:0:
402,192,215701,1,0,0:0:0:0:
475,192,215701,1,0,0:0:0:0:
109,192,215776,1,0,0:0:0:0:
182,192,215776,1,0,0:0:0:0:
36,192,215776,1,0,0:0:0:0:
256,192,215776,1,0,0:0:0:0:
402,192,215851,1,0,0:0:0:0:
329,192,215851,1,0,0:0:0:0:
256,192,215926,1,0,0:0:0:0:
475,192,215926,1,0,0:0:0:0:
109,192,215926,1,0,0:0:0:0:
182,192,216001,1,0,0:0:0:0:
402,192,216001,1,0,0:0:0:0:
36,192,216076,1,0,0:0:0:0:
256,192,216076,1,0,0:0:0:0:
475,192,216076,1,0,0:0:0:0:
109,192,216076,1,0,0:0:0:0:
329,192,216076,1,0,0:0:0:0:
182,192,216151,1,0,0:0:0:0:
402,192,216151,1,0,0:0:0:0:
36,192,216226,1,0,0:0:0:0:
329,192,216226,1,0,0:0:0:0:
256,192,216226,1,0,0:0:0:0:
475,192,216301,1,0,0:0:0:0:
109,192,216301,1,0,0:0:0:0:
402,192,216376,1,0,0:0:0:0:
36,192,216376,1,0,0:0:0:0:
256,192,216376,1,0,0:0:0:0:
182,192,216376,1,0,0:0:0:0:
329,192,216451,1,0,0:0:0:0:
475,192,216451,1,0,0:0:0:0:
109,192,216526,1,0,0:0:0:0:
256,192,216526,1,0,0:0:0:0:
36,192,216526,1,0,0:0:0:0:
182,192,216601,1,0,0:0:0:0:
475,192,216601,1,0,0:0:0:0:
402,192,216676,1,0,0:0:0:0:
256,192,216676,1,0,0:0:0:0:
329,192,216676,1,0,0:0:0:0:
36,192,216676,1,0,0:0:0:0:
109,192,216676,1,0,0:0:0:0:
182,192,216751,1,0,0:0:0:0:
475,192,216751,1,0,0:0:0:0:
109,192,216826,1,0,0:0:0:0:
256,192,216826,1,0,0:0:0:0:
402,192,216826,1,0,0:0:0:0:
329,192,216901,1,0,0:0:0:0:
475,192,216901,1,0,0:0:0:0:
402,192,216976,1,0,0:0:0:0:
182,192,216976,1,0,0:0:0:0:
109,192,216976,1,0,0:0:0:0:
36,192,216976,1,0,0:0:0:0:
256,192,217051,1,0,0:0:0:0:
329,192,217051,1,0,0:0:0:0:
182,192,217126,1,0,0:0:0:0:
475,192,217126,1,0,0:0:0:0:
36,192,217126,1,0,0:0:0:0:
329,192,217201,1,0,0:0:0:0:
109,192,217201,1,0,0:0:0:0:
402,192,217276,1,0,0:0:0:0:
256,192,217276,1,0,0:0:0:0:
182,192,217276,1,0,0:0:0:0:
475,192,217276,1,0,0:0:0:0:
36,192,217276,1,0,0:0:0:0:
329,192,217351,1,0,0:0:0:0:
109,192,217351,1,0,0:0:0:0:
402,192,217426,1,0,0:0:0:0:
256,192,217426,1,0,0:0:0:0:
475,192,217426,1,0,0:0:0:0:
109,192,217501,1,0,0:0:0:0:
36,192,217501,1,0,0:0:0:0:
329,192,217501,1,0,0:0:0:0:
402,192,217576,1,0,0:0:0:0:
182,192,217576,1,0,0:0:0:0:
475,192,217576,1,0,0:0:0:0:
256,192,217576,1,0,0:0:0:0:
36,192,217651,1,0,0:0:0:0:
109,192,217651,1,0,0:0:0:0:
329,192,217726,1,0,0:0:0:0:
402,192,217726,1,0,0:0:0:0:
182,192,217726,1,0,0:0:0:0:
256,192,217801,1,0,0:0:0:0:
475,192,217801,1,0,0:0:0:0:
182,192,217876,1,0,0:0:0:0:
109,192,217876,1,0,0:0:0:0:
36,192,217876,1,0,0:0:0:0:
402,192,217876,1,0,0:0:0:0:
329,192,217876,1,0,0:0:0:0:
256,192,217951,1,0,0:0:0:0:
475,192,217951,1,0,0:0:0:0:
182,192,218026,1,0,0:0:0:0:
329,192,218026,1,0,0:0:0:0:
36,192,218026,1,0,0:0:0:0:
402,192,218101,1,0,0:0:0:0:
475,192,218101,1,0,0:0:0:0:
109,192,218176,1,0,0:0:0:0:
256,192,218176,1,0,0:0:0:0:
36,192,218176,1,0,0:0:0:0:
329,192,218176,1,0,0:0:0:0:
402,192,218251,1,0,0:0:0:0:
475,192,218326,1,0,0:0:0:0:
256,192,218326,1,0,0:0:0:0:
182,192,218326,1,0,0:0:0:0:
36,192,218326,1,0,0:0:0:0:
329,192,218401,1,0,0:0:0:0:
109,192,218401,1,0,0:0:0:0:
402,192,218476,1,0,0:0:0:0:
182,192,218476,1,0,0:0:0:0:
475,192,218476,1,0,0:0:0:0:
329,192,218551,1,0,0:0:0:0:
256,192,218626,1,0,0:0:0:0:
182,192,218626,1,0,0:0:0:0:
36,192,218626,1,0,0:0:0:0:
109,192,218626,1,0,0:0:0:0:
402,192,218701,1,0,0:0:0:0:
329,192,218701,1,0,0:0:0:0:
475,192,218701,1,0,0:0:0:0:
109,192,218776,1,0,0:0:0:0:
182,192,218776,1,0,0:0:0:0:
256,192,218776,1,0,0:0:0:0:
36,192,218776,1,0,0:0:0:0:
475,192,218851,1,0,0:0:0:0:
329,192,218851,1,0,0:0:0:0:
402,192,218926,1,0,0:0:0:0:
109,192,218926,1,0,0:0:0:0:
36,192,219001,1,0,0:0:0:0:
256,192,219001,1,0,0:0:0:0:
182,192,219076,1,0,0:0:0:0:
329,192,219076,1,0,0:0:0:0:
475,192,219076,1,0,0:0:0:0:
402,192,219076,1,0,0:0:0:0:
256,192,219151,1,0,0:0:0:0:
36,192,219151,1,0,0:0:0:0:
182,192,219226,1,0,0:0:0:0:
402,192,219226,1,0,0:0:0:0:
329,192,219301,1,0,0:0:0:0:
109,192,219301,1,0,0:0:0:0:
256,192,219376,1,0,0:0:0:0:
475,192,219376,1,0,0:0:0:0:
36,192,219376,1,0,0:0:0:0:
402,192,219451,1,0,0:0:0:0:
182,192,219451,1,0,0:0:0:0:
329,192,219526,1,0,0:0:0:0:
109,192,219526,1,0,0:0:0:0:
256,192,219601,1,0,0:0:0:0:
475,192,219601,1,0,0:0:0:0:
329,192,219676,1,0,0:0:0:0:
109,192,219676,1,0,0:0:0:0:
36,192,219676,1,0,0:0:0:0:
402,192,219676,1,0,0:0:0:0:
182,192,219751,1,0,0:0:0:0:
329,192,219826,1,0,0:0:0:0:
256,192,219826,1,0,0:0:0:0:
402,192,219826,1,0,0:0:0:0:
475,192,219826,1,0,0:0:0:0:
109,192,219901,1,0,0:0:0:0:
182,192,219901,1,0,0:0:0:0:
36,192,219901,1,0,0:0:0:0:
329,192,219976,1,0,0:0:0:0:
475,192,219976,1,0,0:0:0:0:
402,192,219976,1,0,0:0:0:0:
256,192,219976,1,0,0:0:0:0:
36,192,220051,1,0,0:0:0:0:
182,192,220051,1,0,0:0:0:0:
109,192,220126,1,0,0:0:0:0:
402,192,220126,1,0,0:0:0:0:
475,192,220201,1,0,0:0:0:0:
256,192,220201,1,0,0:0:0:0:
329,192,220276,1,0,0:0:0:0:
182,192,220276,1,0,0:0:0:0:
36,192,220276,1,0,0:0:0:0:
109,192,220276,1,0,0:0:0:0:
256,192,220351,1,0,0:0:0:0:
475,192,220351,1,0,0:0:0:0:
329,192,220426,1,0,0:0:0:0:
109,192,220426,1,0,0:0:0:0:
36,192,220426,1,0,0:0:0:0:
182,192,220501,1,0,0:0:0:0:
402,192,220501,1,0,0:0:0:0:
256,192,220576,1,0,0:0:0:0:
36,192,220576,1,0,0:0:0:0:
475,192,220576,1,0,0:0:0:0:
329,192,220576,1,0,0:0:0:0:
109,192,220651,1,0,0:0:0:0:
402,192,220651,1,0,0:0:0:0:
182,192,220726,1,0,0:0:0:0:
475,192,220726,1,0,0:0:0:0:
256,192,220801,1,0,0:0:0:0:
36,192,220801,1,0,0:0:0:0:
182,192,220876,1,0,0:0:0:0:
402,192,220876,1,0,0:0:0:0:
329,192,220876,1,0,0:0:0:0:
109,192,220876,1,0,0:0:0:0:
475,192,220951,1,0,0:0:0:0:
182,192,221026,1,0,0:0:0:0:
109,192,221026,1,0,0:0:0:0:
36,192,221026,1,0,0:0:0:0:
329,192,221101,1,0,0:0:0:0:
256,192,221101,1,0,0:0:0:0:
475,192,221176,1,0,0:0:0:0:
36,192,221176,1,0,0:0:0:0:
109,192,221176,1,0,0:0:0:0:
402,192,221176,1,0,0:0:0:0:
182,192,221176,1,0,0:0:0:0:
329,192,221251,1,0,0:0:0:0:
256,192,221251,1,0,0:0:0:0:
402,192,221326,1,0,0:0:0:0:
475,192,221326,1,0,0:0:0:0:
109,192,221401,1,0,0:0:0:0:
36,192,221401,1,0,0:0:0:0:
182,192,221476,1,0,0:0:0:0:
256,192,221476,1,0,0:0:0:0:
329,192,221476,1,0,0:0:0:0:
402,192,221476,1,0,0:0:0:0:
475,192,221476,1,0,0:0:0:0:
109,192,221551,1,0,0:0:0:0:
36,192,221551,1,0,0:0:0:0:
329,192,221626,1,0,0:0:0:0:
256,192,221626,1,0,0:0:0:0:
475,192,221701,1,0,0:0:0:0:
402,192,221701,1,0,0:0:0:0:
182,192,221776,1,0,0:0:0:0:
329,192,221776,1,0,0:0:0:0:
256,192,221776,1,0,0:0:0:0:
109,192,221776,1,0,0:0:0:0:
36,192,221776,1,0,0:0:0:0:
402,192,221851,1,0,0:0:0:0:
475,192,221851,1,0,0:0:0:0:
182,192,221926,1,0,0:0:0:0:
109,192,221926,1,0,0:0:0:0:
256,192,222001,1,0,0:0:0:0:
329,192,222001,1,0,0:0:0:0:
475,192,222076,1,0,0:0:0:0:
402,192,222076,1,0,0:0:0:0:
36,192,222076,1,0,0:0:0:0:
329,192,222151,1,0,0:0:0:0:
256,192,222151,1,0,0:0:0:0:
182,192,222226,1,0,0:0:0:0:
475,192,222226,1,0,0:0:0:0:
402,192,222301,1,0,0:0:0:0:
109,192,222301,1,0,0:0:0:0:
36,192,222376,1,0,0:0:0:0:
256,192,222376,1,0,0:0:0:0:
329,192,222376,1,0,0:0:0:0:
475,192,222451,1,0,0:0:0:0:
109,192,222451,1,0,0:0:0:0:
329,192,222526,1,0,0:0:0:0:
182,192,222526,1,0,0:0:0:0:
402,192,222601,1,0,0:0:0:0:
256,192,222601,1,0,0:0:0:0:
109,192,222676,1,0,0:0:0:0:
36,192,222676,1,0,0:0:0:0:
475,192,222676,1,0,0:0:0:0:
329,192,222751,1,0,0:0:0:0:
256,192,222751,1,0,0:0:0:0:
182,192,222826,1,0,0:0:0:0:
109,192,222826,1,0,0:0:0:0:
402,192,222901,1,0,0:0:0:0:
329,192,222901,1,0,0:0:0:0:
256,192,222976,1,0,0:0:0:0:
109,192,222976,1,0,0:0:0:0:
36,192,222976,1,0,0:0:0:0:
475,192,223051,1,0,0:0:0:0:
402,192,223051,1,0,0:0:0:0:
256,192,223126,1,0,0:0:0:0:
182,192,223126,1,0,0:0:0:0:
329,192,223201,1,0,0:0:0:0:
402,192,223201,1,0,0:0:0:0:
109,192,223276,1,0,0:0:0:0:
182,192,223276,1,0,0:0:0:0:
475,192,223276,1,0,0:0:0:0:
36,192,223276,1,0,0:0:0:0:
256,192,223351,1,0,0:0:0:0:
329,192,223351,1,0,0:0:0:0:
402,192,223351,1,0,0:0:0:0:
109,192,223426,1,0,0:0:0:0:
36,192,223426,1,0,0:0:0:0:
182,192,223426,1,0,0:0:0:0:
402,192,223501,1,0,0:0:0:0:
475,192,223501,1,0,0:0:0:0:
256,192,223501,1,0,0:0:0:0:
109,192,223576,1,0,0:0:0:0:
36,192,223576,1,0,0:0:0:0:
329,192,223576,1,0,0:0:0:0:
182,192,223576,1,0,0:0:0:0:
256,192,223651,1,0,0:0:0:0:
182,192,223726,1,0,0:0:0:0:
475,192,223726,1,0,0:0:0:0:
402,192,223726,1,0,0:0:0:0:
109,192,223801,1,0,0:0:0:0:
329,192,223801,1,0,0:0:0:0:
475,192,223876,1,0,0:0:0:0:
36,192,223876,1,0,0:0:0:0:
182,192,223876,1,0,0:0:0:0:
256,192,223876,1,0,0:0:0:0:
329,192,223951,1,0,0:0:0:0:
402,192,224026,1,0,0:0:0:0:
475,192,224026,1,0,0:0:0:0:
109,192,224026,1,0,0:0:0:0:
256,192,224101,1,0,0:0:0:0:
182,192,224101,1,0,0:0:0:0:
36,192,224176,1,0,0:0:0:0:
109,192,224176,1,0,0:0:0:0:
329,192,224176,1,0,0:0:0:0:
402,192,224176,1,0,0:0:0:0:
475,192,224251,1,0,0:0:0:0:
256,192,224326,1,0,0:0:0:0:
329,192,224326,1,0,0:0:0:0:
182,192,224326,1,0,0:0:0:0:
402,192,224401,1,0,0:0:0:0:
109,192,224401,1,0,0:0:0:0:
36,192,224476,1,0,0:0:0:0:
182,192,224476,1,0,0:0:0:0:
256,192,224476,1,0,0:0:0:0:
329,192,224551,1,0,0:0:0:0:
256,192,224626,1,0,0:0:0:0:
402,192,224626,1,0,0:0:0:0:
475,192,224626,1,0,0:0:0:0:
182,192,224701,1,0,0:0:0:0:
36,192,224701,1,0,0:0:0:0:
329,192,224776,1,0,0:0:0:0:
475,192,224776,1,0,0:0:0:0:
109,192,224776,1,0,0:0:0:0:
256,192,224851,1,0,0:0:0:0:
182,192,224926,1,0,0:0:0:0:
109,192,224926,1,0,0:0:0:0:
329,192,224926,1,0,0:0:0:0:
475,192,225001,1,0,0:0:0:0:
402,192,225001,1,0,0:0:0:0:
329,192,225076,1,0,0:0:0:0:
36,192,225076,1,0,0:0:0:0:
256,192,225076,1,0,0:0:0:0:
182,192,225076,1,0,0:0:0:0:
475,192,225151,1,0,0:0:0:0:
402,192,225226,1,0,0:0:0:0:
109,192,225226,1,0,0:0:0:0:
256,192,225226,1,0,0:0:0:0:
329,192,225301,1,0,0:0:0:0:
182,192,225301,1,0,0:0:0:0:
36,192,225376,1,0,0:0:0:0:
475,192,225376,1,0,0:0:0:0:
109,192,225376,1,0,0:0:0:0:
182,192,225451,1,0,0:0:0:0:
109,192,225526,1,0,0:0:0:0:
475,192,225526,1,0,0:0:0:0:
256,192,225526,1,0,0:0:0:0:
36,192,225601,1,0,0:0:0:0:
402,192,225601,1,0,0:0:0:0:
329,192,225676,1,0,0:0:0:0:
109,192,225676,1,0,0:0:0:0:
182,192,225676,1,0,0:0:0:0:
256,192,225676,1,0,0:0:0:0:
475,192,225751,1,0,0:0:0:0:
182,192,225826,1,0,0:0:0:0:
329,192,225826,1,0,0:0:0:0:
402,192,225826,1,0,0:0:0:0:
256,192,225901,1,0,0:0:0:0:
36,192,225901,1,0,0:0:0:0:
402,192,225976,1,0,0:0:0:0:
475,192,225976,1,0,0:0:0:0:
109,192,225976,1,0,0:0:0:0:
329,192,226051,1,0,0:0:0:0:
256,192,226126,1,0,0:0:0:0:
402,192,226126,1,0,0:0:0:0:
182,192,226126,1,0,0:0:0:0:
36,192,226201,1,0,0:0:0:0:
109,192,226201,1,0,0:0:0:0:
329,192,226276,1,0,0:0:0:0:
182,192,226276,1,0,0:0:0:0:
475,192,226276,1,0,0:0:0:0:
256,192,226276,1,0,0:0:0:0:
36,192,226351,1,0,0:0:0:0:
109,192,226426,1,0,0:0:0:0:
329,192,226426,1,0,0:0:0:0:
402,192,226426,1,0,0:0:0:0:
475,192,226501,1,0,0:0:0:0:
182,192,226501,1,0,0:0:0:0:
36,192,226576,1,0,0:0:0:0:
256,192,226576,1,0,0:0:0:0:
109,192,226576,1,0,0:0:0:0:
402,192,226651,1,0,0:0:0:0:
475,192,226726,1,0,0:0:0:0:
182,192,226726,1,0,0:0:0:0:
36,192,226726,1,0,0:0:0:0:
256,192,226801,1,0,0:0:0:0:
329,192,226801,1,0,0:0:0:0:
402,192,226876,1,0,0:0:0:0:
36,192,226876,1,0,0:0:0:0:
109,192,226876,1,0,0:0:0:0:
475,192,226876,1,0,0:0:0:0:
256,192,226951,1,0,0:0:0:0:
329,192,227026,1,0,0:0:0:0:
182,192,227026,1,0,0:0:0:0:
109,192,227026,1,0,0:0:0:0:
475,192,227101,1,0,0:0:0:0:
36,192,227101,1,0,0:0:0:0:
402,192,227176,1,0,0:0:0:0:
329,192,227176,1,0,0:0:0:0:
256,192,227176,1,0,0:0:0:0:
109,192,227251,1,0,0:0:0:0:
36,192,227326,1,0,0:0:0:0:
256,192,227326,1,0,0:0:0:0:
182,192,227326,1,0,0:0:0:0:
475,192,227401,1,0,0:0:0:0:
402,192,227401,1,0,0:0:0:0:
329,192,227476,1,0,0:0:0:0:
36,192,227476,1,0,0:0:0:0:
182,192,227476,1,0,0:0:0:0:
109,192,227476,1,0,0:0:0:0:
256,192,227551,1,0,0:0:0:0:
475,192,227626,1,0,0:0:0:0:
329,192,227626,1,0,0:0:0:0:
402,192,227626,1,0,0:0:0:0:
109,192,227701,1,0,0:0:0:0:
182,192,227701,1,0,0:0:0:0:
36,192,227776,1,0,0:0:0:0:
402,192,227776,1,0,0:0:0:0:
256,192,227776,1,0,0:0:0:0:
109,192,227851,1,0,0:0:0:0:
256,192,227926,1,0,0:0:0:0:
329,192,227926,1,0,0:0:0:0:
475,192,227926,1,0,0:0:0:0:
182,192,228001,1,0,0:0:0:0:
36,192,228001,1,0,0:0:0:0:
109,192,228076,1,0,0:0:0:0:
475,192,228076,1,0,0:0:0:0:
402,192,228076,1,0,0:0:0:0:
329,192,228076,1,0,0:0:0:0:
182,192,228151,1,0,0:0:0:0:
402,192,228226,1,0,0:0:0:0:
36,192,228226,1,0,0:0:0:0:
256,192,228226,1,0,0:0:0:0:
475,192,228301,1,0,0:0:0:0:
109,192,228301,1,0,0:0:0:0:
182,192,228301,1,0,0:0:0:0:
256,192,228376,1,0,0:0:0:0:
36,192,228376,1,0,0:0:0:0:
329,192,228376,1,0,0:0:0:0:
402,192,228451,1,0,0:0:0:0:
109,192,228526,1,0,0:0:0:0:
475,192,228526,1,0,0:0:0:0:
329,192,228526,1,0,0:0:0:0:
256,192,228601,1,0,0:0:0:0:
182,192,228601,1,0,0:0:0:0:
402,192,228676,1,0,0:0:0:0:
475,192,228676,1,0,0:0:0:0:
109,192,228676,1,0,0:0:0:0:
36,192,228676,1,0,0:0:0:0:
256,192,228751,1,0,0:0:0:0:
475,192,228826,1,0,0:0:0:0:
36,192,228826,1,0,0:0:0:0:
182,192,228826,1,0,0:0:0:0:
329,192,228901,1,0,0:0:0:0:
402,192,228901,1,0,0:0:0:0:
475,192,228976,1,0,0:0:0:0:
109,192,228976,1,0,0:0:0:0:
256,192,228976,1,0,0:0:0:0:
36,192,229051,1,0,0:0:0:0:
109,192,229126,1,0,0:0:0:0:
329,192,229126,1,0,0:0:0:0:
402,192,229126,1,0,0:0:0:0:
182,192,229201,1,0,0:0:0:0:
256,192,229201,1,0,0:0:0:0:
402,192,229276,1,0,0:0:0:0:
36,192,229276,1,0,0:0:0:0:
475,192,229276,1,0,0:0:0:0:
329,192,229276,1,0,0:0:0:0:
256,192,229351,1,0,0:0:0:0:
475,192,229426,1,0,0:0:0:0:
36,192,229426,1,0,0:0:0:0:
182,192,229426,1,0,0:0:0:0:
329,192,229501,1,0,0:0:0:0:
402,192,229501,1,0,0:0:0:0:
256,192,229576,1,0,0:0:0:0:
475,192,229576,1,0,0:0:0:0:
109,192,229576,1,0,0:0:0:0:
182,192,229651,1,0,0:0:0:0:
36,192,229726,1,0,0:0:0:0:
402,192,229726,1,0,0:0:0:0:
256,192,229726,1,0,0:0:0:0:
475,192,229801,1,0,0:0:0:0:
329,192,229801,1,0,0:0:0:0:
36,192,229876,1,0,0:0:0:0:
402,192,229876,1,0,0:0:0:0:
182,192,229876,1,0,0:0:0:0:
109,192,229876,1,0,0:0:0:0:
329,192,229951,1,0,0:0:0:0:
475,192,230026,1,0,0:0:0:0:
182,192,230026,1,0,0:0:0:0:
256,192,230026,1,0,0:0:0:0:
36,192,230101,1,0,0:0:0:0:
109,192,230101,1,0,0:0:0:0:
475,192,230176,1,0,0:0:0:0:
329,192,230176,1,0,0:0:0:0:
402,192,230176,1,0,0:0:0:0:
256,192,230251,1,0,0:0:0:0:
36,192,230326,1,0,0:0:0:0:
475,192,230326,1,0,0:0:0:0:
109,192,230326,1,0,0:0:0:0:
182,192,230401,1,0,0:0:0:0:
402,192,230401,1,0,0:0:0:0:
109,192,230476,1,0,0:0:0:0:
36,192,230476,1,0,0:0:0:0:
256,192,230476,1,0,0:0:0:0:
329,192,230476,1,0,0:0:0:0:
402,192,230551,1,0,0:0:0:0:
182,192,230551,1,0,0:0:0:0:
256,192,230626,1,0,0:0:0:0:
475,192,230626,1,0,0:0:0:0:
329,192,230626,1,0,0:0:0:0:
36,192,230701,1,0,0:0:0:0:
109,192,230701,1,0,0:0:0:0:
475,192,230776,1,0,0:0:0:0:
329,192,230776,1,0,0:0:0:0:
402,192,230776,1,0,0:0:0:0:
109,192,230851,1,0,0:0:0:0:
182,192,230851,1,0,0:0:0:0:
256,192,230926,1,0,0:0:0:0:
402,192,230926,1,0,0:0:0:0:
475,192,230926,1,0,0:0:0:0:
36,192,231001,1,0,0:0:0:0:
109,192,231001,1,0,0:0:0:0:
402,192,231076,1,0,0:0:0:0:
329,192,231076,1,0,0:0:0:0:
182,192,231076,1,0,0:0:0:0:
475,192,231076,1,0,0:0:0:0:
109,192,231151,1,0,0:0:0:0:
182,192,231226,1,0,0:0:0:0:
402,192,231226,1,0,0:0:0:0:
329,192,231226,1,0,0:0:0:0:
256,192,231301,1,0,0:0:0:0:
475,192,231301,1,0,0:0:0:0:
329,192,231376,1,0,0:0:0:0:
109,192,231376,1,0,0:0:0:0:
36,192,231376,1,0,0:0:0:0:
475,192,231451,1,0,0:0:0:0:
256,192,231451,1,0,0:0:0:0:
36,192,231526,1,0,0:0:0:0:
402,192,231526,1,0,0:0:0:0:
109,192,231526,1,0,0:0:0:0:
256,192,231601,1,0,0:0:0:0:
329,192,231601,1,0,0:0:0:0:
475,192,231676,1,0,0:0:0:0:
36,192,231676,1,0,0:0:0:0:
182,192,231676,1,0,0:0:0:0:
109,192,231676,1,0,0:0:0:0:
402,192,231751,1,0,0:0:0:0:
256,192,231751,1,0,0:0:0:0:
475,192,231826,1,0,0:0:0:0:
329,192,231826,1,0,0:0:0:0:
182,192,231826,1,0,0:0:0:0:
109,192,231901,1,0,0:0:0:0:
402,192,231901,1,0,0:0:0:0:
329,192,231976,1,0,0:0:0:0:
36,192,231976,1,0,0:0:0:0:
256,192,231976,1,0,0:0:0:0:
402,192,232051,1,0,0:0:0:0:
475,192,232051,1,0,0:0:0:0:
182,192,232126,1,0,0:0:0:0:
329,192,232126,1,0,0:0:0:0:
109,192,232126,1,0,0:0:0:0:
36,192,232201,1,0,0:0:0:0:
256,192,232201,1,0,0:0:0:0:
109,192,232276,1,0,0:0:0:0:
475,192,232276,1,0,0:0:0:0:
182,192,232276,1,0,0:0:0:0:
402,192,232276,1,0,0:0:0:0:
329,192,232351,1,0,0:0:0:0:
36,192,232426,1,0,0:0:0:0:
182,192,232426,1,0,0:0:0:0:
256,192,232426,1,0,0:0:0:0:
475,192,232501,1,0,0:0:0:0:
402,192,232501,1,0,0:0:0:0:
36,192,232576,1,0,0:0:0:0:
109,192,232576,1,0,0:0:0:0:
256,192,232576,1,0,0:0:0:0:
329,192,232576,1,0,0:0:0:0:
475,192,232651,1,0,0:0:0:0:
109,192,232726,1,0,0:0:0:0:
329,192,232726,1,0,0:0:0:0:
402,192,232726,1,0,0:0:0:0:
182,192,232726,1,0,0:0:0:0:
36,192,232801,1,0,0:0:0:0:
475,192,232876,1,0,0:0:0:0:
256,192,232876,1,0,0:0:0:0:
402,192,232951,1,0,0:0:0:0:
182,192,232951,1,0,0:0:0:0:
329,192,233026,1,0,0:0:0:0:
109,192,233026,1,0,0:0:0:0:
36,192,233026,1,0,0:0:0:0:
256,192,233101,1,0,0:0:0:0:
475,192,233101,1,0,0:0:0:0:
402,192,233101,1,0,0:0:0:0:
36,192,233176,1,0,0:0:0:0:
109,192,233176,1,0,0:0:0:0:
182,192,233176,1,0,0:0:0:0:
329,192,233176,1,0,0:0:0:0:
475,192,233251,1,0,0:0:0:0:
256,192,233326,1,0,0:0:0:0:
182,192,233326,1,0,0:0:0:0:
109,192,233326,1,0,0:0:0:0:
402,192,233401,1,0,0:0:0:0:
329,192,233476,1,0,0:0:0:0:
256,192,233476,1,0,0:0:0:0:
475,192,233551,1,0,0:0:0:0:
36,192,233626,1,0,0:0:0:0:
182,192,233626,1,0,0:0:0:0:
109,192,233626,1,0,0:0:0:0:
329,192,233701,1,0,0:0:0:0:
475,192,233776,1,0,0:0:0:0:
402,192,233851,1,0,0:0:0:0:
256,192,233926,1,0,0:0:0:0:
182,192,233926,1,0,0:0:0:0:
109,192,233926,1,0,0:0:0:0:
329,192,234001,1,0,0:0:0:0:
402,192,234076,1,0,0:0:0:0:
475,192,234076,1,0,0:0:0:0:
256,192,234151,1,0,0:0:0:0:
182,192,234226,1,0,0:0:0:0:
109,192,234226,1,0,0:0:0:0:
36,192,234226,1,0,0:0:0:0:
329,192,234301,1,0,0:0:0:0:
256,192,234376,1,0,0:0:0:0:
182,192,234451,1,0,0:0:0:0:
256,192,234526,1,0,0:0:0:0:
329,192,234526,1,0,0:0:0:0:
402,192,234526,1,0,0:0:0:0:
109,192,234601,1,0,0:0:0:0:
182,192,234676,1,0,0:0:0:0:
256,192,234676,1,0,0:0:0:0:
36,192,234751,1,0,0:0:0:0:
475,192,234826,1,0,0:0:0:0:
329,192,234826,1,0,0:0:0:0:
402,192,234826,1,0,0:0:0:0:
182,192,234901,1,0,0:0:0:0:
36,192,234976,1,0,0:0:0:0:
109,192,235051,1,0,0:0:0:0:
256,192,235126,1,0,0:0:0:0:
329,192,235126,1,0,0:0:0:0:
402,192,235126,1,0,0:0:0:0:
182,192,235201,1,0,0:0:0:0:
109,192,235276,1,0,0:0:0:0:
36,192,235276,1,0,0:0:0:0:
256,192,235351,1,0,0:0:0:0:
329,192,235426,1,0,0:0:0:0:
402,192,235426,1,0,0:0:0:0:
475,192,235426,1,0,0:0:0:0:
182,192,235501,1,0,0:0:0:0:
256,192,235576,1,0,0:0:0:0:
36,192,235651,1,0,0:0:0:0:
256,192,235726,1,0,0:0:0:0:
329,192,235726,1,0,0:0:0:0:
109,192,235726,1,0,0:0:0:0:
402,192,235801,1,0,0:0:0:0:
182,192,235876,1,0,0:0:0:0:
256,192,235876,1,0,0:0:0:0:
475,192,235951,1,0,0:0:0:0:
36,192,236026,1,0,0:0:0:0:
329,192,236026,1,0,0:0:0:0:
109,192,236026,1,0,0:0:0:0:
182,192,236101,1,0,0:0:0:0:
475,192,236176,1,0,0:0:0:0:
402,192,236251,1,0,0:0:0:0:
256,192,236326,1,0,0:0:0:0:
329,192,236326,1,0,0:0:0:0:
109,192,236326,1,0,0:0:0:0:
182,192,236401,1,0,0:0:0:0:
402,192,236476,1,0,0:0:0:0:
475,192,236476,1,0,0:0:0:0:
256,192,236551,1,0,0:0:0:0:
329,192,236626,1,0,0:0:0:0:
109,192,236626,1,0,0:0:0:0:
36,192,236626,1,0,0:0:0:0:
182,192,236701,1,0,0:0:0:0:
256,192,236776,1,0,0:0:0:0:
329,192,236851,1,0,0:0:0:0:
256,192,236926,1,0,0:0:0:0:
182,192,236926,1,0,0:0:0:0:
402,192,236926,1,0,0:0:0:0:
109,192,237001,1,0,0:0:0:0:
329,192,237076,1,0,0:0:0:0:
256,192,237076,1,0,0:0:0:0:
36,192,237151,1,0,0:0:0:0:
475,192,237226,1,0,0:0:0:0:
182,192,237226,1,0,0:0:0:0:
402,192,237226,1,0,0:0:0:0:
329,192,237301,1,0,0:0:0:0:
36,192,237376,1,0,0:0:0:0:
109,192,237451,1,0,0:0:0:0:
256,192,237526,1,0,0:0:0:0:
182,192,237526,1,0,0:0:0:0:
402,192,237526,1,0,0:0:0:0:
329,192,237601,1,0,0:0:0:0:
109,192,237676,1,0,0:0:0:0:
36,192,237676,1,0,0:0:0:0:
256,192,237751,1,0,0:0:0:0:
182,192,237826,1,0,0:0:0:0:
402,192,237826,1,0,0:0:0:0:
475,192,237826,1,0,0:0:0:0:
329,192,237901,1,0,0:0:0:0:
256,192,237976,1,0,0:0:0:0:
36,192,237976,1,0,0:0:0:0:
475,192,237976,1,0,0:0:0:0:
402,192,238051,1,0,0:0:0:0:
109,192,238126,1,0,0:0:0:0:
36,192,238126,1,0,0:0:0:0:
182,192,238126,1,0,0:0:0:0:
256,192,238201,1,0,0:0:0:0:
402,192,238276,1,0,0:0:0:0:
475,192,238351,1,0,0:0:0:0:
256,192,238426,1,0,0:0:0:0:
109,192,238426,1,0,0:0:0:0:
182,192,238426,1,0,0:0:0:0:
329,192,238501,1,0,0:0:0:0:
475,192,238576,1,0,0:0:0:0:
36,192,238651,1,0,0:0:0:0:
329,192,238726,1,0,0:0:0:0:
182,192,238726,1,0,0:0:0:0:
256,192,238726,1,0,0:0:0:0:
402,192,238801,1,0,0:0:0:0:
36,192,238876,1,0,0:0:0:0:
109,192,238951,1,0,0:0:0:0:
402,192,239026,1,0,0:0:0:0:
329,192,239026,1,0,0:0:0:0:
256,192,239026,1,0,0:0:0:0:
475,192,239101,1,0,0:0:0:0:
329,192,239176,1,0,0:0:0:0:
182,192,239176,1,0,0:0:0:0:
109,192,239176,1,0,0:0:0:0:
36,192,239176,1,0,0:0:0:0:
256,192,239251,1,0,0:0:0:0:
402,192,239326,1,0,0:0:0:0:
475,192,239326,1,0,0:0:0:0:
329,192,239326,1,0,0:0:0:0:
256,192,239401,1,0,0:0:0:0:
109,192,239476,1,0,0:0:0:0:
36,192,239551,1,0,0:0:0:0:
256,192,239626,1,0,0:0:0:0:
402,192,239626,1,0,0:0:0:0:
329,192,239626,1,0,0:0:0:0:
182,192,239701,1,0,0:0:0:0:
36,192,239776,1,0,0:0:0:0:
475,192,239851,1,0,0:0:0:0:
182,192,239926,1,0,0:0:0:0:
329,192,239926,1,0,0:0:0:0:
256,192,239926,1,0,0:0:0:0:
109,192,240001,1,0,0:0:0:0:
475,192,240076,1,0,0:0:0:0:
402,192,240151,1,0,0:0:0:0:
109,192,240226,1,0,0:0:0:0:
182,192,240226,1,0,0:0:0:0:
256,192,240226,1,0,0:0:0:0:
36,192,240301,1,0,0:0:0:0:
256,192,240376,1,0,0:0:0:0:
329,192,240376,1,0,0:0:0:0:
402,192,240376,1,0,0:0:0:0:
475,192,240376,1,0,0:0:0:0:
109,192,240451,1,0,0:0:0:0:
36,192,240451,1,0,0:0:0:0:
329,192,240526,1,0,0:0:0:0:
402,192,240526,1,0,0:0:0:0:
182,192,240601,1,0,0:0:0:0:
109,192,240601,1,0,0:0:0:0:
402,192,240676,1,0,0:0:0:0:
475,192,240676,1,0,0:0:0:0:
256,192,240751,1,0,0:0:0:0:
182,192,240751,1,0,0:0:0:0:
36,192,240826,1,0,0:0:0:0:
109,192,240826,1,0,0:0:0:0:
402,192,240901,1,0,0:0:0:0:
475,192,240901,1,0,0:0:0:0:
109,192,240976,1,0,0:0:0:0:
256,192,240976,1,0,0:0:0:0:
182,192,240976,1,0,0:0:0:0:
36,192,240976,1,0,0:0:0:0:
402,192,241051,1,0,0:0:0:0:
475,192,241051,1,0,0:0:0:0:
182,192,241126,1,0,0:0:0:0:
256,192,241126,1,0,0:0:0:0:
402,192,241201,1,0,0:0:0:0:
329,192,241201,1,0,0:0:0:0:
109,192,241276,1,0,0:0:0:0:
36,192,241276,1,0,0:0:0:0:
329,192,241351,1,0,0:0:0:0:
256,192,241351,1,0,0:0:0:0:
402,192,241426,1,0,0:0:0:0:
475,192,241426,1,0,0:0:0:0:
36,192,241501,1,0,0:0:0:0:
109,192,241501,1,0,0:0:0:0:
182,192,241576,1,0,0:0:0:0:
256,192,241576,1,0,0:0:0:0:
475,192,241576,1,0,0:0:0:0:
402,192,241576,1,0,0:0:0:0:
329,192,241651,1,0,0:0:0:0:
109,192,241651,1,0,0:0:0:0:
256,192,241726,1,0,0:0:0:0:
36,192,241726,1,0,0:0:0:0:
475,192,241801,1,0,0:0:0:0:
182,192,241801,1,0,0:0:0:0:
109,192,241876,1,0,0:0:0:0:
36,192,241876,1,0,0:0:0:0:
329,192,241876,1,0,0:0:0:0:
402,192,241876,1,0,0:0:0:0:
256,192,241951,1,0,0:0:0:0:
475,192,241951,1,0,0:0:0:0:
329,192,242026,1,0,0:0:0:0:
109,192,242026,1,0,0:0:0:0:
182,192,242101,1,0,0:0:0:0:
402,192,242101,1,0,0:0:0:0:
36,192,242176,1,0,0:0:0:0:
329,192,242176,1,0,0:0:0:0:
256,192,242176,1,0,0:0:0:0:
109,192,242176,1,0,0:0:0:0:
182,192,242251,1,0,0:0:0:0:
402,192,242251,1,0,0:0:0:0:
475,192,242326,1,0,0:0:0:0:
256,192,242326,1,0,0:0:0:0:
36,192,242326,1,0,0:0:0:0:
329,192,242401,1,0,0:0:0:0:
109,192,242401,1,0,0:0:0:0:
182,192,242476,1,0,0:0:0:0:
402,192,242476,1,0,0:0:0:0:
36,192,242476,1,0,0:0:0:0:
475,192,242476,1,0,0:0:0:0:
109,192,242551,1,0,0:0:0:0:
256,192,242551,1,0,0:0:0:0:
402,192,242626,1,0,0:0:0:0:
182,192,242626,1,0,0:0:0:0:
475,192,242626,1,0,0:0:0:0:
36,192,242701,1,0,0:0:0:0:
329,192,242701,1,0,0:0:0:0:
256,192,242776,1,0,0:0:0:0:
402,192,242776,1,0,0:0:0:0:
475,192,242776,1,0,0:0:0:0:
182,192,242776,1,0,0:0:0:0:
109,192,242776,1,0,0:0:0:0:
329,192,242926,1,0,0:0:0:0:
256,192,242926,1,0,0:0:0:0:
109,192,243076,1,0,0:0:0:0:
36,192,243076,1,0,0:0:0:0:
329,192,243151,1,0,0:0:0:0:
256,192,243151,1,0,0:0:0:0:
182,192,243301,1,0,0:0:0:0:
109,192,243301,1,0,0:0:0:0:
402,192,243376,1,0,0:0:0:0:
329,192,243376,1,0,0:0:0:0:
182,192,243526,1,0,0:0:0:0:
256,192,243526,1,0,0:0:0:0:
475,192,243601,1,0,0:0:0:0:
402,192,243601,1,0,0:0:0:0:
182,192,243751,1,0,0:0:0:0:
109,192,243751,1,0,0:0:0:0:
329,192,243826,1,0,0:0:0:0:
402,192,243826,1,0,0:0:0:0:
182,192,244126,1,0,0:0:0:0:
256,192,244126,1,0,0:0:0:0:
402,192,244276,1,0,0:0:0:0:
475,192,244276,1,0,0:0:0:0:
182,192,244351,1,0,0:0:0:0:
256,192,244351,1,0,0:0:0:0:
329,192,244501,1,0,0:0:0:0:
402,192,244501,1,0,0:0:0:0:
109,192,244576,1,0,0:0:0:0:
182,192,244576,1,0,0:0:0:0:
329,192,244726,1,0,0:0:0:0:
256,192,244726,1,0,0:0:0:0:
36,192,244801,1,0,0:0:0:0:
109,192,244801,1,0,0:0:0:0:
329,192,244951,1,0,0:0:0:0:
402,192,244951,1,0,0:0:0:0:
182,192,245026,1,0,0:0:0:0:
109,192,245026,1,0,0:0:0:0:
109,192,245326,1,0,0:0:0:0:
36,192,245326,1,0,0:0:0:0:
256,192,245476,1,0,0:0:0:0:
329,192,245476,1,0,0:0:0:0:
182,192,245551,1,0,0:0:0:0:
109,192,245551,1,0,0:0:0:0:
402,192,245701,1,0,0:0:0:0:
329,192,245701,1,0,0:0:0:0:
256,192,245776,1,0,0:0:0:0:
182,192,245776,1,0,0:0:0:0:
475,192,245926,1,0,0:0:0:0:
402,192,245926,1,0,0:0:0:0:
329,192,246001,1,0,0:0:0:0:
256,192,246001,1,0,0:0:0:0:
109,192,246151,1,0,0:0:0:0:
36,192,246151,1,0,0:0:0:0:
182,192,246226,1,0,0:0:0:0:
256,192,246226,1,0,0:0:0:0:
402,192,246526,1,0,0:0:0:0:
475,192,246526,1,0,0:0:0:0:
256,192,246676,1,0,0:0:0:0:
182,192,246676,1,0,0:0:0:0:
329,192,246751,1,0,0:0:0:0:
402,192,246751,1,0,0:0:0:0:
109,192,246901,1,0,0:0:0:0:
182,192,246901,1,0,0:0:0:0:
256,192,246976,1,0,0:0:0:0:
329,192,246976,1,0,0:0:0:0:
36,192,247126,1,0,0:0:0:0:
109,192,247126,1,0,0:0:0:0:
182,192,247201,1,0,0:0:0:0:
256,192,247201,1,0,0:0:0:0:
402,192,247351,1,0,0:0:0:0:
475,192,247351,1,0,0:0:0:0:
329,192,247426,1,0,0:0:0:0:
256,192,247426,1,0,0:0:0:0:
109,192,247726,1,0,0:0:0:0:
36,192,247726,1,0,0:0:0:0:
182,192,247876,1,0,0:0:0:0:
256,192,247876,1,0,0:0:0:0:
109,192,247951,1,0,0:0:0:0:
36,192,247951,1,0,0:0:0:0:
329,192,248101,1,0,0:0:0:0:
256,192,248101,1,0,0:0:0:0:
109,192,248176,1,0,0:0:0:0:
36,192,248176,1,0,0:0:0:0:
402,192,248326,1,0,0:0:0:0:
329,192,248326,1,0,0:0:0:0:
109,192,248401,1,0,0:0:0:0:
36,192,248401,1,0,0:0:0:0:
475,192,248551,1,0,0:0:0:0:
402,192,248551,1,0,0:0:0:0:
109,192,248626,1,0,0:0:0:0:
182,192,248626,1,0,0:0:0:0:
402,192,248926,1,0,0:0:0:0:
475,192,248926,1,0,0:0:0:0:
329,192,249076,1,0,0:0:0:0:
256,192,249076,1,0,0:0:0:0:
402,192,249151,1,0,0:0:0:0:
475,192,249151,1,0,0:0:0:0:
182,192,249301,1,0,0:0:0:0:
256,192,249301,1,0,0:0:0:0:
402,192,249376,1,0,0:0:0:0:
475,192,249376,1,0,0:0:0:0:
109,192,249526,1,0,0:0:0:0:
182,192,249526,1,0,0:0:0:0:
402,192,249601,1,0,0:0:0:0:
475,192,249601,1,0,0:0:0:0:
36,192,249751,1,0,0:0:0:0:
109,192,249751,1,0,0:0:0:0:
402,192,249826,1,0,0:0:0:0:
329,192,249826,1,0,0:0:0:0:
182,192,250126,1,0,0:0:0:0:
109,192,250126,1,0,0:0:0:0:
182,192,250276,1,0,0:0:0:0:
109,192,250276,1,0,0:0:0:0:
402,192,250351,1,0,0:0:0:0:
475,192,250351,1,0,0:0:0:0:
182,192,250501,1,0,0:0:0:0:
109,192,250501,1,0,0:0:0:0:
402,192,250576,1,0,0:0:0:0:
329,192,250576,1,0,0:0:0:0:
182,192,250726,1,0,0:0:0:0:
109,192,250726,1,0,0:0:0:0:
329,192,250801,1,0,0:0:0:0:
256,192,250801,1,0,0:0:0:0:
36,192,250951,1,0,0:0:0:0:
109,192,250951,1,0,0:0:0:0:
402,192,251026,1,0,0:0:0:0:
329,192,251026,1,0,0:0:0:0:
329,192,251326,1,0,0:0:0:0:
402,192,251326,1,0,0:0:0:0:
329,192,251476,1,0,0:0:0:0:
402,192,251476,1,0,0:0:0:0:
109,192,251551,1,0,0:0:0:0:
36,192,251551,1,0,0:0:0:0:
329,192,251701,1,0,0:0:0:0:
402,192,251701,1,0,0:0:0:0:
109,192,251776,1,0,0:0:0:0:
182,192,251776,1,0,0:0:0:0:
475,192,251926,1,0,0:0:0:0:
402,192,251926,1,0,0:0:0:0:
182,192,252001,1,0,0:0:0:0:
256,192,252001,1,0,0:0:0:0:
475,192,252151,1,0,0:0:0:0:
402,192,252151,1,0,0:0:0:0:
109,192,252226,1,0,0:0:0:0:
182,192,252226,1,0,0:0:0:0:
402,192,252376,1,0,0:0:0:0:
475,192,252376,1,0,0:0:0:0:
256,192,252376,1,0,0:0:0:0:
329,192,252376,1,0,0:0:0:0:
182,192,252526,1,0,0:0:0:0:
36,192,252526,1,0,0:0:0:0:
109,192,252676,1,0,0:0:0:0:
256,192,252676,1,0,0:0:0:0:
182,192,252751,1,0,0:0:0:0:
329,192,252751,1,0,0:0:0:0:
182,192,252901,1,0,0:0:0:0:
329,192,252901,1,0,0:0:0:0:
256,192,252976,1,0,0:0:0:0:
402,192,252976,1,0,0:0:0:0:
329,192,253126,1,0,0:0:0:0:
475,192,253126,1,0,0:0:0:0:
402,192,253201,1,0,0:0:0:0:
256,192,253201,1,0,0:0:0:0:
402,192,253351,1,0,0:0:0:0:
256,192,253351,1,0,0:0:0:0:
329,192,253426,1,0,0:0:0:0:
182,192,253426,1,0,0:0:0:0:
256,192,253726,1,0,0:0:0:0:
402,192,253726,1,0,0:0:0:0:
36,192,253876,1,0,0:0:0:0:
182,192,253876,1,0,0:0:0:0:
109,192,253951,1,0,0:0:0:0:
256,192,253951,1,0,0:0:0:0:
109,192,254101,1,0,0:0:0:0:
256,192,254101,1,0,0:0:0:0:
182,192,254176,1,0,0:0:0:0:
329,192,254176,1,0,0:0:0:0:
256,192,254326,1,0,0:0:0:0:
402,192,254326,1,0,0:0:0:0:
329,192,254401,1,0,0:0:0:0:
182,192,254401,1,0,0:0:0:0:
329,192,254551,1,0,0:0:0:0:
182,192,254551,1,0,0:0:0:0:
256,192,254626,1,0,0:0:0:0:
109,192,254626,1,0,0:0:0:0:
329,192,254926,1,0,0:0:0:0:
475,192,254926,1,0,0:0:0:0:
402,192,255076,1,0,0:0:0:0:
256,192,255076,1,0,0:0:0:0:
329,192,255151,1,0,0:0:0:0:
182,192,255151,1,0,0:0:0:0:
329,192,255301,1,0,0:0:0:0:
182,192,255301,1,0,0:0:0:0:
256,192,255376,1,0,0:0:0:0:
109,192,255376,1,0,0:0:0:0:
182,192,255526,1,0,0:0:0:0:
36,192,255526,1,0,0:0:0:0:
109,192,255601,1,0,0:0:0:0:
256,192,255601,1,0,0:0:0:0:
109,192,255751,1,0,0:0:0:0:
256,192,255751,1,0,0:0:0:0:
182,192,255826,1,0,0:0:0:0:
329,192,255826,1,0,0:0:0:0:
256,192,256126,1,0,0:0:0:0:
109,192,256126,1,0,0:0:0:0:
475,192,256276,1,0,0:0:0:0:
329,192,256276,1,0,0:0:0:0:
402,192,256351,1,0,0:0:0:0:
256,192,256351,1,0,0:0:0:0:
402,192,256501,1,0,0:0:0:0:
256,192,256501,1,0,0:0:0:0:
329,192,256576,1,0,0:0:0:0:
182,192,256576,1,0,0:0:0:0:
256,192,256726,1,0,0:0:0:0:
109,192,256726,1,0,0:0:0:0:
182,192,256801,1,0,0:0:0:0:
329,192,256801,1,0,0:0:0:0:
182,192,256951,1,0,0:0:0:0:
329,192,256951,1,0,0:0:0:0:
256,192,257026,1,0,0:0:0:0:
402,192,257026,1,0,0:0:0:0:
36,192,257326,1,0,0:0:0:0:
256,192,257326,1,0,0:0:0:0:
109,192,257476,1,0,0:0:0:0:
329,192,257476,1,0,0:0:0:0:
182,192,257551,1,0,0:0:0:0:
402,192,257551,1,0,0:0:0:0:
182,192,257701,1,0,0:0:0:0:
402,192,257701,1,0,0:0:0:0:
256,192,257776,1,0,0:0:0:0:
475,192,257776,1,0,0:0:0:0:
475,192,257926,1,0,0:0:0:0:
256,192,257926,1,0,0:0:0:0:
402,192,258001,1,0,0:0:0:0:
182,192,258001,1,0,0:0:0:0:
329,192,258151,1,0,0:0:0:0:
109,192,258151,1,0,0:0:0:0:
256,192,258226,1,0,0:0:0:0:
36,192,258226,1,0,0:0:0:0:
182,192,258526,1,0,0:0:0:0:
402,192,258526,1,0,0:0:0:0:
329,192,258676,1,0,0:0:0:0:
109,192,258676,1,0,0:0:0:0:
256,192,258751,1,0,0:0:0:0:
36,192,258751,1,0,0:0:0:0:
402,192,258901,1,0,0:0:0:0:
182,192,258901,1,0,0:0:0:0:
109,192,258976,1,0,0:0:0:0:
329,192,258976,1,0,0:0:0:0:
475,192,259126,1,0,0:0:0:0:
256,192,259126,1,0,0:0:0:0:
402,192,259201,1,0,0:0:0:0:
182,192,259201,1,0,0:0:0:0:
329,192,259351,1,0,0:0:0:0:
109,192,259351,1,0,0:0:0:0:
256,192,259426,1,0,0:0:0:0:
36,192,259426,1,0,0:0:0:0:
475,192,259726,1,0,0:0:0:0:
256,192,259726,1,0,0:0:0:0:
402,192,259876,1,0,0:0:0:0:
182,192,259876,1,0,0:0:0:0:
329,192,259951,1,0,0:0:0:0:
109,192,259951,1,0,0:0:0:0:
329,192,260101,1,0,0:0:0:0:
109,192,260101,1,0,0:0:0:0:
256,192,260176,1,0,0:0:0:0:
36,192,260176,1,0,0:0:0:0:
36,192,260326,1,0,0:0:0:0:
256,192,260326,1,0,0:0:0:0:
109,192,260401,1,0,0:0:0:0:
329,192,260401,1,0,0:0:0:0:
182,192,260551,1,0,0:0:0:0:
402,192,260551,1,0,0:0:0:0:
256,192,260626,1,0,0:0:0:0:
475,192,260626,1,0,0:0:0:0:
329,192,260926,5,0,0:0:0:0:
109,192,260926,1,0,0:0:0:0:
182,192,261076,1,0,0:0:0:0:
402,192,261076,1,0,0:0:0:0:
256,192,261151,1,0,0:0:0:0:
475,192,261151,1,0,0:0:0:0:
109,192,261301,1,0,0:0:0:0:
329,192,261301,1,0,0:0:0:0:
402,192,261376,1,0,0:0:0:0:
182,192,261376,1,0,0:0:0:0:
36,192,261526,1,0,0:0:0:0:
256,192,261526,1,0,0:0:0:0:
109,192,261601,1,0,0:0:0:0:
329,192,261601,1,0,0:0:0:0:
182,192,261751,1,0,0:0:0:0:
402,192,261751,1,0,0:0:0:0:
256,192,261826,1,0,0:0:0:0:
475,192,261826,1,0,0:0:0:0:
475,192,261976,5,0,0:0:0:0:
402,192,261976,1,0,0:0:0:0:
36,192,261976,1,0,0:0:0:0:
109,192,261976,1,0,0:0:0:0:
256,192,261976,1,0,0:0:0:0:
182,192,262051,1,0,0:0:0:0:
329,192,262051,1,0,0:0:0:0:
256,192,262126,1,0,0:0:0:0:
475,192,262126,1,0,0:0:0:0:
402,192,262126,1,0,0:0:0:0:
36,192,262201,1,0,0:0:0:0:
109,192,262201,1,0,0:0:0:0:
256,192,262276,1,0,0:0:0:0:
329,192,262276,1,0,0:0:0:0:
182,192,262351,1,0,0:0:0:0:
475,192,262351,1,0,0:0:0:0:
402,192,262351,1,0,0:0:0:0:
329,192,262426,1,0,0:0:0:0:
36,192,262426,1,0,0:0:0:0:
182,192,262501,1,0,0:0:0:0:
402,192,262501,1,0,0:0:0:0:
329,192,262576,1,0,0:0:0:0:
256,192,262576,1,0,0:0:0:0:
109,192,262576,1,0,0:0:0:0:
36,192,262651,1,0,0:0:0:0:
475,192,262651,1,0,0:0:0:0:
402,192,262726,1,0,0:0:0:0:
182,192,262726,1,0,0:0:0:0:
329,192,262801,1,0,0:0:0:0:
256,192,262801,1,0,0:0:0:0:
36,192,262801,1,0,0:0:0:0:
109,192,262876,1,0,0:0:0:0:
402,192,262876,1,0,0:0:0:0:
475,192,262951,1,0,0:0:0:0:
182,192,262951,1,0,0:0:0:0:
109,192,263026,1,0,0:0:0:0:
256,192,263026,1,0,0:0:0:0:
329,192,263026,1,0,0:0:0:0:
36,192,263101,1,0,0:0:0:0:
402,192,263101,1,0,0:0:0:0:
182,192,263176,1,0,0:0:0:0:
329,192,263176,1,0,0:0:0:0:
475,192,263176,1,0,0:0:0:0:
256,192,263251,1,0,0:0:0:0:
36,192,263251,1,0,0:0:0:0:
109,192,263326,1,0,0:0:0:0:
182,192,263326,1,0,0:0:0:0:
329,192,263326,1,0,0:0:0:0:
402,192,263401,1,0,0:0:0:0:
36,192,263401,1,0,0:0:0:0:
109,192,263476,1,0,0:0:0:0:
475,192,263476,1,0,0:0:0:0:
256,192,263551,1,0,0:0:0:0:
329,192,263551,1,0,0:0:0:0:
182,192,263551,1,0,0:0:0:0:
402,192,263626,1,0,0:0:0:0:
36,192,263626,1,0,0:0:0:0:
109,192,263701,1,0,0:0:0:0:
329,192,263701,1,0,0:0:0:0:
475,192,263776,1,0,0:0:0:0:
402,192,263776,1,0,0:0:0:0:
182,192,263776,1,0,0:0:0:0:
109,192,263851,1,0,0:0:0:0:
256,192,263851,1,0,0:0:0:0:
329,192,263926,1,0,0:0:0:0:
475,192,263926,1,0,0:0:0:0:
109,192,264001,1,0,0:0:0:0:
36,192,264001,1,0,0:0:0:0:
256,192,264001,1,0,0:0:0:0:
402,192,264076,1,0,0:0:0:0:
329,192,264076,1,0,0:0:0:0:
182,192,264151,1,0,0:0:0:0:
109,192,264151,1,0,0:0:0:0:
256,192,264226,1,0,0:0:0:0:
402,192,264226,1,0,0:0:0:0:
475,192,264226,1,0,0:0:0:0:
182,192,264301,1,0,0:0:0:0:
329,192,264301,1,0,0:0:0:0:
109,192,264376,1,0,0:0:0:0:
475,192,264376,1,0,0:0:0:0:
402,192,264376,1,0,0:0:0:0:
36,192,264376,1,0,0:0:0:0:
256,192,264376,1,0,0:0:0:0:
182,192,264451,1,0,0:0:0:0:
329,192,264451,1,0,0:0:0:0:
256,192,264526,1,0,0:0:0:0:
109,192,264526,1,0,0:0:0:0:
36,192,264526,1,0,0:0:0:0:
475,192,264601,1,0,0:0:0:0:
402,192,264601,1,0,0:0:0:0:
329,192,264676,1,0,0:0:0:0:
182,192,264676,1,0,0:0:0:0:
256,192,264751,1,0,0:0:0:0:
36,192,264751,1,0,0:0:0:0:
109,192,264751,1,0,0:0:0:0:
182,192,264826,1,0,0:0:0:0:
475,192,264826,1,0,0:0:0:0:
329,192,264901,1,0,0:0:0:0:
109,192,264901,1,0,0:0:0:0:
36,192,264976,1,0,0:0:0:0:
256,192,264976,1,0,0:0:0:0:
402,192,264976,1,0,0:0:0:0:
475,192,265051,1,0,0:0:0:0:
182,192,265051,1,0,0:0:0:0:
109,192,265126,1,0,0:0:0:0:
36,192,265126,1,0,0:0:0:0:
256,192,265201,1,0,0:0:0:0:
329,192,265201,1,0,0:0:0:0:
475,192,265201,1,0,0:0:0:0:
402,192,265276,1,0,0:0:0:0:
109,192,265276,1,0,0:0:0:0:
36,192,265351,1,0,0:0:0:0:
329,192,265351,1,0,0:0:0:0:
402,192,265426,1,0,0:0:0:0:
256,192,265426,1,0,0:0:0:0:
182,192,265426,1,0,0:0:0:0:
475,192,265501,1,0,0:0:0:0:
109,192,265501,1,0,0:0:0:0:
329,192,265576,1,0,0:0:0:0:
182,192,265576,1,0,0:0:0:0:
36,192,265576,1,0,0:0:0:0:
256,192,265651,1,0,0:0:0:0:
475,192,265651,1,0,0:0:0:0:
402,192,265726,1,0,0:0:0:0:
329,192,265726,1,0,0:0:0:0:
182,192,265726,1,0,0:0:0:0:
109,192,265801,1,0,0:0:0:0:
36,192,265801,1,0,0:0:0:0:
402,192,265876,1,0,0:0:0:0:
475,192,265876,1,0,0:0:0:0:
256,192,265951,1,0,0:0:0:0:
182,192,265951,1,0,0:0:0:0:
329,192,265951,1,0,0:0:0:0:
109,192,266026,1,0,0:0:0:0:
402,192,266026,1,0,0:0:0:0:
329,192,266101,1,0,0:0:0:0:
182,192,266101,1,0,0:0:0:0:
36,192,266176,1,0,0:0:0:0:
109,192,266176,1,0,0:0:0:0:
475,192,266176,1,0,0:0:0:0:
402,192,266251,1,0,0:0:0:0:
256,192,266251,1,0,0:0:0:0:
182,192,266326,1,0,0:0:0:0:
36,192,266326,1,0,0:0:0:0:
402,192,266401,1,0,0:0:0:0:
475,192,266401,1,0,0:0:0:0:
256,192,266401,1,0,0:0:0:0:
109,192,266476,1,0,0:0:0:0:
329,192,266476,1,0,0:0:0:0:
182,192,266551,1,0,0:0:0:0:
475,192,266551,1,0,0:0:0:0:
256,192,266626,1,0,0:0:0:0:
329,192,266626,1,0,0:0:0:0:
109,192,266626,1,0,0:0:0:0:
36,192,266701,1,0,0:0:0:0:
402,192,266701,1,0,0:0:0:0:
475,192,266776,1,0,0:0:0:0:
109,192,266776,1,0,0:0:0:0:
182,192,266776,1,0,0:0:0:0:
329,192,266776,1,0,0:0:0:0:
256,192,266776,1,0,0:0:0:0:
402,192,266851,1,0,0:0:0:0:
36,192,266851,1,0,0:0:0:0:
182,192,266926,1,0,0:0:0:0:
475,192,266926,1,0,0:0:0:0:
256,192,266926,1,0,0:0:0:0:
329,192,267001,1,0,0:0:0:0:
109,192,267001,1,0,0:0:0:0:
402,192,267076,1,0,0:0:0:0:
36,192,267076,1,0,0:0:0:0:
256,192,267076,1,0,0:0:0:0:
329,192,267151,1,0,0:0:0:0:
109,192,267151,1,0,0:0:0:0:
475,192,267151,1,0,0:0:0:0:
182,192,267226,1,0,0:0:0:0:
402,192,267226,1,0,0:0:0:0:
475,192,267301,1,0,0:0:0:0:
256,192,267301,1,0,0:0:0:0:
402,192,267376,1,0,0:0:0:0:
36,192,267376,1,0,0:0:0:0:
182,192,267376,1,0,0:0:0:0:
109,192,267451,1,0,0:0:0:0:
329,192,267451,1,0,0:0:0:0:
182,192,267526,1,0,0:0:0:0:
475,192,267526,1,0,0:0:0:0:
329,192,267601,1,0,0:0:0:0:
402,192,267601,1,0,0:0:0:0:
36,192,267601,1,0,0:0:0:0:
109,192,267676,1,0,0:0:0:0:
475,192,267676,1,0,0:0:0:0:
256,192,267676,1,0,0:0:0:0:
402,192,267751,1,0,0:0:0:0:
182,192,267751,1,0,0:0:0:0:
109,192,267826,1,0,0:0:0:0:
329,192,267826,1,0,0:0:0:0:
36,192,267826,1,0,0:0:0:0:
256,192,267901,1,0,0:0:0:0:
475,192,267901,1,0,0:0:0:0:
36,192,267976,1,0,0:0:0:0:
182,192,267976,1,0,0:0:0:0:
109,192,267976,1,0,0:0:0:0:
402,192,267976,1,0,0:0:0:0:
329,192,267976,1,0,0:0:0:0:
256,192,268051,1,0,0:0:0:0:
475,192,268051,1,0,0:0:0:0:
329,192,268126,1,0,0:0:0:0:
182,192,268126,1,0,0:0:0:0:
109,192,268126,1,0,0:0:0:0:
36,192,268201,1,0,0:0:0:0:
402,192,268201,1,0,0:0:0:0:
109,192,268276,1,0,0:0:0:0:
475,192,268276,1,0,0:0:0:0:
256,192,268276,1,0,0:0:0:0:
329,192,268351,1,0,0:0:0:0:
402,192,268351,1,0,0:0:0:0:
182,192,268351,1,0,0:0:0:0:
256,192,268426,1,0,0:0:0:0:
109,192,268426,1,0,0:0:0:0:
36,192,268501,1,0,0:0:0:0:
329,192,268501,1,0,0:0:0:0:
402,192,268576,1,0,0:0:0:0:
475,192,268576,1,0,0:0:0:0:
182,192,268576,1,0,0:0:0:0:
256,192,268651,1,0,0:0:0:0:
36,192,268651,1,0,0:0:0:0:
329,192,268726,1,0,0:0:0:0:
109,192,268726,1,0,0:0:0:0:
256,192,268801,1,0,0:0:0:0:
182,192,268801,1,0,0:0:0:0:
475,192,268801,1,0,0:0:0:0:
402,192,268876,1,0,0:0:0:0:
36,192,268876,1,0,0:0:0:0:
109,192,268876,1,0,0:0:0:0:
329,192,268951,1,0,0:0:0:0:
256,192,268951,1,0,0:0:0:0:
109,192,269026,1,0,0:0:0:0:
182,192,269026,1,0,0:0:0:0:
475,192,269026,1,0,0:0:0:0:
329,192,269101,1,0,0:0:0:0:
36,192,269101,1,0,0:0:0:0:
475,192,269176,1,0,0:0:0:0:
402,192,269176,1,0,0:0:0:0:
256,192,269176,1,0,0:0:0:0:
109,192,269176,1,0,0:0:0:0:
182,192,269176,1,0,0:0:0:0:
329,192,269251,1,0,0:0:0:0:
36,192,269251,1,0,0:0:0:0:
475,192,269326,1,0,0:0:0:0:
402,192,269326,1,0,0:0:0:0:
256,192,269326,1,0,0:0:0:0:
182,192,269401,1,0,0:0:0:0:
109,192,269401,1,0,0:0:0:0:
36,192,269476,1,0,0:0:0:0:
329,192,269476,1,0,0:0:0:0:
402,192,269551,1,0,0:0:0:0:
475,192,269551,1,0,0:0:0:0:
256,192,269551,1,0,0:0:0:0:
329,192,269626,1,0,0:0:0:0:
182,192,269626,1,0,0:0:0:0:
109,192,269701,1,0,0:0:0:0:
36,192,269701,1,0,0:0:0:0:
182,192,269776,1,0,0:0:0:0:
256,192,269776,1,0,0:0:0:0:
329,192,269776,1,0,0:0:0:0:
402,192,269776,1,0,0:0:0:0:
475,192,269776,1,0,0:0:0:0:
109,192,269851,1,0,0:0:0:0:
36,192,269851,1,0,0:0:0:0:
329,192,269926,1,0,0:0:0:0:
402,192,269926,1,0,0:0:0:0:
475,192,269926,1,0,0:0:0:0:
109,192,270001,1,0,0:0:0:0:
182,192,270001,1,0,0:0:0:0:
475,192,270076,1,0,0:0:0:0:
36,192,270076,1,0,0:0:0:0:
256,192,270076,1,0,0:0:0:0:
182,192,270151,1,0,0:0:0:0:
402,192,270151,1,0,0:0:0:0:
36,192,270226,1,0,0:0:0:0:
109,192,270226,1,0,0:0:0:0:
329,192,270226,1,0,0:0:0:0:
402,192,270301,1,0,0:0:0:0:
475,192,270301,1,0,0:0:0:0:
329,192,270376,1,0,0:0:0:0:
256,192,270376,1,0,0:0:0:0:
182,192,270376,1,0,0:0:0:0:
109,192,270376,1,0,0:0:0:0:
36,192,270376,1,0,0:0:0:0:
402,192,270451,1,0,0:0:0:0:
475,192,270451,1,0,0:0:0:0:
182,192,270526,1,0,0:0:0:0:
109,192,270526,1,0,0:0:0:0:
36,192,270526,1,0,0:0:0:0:
329,192,270601,1,0,0:0:0:0:
402,192,270601,1,0,0:0:0:0:
475,192,270601,1,0,0:0:0:0:
256,192,270676,1,0,0:0:0:0:
182,192,270676,1,0,0:0:0:0:
329,192,270751,1,0,0:0:0:0:
402,192,270751,1,0,0:0:0:0:
475,192,270751,1,0,0:0:0:0:
182,192,270826,1,0,0:0:0:0:
109,192,270826,1,0,0:0:0:0:
36,192,270826,1,0,0:0:0:0:
329,192,270901,1,0,0:0:0:0:
256,192,270901,1,0,0:0:0:0:
402,192,270976,1,0,0:0:0:0:
475,192,270976,1,0,0:0:0:0:
182,192,271051,1,0,0:0:0:0:
109,192,271051,1,0,0:0:0:0:
402,192,271126,1,0,0:0:0:0:
329,192,271126,1,0,0:0:0:0:
109,192,271201,1,0,0:0:0:0:
36,192,271201,1,0,0:0:0:0:
256,192,271276,1,0,0:0:0:0:
329,192,271276,1,0,0:0:0:0:
182,192,271351,1,0,0:0:0:0:
109,192,271351,1,0,0:0:0:0:
402,192,271426,1,0,0:0:0:0:
329,192,271426,1,0,0:0:0:0:
256,192,271501,1,0,0:0:0:0:
182,192,271501,1,0,0:0:0:0:
475,192,271576,1,0,0:0:0:0:
402,192,271576,1,0,0:0:0:0:
109,192,271576,1,0,0:0:0:0:
36,192,271576,1,0,0:0:0:0:
329,192,271576,1,0,0:0:0:0:
256,192,271651,1,0,0:0:0:0:
182,192,271651,1,0,0:0:0:0:
475,192,271726,1,0,0:0:0:0:
402,192,271726,1,0,0:0:0:0:
109,192,271726,1,0,0:0:0:0:
256,192,271801,1,0,0:0:0:0:
329,192,271801,1,0,0:0:0:0:
475,192,271876,1,0,0:0:0:0:
182,192,271876,1,0,0:0:0:0:
36,192,271876,1,0,0:0:0:0:
109,192,271876,1,0,0:0:0:0:
402,192,271876,1,0,0:0:0:0:
329,192,271951,1,0,0:0:0:0:
256,192,271951,1,0,0:0:0:0:
402,192,272026,1,0,0:0:0:0:
109,192,272026,1,0,0:0:0:0:
36,192,272026,1,0,0:0:0:0:
182,192,272101,1,0,0:0:0:0:
256,192,272101,1,0,0:0:0:0:
475,192,272101,1,0,0:0:0:0:
36,192,272176,1,0,0:0:0:0:
329,192,272176,1,0,0:0:0:0:
402,192,272176,1,0,0:0:0:0:
256,192,272251,1,0,0:0:0:0:
475,192,272251,1,0,0:0:0:0:
182,192,272326,1,0,0:0:0:0:
109,192,272326,1,0,0:0:0:0:
402,192,272326,1,0,0:0:0:0:
36,192,272401,1,0,0:0:0:0:
329,192,272401,1,0,0:0:0:0:
402,192,272476,1,0,0:0:0:0:
256,192,272476,1,0,0:0:0:0:
475,192,272476,1,0,0:0:0:0:
182,192,272476,1,0,0:0:0:0:
109,192,272476,1,0,0:0:0:0:
329,192,272551,1,0,0:0:0:0:
36,192,272551,1,0,0:0:0:0:
182,192,272626,1,0,0:0:0:0:
256,192,272626,1,0,0:0:0:0:
475,192,272626,1,0,0:0:0:0:
402,192,272626,1,0,0:0:0:0:
36,192,272701,1,0,0:0:0:0:
109,192,272701,1,0,0:0:0:0:
329,192,272776,1,0,0:0:0:0:
256,192,272776,1,0,0:0:0:0:
402,192,272776,1,0,0:0:0:0:
475,192,272851,1,0,0:0:0:0:
182,192,272851,1,0,0:0:0:0:
109,192,272926,1,0,0:0:0:0:
402,192,272926,1,0,0:0:0:0:
36,192,272926,1,0,0:0:0:0:
329,192,273001,1,0,0:0:0:0:
182,192,273001,1,0,0:0:0:0:
475,192,273076,1,0,0:0:0:0:
109,192,273076,1,0,0:0:0:0:
256,192,273076,1,0,0:0:0:0:
36,192,273076,1,0,0:0:0:0:
402,192,273076,1,0,0:0:0:0:
182,192,273151,1,0,0:0:0:0:
329,192,273151,1,0,0:0:0:0:
256,192,273226,1,0,0:0:0:0:
36,192,273226,1,0,0:0:0:0:
475,192,273226,1,0,0:0:0:0:
109,192,273301,1,0,0:0:0:0:
329,192,273301,1,0,0:0:0:0:
256,192,273376,1,0,0:0:0:0:
182,192,273376,1,0,0:0:0:0:
402,192,273376,1,0,0:0:0:0:
475,192,273451,1,0,0:0:0:0:
36,192,273451,1,0,0:0:0:0:
109,192,273526,1,0,0:0:0:0:
256,192,273526,1,0,0:0:0:0:
402,192,273526,1,0,0:0:0:0:
182,192,273601,1,0,0:0:0:0:
329,192,273601,1,0,0:0:0:0:
402,192,273676,1,0,0:0:0:0:
256,192,273676,1,0,0:0:0:0:
475,192,273676,1,0,0:0:0:0:
36,192,273676,1,0,0:0:0:0:
109,192,273676,1,0,0:0:0:0:
182,192,273751,1,0,0:0:0:0:
402,192,273826,1,0,0:0:0:0:
475,192,273826,1,0,0:0:0:0:
329,192,273826,1,0,0:0:0:0:
36,192,273826,1,0,0:0:0:0:
256,192,273901,1,0,0:0:0:0:
109,192,273901,1,0,0:0:0:0:
402,192,273976,1,0,0:0:0:0:
182,192,273976,1,0,0:0:0:0:
329,192,273976,1,0,0:0:0:0:
36,192,273976,1,0,0:0:0:0:
256,192,274051,1,0,0:0:0:0:
475,192,274051,1,0,0:0:0:0:
402,192,274126,1,0,0:0:0:0:
109,192,274126,1,0,0:0:0:0:
182,192,274126,1,0,0:0:0:0:
329,192,274201,1,0,0:0:0:0:
256,192,274201,1,0,0:0:0:0:
475,192,274276,1,0,0:0:0:0:
402,192,274276,1,0,0:0:0:0:
36,192,274276,1,0,0:0:0:0:
109,192,274276,1,0,0:0:0:0:
182,192,274276,1,0,0:0:0:0:
256,192,274351,1,0,0:0:0:0:
329,192,274426,1,0,0:0:0:0:
36,192,274426,1,0,0:0:0:0:
475,192,274426,1,0,0:0:0:0:
182,192,274426,1,0,0:0:0:0:
109,192,274501,1,0,0:0:0:0:
256,192,274501,1,0,0:0:0:0:
182,192,274576,1,0,0:0:0:0:
402,192,274576,1,0,0:0:0:0:
475,192,274576,1,0,0:0:0:0:
329,192,274651,1,0,0:0:0:0:
109,192,274651,1,0,0:0:0:0:
256,192,274726,1,0,0:0:0:0:
36,192,274726,1,0,0:0:0:0:
182,192,274726,1,0,0:0:0:0:
402,192,274801,1,0,0:0:0:0:
329,192,274801,1,0,0:0:0:0:
109,192,274876,1,0,0:0:0:0:
36,192,274876,1,0,0:0:0:0:
256,192,274876,1,0,0:0:0:0:
475,192,274876,1,0,0:0:0:0:
182,192,274876,1,0,0:0:0:0:
329,192,274951,1,0,0:0:0:0:
402,192,275026,1,0,0:0:0:0:
109,192,275026,1,0,0:0:0:0:
475,192,275026,1,0,0:0:0:0:
256,192,275026,1,0,0:0:0:0:
329,192,275101,1,0,0:0:0:0:
182,192,275101,1,0,0:0:0:0:
36,192,275176,1,0,0:0:0:0:
402,192,275176,1,0,0:0:0:0:
109,192,275176,1,0,0:0:0:0:
256,192,275251,1,0,0:0:0:0:
329,192,275326,1,0,0:0:0:0:
109,192,275326,1,0,0:0:0:0:
182,192,275326,1,0,0:0:0:0:
256,192,275401,1,0,0:0:0:0:
475,192,275401,1,0,0:0:0:0:
402,192,275476,1,0,0:0:0:0:
329,192,275476,1,0,0:0:0:0:
109,192,275476,1,0,0:0:0:0:
36,192,275476,1,0,0:0:0:0:
182,192,275476,1,0,0:0:0:0:
475,192,275551,1,0,0:0:0:0:
329,192,275626,1,0,0:0:0:0:
256,192,275626,1,0,0:0:0:0:
402,192,275626,1,0,0:0:0:0:
36,192,275701,1,0,0:0:0:0:
182,192,275701,1,0,0:0:0:0:
109,192,275776,1,0,0:0:0:0:
475,192,275776,1,0,0:0:0:0:
256,192,275776,1,0,0:0:0:0:
329,192,275851,1,0,0:0:0:0:
36,192,275851,1,0,0:0:0:0:
256,192,275926,1,0,0:0:0:0:
402,192,275926,1,0,0:0:0:0:
475,192,275926,1,0,0:0:0:0:
182,192,276001,1,0,0:0:0:0:
109,192,276001,1,0,0:0:0:0:
36,192,276076,1,0,0:0:0:0:
329,192,276076,1,0,0:0:0:0:
402,192,276076,1,0,0:0:0:0:
475,192,276076,1,0,0:0:0:0:
256,192,276076,1,0,0:0:0:0:
182,192,276151,1,0,0:0:0:0:
256,192,276226,1,0,0:0:0:0:
109,192,276226,1,0,0:0:0:0:
36,192,276226,1,0,0:0:0:0:
402,192,276301,1,0,0:0:0:0:
329,192,276301,1,0,0:0:0:0:
475,192,276301,1,0,0:0:0:0:
182,192,276376,1,0,0:0:0:0:
256,192,276376,1,0,0:0:0:0:
36,192,276376,1,0,0:0:0:0:
109,192,276451,1,0,0:0:0:0:
329,192,276451,1,0,0:0:0:0:
182,192,276526,1,0,0:0:0:0:
402,192,276526,1,0,0:0:0:0:
475,192,276526,1,0,0:0:0:0:
329,192,276601,1,0,0:0:0:0:
36,192,276601,1,0,0:0:0:0:
256,192,276676,1,0,0:0:0:0:
182,192,276676,1,0,0:0:0:0:
109,192,276676,1,0,0:0:0:0:
475,192,276676,1,0,0:0:0:0:
402,192,276676,1,0,0:0:0:0:
329,192,276751,1,0,0:0:0:0:
36,192,276751,1,0,0:0:0:0:
256,192,276826,1,0,0:0:0:0:
402,192,276826,1,0,0:0:0:0:
109,192,276826,1,0,0:0:0:0:
182,192,276901,1,0,0:0:0:0:
475,192,276901,1,0,0:0:0:0:
402,192,276976,1,0,0:0:0:0:
256,192,276976,1,0,0:0:0:0:
36,192,276976,1,0,0:0:0:0:
329,192,277051,1,0,0:0:0:0:
182,192,277051,1,0,0:0:0:0:
256,192,277126,1,0,0:0:0:0:
109,192,277126,1,0,0:0:0:0:
475,192,277126,1,0,0:0:0:0:
329,192,277201,1,0,0:0:0:0:
182,192,277201,1,0,0:0:0:0:
402,192,277276,1,0,0:0:0:0:
36,192,277276,1,0,0:0:0:0:
256,192,277276,1,0,0:0:0:0:
475,192,277276,1,0,0:0:0:0:
109,192,277276,1,0,0:0:0:0:
182,192,277351,1,0,0:0:0:0:
109,192,277426,1,0,0:0:0:0:
329,192,277426,1,0,0:0:0:0:
402,192,277426,1,0,0:0:0:0:
475,192,277426,1,0,0:0:0:0:
36,192,277501,1,0,0:0:0:0:
256,192,277501,1,0,0:0:0:0:
475,192,277576,1,0,0:0:0:0:
329,192,277576,1,0,0:0:0:0:
182,192,277576,1,0,0:0:0:0:
402,192,277576,1,0,0:0:0:0:
109,192,277651,1,0,0:0:0:0:
256,192,277651,1,0,0:0:0:0:
182,192,277726,1,0,0:0:0:0:
36,192,277726,1,0,0:0:0:0:
475,192,277726,1,0,0:0:0:0:
402,192,277801,1,0,0:0:0:0:
256,192,277801,1,0,0:0:0:0:
182,192,277876,1,0,0:0:0:0:
109,192,277876,1,0,0:0:0:0:
475,192,277876,1,0,0:0:0:0:
36,192,277876,1,0,0:0:0:0:
329,192,277876,1,0,0:0:0:0:
402,192,277951,1,0,0:0:0:0:
256,192,277951,1,0,0:0:0:0:
109,192,278026,1,0,0:0:0:0:
182,192,278026,1,0,0:0:0:0:
329,192,278026,1,0,0:0:0:0:
36,192,278101,1,0,0:0:0:0:
256,192,278101,1,0,0:0:0:0:
329,192,278176,1,0,0:0:0:0:
182,192,278176,1,0,0:0:0:0:
109,192,278176,1,0,0:0:0:0:
256,192,278251,1,0,0:0:0:0:
475,192,278251,1,0,0:0:0:0:
402,192,278326,1,0,0:0:0:0:
36,192,278326,1,0,0:0:0:0:
329,192,278326,1,0,0:0:0:0:
475,192,278401,1,0,0:0:0:0:
182,192,278401,1,0,0:0:0:0:
109,192,278476,1,0,0:0:0:0:
256,192,278476,1,0,0:0:0:0:
36,192,278476,1,0,0:0:0:0:
402,192,278476,1,0,0:0:0:0:
329,192,278476,1,0,0:0:0:0:
475,192,278551,1,0,0:0:0:0:
36,192,278626,1,0,0:0:0:0:
182,192,278626,1,0,0:0:0:0:
109,192,278626,1,0,0:0:0:0:
402,192,278626,1,0,0:0:0:0:
256,192,278701,1,0,0:0:0:0:
329,192,278701,1,0,0:0:0:0:
402,192,278776,1,0,0:0:0:0:
182,192,278776,1,0,0:0:0:0:
109,192,278776,1,0,0:0:0:0:
475,192,278776,1,0,0:0:0:0:
256,192,278851,1,0,0:0:0:0:
329,192,278926,1,0,0:0:0:0:
182,192,278926,1,0,0:0:0:0:
402,192,278926,1,0,0:0:0:0:
475,192,279001,1,0,0:0:0:0:
36,192,279001,1,0,0:0:0:0:
329,192,279076,1,0,0:0:0:0:
256,192,279076,1,0,0:0:0:0:
109,192,279076,1,0,0:0:0:0:
182,192,279076,1,0,0:0:0:0:
402,192,279076,1,0,0:0:0:0:
36,192,279151,1,0,0:0:0:0:
475,192,279151,1,0,0:0:0:0:
402,192,279226,1,0,0:0:0:0:
256,192,279226,1,0,0:0:0:0:
329,192,279226,1,0,0:0:0:0:
182,192,279226,1,0,0:0:0:0:
36,192,279301,1,0,0:0:0:0:
109,192,279301,1,0,0:0:0:0:
329,192,279376,1,0,0:0:0:0:
475,192,279376,1,0,0:0:0:0:
256,192,279376,1,0,0:0:0:0:
402,192,279451,1,0,0:0:0:0:
182,192,279451,1,0,0:0:0:0:
109,192,279526,1,0,0:0:0:0:
329,192,279526,1,0,0:0:0:0:
36,192,279526,1,0,0:0:0:0:
475,192,279601,1,0,0:0:0:0:
182,192,279601,1,0,0:0:0:0:
36,192,279676,1,0,0:0:0:0:
256,192,279676,1,0,0:0:0:0:
109,192,279676,1,0,0:0:0:0:
402,192,279676,1,0,0:0:0:0:
329,192,279676,1,0,0:0:0:0:
475,192,279751,1,0,0:0:0:0:
182,192,279751,1,0,0:0:0:0:
256,192,279826,1,0,0:0:0:0:
329,192,279826,1,0,0:0:0:0:
109,192,279901,1,0,0:0:0:0:
36,192,279901,1,0,0:0:0:0:
402,192,279976,1,0,0:0:0:0:
182,192,279976,1,0,0:0:0:0:
256,192,279976,1,0,0:0:0:0:
475,192,280051,1,0,0:0:0:0:
109,192,280051,1,0,0:0:0:0:
329,192,280126,1,0,0:0:0:0:
402,192,280126,1,0,0:0:0:0:
182,192,280201,1,0,0:0:0:0:
36,192,280201,1,0,0:0:0:0:
256,192,280276,1,0,0:0:0:0:
329,192,280276,1,0,0:0:0:0:
475,192,280276,1,0,0:0:0:0:
402,192,280351,1,0,0:0:0:0:
36,192,280351,1,0,0:0:0:0:
182,192,280426,1,0,0:0:0:0:
109,192,280426,1,0,0:0:0:0:
329,192,280501,1,0,0:0:0:0:
475,192,280501,1,0,0:0:0:0:
182,192,280576,1,0,0:0:0:0:
256,192,280576,1,0,0:0:0:0:
36,192,280576,1,0,0:0:0:0:
109,192,280651,1,0,0:0:0:0:
475,192,280651,1,0,0:0:0:0:
329,192,280726,1,0,0:0:0:0:
402,192,280726,1,0,0:0:0:0:
36,192,280801,1,0,0:0:0:0:
182,192,280801,1,0,0:0:0:0:
256,192,280876,1,0,0:0:0:0:
475,192,280876,1,0,0:0:0:0:
329,192,280876,1,0,0:0:0:0:
402,192,280951,1,0,0:0:0:0:
36,192,280951,1,0,0:0:0:0:
182,192,281026,1,0,0:0:0:0:
109,192,281026,1,0,0:0:0:0:
402,192,281101,1,0,0:0:0:0:
329,192,281101,1,0,0:0:0:0:
475,192,281176,1,0,0:0:0:0:
256,192,281176,1,0,0:0:0:0:
182,192,281176,1,0,0:0:0:0:
36,192,281176,1,0,0:0:0:0:
109,192,281176,1,0,0:0:0:0:
329,192,281251,1,0,0:0:0:0:
402,192,281251,1,0,0:0:0:0:
475,192,281326,1,0,0:0:0:0:
36,192,281326,1,0,0:0:0:0:
256,192,281326,1,0,0:0:0:0:
182,192,281401,1,0,0:0:0:0:
109,192,281401,1,0,0:0:0:0:
329,192,281476,1,0,0:0:0:0:
402,192,281476,1,0,0:0:0:0:
256,192,281476,1,0,0:0:0:0:
475,192,281476,1,0,0:0:0:0:
36,192,281476,1,0,0:0:0:0:
182,192,281551,1,0,0:0:0:0:
109,192,281551,1,0,0:0:0:0:
329,192,281626,1,0,0:0:0:0:
256,192,281626,1,0,0:0:0:0:
402,192,281626,1,0,0:0:0:0:
475,192,281701,1,0,0:0:0:0:
182,192,281701,1,0,0:0:0:0:
36,192,281776,1,0,0:0:0:0:
402,192,281776,1,0,0:0:0:0:
109,192,281776,1,0,0:0:0:0:
329,192,281851,1,0,0:0:0:0:
182,192,281851,1,0,0:0:0:0:
256,192,281926,1,0,0:0:0:0:
475,192,281926,1,0,0:0:0:0:
36,192,281926,1,0,0:0:0:0:
329,192,282001,1,0,0:0:0:0:
109,192,282001,1,0,0:0:0:0:
402,192,282076,1,0,0:0:0:0:
36,192,282076,1,0,0:0:0:0:
182,192,282076,1,0,0:0:0:0:
475,192,282076,1,0,0:0:0:0:
256,192,282076,1,0,0:0:0:0:
109,192,282151,1,0,0:0:0:0:
329,192,282151,1,0,0:0:0:0:
182,192,282226,1,0,0:0:0:0:
402,192,282226,1,0,0:0:0:0:
475,192,282226,1,0,0:0:0:0:
36,192,282226,1,0,0:0:0:0:
329,192,282301,1,0,0:0:0:0:
256,192,282301,1,0,0:0:0:0:
109,192,282376,1,0,0:0:0:0:
402,192,282376,1,0,0:0:0:0:
182,192,282376,1,0,0:0:0:0:
36,192,282451,1,0,0:0:0:0:
329,192,282451,1,0,0:0:0:0:
475,192,282526,1,0,0:0:0:0:
256,192,282526,1,0,0:0:0:0:
109,192,282526,1,0,0:0:0:0:
182,192,282601,1,0,0:0:0:0:
402,192,282601,1,0,0:0:0:0:
256,192,282676,1,0,0:0:0:0:
109,192,282676,1,0,0:0:0:0:
475,192,282676,1,0,0:0:0:0:
36,192,282676,1,0,0:0:0:0:
329,192,282676,1,0,0:0:0:0:
182,192,282751,1,0,0:0:0:0:
402,192,282751,1,0,0:0:0:0:
256,192,282826,1,0,0:0:0:0:
329,192,282826,1,0,0:0:0:0:
109,192,282826,1,0,0:0:0:0:
402,192,282901,1,0,0:0:0:0:
182,192,282901,1,0,0:0:0:0:
256,192,282976,1,0,0:0:0:0:
36,192,282976,1,0,0:0:0:0:
475,192,282976,1,0,0:0:0:0:
109,192,283051,1,0,0:0:0:0:
329,192,283051,1,0,0:0:0:0:
256,192,283126,1,0,0:0:0:0:
475,192,283126,1,0,0:0:0:0:
182,192,283126,1,0,0:0:0:0:
36,192,283201,1,0,0:0:0:0:
402,192,283201,1,0,0:0:0:0:
182,192,283276,1,0,0:0:0:0:
256,192,283276,1,0,0:0:0:0:
329,192,283276,1,0,0:0:0:0:
109,192,283276,1,0,0:0:0:0:
475,192,283276,1,0,0:0:0:0:
402,192,283351,1,0,0:0:0:0:
182,192,283426,1,0,0:0:0:0:
109,192,283426,1,0,0:0:0:0:
36,192,283426,1,0,0:0:0:0:
329,192,283426,1,0,0:0:0:0:
402,192,283501,1,0,0:0:0:0:
256,192,283501,1,0,0:0:0:0:
182,192,283576,1,0,0:0:0:0:
36,192,283576,1,0,0:0:0:0:
475,192,283576,1,0,0:0:0:0:
329,192,283576,1,0,0:0:0:0:
109,192,283651,1,0,0:0:0:0:
256,192,283651,1,0,0:0:0:0:
182,192,283726,1,0,0:0:0:0:
402,192,283726,1,0,0:0:0:0:
475,192,283726,1,0,0:0:0:0:
256,192,283801,1,0,0:0:0:0:
329,192,283801,1,0,0:0:0:0:
109,192,283876,1,0,0:0:0:0:
36,192,283876,1,0,0:0:0:0:
475,192,283876,1,0,0:0:0:0:
182,192,283876,1,0,0:0:0:0:
402,192,283876,1,0,0:0:0:0:
256,192,283951,1,0,0:0:0:0:
329,192,283951,1,0,0:0:0:0:
182,192,284026,1,0,0:0:0:0:
36,192,284026,1,0,0:0:0:0:
402,192,284026,1,0,0:0:0:0:
109,192,284101,1,0,0:0:0:0:
256,192,284101,1,0,0:0:0:0:
475,192,284176,1,0,0:0:0:0:
36,192,284176,1,0,0:0:0:0:
329,192,284176,1,0,0:0:0:0:
402,192,284251,1,0,0:0:0:0:
256,192,284251,1,0,0:0:0:0:
329,192,284326,1,0,0:0:0:0:
109,192,284326,1,0,0:0:0:0:
182,192,284326,1,0,0:0:0:0:
475,192,284401,1,0,0:0:0:0:
256,192,284401,1,0,0:0:0:0:
109,192,284476,1,0,0:0:0:0:
182,192,284476,1,0,0:0:0:0:
329,192,284476,1,0,0:0:0:0:
36,192,284476,1,0,0:0:0:0:
402,192,284476,1,0,0:0:0:0:
256,192,284551,1,0,0:0:0:0:
475,192,284551,1,0,0:0:0:0:
329,192,284626,1,0,0:0:0:0:
402,192,284626,1,0,0:0:0:0:
36,192,284626,1,0,0:0:0:0:
109,192,284626,1,0,0:0:0:0:
182,192,284701,1,0,0:0:0:0:
475,192,284701,1,0,0:0:0:0:
402,192,284776,1,0,0:0:0:0:
36,192,284776,1,0,0:0:0:0:
109,192,284776,1,0,0:0:0:0:
256,192,284851,1,0,0:0:0:0:
329,192,284851,1,0,0:0:0:0:
475,192,284926,1,0,0:0:0:0:
402,192,284926,1,0,0:0:0:0:
182,192,284926,1,0,0:0:0:0:
256,192,285001,1,0,0:0:0:0:
109,192,285001,1,0,0:0:0:0:
329,192,285076,1,0,0:0:0:0:
36,192,285076,1,0,0:0:0:0:
182,192,285076,1,0,0:0:0:0:
475,192,285076,1,0,0:0:0:0:
402,192,285076,1,0,0:0:0:0:
256,192,285151,1,0,0:0:0:0:
109,192,285151,1,0,0:0:0:0:
182,192,285226,1,0,0:0:0:0:
329,192,285226,1,0,0:0:0:0:
402,192,285226,1,0,0:0:0:0:
36,192,285301,1,0,0:0:0:0:
256,192,285301,1,0,0:0:0:0:
475,192,285376,1,0,0:0:0:0:
329,192,285376,1,0,0:0:0:0:
182,192,285376,1,0,0:0:0:0:
256,192,285451,1,0,0:0:0:0:
402,192,285451,1,0,0:0:0:0:
109,192,285526,1,0,0:0:0:0:
182,192,285526,1,0,0:0:0:0:
36,192,285526,1,0,0:0:0:0:
402,192,285601,1,0,0:0:0:0:
329,192,285601,1,0,0:0:0:0:
475,192,285676,1,0,0:0:0:0:
36,192,285676,1,0,0:0:0:0:
109,192,285676,1,0,0:0:0:0:
182,192,285676,1,0,0:0:0:0:
256,192,285676,1,0,0:0:0:0:
329,192,285751,1,0,0:0:0:0:
36,192,285826,1,0,0:0:0:0:
475,192,285826,1,0,0:0:0:0:
109,192,285826,1,0,0:0:0:0:
402,192,285901,1,0,0:0:0:0:
182,192,285901,1,0,0:0:0:0:
256,192,285976,1,0,0:0:0:0:
109,192,285976,1,0,0:0:0:0:
329,192,285976,1,0,0:0:0:0:
475,192,285976,1,0,0:0:0:0:
36,192,285976,1,0,0:0:0:0:
182,192,286051,1,0,0:0:0:0:
402,192,286051,1,0,0:0:0:0:
109,192,286126,1,0,0:0:0:0:
256,192,286126,1,0,0:0:0:0:
329,192,286126,1,0,0:0:0:0:
36,192,286201,1,0,0:0:0:0:
475,192,286201,1,0,0:0:0:0:
329,192,286276,1,0,0:0:0:0:
256,192,286276,1,0,0:0:0:0:
182,192,286276,1,0,0:0:0:0:
109,192,286276,1,0,0:0:0:0:
402,192,286276,1,0,0:0:0:0:
36,192,286351,1,0,0:0:0:0:
475,192,286351,1,0,0:0:0:0:
182,192,286426,1,0,0:0:0:0:
402,192,286426,1,0,0:0:0:0:
329,192,286426,1,0,0:0:0:0:
256,192,286426,1,0,0:0:0:0:
475,192,286501,1,0,0:0:0:0:
109,192,286501,1,0,0:0:0:0:
402,192,286576,1,0,0:0:0:0:
36,192,286576,1,0,0:0:0:0:
182,192,286576,1,0,0:0:0:0:
329,192,286576,1,0,0:0:0:0:
256,192,286651,1,0,0:0:0:0:
475,192,286651,1,0,0:0:0:0:
329,192,286726,1,0,0:0:0:0:
109,192,286726,1,0,0:0:0:0:
402,192,286726,1,0,0:0:0:0:
36,192,286801,1,0,0:0:0:0:
182,192,286801,1,0,0:0:0:0:
256,192,286876,1,0,0:0:0:0:
329,192,286876,1,0,0:0:0:0:
109,192,286876,1,0,0:0:0:0:
475,192,286876,1,0,0:0:0:0:
402,192,286876,1,0,0:0:0:0:
36,192,286951,1,0,0:0:0:0:
182,192,286951,1,0,0:0:0:0:
329,192,287026,1,0,0:0:0:0:
475,192,287026,1,0,0:0:0:0:
256,192,287026,1,0,0:0:0:0:
402,192,287101,1,0,0:0:0:0:
36,192,287101,1,0,0:0:0:0:
256,192,287176,1,0,0:0:0:0:
182,192,287176,1,0,0:0:0:0:
329,192,287176,1,0,0:0:0:0:
475,192,287176,1,0,0:0:0:0:
109,192,287176,1,0,0:0:0:0:
36,192,287251,1,0,0:0:0:0:
402,192,287251,1,0,0:0:0:0:
182,192,287326,1,0,0:0:0:0:
329,192,287326,1,0,0:0:0:0:
109,192,287326,1,0,0:0:0:0:
256,192,287401,1,0,0:0:0:0:
475,192,287401,1,0,0:0:0:0:
109,192,287476,1,0,0:0:0:0:
36,192,287476,1,0,0:0:0:0:
329,192,287476,1,0,0:0:0:0:
402,192,287476,1,0,0:0:0:0:
182,192,287476,1,0,0:0:0:0:
475,192,287551,1,0,0:0:0:0:
256,192,287551,1,0,0:0:0:0:
36,192,287626,1,0,0:0:0:0:
182,192,287626,1,0,0:0:0:0:
109,192,287626,1,0,0:0:0:0:
475,192,287701,1,0,0:0:0:0:
329,192,287701,1,0,0:0:0:0:
402,192,287776,1,0,0:0:0:0:
182,192,287776,1,0,0:0:0:0:
256,192,287776,1,0,0:0:0:0:
36,192,287776,1,0,0:0:0:0:
475,192,287851,1,0,0:0:0:0:
109,192,287851,1,0,0:0:0:0:
256,192,287926,1,0,0:0:0:0:
329,192,287926,1,0,0:0:0:0:
182,192,287926,1,0,0:0:0:0:
402,192,288001,1,0,0:0:0:0:
36,192,288001,1,0,0:0:0:0:
329,192,288076,1,0,0:0:0:0:
182,192,288076,1,0,0:0:0:0:
256,192,288076,1,0,0:0:0:0:
475,192,288076,1,0,0:0:0:0:
109,192,288076,1,0,0:0:0:0:
402,192,288151,1,0,0:0:0:0:
36,192,288151,1,0,0:0:0:0:
182,192,288226,1,0,0:0:0:0:
475,192,288226,1,0,0:0:0:0:
329,192,288226,1,0,0:0:0:0:
109,192,288226,1,0,0:0:0:0:
36,192,288301,1,0,0:0:0:0:
256,192,288301,1,0,0:0:0:0:
402,192,288376,1,0,0:0:0:0:
329,192,288376,1,0,0:0:0:0:
182,192,288376,1,0,0:0:0:0:
475,192,288376,1,0,0:0:0:0:
109,192,288376,1,0,0:0:0:0:
256,192,288451,1,0,0:0:0:0:
36,192,288451,1,0,0:0:0:0:
402,192,288526,1,0,0:0:0:0:
109,192,288526,1,0,0:0:0:0:
475,192,288526,1,0,0:0:0:0:
182,192,288526,1,0,0:0:0:0:
329,192,288601,1,0,0:0:0:0:
256,192,288601,1,0,0:0:0:0:
36,192,288676,1,0,0:0:0:0:
402,192,288676,1,0,0:0:0:0:
182,192,288676,1,0,0:0:0:0:
109,192,288676,1,0,0:0:0:0:
475,192,288676,1,0,0:0:0:0:
256,192,288751,1,0,0:0:0:0:
329,192,288751,1,0,0:0:0:0:
109,192,288826,1,0,0:0:0:0:
36,192,288826,1,0,0:0:0:0:
475,192,288826,1,0,0:0:0:0:
402,192,288826,1,0,0:0:0:0:
182,192,288901,1,0,0:0:0:0:
256,192,288901,1,0,0:0:0:0:
329,192,288976,1,0,0:0:0:0:
402,192,288976,1,0,0:0:0:0:
475,192,288976,1,0,0:0:0:0:
109,192,288976,1,0,0:0:0:0:
36,192,288976,1,0,0:0:0:0:
182,192,289051,1,0,0:0:0:0:
256,192,289051,1,0,0:0:0:0:
36,192,289126,1,0,0:0:0:0:
475,192,289126,1,0,0:0:0:0:
402,192,289126,1,0,0:0:0:0:
109,192,289126,1,0,0:0:0:0:
182,192,289201,1,0,0:0:0:0:
329,192,289201,1,0,0:0:0:0:
402,192,289276,1,0,0:0:0:0:
256,192,289276,1,0,0:0:0:0:
475,192,289276,1,0,0:0:0:0:
36,192,289276,1,0,0:0:0:0:
329,192,289351,1,0,0:0:0:0:
109,192,289351,1,0,0:0:0:0:
182,192,289426,1,0,0:0:0:0:
402,192,289426,1,0,0:0:0:0:
256,192,289426,1,0,0:0:0:0:
109,192,289501,1,0,0:0:0:0:
329,192,289501,1,0,0:0:0:0:
182,192,289576,1,0,0:0:0:0:
402,192,289576,1,0,0:0:0:0:
36,192,289576,1,0,0:0:0:0:
475,192,289576,1,0,0:0:0:0:
329,192,289651,5,0,0:0:0:0:
109,192,289651,1,0,0:0:0:0:
256,192,289651,1,0,0:0:0:0:
475,192,289726,1,0,0:0:0:0:
182,192,289726,1,0,0:0:0:0:
36,192,289726,1,0,0:0:0:0:
402,192,289801,1,0,0:0:0:0:
256,192,289801,1,0,0:0:0:0:
36,192,289876,1,0,0:0:0:0:
109,192,289876,1,0,0:0:0:0:
329,192,289876,1,0,0:0:0:0:
182,192,289876,1,0,0:0:0:0:
475,192,289951,1,0,0:0:0:0:
256,192,289951,1,0,0:0:0:0:
402,192,289951,1,0,0:0:0:0:
36,192,290026,1,0,0:0:0:0:
329,192,290026,1,0,0:0:0:0:
182,192,290026,1,0,0:0:0:0:
109,192,290101,1,0,0:0:0:0:
256,192,290101,1,0,0:0:0:0:
475,192,290176,1,0,0:0:0:0:
402,192,290176,1,0,0:0:0:0:
182,192,290176,1,0,0:0:0:0:
329,192,290176,1,0,0:0:0:0:
256,192,290251,1,0,0:0:0:0:
36,192,290251,1,0,0:0:0:0:
109,192,290251,1,0,0:0:0:0:
475,192,290326,1,0,0:0:0:0:
329,192,290326,1,0,0:0:0:0:
402,192,290326,1,0,0:0:0:0:
182,192,290401,1,0,0:0:0:0:
109,192,290401,1,0,0:0:0:0:
36,192,290401,1,0,0:0:0:0:
256,192,290476,1,0,0:0:0:0:
329,192,290476,1,0,0:0:0:0:
402,192,290476,1,0,0:0:0:0:
109,192,290551,1,0,0:0:0:0:
475,192,290551,1,0,0:0:0:0:
36,192,290551,1,0,0:0:0:0:
182,192,290626,1,0,0:0:0:0:
329,192,290626,1,0,0:0:0:0:
402,192,290626,1,0,0:0:0:0:
109,192,290701,1,0,0:0:0:0:
36,192,290701,1,0,0:0:0:0:
182,192,290776,1,0,0:0:0:0:
329,192,290776,1,0,0:0:0:0:
402,192,290776,1,0,0:0:0:0:
475,192,290776,1,0,0:0:0:0:
256,192,290776,1,0,0:0:0:0:
256,192,290926,1,0,0:0:0:0:
109,192,290926,1,0,0:0:0:0:
182,192,291076,1,0,0:0:0:0:
475,192,291076,1,0,0:0:0:0:
402,192,291076,1,0,0:0:0:0:
329,192,291151,1,0,0:0:0:0:
36,192,291151,1,0,0:0:0:0:
182,192,291226,1,0,0:0:0:0:
109,192,291226,1,0,0:0:0:0:
329,192,291301,1,0,0:0:0:0:
402,192,291301,1,0,0:0:0:0:
256,192,291376,1,0,0:0:0:0:
475,192,291376,1,0,0:0:0:0:
182,192,291526,1,0,0:0:0:0:
109,192,291526,1,0,0:0:0:0:
256,192,291526,1,0,0:0:0:0:
36,192,291601,1,0,0:0:0:0:
329,192,291601,1,0,0:0:0:0:
475,192,291676,1,0,0:0:0:0:
402,192,291676,1,0,0:0:0:0:
182,192,291751,1,0,0:0:0:0:
329,192,291826,1,0,0:0:0:0:
109,192,291826,1,0,0:0:0:0:
109,192,291976,1,0,0:0:0:0:
402,192,291976,1,0,0:0:0:0:
475,192,291976,1,0,0:0:0:0:
256,192,291976,1,0,0:0:0:0:
36,192,291976,1,0,0:0:0:0:
329,192,292051,1,0,0:0:0:0:
182,192,292051,1,0,0:0:0:0:
36,192,292126,1,0,0:0:0:0:
256,192,292126,1,0,0:0:0:0:
182,192,292201,1,0,0:0:0:0:
475,192,292276,1,0,0:0:0:0:
109,192,292276,1,0,0:0:0:0:
329,192,292351,1,0,0:0:0:0:
402,192,292351,1,0,0:0:0:0:
256,192,292426,1,0,0:0:0:0:
36,192,292426,1,0,0:0:0:0:
329,192,292501,1,0,0:0:0:0:
109,192,292501,1,0,0:0:0:0:
402,192,292576,1,0,0:0:0:0:
182,192,292576,1,0,0:0:0:0:
329,192,292726,1,0,0:0:0:0:
109,192,292726,1,0,0:0:0:0:
256,192,292801,1,0,0:0:0:0:
475,192,292801,1,0,0:0:0:0:
182,192,292876,1,0,0:0:0:0:
402,192,292876,1,0,0:0:0:0:
36,192,292876,1,0,0:0:0:0:
329,192,293026,1,0,0:0:0:0:
109,192,293026,1,0,0:0:0:0:
475,192,293026,1,0,0:0:0:0:
256,192,293176,1,0,0:0:0:0:
402,192,293176,1,0,0:0:0:0:
109,192,293176,1,0,0:0:0:0:
475,192,293176,1,0,0:0:0:0:
36,192,293176,1,0,0:0:0:0:
182,192,293251,1,0,0:0:0:0:
329,192,293326,1,0,0:0:0:0:
36,192,293326,1,0,0:0:0:0:
402,192,293476,1,0,0:0:0:0:
182,192,293476,1,0,0:0:0:0:
329,192,293551,1,0,0:0:0:0:
109,192,293551,1,0,0:0:0:0:
475,192,293626,1,0,0:0:0:0:
256,192,293626,1,0,0:0:0:0:
109,192,293776,1,0,0:0:0:0:
36,192,293776,1,0,0:0:0:0:
402,192,293776,1,0,0:0:0:0:
475,192,293776,1,0,0:0:0:0:
256,192,293776,1,0,0:0:0:0:
329,192,293926,1,0,0:0:0:0:
109,192,293926,1,0,0:0:0:0:
402,192,294001,1,0,0:0:0:0:
182,192,294001,1,0,0:0:0:0:
36,192,294076,1,0,0:0:0:0:
256,192,294076,1,0,0:0:0:0:
402,192,294226,1,0,0:0:0:0:
182,192,294226,1,0,0:0:0:0:
109,192,294226,1,0,0:0:0:0:
329,192,294376,1,0,0:0:0:0:
182,192,294376,1,0,0:0:0:0:
475,192,294376,1,0,0:0:0:0:
36,192,294376,1,0,0:0:0:0:
402,192,294451,1,0,0:0:0:0:
36,192,294526,1,0,0:0:0:0:
475,192,294526,1,0,0:0:0:0:
256,192,294526,1,0,0:0:0:0:
182,192,294676,1,0,0:0:0:0:
402,192,294676,1,0,0:0:0:0:
109,192,294676,1,0,0:0:0:0:
329,192,294676,1,0,0:0:0:0:
36,192,294751,1,0,0:0:0:0:
329,192,294826,1,0,0:0:0:0:
475,192,294826,1,0,0:0:0:0:
109,192,294826,1,0,0:0:0:0:
182,192,294976,1,0,0:0:0:0:
36,192,294976,1,0,0:0:0:0:
329,192,294976,1,0,0:0:0:0:
475,192,294976,1,0,0:0:0:0:
256,192,295051,1,0,0:0:0:0:
402,192,295126,1,0,0:0:0:0:
109,192,295126,1,0,0:0:0:0:
329,192,295201,1,0,0:0:0:0:
182,192,295201,1,0,0:0:0:0:
475,192,295276,1,0,0:0:0:0:
109,192,295276,1,0,0:0:0:0:
402,192,295276,1,0,0:0:0:0:
36,192,295276,1,0,0:0:0:0:
256,192,295351,1,0,0:0:0:0:
182,192,295426,1,0,0:0:0:0:
329,192,295426,1,0,0:0:0:0:
256,192,295501,1,0,0:0:0:0:
402,192,295501,1,0,0:0:0:0:
36,192,295501,1,0,0:0:0:0:
475,192,295576,1,0,0:0:0:0:
182,192,295576,1,0,0:0:0:0:
109,192,295576,1,0,0:0:0:0:
329,192,295576,1,0,0:0:0:0:
402,192,295651,1,0,0:0:0:0:
36,192,295651,1,0,0:0:0:0:
475,192,295726,1,0,0:0:0:0:
256,192,295726,1,0,0:0:0:0:
109,192,295726,1,0,0:0:0:0:
329,192,295801,1,0,0:0:0:0:
182,192,295801,1,0,0:0:0:0:
402,192,295876,1,0,0:0:0:0:
475,192,295876,1,0,0:0:0:0:
256,192,295876,1,0,0:0:0:0:
36,192,295876,1,0,0:0:0:0:
109,192,295876,1,0,0:0:0:0:
182,192,295951,1,0,0:0:0:0:
329,192,295951,1,0,0:0:0:0:
36,192,296026,1,0,0:0:0:0:
402,192,296026,1,0,0:0:0:0:
475,192,296026,1,0,0:0:0:0:
109,192,296101,1,0,0:0:0:0:
182,192,296101,1,0,0:0:0:0:
256,192,296176,1,0,0:0:0:0:
329,192,296176,1,0,0:0:0:0:
402,192,296176,1,0,0:0:0:0:
36,192,296176,1,0,0:0:0:0:
475,192,296251,1,0,0:0:0:0:
109,192,296251,1,0,0:0:0:0:
182,192,296326,1,0,0:0:0:0:
329,192,296326,1,0,0:0:0:0:
256,192,296326,1,0,0:0:0:0:
475,192,296401,1,0,0:0:0:0:
402,192,296401,1,0,0:0:0:0:
329,192,296476,1,0,0:0:0:0:
36,192,296476,1,0,0:0:0:0:
109,192,296476,1,0,0:0:0:0:
182,192,296476,1,0,0:0:0:0:
256,192,296476,1,0,0:0:0:0:
402,192,296551,1,0,0:0:0:0:
475,192,296551,1,0,0:0:0:0:
182,192,296626,1,0,0:0:0:0:
109,192,296626,1,0,0:0:0:0:
36,192,296626,1,0,0:0:0:0:
256,192,296701,1,0,0:0:0:0:
402,192,296701,1,0,0:0:0:0:
329,192,296776,1,0,0:0:0:0:
475,192,296776,1,0,0:0:0:0:
109,192,296776,1,0,0:0:0:0:
36,192,296776,1,0,0:0:0:0:
182,192,296851,1,0,0:0:0:0:
402,192,296851,1,0,0:0:0:0:
329,192,296926,1,0,0:0:0:0:
475,192,296926,1,0,0:0:0:0:
256,192,296926,1,0,0:0:0:0:
109,192,297001,1,0,0:0:0:0:
182,192,297001,1,0,0:0:0:0:
256,192,297076,1,0,0:0:0:0:
329,192,297076,1,0,0:0:0:0:
402,192,297076,1,0,0:0:0:0:
475,192,297076,1,0,0:0:0:0:
36,192,297076,1,0,0:0:0:0:
182,192,297151,1,0,0:0:0:0:
109,192,297151,1,0,0:0:0:0:
402,192,297226,1,0,0:0:0:0:
256,192,297226,1,0,0:0:0:0:
36,192,297226,1,0,0:0:0:0:
475,192,297301,1,0,0:0:0:0:
109,192,297301,1,0,0:0:0:0:
329,192,297376,1,0,0:0:0:0:
402,192,297376,1,0,0:0:0:0:
182,192,297376,1,0,0:0:0:0:
36,192,297376,1,0,0:0:0:0:
109,192,297451,1,0,0:0:0:0:
475,192,297451,1,0,0:0:0:0:
329,192,297526,1,0,0:0:0:0:
256,192,297526,1,0,0:0:0:0:
182,192,297526,1,0,0:0:0:0:
402,192,297601,1,0,0:0:0:0:
36,192,297601,1,0,0:0:0:0:
475,192,297676,1,0,0:0:0:0:
109,192,297676,1,0,0:0:0:0:
182,192,297676,1,0,0:0:0:0:
329,192,297676,1,0,0:0:0:0:
256,192,297676,1,0,0:0:0:0:
402,192,297751,1,0,0:0:0:0:
475,192,297826,1,0,0:0:0:0:
256,192,297826,1,0,0:0:0:0:
109,192,297826,1,0,0:0:0:0:
36,192,297826,1,0,0:0:0:0:
182,192,297901,1,0,0:0:0:0:
329,192,297901,1,0,0:0:0:0:
36,192,297976,1,0,0:0:0:0:
475,192,297976,1,0,0:0:0:0:
256,192,297976,1,0,0:0:0:0:
402,192,297976,1,0,0:0:0:0:
109,192,298051,1,0,0:0:0:0:
329,192,298051,1,0,0:0:0:0:
256,192,298126,1,0,0:0:0:0:
36,192,298126,1,0,0:0:0:0:
402,192,298126,1,0,0:0:0:0:
109,192,298201,1,0,0:0:0:0:
182,192,298201,1,0,0:0:0:0:
475,192,298201,1,0,0:0:0:0:
402,192,298276,1,0,0:0:0:0:
256,192,298276,1,0,0:0:0:0:
36,192,298276,1,0,0:0:0:0:
329,192,298276,1,0,0:0:0:0:
475,192,298351,1,0,0:0:0:0:
182,192,298351,1,0,0:0:0:0:
329,192,298426,1,0,0:0:0:0:
402,192,298426,1,0,0:0:0:0:
109,192,298426,1,0,0:0:0:0:
182,192,298501,1,0,0:0:0:0:
256,192,298501,1,0,0:0:0:0:
36,192,298501,1,0,0:0:0:0:
109,192,298576,1,0,0:0:0:0:
402,192,298576,1,0,0:0:0:0:
329,192,298576,1,0,0:0:0:0:
475,192,298576,1,0,0:0:0:0:
36,192,298651,1,0,0:0:0:0:
256,192,298651,1,0,0:0:0:0:
475,192,298726,1,0,0:0:0:0:
109,192,298726,1,0,0:0:0:0:
182,192,298726,1,0,0:0:0:0:
256,192,298801,1,0,0:0:0:0:
329,192,298801,1,0,0:0:0:0:
402,192,298801,1,0,0:0:0:0:
182,192,298876,1,0,0:0:0:0:
475,192,298876,1,0,0:0:0:0:
36,192,298876,1,0,0:0:0:0:
109,192,298876,1,0,0:0:0:0:
329,192,298951,1,0,0:0:0:0:
402,192,298951,1,0,0:0:0:0:
36,192,299026,1,0,0:0:0:0:
182,192,299026,1,0,0:0:0:0:
256,192,299026,1,0,0:0:0:0:
475,192,299101,1,0,0:0:0:0:
109,192,299101,1,0,0:0:0:0:
402,192,299101,1,0,0:0:0:0:
36,192,299176,1,0,0:0:0:0:
256,192,299176,1,0,0:0:0:0:
329,192,299176,1,0,0:0:0:0:
402,192,299251,1,0,0:0:0:0:
475,192,299251,1,0,0:0:0:0:
182,192,299251,1,0,0:0:0:0:
256,192,299326,1,0,0:0:0:0:
109,192,299326,1,0,0:0:0:0:
329,192,299326,1,0,0:0:0:0:
36,192,299401,1,0,0:0:0:0:
182,192,299401,1,0,0:0:0:0:
402,192,299401,1,0,0:0:0:0:
329,192,299476,1,0,0:0:0:0:
475,192,299476,1,0,0:0:0:0:
109,192,299476,1,0,0:0:0:0:
36,192,299551,1,0,0:0:0:0:
402,192,299551,1,0,0:0:0:0:
256,192,299551,1,0,0:0:0:0:
475,192,299626,1,0,0:0:0:0:
109,192,299626,1,0,0:0:0:0:
182,192,299626,1,0,0:0:0:0:
36,192,299701,1,0,0:0:0:0:
329,192,299701,1,0,0:0:0:0:
256,192,299701,1,0,0:0:0:0:
475,192,299776,1,0,0:0:0:0:
109,192,299776,1,0,0:0:0:0:
182,192,299776,1,0,0:0:0:0:
402,192,299776,1,0,0:0:0:0:
182,192,299926,1,0,0:0:0:0:
329,192,299926,1,0,0:0:0:0:
402,192,299926,1,0,0:0:0:0:
475,192,299926,1,0,0:0:0:0:
36,192,300001,1,0,0:0:0:0:
256,192,300001,1,0,0:0:0:0:
109,192,300076,1,0,0:0:0:0:
329,192,300076,1,0,0:0:0:0:
402,192,300151,1,0,0:0:0:0:
182,192,300151,1,0,0:0:0:0:
475,192,300226,1,0,0:0:0:0:
256,192,300226,1,0,0:0:0:0:
402,192,300301,1,0,0:0:0:0:
182,192,300301,1,0,0:0:0:0:
256,192,300376,1,0,0:0:0:0:
475,192,300376,1,0,0:0:0:0:
36,192,300376,1,0,0:0:0:0:
109,192,300376,1,0,0:0:0:0:
329,192,300376,1,0,0:0:0:0:
402,192,300451,1,0,0:0:0:0:
182,192,300451,1,0,0:0:0:0:
109,192,300526,1,0,0:0:0:0:
36,192,300526,1,0,0:0:0:0:
329,192,300526,1,0,0:0:0:0:
475,192,300601,1,0,0:0:0:0:
256,192,300601,1,0,0:0:0:0:
109,192,300676,1,0,0:0:0:0:
36,192,300676,1,0,0:0:0:0:
182,192,300676,1,0,0:0:0:0:
402,192,300676,1,0,0:0:0:0:
329,192,300676,1,0,0:0:0:0:
256,192,300751,1,0,0:0:0:0:
475,192,300751,1,0,0:0:0:0:
109,192,300826,1,0,0:0:0:0:
182,192,300826,1,0,0:0:0:0:
402,192,300826,1,0,0:0:0:0:
329,192,300901,1,0,0:0:0:0:
36,192,300901,1,0,0:0:0:0:
182,192,300976,1,0,0:0:0:0:
256,192,300976,1,0,0:0:0:0:
402,192,300976,1,0,0:0:0:0:
475,192,300976,1,0,0:0:0:0:
329,192,301051,1,0,0:0:0:0:
36,192,301051,1,0,0:0:0:0:
475,192,301126,1,0,0:0:0:0:
109,192,301126,1,0,0:0:0:0:
256,192,301126,1,0,0:0:0:0:
182,192,301201,1,0,0:0:0:0:
402,192,301201,1,0,0:0:0:0:
36,192,301276,1,0,0:0:0:0:
475,192,301276,1,0,0:0:0:0:
329,192,301276,1,0,0:0:0:0:
256,192,301276,1,0,0:0:0:0:
109,192,301276,1,0,0:0:0:0:
402,192,301351,1,0,0:0:0:0:
182,192,301351,1,0,0:0:0:0:
329,192,301426,1,0,0:0:0:0:
36,192,301426,1,0,0:0:0:0:
256,192,301426,1,0,0:0:0:0:
475,192,301501,1,0,0:0:0:0:
182,192,301501,1,0,0:0:0:0:
329,192,301576,1,0,0:0:0:0:
109,192,301576,1,0,0:0:0:0:
36,192,301576,1,0,0:0:0:0:
402,192,301576,1,0,0:0:0:0:
475,192,301651,1,0,0:0:0:0:
256,192,301651,1,0,0:0:0:0:
109,192,301726,1,0,0:0:0:0:
402,192,301726,1,0,0:0:0:0:
182,192,301726,1,0,0:0:0:0:
36,192,301801,1,0,0:0:0:0:
256,192,301801,1,0,0:0:0:0:
402,192,301876,1,0,0:0:0:0:
475,192,301876,1,0,0:0:0:0:
329,192,301876,1,0,0:0:0:0:
109,192,301876,1,0,0:0:0:0:
182,192,301876,1,0,0:0:0:0:
36,192,301951,1,0,0:0:0:0:
256,192,301951,1,0,0:0:0:0:
182,192,302026,1,0,0:0:0:0:
329,192,302026,1,0,0:0:0:0:
475,192,302026,1,0,0:0:0:0:
36,192,302101,1,0,0:0:0:0:
402,192,302101,1,0,0:0:0:0:
475,192,302176,1,0,0:0:0:0:
256,192,302176,1,0,0:0:0:0:
109,192,302176,1,0,0:0:0:0:
182,192,302176,1,0,0:0:0:0:
329,192,302251,1,0,0:0:0:0:
402,192,302251,1,0,0:0:0:0:
109,192,302326,1,0,0:0:0:0:
36,192,302326,1,0,0:0:0:0:
256,192,302326,1,0,0:0:0:0:
182,192,302401,1,0,0:0:0:0:
475,192,302401,1,0,0:0:0:0:
109,192,302476,1,0,0:0:0:0:
329,192,302476,1,0,0:0:0:0:
36,192,302476,1,0,0:0:0:0:
402,192,302476,1,0,0:0:0:0:
256,192,302476,1,0,0:0:0:0:
475,192,302551,1,0,0:0:0:0:
36,192,302626,1,0,0:0:0:0:
402,192,302626,1,0,0:0:0:0:
182,192,302626,1,0,0:0:0:0:
329,192,302626,1,0,0:0:0:0:
109,192,302701,1,0,0:0:0:0:
256,192,302776,1,0,0:0:0:0:
182,192,302776,1,0,0:0:0:0:
402,192,302776,1,0,0:0:0:0:
475,192,302776,1,0,0:0:0:0:
36,192,302851,1,0,0:0:0:0:
329,192,302851,1,0,0:0:0:0:
475,192,302926,1,0,0:0:0:0:
256,192,302926,1,0,0:0:0:0:
109,192,302926,1,0,0:0:0:0:
329,192,303001,1,0,0:0:0:0:
182,192,303001,1,0,0:0:0:0:
475,192,303076,1,0,0:0:0:0:
109,192,303076,1,0,0:0:0:0:
402,192,303076,1,0,0:0:0:0:
36,192,303076,1,0,0:0:0:0:
256,192,303076,1,0,0:0:0:0:
182,192,303151,1,0,0:0:0:0:
329,192,303151,1,0,0:0:0:0:
402,192,303226,1,0,0:0:0:0:
256,192,303226,1,0,0:0:0:0:
109,192,303226,1,0,0:0:0:0:
36,192,303301,1,0,0:0:0:0:
329,192,303301,1,0,0:0:0:0:
256,192,303376,1,0,0:0:0:0:
475,192,303376,1,0,0:0:0:0:
402,192,303376,1,0,0:0:0:0:
182,192,303376,1,0,0:0:0:0:
329,192,303451,1,0,0:0:0:0:
109,192,303451,1,0,0:0:0:0:
475,192,303526,1,0,0:0:0:0:
36,192,303526,1,0,0:0:0:0:
182,192,303526,1,0,0:0:0:0:
256,192,303601,1,0,0:0:0:0:
402,192,303601,1,0,0:0:0:0:
36,192,303676,1,0,0:0:0:0:
475,192,303676,1,0,0:0:0:0:
182,192,303676,1,0,0:0:0:0:
329,192,303676,1,0,0:0:0:0:
109,192,303676,1,0,0:0:0:0:
256,192,303751,1,0,0:0:0:0:
402,192,303751,1,0,0:0:0:0:
36,192,303826,1,0,0:0:0:0:
109,192,303826,1,0,0:0:0:0:
329,192,303826,1,0,0:0:0:0:
402,192,303901,1,0,0:0:0:0:
475,192,303901,1,0,0:0:0:0:
182,192,303976,1,0,0:0:0:0:
256,192,303976,1,0,0:0:0:0:
329,192,303976,1,0,0:0:0:0:
109,192,303976,1,0,0:0:0:0:
36,192,304051,1,0,0:0:0:0:
475,192,304051,1,0,0:0:0:0:
329,192,304126,1,0,0:0:0:0:
256,192,304126,1,0,0:0:0:0:
402,192,304126,1,0,0:0:0:0:
36,192,304201,1,0,0:0:0:0:
109,192,304201,1,0,0:0:0:0:
402,192,304276,1,0,0:0:0:0:
329,192,304276,1,0,0:0:0:0:
475,192,304276,1,0,0:0:0:0:
182,192,304276,1,0,0:0:0:0:
256,192,304276,1,0,0:0:0:0:
36,192,304351,1,0,0:0:0:0:
109,192,304351,1,0,0:0:0:0:
475,192,304426,1,0,0:0:0:0:
402,192,304426,1,0,0:0:0:0:
329,192,304426,1,0,0:0:0:0:
109,192,304501,1,0,0:0:0:0:
182,192,304501,1,0,0:0:0:0:
475,192,304576,1,0,0:0:0:0:
402,192,304576,1,0,0:0:0:0:
329,192,304576,1,0,0:0:0:0:
36,192,304576,1,0,0:0:0:0:
256,192,304576,1,0,0:0:0:0:
109,192,304651,1,0,0:0:0:0:
182,192,304651,1,0,0:0:0:0:
475,192,304726,1,0,0:0:0:0:
36,192,304726,1,0,0:0:0:0:
256,192,304726,1,0,0:0:0:0:
109,192,304801,1,0,0:0:0:0:
402,192,304801,1,0,0:0:0:0:
329,192,304876,1,0,0:0:0:0:
36,192,304876,1,0,0:0:0:0:
182,192,304876,1,0,0:0:0:0:
256,192,304876,1,0,0:0:0:0:
475,192,304951,1,0,0:0:0:0:
402,192,305026,1,0,0:0:0:0:
109,192,305026,1,0,0:0:0:0:
329,192,305026,1,0,0:0:0:0:
182,192,305026,1,0,0:0:0:0:
36,192,305101,1,0,0:0:0:0:
256,192,305101,1,0,0:0:0:0:
475,192,305101,1,0,0:0:0:0:
329,192,305176,1,0,0:0:0:0:
402,192,305176,1,0,0:0:0:0:
109,192,305176,1,0,0:0:0:0:
182,192,305176,1,0,0:0:0:0:
36,192,305251,1,0,0:0:0:0:
256,192,305251,1,0,0:0:0:0:
475,192,305326,1,0,0:0:0:0:
329,192,305326,1,0,0:0:0:0:
402,192,305326,1,0,0:0:0:0:
182,192,305401,1,0,0:0:0:0:
109,192,305401,1,0,0:0:0:0:
36,192,305476,1,0,0:0:0:0:
475,192,305476,1,0,0:0:0:0:
256,192,305476,1,0,0:0:0:0:
329,192,305476,1,0,0:0:0:0:
402,192,305476,1,0,0:0:0:0:
109,192,305551,1,0,0:0:0:0:
182,192,305551,1,0,0:0:0:0:
36,192,305626,1,0,0:0:0:0:
329,192,305626,1,0,0:0:0:0:
402,192,305626,1,0,0:0:0:0:
256,192,305701,1,0,0:0:0:0:
475,192,305701,1,0,0:0:0:0:
109,192,305776,1,0,0:0:0:0:
329,192,305776,1,0,0:0:0:0:
182,192,305776,1,0,0:0:0:0:
36,192,305776,1,0,0:0:0:0:
475,192,305851,1,0,0:0:0:0:
402,192,305851,1,0,0:0:0:0:
109,192,305926,1,0,0:0:0:0:
182,192,305926,1,0,0:0:0:0:
256,192,305926,1,0,0:0:0:0:
36,192,306001,1,0,0:0:0:0:
329,192,306001,1,0,0:0:0:0:
402,192,306076,1,0,0:0:0:0:
475,192,306076,1,0,0:0:0:0:
256,192,306076,1,0,0:0:0:0:
109,192,306076,1,0,0:0:0:0:
182,192,306076,1,0,0:0:0:0:
36,192,306151,1,0,0:0:0:0:
329,192,306151,1,0,0:0:0:0:
109,192,306226,1,0,0:0:0:0:
256,192,306226,1,0,0:0:0:0:
475,192,306226,1,0,0:0:0:0:
402,192,306301,1,0,0:0:0:0:
256,192,306376,1,0,0:0:0:0:
36,192,306376,1,0,0:0:0:0:
475,192,306376,1,0,0:0:0:0:
182,192,306376,1,0,0:0:0:0:
329,192,306376,1,0,0:0:0:0:
402,192,306451,1,0,0:0:0:0:
109,192,306451,1,0,0:0:0:0:
182,192,306526,1,0,0:0:0:0:
329,192,306526,1,0,0:0:0:0:
36,192,306526,1,0,0:0:0:0:
475,192,306601,1,0,0:0:0:0:
256,192,306601,1,0,0:0:0:0:
36,192,306676,1,0,0:0:0:0:
329,192,306676,1,0,0:0:0:0:
182,192,306676,1,0,0:0:0:0:
402,192,306676,1,0,0:0:0:0:
109,192,306676,1,0,0:0:0:0:
256,192,306751,1,0,0:0:0:0:
475,192,306751,1,0,0:0:0:0:
36,192,306826,1,0,0:0:0:0:
109,192,306826,1,0,0:0:0:0:
402,192,306826,1,0,0:0:0:0:
329,192,306901,1,0,0:0:0:0:
182,192,306901,1,0,0:0:0:0:
402,192,306976,1,0,0:0:0:0:
475,192,306976,1,0,0:0:0:0:
256,192,306976,1,0,0:0:0:0:
109,192,306976,1,0,0:0:0:0:
36,192,307051,1,0,0:0:0:0:
182,192,307051,1,0,0:0:0:0:
475,192,307126,1,0,0:0:0:0:
109,192,307126,1,0,0:0:0:0:
329,192,307126,1,0,0:0:0:0:
182,192,307201,1,0,0:0:0:0:
256,192,307201,1,0,0:0:0:0:
402,192,307276,1,0,0:0:0:0:
475,192,307276,1,0,0:0:0:0:
36,192,307276,1,0,0:0:0:0:
329,192,307276,1,0,0:0:0:0:
109,192,307276,1,0,0:0:0:0:
182,192,307351,1,0,0:0:0:0:
256,192,307351,1,0,0:0:0:0:
402,192,307426,1,0,0:0:0:0:
36,192,307426,1,0,0:0:0:0:
329,192,307426,1,0,0:0:0:0:
475,192,307501,1,0,0:0:0:0:
256,192,307501,1,0,0:0:0:0:
36,192,307576,1,0,0:0:0:0:
329,192,307576,1,0,0:0:0:0:
109,192,307576,1,0,0:0:0:0:
182,192,307576,1,0,0:0:0:0:
402,192,307576,1,0,0:0:0:0:
475,192,307651,1,0,0:0:0:0:
109,192,307726,1,0,0:0:0:0:
256,192,307726,1,0,0:0:0:0:
182,192,307726,1,0,0:0:0:0:
402,192,307801,1,0,0:0:0:0:
329,192,307801,1,0,0:0:0:0:
475,192,307876,1,0,0:0:0:0:
109,192,307876,1,0,0:0:0:0:
36,192,307876,1,0,0:0:0:0:
256,192,307876,1,0,0:0:0:0:
329,192,307951,1,0,0:0:0:0:
402,192,307951,1,0,0:0:0:0:
109,192,308026,1,0,0:0:0:0:
182,192,308026,1,0,0:0:0:0:
475,192,308026,1,0,0:0:0:0:
36,192,308101,1,0,0:0:0:0:
256,192,308101,1,0,0:0:0:0:
329,192,308101,1,0,0:0:0:0:
182,192,308176,1,0,0:0:0:0:
109,192,308176,1,0,0:0:0:0:
475,192,308176,1,0,0:0:0:0:
402,192,308176,1,0,0:0:0:0:
36,192,308251,1,0,0:0:0:0:
256,192,308251,1,0,0:0:0:0:
329,192,308326,1,0,0:0:0:0:
182,192,308326,1,0,0:0:0:0:
402,192,308326,1,0,0:0:0:0:
256,192,308401,1,0,0:0:0:0:
109,192,308401,1,0,0:0:0:0:
475,192,308401,1,0,0:0:0:0:
182,192,308476,1,0,0:0:0:0:
36,192,308476,1,0,0:0:0:0:
402,192,308476,1,0,0:0:0:0:
329,192,308476,1,0,0:0:0:0:
475,192,308551,1,0,0:0:0:0:
256,192,308551,1,0,0:0:0:0:
109,192,308626,1,0,0:0:0:0:
329,192,308626,1,0,0:0:0:0:
36,192,308626,1,0,0:0:0:0:
402,192,308701,1,0,0:0:0:0:
182,192,308701,1,0,0:0:0:0:
109,192,308776,1,0,0:0:0:0:
475,192,308776,1,0,0:0:0:0:
256,192,308776,1,0,0:0:0:0:
402,192,308851,5,0,0:0:0:0:
182,192,308851,1,0,0:0:0:0:
475,192,308926,1,0,0:0:0:0:
36,192,308926,1,0,0:0:0:0:
256,192,308926,1,0,0:0:0:0:
329,192,309001,1,0,0:0:0:0:
182,192,309001,1,0,0:0:0:0:
36,192,309076,1,0,0:0:0:0:
256,192,309076,1,0,0:0:0:0:
402,192,309076,1,0,0:0:0:0:
109,192,309151,5,0,0:0:0:0:
329,192,309151,1,0,0:0:0:0:
36,192,309226,1,0,0:0:0:0:
256,192,309226,1,0,0:0:0:0:
475,192,309226,1,0,0:0:0:0:
182,192,309301,1,0,0:0:0:0:
329,192,309301,1,0,0:0:0:0:
402,192,309376,1,0,0:0:0:0:
475,192,309376,1,0,0:0:0:0:
109,192,309376,1,0,0:0:0:0:
329,192,309451,1,0,0:0:0:0:
256,192,309451,1,0,0:0:0:0:
182,192,309526,1,0,0:0:0:0:
109,192,309526,1,0,0:0:0:0:
402,192,309526,1,0,0:0:0:0:
36,192,309601,1,0,0:0:0:0:
475,192,309601,1,0,0:0:0:0:
109,192,309676,1,0,0:0:0:0:
182,192,309676,1,0,0:0:0:0:
329,192,309676,1,0,0:0:0:0:
256,192,309751,1,0,0:0:0:0:
402,192,309751,1,0,0:0:0:0:
329,192,309826,1,0,0:0:0:0:
475,192,309826,1,0,0:0:0:0:
36,192,309826,1,0,0:0:0:0:
109,192,309901,1,0,0:0:0:0:
182,192,309901,1,0,0:0:0:0:
36,192,309976,1,0,0:0:0:0:
256,192,309976,1,0,0:0:0:0:
329,192,309976,1,0,0:0:0:0:
402,192,309976,1,0,0:0:0:0:
475,192,309976,1,0,0:0:0:0:
182,192,310051,1,0,0:0:0:0:
109,192,310126,1,0,0:0:0:0:
256,192,310126,1,0,0:0:0:0:
402,192,310126,1,0,0:0:0:0:
36,192,310126,1,0,0:0:0:0:
329,192,310201,1,0,0:0:0:0:
256,192,310276,1,0,0:0:0:0:
475,192,310276,1,0,0:0:0:0:
36,192,310276,1,0,0:0:0:0:
109,192,310276,1,0,0:0:0:0:
182,192,310351,1,0,0:0:0:0:
402,192,310351,1,0,0:0:0:0:
329,192,310426,1,0,0:0:0:0:
109,192,310426,1,0,0:0:0:0:
36,192,310426,1,0,0:0:0:0:
256,192,310501,1,0,0:0:0:0:
182,192,310576,1,0,0:0:0:0:
402,192,310576,1,0,0:0:0:0:
475,192,310576,1,0,0:0:0:0:
329,192,310576,1,0,0:0:0:0:
36,192,310651,1,0,0:0:0:0:
182,192,310726,1,0,0:0:0:0:
402,192,310726,1,0,0:0:0:0:
475,192,310726,1,0,0:0:0:0:
256,192,310801,1,0,0:0:0:0:
329,192,310801,1,0,0:0:0:0:
109,192,310876,1,0,0:0:0:0:
402,192,310876,1,0,0:0:0:0:
475,192,310876,1,0,0:0:0:0:
36,192,310876,1,0,0:0:0:0:
329,192,310951,1,0,0:0:0:0:
182,192,311026,1,0,0:0:0:0:
36,192,311026,1,0,0:0:0:0:
256,192,311026,1,0,0:0:0:0:
109,192,311026,1,0,0:0:0:0:
475,192,311101,1,0,0:0:0:0:
402,192,311176,1,0,0:0:0:0:
329,192,311176,1,0,0:0:0:0:
109,192,311176,1,0,0:0:0:0:
182,192,311251,1,0,0:0:0:0:
36,192,311326,1,0,0:0:0:0:
256,192,311326,1,0,0:0:0:0:
329,192,311326,1,0,0:0:0:0:
475,192,311326,1,0,0:0:0:0:
182,192,311401,1,0,0:0:0:0:
256,192,311476,1,0,0:0:0:0:
475,192,311476,1,0,0:0:0:0:
109,192,311476,1,0,0:0:0:0:
402,192,311476,1,0,0:0:0:0:
329,192,311551,1,0,0:0:0:0:
36,192,311551,1,0,0:0:0:0:
182,192,311626,1,0,0:0:0:0:
402,192,311626,1,0,0:0:0:0:
109,192,311626,1,0,0:0:0:0:
256,192,311701,1,0,0:0:0:0:
329,192,311776,1,0,0:0:0:0:
36,192,311776,1,0,0:0:0:0:
475,192,311776,1,0,0:0:0:0:
182,192,311776,1,0,0:0:0:0:
109,192,311851,1,0,0:0:0:0:
402,192,311926,1,0,0:0:0:0:
36,192,311926,1,0,0:0:0:0:
475,192,311926,1,0,0:0:0:0:
256,192,312001,1,0,0:0:0:0:
182,192,312001,1,0,0:0:0:0:
402,192,312076,1,0,0:0:0:0:
109,192,312076,1,0,0:0:0:0:
329,192,312076,1,0,0:0:0:0:
36,192,312076,1,0,0:0:0:0:
182,192,312151,1,0,0:0:0:0:
329,192,312226,1,0,0:0:0:0:
109,192,312226,1,0,0:0:0:0:
256,192,312226,1,0,0:0:0:0:
402,192,312226,1,0,0:0:0:0:
475,192,312301,1,0,0:0:0:0:
402,192,312376,1,0,0:0:0:0:
329,192,312376,1,0,0:0:0:0:
36,192,312376,1,0,0:0:0:0:
182,192,312451,1,0,0:0:0:0:
109,192,312526,1,0,0:0:0:0:
256,192,312526,1,0,0:0:0:0:
475,192,312526,1,0,0:0:0:0:
36,192,312526,1,0,0:0:0:0:
329,192,312601,1,0,0:0:0:0:
256,192,312676,1,0,0:0:0:0:
475,192,312676,1,0,0:0:0:0:
36,192,312676,1,0,0:0:0:0:
109,192,312676,1,0,0:0:0:0:
182,192,312751,1,0,0:0:0:0:
402,192,312751,1,0,0:0:0:0:
329,192,312826,1,0,0:0:0:0:
109,192,312826,1,0,0:0:0:0:
36,192,312826,1,0,0:0:0:0:
256,192,312901,1,0,0:0:0:0:
182,192,312976,1,0,0:0:0:0:
402,192,312976,1,0,0:0:0:0:
475,192,312976,1,0,0:0:0:0:
329,192,312976,1,0,0:0:0:0:
36,192,313051,1,0,0:0:0:0:
182,192,313126,1,0,0:0:0:0:
402,192,313126,1,0,0:0:0:0:
475,192,313126,1,0,0:0:0:0:
256,192,313201,1,0,0:0:0:0:
329,192,313201,1,0,0:0:0:0:
109,192,313276,1,0,0:0:0:0:
402,192,313276,1,0,0:0:0:0:
475,192,313276,1,0,0:0:0:0:
36,192,313276,1,0,0:0:0:0:
182,192,313351,1,0,0:0:0:0:
329,192,313426,1,0,0:0:0:0:
36,192,313426,1,0,0:0:0:0:
256,192,313426,1,0,0:0:0:0:
109,192,313426,1,0,0:0:0:0:
475,192,313501,1,0,0:0:0:0:
402,192,313576,1,0,0:0:0:0:
329,192,313576,1,0,0:0:0:0:
109,192,313576,1,0,0:0:0:0:
182,192,313651,1,0,0:0:0:0:
36,192,313726,1,0,0:0:0:0:
256,192,313726,1,0,0:0:0:0:
329,192,313726,1,0,0:0:0:0:
475,192,313726,1,0,0:0:0:0:
182,192,313801,1,0,0:0:0:0:
256,192,313876,1,0,0:0:0:0:
475,192,313876,1,0,0:0:0:0:
109,192,313876,1,0,0:0:0:0:
402,192,313876,1,0,0:0:0:0:
329,192,313951,1,0,0:0:0:0:
36,192,313951,1,0,0:0:0:0:
182,192,314026,1,0,0:0:0:0:
402,192,314026,1,0,0:0:0:0:
109,192,314026,1,0,0:0:0:0:
256,192,314101,1,0,0:0:0:0:
329,192,314176,1,0,0:0:0:0:
36,192,314176,1,0,0:0:0:0:
475,192,314176,1,0,0:0:0:0:
182,192,314176,1,0,0:0:0:0:
109,192,314251,1,0,0:0:0:0:
402,192,314326,1,0,0:0:0:0:
256,192,314326,1,0,0:0:0:0:
475,192,314326,1,0,0:0:0:0:
36,192,314401,1,0,0:0:0:0:
182,192,314401,1,0,0:0:0:0:
402,192,314476,1,0,0:0:0:0:
109,192,314476,1,0,0:0:0:0:
329,192,314476,1,0,0:0:0:0:
256,192,314476,1,0,0:0:0:0:
182,192,314551,1,0,0:0:0:0:
329,192,314626,1,0,0:0:0:0:
36,192,314626,1,0,0:0:0:0:
402,192,314626,1,0,0:0:0:0:
256,192,314626,1,0,0:0:0:0:
109,192,314701,1,0,0:0:0:0:
182,192,314701,1,0,0:0:0:0:
475,192,314701,1,0,0:0:0:0:
256,192,314776,1,0,0:0:0:0:
36,192,314776,1,0,0:0:0:0:
329,192,314776,1,0,0:0:0:0:
475,192,314851,1,0,0:0:0:0:
402,192,314926,1,0,0:0:0:0:
329,192,314926,1,0,0:0:0:0:
109,192,314926,1,0,0:0:0:0:
36,192,314926,1,0,0:0:0:0:
182,192,315001,1,0,0:0:0:0:
256,192,315076,1,0,0:0:0:0:
36,192,315076,1,0,0:0:0:0:
475,192,315076,1,0,0:0:0:0:
402,192,315076,1,0,0:0:0:0:
329,192,315151,1,0,0:0:0:0:
109,192,315151,1,0,0:0:0:0:
182,192,315226,1,0,0:0:0:0:
402,192,315226,1,0,0:0:0:0:
475,192,315226,1,0,0:0:0:0:
256,192,315301,1,0,0:0:0:0:
329,192,315376,1,0,0:0:0:0:
109,192,315376,1,0,0:0:0:0:
36,192,315376,1,0,0:0:0:0:
182,192,315376,1,0,0:0:0:0:
475,192,315451,1,0,0:0:0:0:
329,192,315526,1,0,0:0:0:0:
109,192,315526,1,0,0:0:0:0:
36,192,315526,1,0,0:0:0:0:
256,192,315601,1,0,0:0:0:0:
182,192,315601,1,0,0:0:0:0:
402,192,315676,1,0,0:0:0:0:
109,192,315676,1,0,0:0:0:0:
36,192,315676,1,0,0:0:0:0:
475,192,315676,1,0,0:0:0:0:
182,192,315751,1,0,0:0:0:0:
329,192,315826,1,0,0:0:0:0:
475,192,315826,1,0,0:0:0:0:
256,192,315826,1,0,0:0:0:0:
402,192,315826,1,0,0:0:0:0:
36,192,315901,1,0,0:0:0:0:
109,192,315976,1,0,0:0:0:0:
182,192,315976,1,0,0:0:0:0:
402,192,315976,1,0,0:0:0:0:
329,192,316051,1,0,0:0:0:0:
475,192,316126,1,0,0:0:0:0:
256,192,316126,1,0,0:0:0:0:
182,192,316126,1,0,0:0:0:0:
36,192,316126,1,0,0:0:0:0:
329,192,316201,1,0,0:0:0:0:
256,192,316276,1,0,0:0:0:0:
36,192,316276,1,0,0:0:0:0:
402,192,316276,1,0,0:0:0:0:
109,192,316276,1,0,0:0:0:0:
182,192,316351,1,0,0:0:0:0:
475,192,316351,1,0,0:0:0:0:
329,192,316426,1,0,0:0:0:0:
109,192,316426,1,0,0:0:0:0:
402,192,316426,1,0,0:0:0:0:
256,192,316501,1,0,0:0:0:0:
182,192,316576,1,0,0:0:0:0:
475,192,316576,1,0,0:0:0:0:
36,192,316576,1,0,0:0:0:0:
329,192,316576,1,0,0:0:0:0:
402,192,316651,1,0,0:0:0:0:
109,192,316726,1,0,0:0:0:0:
475,192,316726,1,0,0:0:0:0:
36,192,316726,1,0,0:0:0:0:
256,192,316801,1,0,0:0:0:0:
329,192,316801,1,0,0:0:0:0:
109,192,316876,1,0,0:0:0:0:
402,192,316876,1,0,0:0:0:0:
182,192,316876,1,0,0:0:0:0:
475,192,316876,1,0,0:0:0:0:
329,192,316951,1,0,0:0:0:0:
182,192,317026,1,0,0:0:0:0:
402,192,317026,1,0,0:0:0:0:
256,192,317026,1,0,0:0:0:0:
109,192,317026,1,0,0:0:0:0:
36,192,317101,1,0,0:0:0:0:
182,192,317176,1,0,0:0:0:0:
329,192,317176,1,0,0:0:0:0:
402,192,317176,1,0,0:0:0:0:
475,192,317176,1,0,0:0:0:0:
109,192,317251,1,0,0:0:0:0:
256,192,317251,1,0,0:0:0:0:
36,192,317326,1,0,0:0:0:0:
329,192,317326,1,0,0:0:0:0:
182,192,317326,1,0,0:0:0:0:
475,192,317401,1,0,0:0:0:0:
402,192,317401,1,0,0:0:0:0:
329,192,317476,1,0,0:0:0:0:
182,192,317476,1,0,0:0:0:0:
109,192,317476,1,0,0:0:0:0:
256,192,317476,1,0,0:0:0:0:
36,192,317551,1,0,0:0:0:0:
402,192,317551,1,0,0:0:0:0:
475,192,317551,1,0,0:0:0:0:
109,192,317626,1,0,0:0:0:0:
256,192,317626,1,0,0:0:0:0:
329,192,317626,1,0,0:0:0:0:
182,192,317701,1,0,0:0:0:0:
402,192,317776,1,0,0:0:0:0:
329,192,317776,1,0,0:0:0:0:
256,192,317776,1,0,0:0:0:0:
36,192,317776,1,0,0:0:0:0:
475,192,317851,1,0,0:0:0:0:
182,192,317851,1,0,0:0:0:0:
36,192,317926,1,0,0:0:0:0:
402,192,317926,1,0,0:0:0:0:
109,192,317926,1,0,0:0:0:0:
182,192,318001,1,0,0:0:0:0:
256,192,318001,1,0,0:0:0:0:
329,192,318001,1,0,0:0:0:0:
475,192,318076,1,0,0:0:0:0:
402,192,318076,1,0,0:0:0:0:
109,192,318076,1,0,0:0:0:0:
36,192,318076,1,0,0:0:0:0:
182,192,318151,1,0,0:0:0:0:
256,192,318151,1,0,0:0:0:0:
475,192,318226,1,0,0:0:0:0:
329,192,318226,1,0,0:0:0:0:
402,192,318226,1,0,0:0:0:0:
36,192,318226,1,0,0:0:0:0:
109,192,318301,1,0,0:0:0:0:
182,192,318301,1,0,0:0:0:0:
329,192,318376,1,0,0:0:0:0:
36,192,318376,1,0,0:0:0:0:
256,192,318376,1,0,0:0:0:0:
402,192,318451,1,0,0:0:0:0:
475,192,318451,1,0,0:0:0:0:
256,192,318526,1,0,0:0:0:0:
329,192,318526,1,0,0:0:0:0:
182,192,318526,1,0,0:0:0:0:
36,192,318601,1,0,0:0:0:0:
109,192,318601,1,0,0:0:0:0:
182,192,318676,1,0,0:0:0:0:
475,192,318676,1,0,0:0:0:0:
256,192,318676,1,0,0:0:0:0:
402,192,318676,1,0,0:0:0:0:
329,192,318751,1,0,0:0:0:0:
109,192,318751,1,0,0:0:0:0:
36,192,318751,1,0,0:0:0:0:
475,192,318826,1,0,0:0:0:0:
182,192,318826,1,0,0:0:0:0:
256,192,318826,1,0,0:0:0:0:
329,192,318901,1,0,0:0:0:0:
402,192,318901,1,0,0:0:0:0:
475,192,318976,1,0,0:0:0:0:
36,192,318976,1,0,0:0:0:0:
109,192,318976,1,0,0:0:0:0:
182,192,318976,1,0,0:0:0:0:
256,192,319051,1,0,0:0:0:0:
329,192,319051,1,0,0:0:0:0:
36,192,319126,1,0,0:0:0:0:
402,192,319126,1,0,0:0:0:0:
475,192,319126,1,0,0:0:0:0:
109,192,319126,1,0,0:0:0:0:
256,192,319201,1,0,0:0:0:0:
182,192,319201,1,0,0:0:0:0:
329,192,319276,1,0,0:0:0:0:
36,192,319276,1,0,0:0:0:0:
109,192,319276,1,0,0:0:0:0:
475,192,319351,1,0,0:0:0:0:
402,192,319351,1,0,0:0:0:0:
256,192,319426,1,0,0:0:0:0:
182,192,319426,1,0,0:0:0:0:
329,192,319426,1,0,0:0:0:0:
109,192,319501,1,0,0:0:0:0:
36,192,319501,1,0,0:0:0:0:
475,192,319576,1,0,0:0:0:0:
182,192,319576,1,0,0:0:0:0:
329,192,319576,1,0,0:0:0:0:
256,192,319576,1,0,0:0:0:0:
402,192,319576,1,0,0:0:0:0:
36,192,319651,1,0,0:0:0:0:
402,192,319726,1,0,0:0:0:0:
256,192,319726,1,0,0:0:0:0:
109,192,319726,1,0,0:0:0:0:
475,192,319726,1,0,0:0:0:0:
182,192,319801,1,0,0:0:0:0:
256,192,319876,1,0,0:0:0:0:
36,192,319876,1,0,0:0:0:0:
475,192,319876,1,0,0:0:0:0:
402,192,319876,1,0,0:0:0:0:
329,192,319951,1,0,0:0:0:0:
109,192,319951,1,0,0:0:0:0:
182,192,320026,1,0,0:0:0:0:
402,192,320026,1,0,0:0:0:0:
475,192,320026,1,0,0:0:0:0:
256,192,320101,1,0,0:0:0:0:
329,192,320176,1,0,0:0:0:0:
109,192,320176,1,0,0:0:0:0:
36,192,320176,1,0,0:0:0:0:
182,192,320176,1,0,0:0:0:0:
475,192,320251,1,0,0:0:0:0:
329,192,320326,1,0,0:0:0:0:
109,192,320326,1,0,0:0:0:0:
36,192,320326,1,0,0:0:0:0:
256,192,320401,1,0,0:0:0:0:
182,192,320401,1,0,0:0:0:0:
402,192,320476,1,0,0:0:0:0:
109,192,320476,1,0,0:0:0:0:
36,192,320476,1,0,0:0:0:0:
475,192,320476,1,0,0:0:0:0:
182,192,320551,1,0,0:0:0:0:
329,192,320626,1,0,0:0:0:0:
475,192,320626,1,0,0:0:0:0:
256,192,320626,1,0,0:0:0:0:
402,192,320626,1,0,0:0:0:0:
36,192,320701,1,0,0:0:0:0:
109,192,320776,1,0,0:0:0:0:
182,192,320776,1,0,0:0:0:0:
402,192,320776,1,0,0:0:0:0:
329,192,320851,1,0,0:0:0:0:
475,192,320926,1,0,0:0:0:0:
256,192,320926,1,0,0:0:0:0:
182,192,320926,1,0,0:0:0:0:
36,192,320926,1,0,0:0:0:0:
329,192,321001,1,0,0:0:0:0:
256,192,321076,1,0,0:0:0:0:
36,192,321076,1,0,0:0:0:0:
402,192,321076,1,0,0:0:0:0:
109,192,321076,1,0,0:0:0:0:
182,192,321151,1,0,0:0:0:0:
475,192,321151,1,0,0:0:0:0:
329,192,321226,1,0,0:0:0:0:
109,192,321226,1,0,0:0:0:0:
402,192,321226,1,0,0:0:0:0:
256,192,321301,1,0,0:0:0:0:
182,192,321376,1,0,0:0:0:0:
475,192,321376,1,0,0:0:0:0:
36,192,321376,1,0,0:0:0:0:
329,192,321376,1,0,0:0:0:0:
402,192,321451,1,0,0:0:0:0:
109,192,321526,1,0,0:0:0:0:
475,192,321526,1,0,0:0:0:0:
36,192,321526,1,0,0:0:0:0:
256,192,321601,1,0,0:0:0:0:
329,192,321601,1,0,0:0:0:0:
109,192,321676,1,0,0:0:0:0:
402,192,321676,1,0,0:0:0:0:
182,192,321676,1,0,0:0:0:0:
475,192,321676,1,0,0:0:0:0:
329,192,321751,1,0,0:0:0:0:
182,192,321826,1,0,0:0:0:0:
402,192,321826,1,0,0:0:0:0:
256,192,321826,1,0,0:0:0:0:
109,192,321826,1,0,0:0:0:0:
36,192,321901,1,0,0:0:0:0:
109,192,321976,1,0,0:0:0:0:
182,192,321976,1,0,0:0:0:0:
475,192,321976,1,0,0:0:0:0:
329,192,322051,1,0,0:0:0:0:
402,192,322126,1,0,0:0:0:0:
256,192,322126,1,0,0:0:0:0:
36,192,322126,1,0,0:0:0:0:
475,192,322126,1,0,0:0:0:0:
182,192,322201,1,0,0:0:0:0:
256,192,322276,1,0,0:0:0:0:
36,192,322276,1,0,0:0:0:0:
475,192,322276,1,0,0:0:0:0:
402,192,322276,1,0,0:0:0:0:
329,192,322351,1,0,0:0:0:0:
109,192,322351,1,0,0:0:0:0:
182,192,322426,1,0,0:0:0:0:
402,192,322426,1,0,0:0:0:0:
475,192,322426,1,0,0:0:0:0:
256,192,322501,1,0,0:0:0:0:
329,192,322576,1,0,0:0:0:0:
109,192,322576,1,0,0:0:0:0:
36,192,322576,1,0,0:0:0:0:
182,192,322576,1,0,0:0:0:0:
475,192,322651,1,0,0:0:0:0:
329,192,322726,1,0,0:0:0:0:
109,192,322726,1,0,0:0:0:0:
36,192,322726,1,0,0:0:0:0:
256,192,322801,1,0,0:0:0:0:
182,192,322801,1,0,0:0:0:0:
402,192,322876,1,0,0:0:0:0:
109,192,322876,1,0,0:0:0:0:
36,192,322876,1,0,0:0:0:0:
475,192,322876,1,0,0:0:0:0:
329,192,322951,1,0,0:0:0:0:
182,192,323026,1,0,0:0:0:0:
475,192,323026,1,0,0:0:0:0:
256,192,323026,1,0,0:0:0:0:
402,192,323026,1,0,0:0:0:0:
36,192,323101,1,0,0:0:0:0:
109,192,323176,1,0,0:0:0:0:
182,192,323176,1,0,0:0:0:0:
402,192,323176,1,0,0:0:0:0:
329,192,323251,1,0,0:0:0:0:
475,192,323326,1,0,0:0:0:0:
256,192,323326,1,0,0:0:0:0:
182,192,323326,1,0,0:0:0:0:
36,192,323326,1,0,0:0:0:0:
329,192,323401,1,0,0:0:0:0:
256,192,323476,1,0,0:0:0:0:
36,192,323476,1,0,0:0:0:0:
402,192,323476,1,0,0:0:0:0:
109,192,323476,1,0,0:0:0:0:
182,192,323551,1,0,0:0:0:0:
475,192,323551,1,0,0:0:0:0:
329,192,323626,1,0,0:0:0:0:
109,192,323626,1,0,0:0:0:0:
402,192,323626,1,0,0:0:0:0:
256,192,323701,1,0,0:0:0:0:
182,192,323776,1,0,0:0:0:0:
475,192,323776,1,0,0:0:0:0:
36,192,323776,1,0,0:0:0:0:
329,192,323776,1,0,0:0:0:0:
402,192,323851,1,0,0:0:0:0:
109,192,323926,1,0,0:0:0:0:
256,192,323926,1,0,0:0:0:0:
36,192,323926,1,0,0:0:0:0:
475,192,324001,1,0,0:0:0:0:
329,192,324001,1,0,0:0:0:0:
109,192,324076,1,0,0:0:0:0:
402,192,324076,1,0,0:0:0:0:
182,192,324076,1,0,0:0:0:0:
256,192,324076,1,0,0:0:0:0:
329,192,324151,1,0,0:0:0:0:
36,192,324226,1,0,0:0:0:0:
475,192,324226,1,0,0:0:0:0:
256,192,324226,1,0,0:0:0:0:
402,192,324226,1,0,0:0:0:0:
182,192,324301,1,0,0:0:0:0:
109,192,324301,1,0,0:0:0:0:
475,192,324376,1,0,0:0:0:0:
329,192,324376,1,0,0:0:0:0:
256,192,324376,1,0,0:0:0:0:
36,192,324376,1,0,0:0:0:0:
402,192,324376,1,0,0:0:0:0:
182,192,324451,1,0,0:0:0:0:
402,192,324526,1,0,0:0:0:0:
109,192,324526,1,0,0:0:0:0:
36,192,324526,1,0,0:0:0:0:
329,192,324526,1,0,0:0:0:0:
256,192,324601,1,0,0:0:0:0:
182,192,324676,1,0,0:0:0:0:
109,192,324676,1,0,0:0:0:0:
475,192,324676,1,0,0:0:0:0:
402,192,324676,1,0,0:0:0:0:
36,192,324751,1,0,0:0:0:0:
329,192,324751,1,0,0:0:0:0:
256,192,324826,1,0,0:0:0:0:
475,192,324826,1,0,0:0:0:0:
182,192,324826,1,0,0:0:0:0:
402,192,324901,1,0,0:0:0:0:
36,192,324976,1,0,0:0:0:0:
329,192,324976,1,0,0:0:0:0:
109,192,324976,1,0,0:0:0:0:
256,192,324976,1,0,0:0:0:0:
475,192,325051,1,0,0:0:0:0:
402,192,325126,1,0,0:0:0:0:
256,192,325126,1,0,0:0:0:0:
182,192,325126,1,0,0:0:0:0:
109,192,325201,1,0,0:0:0:0:
329,192,325201,1,0,0:0:0:0:
36,192,325276,1,0,0:0:0:0:
256,192,325276,1,0,0:0:0:0:
475,192,325276,1,0,0:0:0:0:
182,192,325276,1,0,0:0:0:0:
402,192,325351,1,0,0:0:0:0:
329,192,325426,1,0,0:0:0:0:
182,192,325426,1,0,0:0:0:0:
109,192,325426,1,0,0:0:0:0:
36,192,325426,1,0,0:0:0:0:
256,192,325501,1,0,0:0:0:0:
402,192,325501,1,0,0:0:0:0:
475,192,325576,1,0,0:0:0:0:
109,192,325576,1,0,0:0:0:0:
329,192,325576,1,0,0:0:0:0:
36,192,325576,1,0,0:0:0:0:
182,192,325576,1,0,0:0:0:0:
256,192,325651,1,0,0:0:0:0:
182,192,325726,1,0,0:0:0:0:
475,192,325726,1,0,0:0:0:0:
329,192,325726,1,0,0:0:0:0:
402,192,325726,1,0,0:0:0:0:
256,192,325801,1,0,0:0:0:0:
109,192,325876,1,0,0:0:0:0:
475,192,325876,1,0,0:0:0:0:
402,192,325876,1,0,0:0:0:0:
36,192,325876,1,0,0:0:0:0:
329,192,325951,1,0,0:0:0:0:
182,192,325951,1,0,0:0:0:0:
36,192,326026,1,0,0:0:0:0:
109,192,326026,1,0,0:0:0:0:
256,192,326026,1,0,0:0:0:0:
475,192,326101,1,0,0:0:0:0:
402,192,326176,1,0,0:0:0:0:
329,192,326176,1,0,0:0:0:0:
109,192,326176,1,0,0:0:0:0:
36,192,326176,1,0,0:0:0:0:
182,192,326251,1,0,0:0:0:0:
256,192,326326,1,0,0:0:0:0:
402,192,326326,1,0,0:0:0:0:
475,192,326326,1,0,0:0:0:0:
109,192,326401,1,0,0:0:0:0:
329,192,326401,1,0,0:0:0:0:
36,192,326476,1,0,0:0:0:0:
402,192,326476,1,0,0:0:0:0:
182,192,326476,1,0,0:0:0:0:
256,192,326551,1,0,0:0:0:0:
109,192,326626,1,0,0:0:0:0:
475,192,326626,1,0,0:0:0:0:
329,192,326626,1,0,0:0:0:0:
402,192,326626,1,0,0:0:0:0:
256,192,326701,1,0,0:0:0:0:
475,192,326776,1,0,0:0:0:0:
36,192,326776,1,0,0:0:0:0:
329,192,326776,1,0,0:0:0:0:
182,192,326776,1,0,0:0:0:0:
109,192,326776,1,0,0:0:0:0:
256,192,326851,1,0,0:0:0:0:
402,192,326851,1,0,0:0:0:0:
36,192,326926,1,0,0:0:0:0:
182,192,326926,1,0,0:0:0:0:
329,192,326926,1,0,0:0:0:0:
475,192,327001,1,0,0:0:0:0:
109,192,327001,1,0,0:0:0:0:
402,192,327076,1,0,0:0:0:0:
256,192,327076,1,0,0:0:0:0:
36,192,327076,1,0,0:0:0:0:
475,192,327151,1,0,0:0:0:0:
182,192,327151,1,0,0:0:0:0:
329,192,327151,1,0,0:0:0:0:
256,192,327226,1,0,0:0:0:0:
109,192,327226,1,0,0:0:0:0:
36,192,327226,1,0,0:0:0:0:
329,192,327301,1,0,0:0:0:0:
182,192,327376,1,0,0:0:0:0:
475,192,327376,1,0,0:0:0:0:
36,192,327376,1,0,0:0:0:0:
402,192,327376,1,0,0:0:0:0:
256,192,327376,1,0,0:0:0:0:
109,192,327451,1,0,0:0:0:0:
475,192,327526,1,0,0:0:0:0:
182,192,327526,1,0,0:0:0:0:
329,192,327526,1,0,0:0:0:0:
256,192,327601,1,0,0:0:0:0:
402,192,327601,1,0,0:0:0:0:
109,192,327601,1,0,0:0:0:0:
475,192,327676,1,0,0:0:0:0:
36,192,327676,1,0,0:0:0:0:
182,192,327676,1,0,0:0:0:0:
329,192,327751,1,0,0:0:0:0:
109,192,327826,1,0,0:0:0:0:
402,192,327826,1,0,0:0:0:0:
256,192,327826,1,0,0:0:0:0:
36,192,327826,1,0,0:0:0:0:
182,192,327901,1,0,0:0:0:0:
36,192,327976,1,0,0:0:0:0:
329,192,327976,1,0,0:0:0:0:
109,192,327976,1,0,0:0:0:0:
402,192,327976,1,0,0:0:0:0:
475,192,327976,1,0,0:0:0:0:
182,192,328051,1,0,0:0:0:0:
256,192,328126,1,0,0:0:0:0:
475,192,328126,1,0,0:0:0:0:
329,192,328201,1,0,0:0:0:0:
475,192,328276,1,0,0:0:0:0:
109,192,328276,1,0,0:0:0:0:
402,192,328276,1,0,0:0:0:0:
36,192,328276,1,0,0:0:0:0:
182,192,328276,1,0,0:0:0:0:
329,192,328351,1,0,0:0:0:0:
36,192,328426,1,0,0:0:0:0:
256,192,328426,1,0,0:0:0:0:
182,192,328501,1,0,0:0:0:0:
36,192,328576,1,0,0:0:0:0:
109,192,328576,1,0,0:0:0:0:
475,192,328576,1,0,0:0:0:0:
402,192,328576,1,0,0:0:0:0:
329,192,328651,1,0,0:0:0:0:
182,192,328651,1,0,0:0:0:0:
256,192,328726,1,0,0:0:0:0:
329,192,328801,1,0,0:0:0:0:
182,192,328801,1,0,0:0:0:0:
475,192,328876,1,0,0:0:0:0:
402,192,328876,1,0,0:0:0:0:
109,192,328876,1,0,0:0:0:0:
36,192,328876,1,0,0:0:0:0:
182,192,328951,1,0,0:0:0:0:
329,192,328951,1,0,0:0:0:0:
256,192,329026,1,0,0:0:0:0:
329,192,329101,1,0,0:0:0:0:
182,192,329101,1,0,0:0:0:0:
402,192,329176,1,0,0:0:0:0:
109,192,329176,1,0,0:0:0:0:
475,192,329176,1,0,0:0:0:0:
36,192,329176,1,0,0:0:0:0:
256,192,329176,1,0,0:0:0:0:
182,192,329251,1,0,0:0:0:0:
329,192,329251,1,0,0:0:0:0:
109,192,329326,1,0,0:0:0:0:
36,192,329326,1,0,0:0:0:0:
256,192,329326,1,0,0:0:0:0:
402,192,329401,1,0,0:0:0:0:
475,192,329401,1,0,0:0:0:0:
329,192,329476,1,0,0:0:0:0:
182,192,329476,1,0,0:0:0:0:
109,192,329476,1,0,0:0:0:0:
402,192,329551,1,0,0:0:0:0:
36,192,329551,1,0,0:0:0:0:
256,192,329626,1,0,0:0:0:0:
329,192,329626,1,0,0:0:0:0:
475,192,329626,1,0,0:0:0:0:
109,192,329701,1,0,0:0:0:0:
36,192,329701,1,0,0:0:0:0:
475,192,329776,1,0,0:0:0:0:
402,192,329776,1,0,0:0:0:0:
182,192,329776,1,0,0:0:0:0:
256,192,329851,1,0,0:0:0:0:
36,192,329851,1,0,0:0:0:0:
182,192,329926,1,0,0:0:0:0:
109,192,329926,1,0,0:0:0:0:
402,192,329926,1,0,0:0:0:0:
329,192,330001,1,0,0:0:0:0:
475,192,330001,1,0,0:0:0:0:
182,192,330076,1,0,0:0:0:0:
256,192,330076,1,0,0:0:0:0:
36,192,330076,1,0,0:0:0:0:
475,192,330151,1,0,0:0:0:0:
329,192,330151,1,0,0:0:0:0:
109,192,330226,1,0,0:0:0:0:
402,192,330226,1,0,0:0:0:0:
36,192,330226,1,0,0:0:0:0:
182,192,330301,1,0,0:0:0:0:
256,192,330301,1,0,0:0:0:0:
402,192,330376,1,0,0:0:0:0:
475,192,330376,1,0,0:0:0:0:
36,192,330376,1,0,0:0:0:0:
109,192,330451,1,0,0:0:0:0:
256,192,330451,1,0,0:0:0:0:
182,192,330526,1,0,0:0:0:0:
329,192,330526,1,0,0:0:0:0:
475,192,330526,1,0,0:0:0:0:
402,192,330601,1,0,0:0:0:0:
36,192,330601,1,0,0:0:0:0:
182,192,330676,1,0,0:0:0:0:
109,192,330676,1,0,0:0:0:0:
256,192,330676,1,0,0:0:0:0:
329,192,330751,1,0,0:0:0:0:
402,192,330751,1,0,0:0:0:0:
109,192,330826,1,0,0:0:0:0:
36,192,330826,1,0,0:0:0:0:
256,192,330826,1,0,0:0:0:0:
329,192,330901,1,0,0:0:0:0:
475,192,330901,1,0,0:0:0:0:
182,192,330976,1,0,0:0:0:0:
402,192,330976,1,0,0:0:0:0:
36,192,330976,1,0,0:0:0:0:
256,192,331051,1,0,0:0:0:0:
475,192,331051,1,0,0:0:0:0:
329,192,331126,1,0,0:0:0:0:
182,192,331126,1,0,0:0:0:0:
402,192,331126,1,0,0:0:0:0:
109,192,331201,1,0,0:0:0:0:
36,192,331201,1,0,0:0:0:0:
329,192,331276,1,0,0:0:0:0:
256,192,331276,1,0,0:0:0:0:
475,192,331276,1,0,0:0:0:0:
109,192,331351,1,0,0:0:0:0:
182,192,331351,1,0,0:0:0:0:
256,192,331426,1,0,0:0:0:0:
36,192,331426,1,0,0:0:0:0:
475,192,331426,1,0,0:0:0:0:
329,192,331501,1,0,0:0:0:0:
402,192,331501,1,0,0:0:0:0:
109,192,331576,1,0,0:0:0:0:
475,192,331576,1,0,0:0:0:0:
182,192,331576,1,0,0:0:0:0:
256,192,331651,1,0,0:0:0:0:
329,192,331651,1,0,0:0:0:0:
402,192,331726,1,0,0:0:0:0:
36,192,331726,1,0,0:0:0:0:
109,192,331726,1,0,0:0:0:0:
182,192,331801,1,0,0:0:0:0:
256,192,331801,1,0,0:0:0:0:
109,192,331876,1,0,0:0:0:0:
475,192,331876,1,0,0:0:0:0:
329,192,331876,1,0,0:0:0:0:
182,192,331951,1,0,0:0:0:0:
36,192,331951,1,0,0:0:0:0:
402,192,332026,1,0,0:0:0:0:
256,192,332026,1,0,0:0:0:0:
475,192,332026,1,0,0:0:0:0:
109,192,332101,1,0,0:0:0:0:
329,192,332101,1,0,0:0:0:0:
256,192,332176,1,0,0:0:0:0:
36,192,332176,1,0,0:0:0:0:
475,192,332176,1,0,0:0:0:0:
329,192,332251,1,0,0:0:0:0:
182,192,332251,1,0,0:0:0:0:
402,192,332326,1,0,0:0:0:0:
36,192,332326,1,0,0:0:0:0:
109,192,332326,1,0,0:0:0:0:
256,192,332401,1,0,0:0:0:0:
475,192,332401,1,0,0:0:0:0:
182,192,332476,1,0,0:0:0:0:
329,192,332476,1,0,0:0:0:0:
402,192,332476,1,0,0:0:0:0:
36,192,332551,1,0,0:0:0:0:
256,192,332551,1,0,0:0:0:0:
402,192,332626,1,0,0:0:0:0:
109,192,332626,1,0,0:0:0:0:
475,192,332626,1,0,0:0:0:0:
329,192,332701,1,0,0:0:0:0:
182,192,332701,1,0,0:0:0:0:
256,192,332776,1,0,0:0:0:0:
475,192,332776,1,0,0:0:0:0:
109,192,332776,1,0,0:0:0:0:
36,192,332776,1,0,0:0:0:0:
329,192,332851,1,0,0:0:0:0:
402,192,332851,1,0,0:0:0:0:
182,192,332926,1,0,0:0:0:0:
256,192,332926,1,0,0:0:0:0:
36,192,332926,1,0,0:0:0:0:
329,192,333001,1,0,0:0:0:0:
475,192,333001,1,0,0:0:0:0:
109,192,333076,1,0,0:0:0:0:
182,192,333076,1,0,0:0:0:0:
402,192,333076,1,0,0:0:0:0:
256,192,333151,1,0,0:0:0:0:
475,192,333151,1,0,0:0:0:0:
402,192,333226,1,0,0:0:0:0:
329,192,333226,1,0,0:0:0:0:
109,192,333226,1,0,0:0:0:0:
182,192,333301,1,0,0:0:0:0:
256,192,333301,1,0,0:0:0:0:
36,192,333376,1,0,0:0:0:0:
329,192,333376,1,0,0:0:0:0:
475,192,333376,1,0,0:0:0:0:
256,192,333451,1,0,0:0:0:0:
182,192,333451,1,0,0:0:0:0:
402,192,333451,1,0,0:0:0:0:
475,192,333526,1,0,0:0:0:0:
109,192,333526,1,0,0:0:0:0:
36,192,333526,1,0,0:0:0:0:
329,192,333601,1,0,0:0:0:0:
182,192,333601,1,0,0:0:0:0:
256,192,333676,1,0,0:0:0:0:
402,192,333676,1,0,0:0:0:0:
36,192,333676,1,0,0:0:0:0:
475,192,333676,1,0,0:0:0:0:
109,192,333751,1,0,0:0:0:0:
182,192,333751,1,0,0:0:0:0:
402,192,333826,1,0,0:0:0:0:
475,192,333826,1,0,0:0:0:0:
329,192,333826,1,0,0:0:0:0:
109,192,333901,1,0,0:0:0:0:
182,192,333901,1,0,0:0:0:0:
36,192,333901,1,0,0:0:0:0:
329,192,333976,1,0,0:0:0:0:
402,192,333976,1,0,0:0:0:0:
475,192,333976,1,0,0:0:0:0:
36,192,334051,1,0,0:0:0:0:
256,192,334051,1,0,0:0:0:0:
109,192,334126,1,0,0:0:0:0:
182,192,334126,1,0,0:0:0:0:
329,192,334126,1,0,0:0:0:0:
475,192,334201,1,0,0:0:0:0:
256,192,334201,1,0,0:0:0:0:
402,192,334276,1,0,0:0:0:0:
109,192,334276,1,0,0:0:0:0:
36,192,334276,1,0,0:0:0:0:
182,192,334351,1,0,0:0:0:0:
256,192,334351,1,0,0:0:0:0:
36,192,334426,1,0,0:0:0:0:
475,192,334426,1,0,0:0:0:0:
402,192,334426,1,0,0:0:0:0:
329,192,334501,1,0,0:0:0:0:
182,192,334501,1,0,0:0:0:0:
36,192,334576,1,0,0:0:0:0:
256,192,334576,1,0,0:0:0:0:
109,192,334576,1,0,0:0:0:0:
475,192,334651,1,0,0:0:0:0:
329,192,334651,1,0,0:0:0:0:
109,192,334726,1,0,0:0:0:0:
182,192,334726,1,0,0:0:0:0:
256,192,334726,1,0,0:0:0:0:
402,192,334801,1,0,0:0:0:0:
36,192,334801,1,0,0:0:0:0:
329,192,334876,1,0,0:0:0:0:
182,192,334876,1,0,0:0:0:0:
475,192,334876,1,0,0:0:0:0:
256,192,334951,1,0,0:0:0:0:
109,192,334951,1,0,0:0:0:0:
329,192,335026,1,0,0:0:0:0:
402,192,335026,1,0,0:0:0:0:
475,192,335026,1,0,0:0:0:0:
182,192,335101,1,0,0:0:0:0:
36,192,335101,1,0,0:0:0:0:
256,192,335176,1,0,0:0:0:0:
329,192,335176,1,0,0:0:0:0:
402,192,335176,1,0,0:0:0:0:
109,192,335251,1,0,0:0:0:0:
475,192,335251,1,0,0:0:0:0:
182,192,335326,1,0,0:0:0:0:
256,192,335326,1,0,0:0:0:0:
36,192,335326,1,0,0:0:0:0:
329,192,335401,1,0,0:0:0:0:
402,192,335401,1,0,0:0:0:0:
182,192,335476,1,0,0:0:0:0:
109,192,335476,1,0,0:0:0:0:
256,192,335476,1,0,0:0:0:0:
402,192,335551,1,0,0:0:0:0:
36,192,335551,1,0,0:0:0:0:
329,192,335626,1,0,0:0:0:0:
109,192,335626,1,0,0:0:0:0:
475,192,335626,1,0,0:0:0:0:
182,192,335701,1,0,0:0:0:0:
256,192,335701,1,0,0:0:0:0:
475,192,335776,1,0,0:0:0:0:
402,192,335776,1,0,0:0:0:0:
36,192,335776,1,0,0:0:0:0:
182,192,335851,1,0,0:0:0:0:
256,192,335851,1,0,0:0:0:0:
109,192,335926,1,0,0:0:0:0:
329,192,335926,1,0,0:0:0:0:
36,192,335926,1,0,0:0:0:0:
402,192,336001,1,0,0:0:0:0:
475,192,336001,1,0,0:0:0:0:
109,192,336076,1,0,0:0:0:0:
182,192,336076,1,0,0:0:0:0:
256,192,336076,1,0,0:0:0:0:
402,192,336151,1,0,0:0:0:0:
329,192,336151,1,0,0:0:0:0:
256,192,336226,1,0,0:0:0:0:
109,192,336226,1,0,0:0:0:0:
475,192,336226,1,0,0:0:0:0:
182,192,336301,1,0,0:0:0:0:
36,192,336301,1,0,0:0:0:0:
256,192,336376,1,0,0:0:0:0:
475,192,336376,1,0,0:0:0:0:
329,192,336376,1,0,0:0:0:0:
402,192,336376,1,0,0:0:0:0:
182,192,336451,1,0,0:0:0:0:
36,192,336451,1,0,0:0:0:0:
109,192,336526,1,0,0:0:0:0:
475,192,336526,1,0,0:0:0:0:
402,192,336526,1,0,0:0:0:0:
329,192,336601,1,0,0:0:0:0:
182,192,336601,1,0,0:0:0:0:
402,192,336676,1,0,0:0:0:0:
109,192,336676,1,0,0:0:0:0:
256,192,336676,1,0,0:0:0:0:
36,192,336676,1,0,0:0:0:0:
475,192,336751,1,0,0:0:0:0:
182,192,336751,1,0,0:0:0:0:
36,192,336826,1,0,0:0:0:0:
109,192,336826,1,0,0:0:0:0:
329,192,336826,1,0,0:0:0:0:
402,192,336901,1,0,0:0:0:0:
475,192,336901,1,0,0:0:0:0:
109,192,336976,1,0,0:0:0:0:
182,192,336976,1,0,0:0:0:0:
329,192,336976,1,0,0:0:0:0:
256,192,336976,1,0,0:0:0:0:
402,192,337051,1,0,0:0:0:0:
475,192,337051,1,0,0:0:0:0:
36,192,337126,1,0,0:0:0:0:
256,192,337126,1,0,0:0:0:0:
109,192,337126,1,0,0:0:0:0:
329,192,337201,1,0,0:0:0:0:
182,192,337201,1,0,0:0:0:0:
402,192,337276,1,0,0:0:0:0:
475,192,337276,1,0,0:0:0:0:
109,192,337276,1,0,0:0:0:0:
36,192,337276,1,0,0:0:0:0:
329,192,337351,1,0,0:0:0:0:
182,192,337351,1,0,0:0:0:0:
256,192,337426,1,0,0:0:0:0:
475,192,337426,1,0,0:0:0:0:
36,192,337426,1,0,0:0:0:0:
402,192,337501,1,0,0:0:0:0:
109,192,337501,1,0,0:0:0:0:
182,192,337576,1,0,0:0:0:0:
329,192,337576,1,0,0:0:0:0:
256,192,337576,1,0,0:0:0:0:
475,192,337576,1,0,0:0:0:0:
36,192,337651,1,0,0:0:0:0:
109,192,337651,1,0,0:0:0:0:
402,192,337726,1,0,0:0:0:0:
329,192,337726,1,0,0:0:0:0:
182,192,337726,1,0,0:0:0:0:
36,192,337801,1,0,0:0:0:0:
475,192,337801,1,0,0:0:0:0:
256,192,337876,1,0,0:0:0:0:
109,192,337876,1,0,0:0:0:0:
182,192,337876,1,0,0:0:0:0:
329,192,337876,1,0,0:0:0:0:
402,192,337951,1,0,0:0:0:0:
36,192,337951,1,0,0:0:0:0:
256,192,338026,1,0,0:0:0:0:
109,192,338026,1,0,0:0:0:0:
475,192,338026,1,0,0:0:0:0:
329,192,338101,1,0,0:0:0:0:
402,192,338101,1,0,0:0:0:0:
182,192,338176,1,0,0:0:0:0:
109,192,338176,1,0,0:0:0:0:
475,192,338176,1,0,0:0:0:0:
36,192,338176,1,0,0:0:0:0:
256,192,338251,1,0,0:0:0:0:
329,192,338251,1,0,0:0:0:0:
402,192,338326,1,0,0:0:0:0:
36,192,338326,1,0,0:0:0:0:
475,192,338326,1,0,0:0:0:0:
109,192,338401,1,0,0:0:0:0:
256,192,338401,1,0,0:0:0:0:
182,192,338476,1,0,0:0:0:0:
329,192,338476,1,0,0:0:0:0:
402,192,338476,1,0,0:0:0:0:
36,192,338476,1,0,0:0:0:0:
475,192,338551,1,0,0:0:0:0:
256,192,338551,1,0,0:0:0:0:
182,192,338626,1,0,0:0:0:0:
109,192,338626,1,0,0:0:0:0:
329,192,338626,1,0,0:0:0:0:
475,192,338701,1,0,0:0:0:0:
256,192,338701,1,0,0:0:0:0:
402,192,338701,1,0,0:0:0:0:
109,192,338776,1,0,0:0:0:0:
182,192,338776,1,0,0:0:0:0:
329,192,338776,1,0,0:0:0:0:
36,192,338776,1,0,0:0:0:0:
402,192,338851,1,0,0:0:0:0:
256,192,338926,1,0,0:0:0:0:
475,192,338926,1,0,0:0:0:0:
109,192,338926,1,0,0:0:0:0:
182,192,339001,1,0,0:0:0:0:
329,192,339001,1,0,0:0:0:0:
475,192,339076,1,0,0:0:0:0:
256,192,339076,1,0,0:0:0:0:
36,192,339076,1,0,0:0:0:0:
109,192,339151,1,0,0:0:0:0:
182,192,339151,1,0,0:0:0:0:
329,192,339226,1,0,0:0:0:0:
475,192,339226,1,0,0:0:0:0:
256,192,339301,1,0,0:0:0:0:
36,192,339301,1,0,0:0:0:0:
402,192,339376,1,0,0:0:0:0:
182,192,339376,1,0,0:0:0:0:
109,192,339376,1,0,0:0:0:0:
475,192,339451,1,0,0:0:0:0:
256,192,339451,1,0,0:0:0:0:
36,192,339526,1,0,0:0:0:0:
329,192,339526,1,0,0:0:0:0:
182,192,339601,1,0,0:0:0:0:
402,192,339601,1,0,0:0:0:0:
256,192,339676,1,0,0:0:0:0:
109,192,339676,1,0,0:0:0:0:
475,192,339676,1,0,0:0:0:0:
329,192,339751,1,0,0:0:0:0:
402,192,339751,1,0,0:0:0:0:
182,192,339826,1,0,0:0:0:0:
36,192,339826,1,0,0:0:0:0:
256,192,339901,1,0,0:0:0:0:
329,192,339901,1,0,0:0:0:0:
402,192,339976,1,0,0:0:0:0:
109,192,339976,1,0,0:0:0:0:
475,192,339976,1,0,0:0:0:0:
256,192,340051,1,0,0:0:0:0:
36,192,340051,1,0,0:0:0:0:
329,192,340126,1,0,0:0:0:0:
109,192,340126,1,0,0:0:0:0:
182,192,340201,1,0,0:0:0:0:
475,192,340201,1,0,0:0:0:0:
256,192,340276,1,0,0:0:0:0:
329,192,340276,1,0,0:0:0:0:
36,192,340276,1,0,0:0:0:0:
182,192,340351,1,0,0:0:0:0:
402,192,340351,1,0,0:0:0:0:
475,192,340426,1,0,0:0:0:0:
109,192,340426,1,0,0:0:0:0:
182,192,340501,1,0,0:0:0:0:
329,192,340501,1,0,0:0:0:0:
402,192,340576,1,0,0:0:0:0:
36,192,340576,1,0,0:0:0:0:
475,192,340576,1,0,0:0:0:0:
256,192,340651,1,0,0:0:0:0:
329,192,340651,1,0,0:0:0:0:
182,192,340726,1,0,0:0:0:0:
109,192,340726,1,0,0:0:0:0:
475,192,340801,1,0,0:0:0:0:
256,192,340801,1,0,0:0:0:0:
36,192,340876,1,0,0:0:0:0:
329,192,340876,1,0,0:0:0:0:
182,192,340876,1,0,0:0:0:0:
109,192,340951,1,0,0:0:0:0:
402,192,340951,1,0,0:0:0:0:
182,192,341026,1,0,0:0:0:0:
475,192,341026,1,0,0:0:0:0:
329,192,341101,1,0,0:0:0:0:
109,192,341101,1,0,0:0:0:0:
36,192,341176,1,0,0:0:0:0:
402,192,341176,1,0,0:0:0:0:
475,192,341176,1,0,0:0:0:0:
182,192,341251,1,0,0:0:0:0:
256,192,341251,1,0,0:0:0:0:
329,192,341326,1,0,0:0:0:0:
109,192,341326,1,0,0:0:0:0:
256,192,341401,1,0,0:0:0:0:
475,192,341401,1,0,0:0:0:0:
109,192,341476,1,0,0:0:0:0:
402,192,341476,1,0,0:0:0:0:
36,192,341476,1,0,0:0:0:0:
182,192,341551,1,0,0:0:0:0:
256,192,341551,1,0,0:0:0:0:
475,192,341626,1,0,0:0:0:0:
329,192,341626,1,0,0:0:0:0:
36,192,341701,1,0,0:0:0:0:
402,192,341701,1,0,0:0:0:0:
182,192,341776,1,0,0:0:0:0:
109,192,341776,1,0,0:0:0:0:
475,192,341776,1,0,0:0:0:0:
329,192,341851,1,0,0:0:0:0:
402,192,341851,1,0,0:0:0:0:
256,192,341926,1,0,0:0:0:0:
109,192,341926,1,0,0:0:0:0:
36,192,342001,1,0,0:0:0:0:
475,192,342001,1,0,0:0:0:0:
329,192,342076,1,0,0:0:0:0:
402,192,342076,1,0,0:0:0:0:
256,192,342076,1,0,0:0:0:0:
182,192,342151,1,0,0:0:0:0:
109,192,342151,1,0,0:0:0:0:
402,192,342226,1,0,0:0:0:0:
475,192,342226,1,0,0:0:0:0:
256,192,342301,1,0,0:0:0:0:
182,192,342301,1,0,0:0:0:0:
36,192,342376,1,0,0:0:0:0:
109,192,342376,1,0,0:0:0:0:
475,192,342376,1,0,0:0:0:0:
256,192,342451,1,0,0:0:0:0:
329,192,342451,1,0,0:0:0:0:
182,192,342526,1,0,0:0:0:0:
402,192,342526,1,0,0:0:0:0:
329,192,342601,1,0,0:0:0:0:
475,192,342601,1,0,0:0:0:0:
256,192,342676,1,0,0:0:0:0:
109,192,342676,1,0,0:0:0:0:
36,192,342676,1,0,0:0:0:0:
475,192,342751,1,0,0:0:0:0:
402,192,342751,1,0,0:0:0:0:
329,192,342826,1,0,0:0:0:0:
256,192,342826,1,0,0:0:0:0:
36,192,342901,1,0,0:0:0:0:
182,192,342901,1,0,0:0:0:0:
402,192,342976,1,0,0:0:0:0:
475,192,342976,1,0,0:0:0:0:
109,192,342976,1,0,0:0:0:0:
256,192,343051,1,0,0:0:0:0:
36,192,343051,1,0,0:0:0:0:
182,192,343126,1,0,0:0:0:0:
329,192,343126,1,0,0:0:0:0:
402,192,343201,1,0,0:0:0:0:
109,192,343201,1,0,0:0:0:0:
256,192,343276,1,0,0:0:0:0:
36,192,343276,1,0,0:0:0:0:
475,192,343276,1,0,0:0:0:0:
329,192,343351,1,0,0:0:0:0:
402,192,343351,1,0,0:0:0:0:
109,192,343426,1,0,0:0:0:0:
182,192,343426,1,0,0:0:0:0:
256,192,343501,1,0,0:0:0:0:
329,192,343501,1,0,0:0:0:0:
475,192,343576,1,0,0:0:0:0:
109,192,343576,1,0,0:0:0:0:
402,192,343576,1,0,0:0:0:0:
36,192,343576,1,0,0:0:0:0:
256,192,343651,1,0,0:0:0:0:
182,192,343651,1,0,0:0:0:0:
329,192,343726,1,0,0:0:0:0:
402,192,343726,1,0,0:0:0:0:
475,192,343726,1,0,0:0:0:0:
109,192,343801,1,0,0:0:0:0:
36,192,343801,1,0,0:0:0:0:
329,192,343876,1,0,0:0:0:0:
182,192,343876,1,0,0:0:0:0:
256,192,343876,1,0,0:0:0:0:
475,192,343876,1,0,0:0:0:0:
109,192,343951,1,0,0:0:0:0:
36,192,343951,1,0,0:0:0:0:
402,192,344026,1,0,0:0:0:0:
256,192,344026,1,0,0:0:0:0:
182,192,344026,1,0,0:0:0:0:
329,192,344101,1,0,0:0:0:0:
475,192,344101,1,0,0:0:0:0:
109,192,344101,1,0,0:0:0:0:
256,192,344176,1,0,0:0:0:0:
402,192,344176,1,0,0:0:0:0:
36,192,344176,1,0,0:0:0:0:
182,192,344251,1,0,0:0:0:0:
475,192,344251,1,0,0:0:0:0:
256,192,344326,1,0,0:0:0:0:
329,192,344326,1,0,0:0:0:0:
36,192,344326,1,0,0:0:0:0:
402,192,344401,1,0,0:0:0:0:
109,192,344401,1,0,0:0:0:0:
475,192,344401,1,0,0:0:0:0:
182,192,344476,1,0,0:0:0:0:
256,192,344476,1,0,0:0:0:0:
329,192,344476,1,0,0:0:0:0:
402,192,344551,1,0,0:0:0:0:
36,192,344551,1,0,0:0:0:0:
109,192,344626,1,0,0:0:0:0:
182,192,344626,1,0,0:0:0:0:
475,192,344626,1,0,0:0:0:0:
36,192,344701,1,0,0:0:0:0:
256,192,344701,1,0,0:0:0:0:
329,192,344701,1,0,0:0:0:0:
402,192,344776,1,0,0:0:0:0:
109,192,344776,1,0,0:0:0:0:
182,192,344776,1,0,0:0:0:0:
475,192,344776,1,0,0:0:0:0:
329,192,344851,1,0,0:0:0:0:
256,192,344851,1,0,0:0:0:0:
475,192,344926,1,0,0:0:0:0:
109,192,344926,1,0,0:0:0:0:
36,192,344926,1,0,0:0:0:0:
402,192,345001,1,0,0:0:0:0:
182,192,345001,1,0,0:0:0:0:
256,192,345076,1,0,0:0:0:0:
329,192,345076,1,0,0:0:0:0:
475,192,345076,1,0,0:0:0:0:
36,192,345076,1,0,0:0:0:0:
109,192,345151,1,0,0:0:0:0:
182,192,345151,1,0,0:0:0:0:
402,192,345226,1,0,0:0:0:0:
256,192,345226,1,0,0:0:0:0:
329,192,345226,1,0,0:0:0:0:
36,192,345301,1,0,0:0:0:0:
109,192,345301,1,0,0:0:0:0:
182,192,345376,1,0,0:0:0:0:
329,192,345376,1,0,0:0:0:0:
402,192,345376,1,0,0:0:0:0:
475,192,345376,1,0,0:0:0:0:
256,192,345451,1,0,0:0:0:0:
109,192,345451,1,0,0:0:0:0:
402,192,345526,1,0,0:0:0:0:
36,192,345526,1,0,0:0:0:0:
475,192,345526,1,0,0:0:0:0:
182,192,345601,1,0,0:0:0:0:
256,192,345601,1,0,0:0:0:0:
402,192,345676,1,0,0:0:0:0:
36,192,345676,1,0,0:0:0:0:
329,192,345676,1,0,0:0:0:0:
109,192,345676,1,0,0:0:0:0:
475,192,345751,1,0,0:0:0:0:
182,192,345751,1,0,0:0:0:0:
256,192,345826,1,0,0:0:0:0:
329,192,345826,1,0,0:0:0:0:
36,192,345826,1,0,0:0:0:0:
402,192,345901,1,0,0:0:0:0:
109,192,345901,1,0,0:0:0:0:
256,192,345976,1,0,0:0:0:0:
182,192,345976,1,0,0:0:0:0:
329,192,345976,1,0,0:0:0:0:
475,192,345976,1,0,0:0:0:0:
36,192,346051,1,0,0:0:0:0:
109,192,346051,1,0,0:0:0:0:
329,192,346126,1,0,0:0:0:0:
475,192,346126,1,0,0:0:0:0:
256,192,346126,1,0,0:0:0:0:
182,192,346201,1,0,0:0:0:0:
402,192,346201,1,0,0:0:0:0:
109,192,346276,1,0,0:0:0:0:
256,192,346276,1,0,0:0:0:0:
475,192,346276,1,0,0:0:0:0:
36,192,346351,1,0,0:0:0:0:
329,192,346351,1,0,0:0:0:0:
402,192,346426,1,0,0:0:0:0:
182,192,346426,1,0,0:0:0:0:
109,192,346426,1,0,0:0:0:0:
329,192,346501,1,0,0:0:0:0:
256,192,346501,1,0,0:0:0:0:
475,192,346501,1,0,0:0:0:0:
109,192,346576,1,0,0:0:0:0:
402,192,346576,1,0,0:0:0:0:
36,192,346576,1,0,0:0:0:0:
182,192,346576,1,0,0:0:0:0:
256,192,346651,1,0,0:0:0:0:
329,192,346726,1,0,0:0:0:0:
182,192,346726,1,0,0:0:0:0:
475,192,346726,1,0,0:0:0:0:
109,192,346801,1,0,0:0:0:0:
256,192,346801,1,0,0:0:0:0:
36,192,346876,1,0,0:0:0:0:
402,192,346876,1,0,0:0:0:0:
475,192,346876,1,0,0:0:0:0:
182,192,346876,1,0,0:0:0:0:
109,192,346951,1,0,0:0:0:0:
329,192,346951,1,0,0:0:0:0:
256,192,347026,1,0,0:0:0:0:
402,192,347026,1,0,0:0:0:0:
182,192,347026,1,0,0:0:0:0:
475,192,347101,1,0,0:0:0:0:
36,192,347101,1,0,0:0:0:0:
402,192,347176,1,0,0:0:0:0:
329,192,347176,1,0,0:0:0:0:
256,192,347176,1,0,0:0:0:0:
109,192,347176,1,0,0:0:0:0:
182,192,347251,1,0,0:0:0:0:
329,192,347326,1,0,0:0:0:0:
109,192,347326,1,0,0:0:0:0:
36,192,347326,1,0,0:0:0:0:
402,192,347401,1,0,0:0:0:0:
182,192,347401,1,0,0:0:0:0:
256,192,347476,1,0,0:0:0:0:
329,192,347476,1,0,0:0:0:0:
36,192,347476,1,0,0:0:0:0:
475,192,347476,1,0,0:0:0:0:
182,192,347551,1,0,0:0:0:0:
109,192,347626,1,0,0:0:0:0:
329,192,347626,1,0,0:0:0:0:
256,192,347626,1,0,0:0:0:0:
402,192,347701,1,0,0:0:0:0:
475,192,347701,1,0,0:0:0:0:
329,192,347776,1,0,0:0:0:0:
109,192,347776,1,0,0:0:0:0:
182,192,347776,1,0,0:0:0:0:
36,192,347776,1,0,0:0:0:0:
256,192,347851,1,0,0:0:0:0:
402,192,347851,1,0,0:0:0:0:
182,192,347926,1,0,0:0:0:0:
36,192,347926,1,0,0:0:0:0:
475,192,347926,1,0,0:0:0:0:
256,192,348001,1,0,0:0:0:0:
109,192,348001,1,0,0:0:0:0:
329,192,348076,1,0,0:0:0:0:
36,192,348076,1,0,0:0:0:0:
402,192,348076,1,0,0:0:0:0:
475,192,348076,1,0,0:0:0:0:
256,192,348151,1,0,0:0:0:0:
109,192,348151,1,0,0:0:0:0:
182,192,348226,1,0,0:0:0:0:
402,192,348226,1,0,0:0:0:0:
329,192,348226,1,0,0:0:0:0:
256,192,348301,1,0,0:0:0:0:
475,192,348301,1,0,0:0:0:0:
329,192,348376,1,0,0:0:0:0:
109,192,348376,1,0,0:0:0:0:
402,192,348376,1,0,0:0:0:0:
36,192,348376,1,0,0:0:0:0:
182,192,348376,1,0,0:0:0:0:
256,192,348451,1,0,0:0:0:0:
475,192,348451,1,0,0:0:0:0:
402,192,348526,1,0,0:0:0:0:
36,192,348526,1,0,0:0:0:0:
182,192,348526,1,0,0:0:0:0:
329,192,348601,1,0,0:0:0:0:
475,192,348601,1,0,0:0:0:0:
182,192,348676,1,0,0:0:0:0:
256,192,348676,1,0,0:0:0:0:
109,192,348676,1,0,0:0:0:0:
36,192,348676,1,0,0:0:0:0:
402,192,348751,1,0,0:0:0:0:
329,192,348751,1,0,0:0:0:0:
256,192,348826,1,0,0:0:0:0:
182,192,348826,1,0,0:0:0:0:
475,192,348826,1,0,0:0:0:0:
109,192,348901,1,0,0:0:0:0:
36,192,348901,1,0,0:0:0:0:
182,192,348976,1,0,0:0:0:0:
475,192,348976,1,0,0:0:0:0:
402,192,348976,1,0,0:0:0:0:
329,192,348976,1,0,0:0:0:0:
256,192,349051,1,0,0:0:0:0:
36,192,349051,1,0,0:0:0:0:
329,192,349126,1,0,0:0:0:0:
109,192,349126,1,0,0:0:0:0:
402,192,349126,1,0,0:0:0:0:
182,192,349201,1,0,0:0:0:0:
475,192,349201,1,0,0:0:0:0:
329,192,349276,1,0,0:0:0:0:
256,192,349276,1,0,0:0:0:0:
36,192,349276,1,0,0:0:0:0:
109,192,349276,1,0,0:0:0:0:
475,192,349351,1,0,0:0:0:0:
182,192,349351,1,0,0:0:0:0:
109,192,349426,1,0,0:0:0:0:
402,192,349426,1,0,0:0:0:0:
36,192,349426,1,0,0:0:0:0:
329,192,349501,1,0,0:0:0:0:
256,192,349501,1,0,0:0:0:0:
182,192,349576,1,0,0:0:0:0:
402,192,349576,1,0,0:0:0:0:
475,192,349576,1,0,0:0:0:0:
36,192,349576,1,0,0:0:0:0:
109,192,349651,1,0,0:0:0:0:
256,192,349651,1,0,0:0:0:0:
329,192,349726,1,0,0:0:0:0:
182,192,349726,1,0,0:0:0:0:
36,192,349726,1,0,0:0:0:0:
402,192,349801,1,0,0:0:0:0:
475,192,349801,1,0,0:0:0:0:
256,192,349876,1,0,0:0:0:0:
329,192,349876,1,0,0:0:0:0:
109,192,349876,1,0,0:0:0:0:
182,192,349876,1,0,0:0:0:0:
475,192,349951,1,0,0:0:0:0:
402,192,349951,1,0,0:0:0:0:
109,192,350026,1,0,0:0:0:0:
36,192,350026,1,0,0:0:0:0:
256,192,350026,1,0,0:0:0:0:
182,192,350101,1,0,0:0:0:0:
475,192,350101,1,0,0:0:0:0:
329,192,350176,1,0,0:0:0:0:
109,192,350176,1,0,0:0:0:0:
402,192,350176,1,0,0:0:0:0:
36,192,350176,1,0,0:0:0:0:
256,192,350251,1,0,0:0:0:0:
475,192,350251,1,0,0:0:0:0:
182,192,350326,1,0,0:0:0:0:
329,192,350326,1,0,0:0:0:0:
402,192,350326,1,0,0:0:0:0:
109,192,350401,1,0,0:0:0:0:
36,192,350401,1,0,0:0:0:0:
182,192,350476,1,0,0:0:0:0:
402,192,350476,1,0,0:0:0:0:
256,192,350476,1,0,0:0:0:0:
475,192,350476,1,0,0:0:0:0:
109,192,350551,1,0,0:0:0:0:
329,192,350551,1,0,0:0:0:0:
256,192,350626,1,0,0:0:0:0:
36,192,350626,1,0,0:0:0:0:
475,192,350626,1,0,0:0:0:0:
182,192,350701,1,0,0:0:0:0:
402,192,350701,1,0,0:0:0:0:
109,192,350776,1,0,0:0:0:0:
475,192,350776,1,0,0:0:0:0:
329,192,350776,1,0,0:0:0:0:
36,192,350776,1,0,0:0:0:0:
256,192,350851,1,0,0:0:0:0:
182,192,350851,1,0,0:0:0:0:
402,192,350926,1,0,0:0:0:0:
36,192,350926,1,0,0:0:0:0:
109,192,350926,1,0,0:0:0:0:
329,192,351001,1,0,0:0:0:0:
256,192,351001,1,0,0:0:0:0:
109,192,351076,1,0,0:0:0:0:
475,192,351076,1,0,0:0:0:0:
182,192,351076,1,0,0:0:0:0:
402,192,351076,1,0,0:0:0:0:
329,192,351151,1,0,0:0:0:0:
36,192,351151,1,0,0:0:0:0:
402,192,351226,1,0,0:0:0:0:
256,192,351226,1,0,0:0:0:0:
475,192,351226,1,0,0:0:0:0:
109,192,351301,1,0,0:0:0:0:
182,192,351301,1,0,0:0:0:0:
329,192,351376,1,0,0:0:0:0:
256,192,351376,1,0,0:0:0:0:
36,192,351376,1,0,0:0:0:0:
475,192,351376,1,0,0:0:0:0:
182,192,351451,1,0,0:0:0:0:
109,192,351451,1,0,0:0:0:0:
402,192,351526,1,0,0:0:0:0:
36,192,351526,1,0,0:0:0:0:
329,192,351526,1,0,0:0:0:0:
256,192,351601,1,0,0:0:0:0:
475,192,351601,1,0,0:0:0:0:
109,192,351676,1,0,0:0:0:0:
329,192,351676,1,0,0:0:0:0:
182,192,351676,1,0,0:0:0:0:
402,192,351676,1,0,0:0:0:0:
36,192,351751,1,0,0:0:0:0:
256,192,351751,1,0,0:0:0:0:
402,192,351826,1,0,0:0:0:0:
109,192,351826,1,0,0:0:0:0:
475,192,351826,1,0,0:0:0:0:
182,192,351901,1,0,0:0:0:0:
256,192,351901,1,0,0:0:0:0:
329,192,351976,1,0,0:0:0:0:
475,192,351976,1,0,0:0:0:0:
109,192,351976,1,0,0:0:0:0:
36,192,351976,1,0,0:0:0:0:
182,192,352051,1,0,0:0:0:0:
402,192,352051,1,0,0:0:0:0:
329,192,352126,1,0,0:0:0:0:
475,192,352126,1,0,0:0:0:0:
36,192,352126,1,0,0:0:0:0:
182,192,352201,1,0,0:0:0:0:
256,192,352201,1,0,0:0:0:0:
36,192,352276,1,0,0:0:0:0:
109,192,352276,1,0,0:0:0:0:
329,192,352276,1,0,0:0:0:0:
402,192,352276,1,0,0:0:0:0:
256,192,352351,1,0,0:0:0:0:
475,192,352351,1,0,0:0:0:0:
402,192,352426,1,0,0:0:0:0:
182,192,352426,1,0,0:0:0:0:
109,192,352426,1,0,0:0:0:0:
329,192,352501,1,0,0:0:0:0:
256,192,352501,1,0,0:0:0:0:
36,192,352576,1,0,0:0:0:0:
182,192,352576,1,0,0:0:0:0:
109,192,352576,1,0,0:0:0:0:
475,192,352576,1,0,0:0:0:0:
256,192,352651,1,0,0:0:0:0:
329,192,352651,1,0,0:0:0:0:
402,192,352651,1,0,0:0:0:0:
475,192,352726,1,0,0:0:0:0:
109,192,352726,1,0,0:0:0:0:
36,192,352726,1,0,0:0:0:0:
182,192,352801,1,0,0:0:0:0:
329,192,352801,1,0,0:0:0:0:
256,192,352876,1,0,0:0:0:0:
402,192,352876,1,0,0:0:0:0:
36,192,352876,1,0,0:0:0:0:
475,192,352876,1,0,0:0:0:0:
109,192,352951,1,0,0:0:0:0:
182,192,352951,1,0,0:0:0:0:
329,192,353026,1,0,0:0:0:0:
402,192,353026,1,0,0:0:0:0:
256,192,353026,1,0,0:0:0:0:
109,192,353101,1,0,0:0:0:0:
182,192,353101,1,0,0:0:0:0:
36,192,353101,1,0,0:0:0:0:
402,192,353176,1,0,0:0:0:0:
475,192,353176,1,0,0:0:0:0:
329,192,353176,1,0,0:0:0:0:
36,192,353251,1,0,0:0:0:0:
256,192,353251,1,0,0:0:0:0:
109,192,353326,1,0,0:0:0:0:
329,192,353326,1,0,0:0:0:0:
182,192,353326,1,0,0:0:0:0:
36,192,353401,1,0,0:0:0:0:
256,192,353401,1,0,0:0:0:0:
182,192,353476,1,0,0:0:0:0:
402,192,353476,1,0,0:0:0:0:
109,192,353476,1,0,0:0:0:0:
475,192,353476,1,0,0:0:0:0:
329,192,353551,1,0,0:0:0:0:
256,192,353551,1,0,0:0:0:0:
36,192,353626,1,0,0:0:0:0:
475,192,353626,1,0,0:0:0:0:
402,192,353626,1,0,0:0:0:0:
182,192,353701,1,0,0:0:0:0:
329,192,353701,1,0,0:0:0:0:
402,192,353776,1,0,0:0:0:0:
36,192,353776,1,0,0:0:0:0:
256,192,353776,1,0,0:0:0:0:
109,192,353776,1,0,0:0:0:0:
475,192,353851,1,0,0:0:0:0:
182,192,353851,1,0,0:0:0:0:
109,192,353926,1,0,0:0:0:0:
329,192,353926,1,0,0:0:0:0:
256,192,353926,1,0,0:0:0:0:
402,192,354001,1,0,0:0:0:0:
36,192,354001,1,0,0:0:0:0:
182,192,354076,1,0,0:0:0:0:
329,192,354076,1,0,0:0:0:0:
109,192,354076,1,0,0:0:0:0:
475,192,354076,1,0,0:0:0:0:
256,192,354151,1,0,0:0:0:0:
36,192,354151,1,0,0:0:0:0:
182,192,354226,1,0,0:0:0:0:
402,192,354226,1,0,0:0:0:0:
475,192,354226,1,0,0:0:0:0:
109,192,354301,1,0,0:0:0:0:
329,192,354301,1,0,0:0:0:0:
36,192,354301,1,0,0:0:0:0:
256,192,354376,1,0,0:0:0:0:
182,192,354376,1,0,0:0:0:0:
402,192,354376,1,0,0:0:0:0:
109,192,354451,1,0,0:0:0:0:
329,192,354451,1,0,0:0:0:0:
402,192,354526,1,0,0:0:0:0:
256,192,354526,1,0,0:0:0:0:
36,192,354526,1,0,0:0:0:0:
182,192,354601,1,0,0:0:0:0:
475,192,354601,1,0,0:0:0:0:
329,192,354676,1,0,0:0:0:0:
109,192,354676,1,0,0:0:0:0:
402,192,354676,1,0,0:0:0:0:
256,192,354676,1,0,0:0:0:0:
475,192,354751,1,0,0:0:0:0:
36,192,354751,1,0,0:0:0:0:
182,192,354826,1,0,0:0:0:0:
109,192,354826,1,0,0:0:0:0:
329,192,354826,1,0,0:0:0:0:
475,192,354901,1,0,0:0:0:0:
256,192,354901,1,0,0:0:0:0:
329,192,354976,1,0,0:0:0:0:
182,192,354976,1,0,0:0:0:0:
402,192,354976,1,0,0:0:0:0:
36,192,354976,1,0,0:0:0:0:
109,192,355051,1,0,0:0:0:0:
256,192,355051,1,0,0:0:0:0:
329,192,355126,1,0,0:0:0:0:
402,192,355126,1,0,0:0:0:0:
36,192,355126,1,0,0:0:0:0:
182,192,355201,1,0,0:0:0:0:
475,192,355201,1,0,0:0:0:0:
109,192,355276,1,0,0:0:0:0:
329,192,355276,1,0,0:0:0:0:
256,192,355276,1,0,0:0:0:0:
36,192,355276,1,0,0:0:0:0:
402,192,355351,1,0,0:0:0:0:
182,192,355351,1,0,0:0:0:0:
256,192,355426,1,0,0:0:0:0:
109,192,355426,1,0,0:0:0:0:
475,192,355426,1,0,0:0:0:0:
329,192,355501,1,0,0:0:0:0:
36,192,355501,1,0,0:0:0:0:
109,192,355576,1,0,0:0:0:0:
475,192,355576,1,0,0:0:0:0:
182,192,355576,1,0,0:0:0:0:
402,192,355576,1,0,0:0:0:0:
329,192,355651,1,0,0:0:0:0:
36,192,355651,1,0,0:0:0:0:
256,192,355726,1,0,0:0:0:0:
475,192,355726,1,0,0:0:0:0:
402,192,355726,1,0,0:0:0:0:
182,192,355801,1,0,0:0:0:0:
109,192,355801,1,0,0:0:0:0:
402,192,355876,1,0,0:0:0:0:
329,192,355876,1,0,0:0:0:0:
256,192,355876,1,0,0:0:0:0:
36,192,355876,1,0,0:0:0:0:
475,192,355951,1,0,0:0:0:0:
109,192,355951,1,0,0:0:0:0:
36,192,356026,1,0,0:0:0:0:
329,192,356026,1,0,0:0:0:0:
182,192,356026,1,0,0:0:0:0:
402,192,356101,1,0,0:0:0:0:
475,192,356101,1,0,0:0:0:0:
109,192,356176,1,0,0:0:0:0:
329,192,356176,1,0,0:0:0:0:
182,192,356176,1,0,0:0:0:0:
256,192,356176,1,0,0:0:0:0:
402,192,356251,1,0,0:0:0:0:
475,192,356251,1,0,0:0:0:0:
36,192,356326,1,0,0:0:0:0:
256,192,356326,1,0,0:0:0:0:
109,192,356326,1,0,0:0:0:0:
182,192,356401,1,0,0:0:0:0:
329,192,356401,1,0,0:0:0:0:
402,192,356476,1,0,0:0:0:0:
475,192,356476,1,0,0:0:0:0:
109,192,356476,1,0,0:0:0:0:
36,192,356476,1,0,0:0:0:0:
182,192,356551,1,0,0:0:0:0:
329,192,356551,1,0,0:0:0:0:
256,192,356626,1,0,0:0:0:0:
475,192,356626,1,0,0:0:0:0:
36,192,356626,1,0,0:0:0:0:
329,192,356701,1,0,0:0:0:0:
402,192,356701,1,0,0:0:0:0:
109,192,356701,1,0,0:0:0:0:
182,192,356776,1,0,0:0:0:0:
256,192,356776,1,0,0:0:0:0:
475,192,356776,1,0,0:0:0:0:
36,192,356851,1,0,0:0:0:0:
109,192,356851,1,0,0:0:0:0:
402,192,356926,1,0,0:0:0:0:
182,192,356926,1,0,0:0:0:0:
329,192,356926,1,0,0:0:0:0:
36,192,357001,1,0,0:0:0:0:
475,192,357001,1,0,0:0:0:0:
256,192,357076,1,0,0:0:0:0:
109,192,357076,1,0,0:0:0:0:
329,192,357076,1,0,0:0:0:0:
182,192,357076,1,0,0:0:0:0:
402,192,357151,1,0,0:0:0:0:
36,192,357151,1,0,0:0:0:0:
256,192,357226,1,0,0:0:0:0:
109,192,357226,1,0,0:0:0:0:
475,192,357226,1,0,0:0:0:0:
182,192,357301,1,0,0:0:0:0:
402,192,357301,1,0,0:0:0:0:
329,192,357376,1,0,0:0:0:0:
109,192,357376,1,0,0:0:0:0:
475,192,357376,1,0,0:0:0:0:
36,192,357376,1,0,0:0:0:0:
256,192,357451,1,0,0:0:0:0:
182,192,357451,1,0,0:0:0:0:
402,192,357526,1,0,0:0:0:0:
36,192,357526,1,0,0:0:0:0:
475,192,357526,1,0,0:0:0:0:
109,192,357601,1,0,0:0:0:0:
256,192,357601,1,0,0:0:0:0:
329,192,357676,1,0,0:0:0:0:
182,192,357676,1,0,0:0:0:0:
402,192,357676,1,0,0:0:0:0:
36,192,357676,1,0,0:0:0:0:
475,192,357751,1,0,0:0:0:0:
256,192,357751,1,0,0:0:0:0:
36,192,357826,1,0,0:0:0:0:
109,192,357826,1,0,0:0:0:0:
182,192,357826,1,0,0:0:0:0:
475,192,357901,1,0,0:0:0:0:
329,192,357901,1,0,0:0:0:0:
402,192,357901,1,0,0:0:0:0:
109,192,357976,1,0,0:0:0:0:
256,192,357976,1,0,0:0:0:0:
182,192,357976,1,0,0:0:0:0:
36,192,357976,1,0,0:0:0:0:
402,192,358051,1,0,0:0:0:0:
329,192,358051,1,0,0:0:0:0:
256,192,358126,1,0,0:0:0:0:
475,192,358126,1,0,0:0:0:0:
109,192,358126,1,0,0:0:0:0:
329,192,358201,1,0,0:0:0:0:
182,192,358201,1,0,0:0:0:0:
475,192,358276,1,0,0:0:0:0:
256,192,358276,1,0,0:0:0:0:
402,192,358276,1,0,0:0:0:0:
36,192,358276,1,0,0:0:0:0:
109,192,358351,1,0,0:0:0:0:
329,192,358351,1,0,0:0:0:0:
182,192,358426,1,0,0:0:0:0:
402,192,358426,1,0,0:0:0:0:
475,192,358426,1,0,0:0:0:0:
256,192,358501,1,0,0:0:0:0:
36,192,358501,1,0,0:0:0:0:
182,192,358576,1,0,0:0:0:0:
402,192,358576,1,0,0:0:0:0:
329,192,358576,1,0,0:0:0:0:
109,192,358576,1,0,0:0:0:0:
475,192,358651,1,0,0:0:0:0:
256,192,358651,1,0,0:0:0:0:
109,192,358726,1,0,0:0:0:0:
36,192,358726,1,0,0:0:0:0:
182,192,358726,1,0,0:0:0:0:
329,192,358801,1,0,0:0:0:0:
402,192,358801,1,0,0:0:0:0:
256,192,358876,1,0,0:0:0:0:
36,192,358876,1,0,0:0:0:0:
109,192,358876,1,0,0:0:0:0:
475,192,358876,1,0,0:0:0:0:
182,192,358951,1,0,0:0:0:0:
402,192,358951,1,0,0:0:0:0:
329,192,359026,1,0,0:0:0:0:
475,192,359026,1,0,0:0:0:0:
36,192,359026,1,0,0:0:0:0:
256,192,359101,1,0,0:0:0:0:
182,192,359101,1,0,0:0:0:0:
402,192,359176,1,0,0:0:0:0:
329,192,359176,1,0,0:0:0:0:
109,192,359176,1,0,0:0:0:0:
475,192,359176,1,0,0:0:0:0:
256,192,359251,1,0,0:0:0:0:
36,192,359251,1,0,0:0:0:0:
182,192,359326,1,0,0:0:0:0:
109,192,359326,1,0,0:0:0:0:
402,192,359326,1,0,0:0:0:0:
329,192,359401,1,0,0:0:0:0:
475,192,359401,1,0,0:0:0:0:
109,192,359476,1,0,0:0:0:0:
256,192,359476,1,0,0:0:0:0:
182,192,359476,1,0,0:0:0:0:
36,192,359476,1,0,0:0:0:0:
329,192,359551,1,0,0:0:0:0:
402,192,359551,1,0,0:0:0:0:
256,192,359626,1,0,0:0:0:0:
475,192,359626,1,0,0:0:0:0:
36,192,359626,1,0,0:0:0:0:
329,192,359701,1,0,0:0:0:0:
109,192,359701,1,0,0:0:0:0:
182,192,359776,1,0,0:0:0:0:
402,192,359776,1,0,0:0:0:0:
36,192,359776,1,0,0:0:0:0:
475,192,359776,1,0,0:0:0:0:
329,192,359851,1,0,0:0:0:0:
256,192,359851,1,0,0:0:0:0:
182,192,359926,1,0,0:0:0:0:
109,192,359926,1,0,0:0:0:0:
402,192,359926,1,0,0:0:0:0:
475,192,360001,1,0,0:0:0:0:
256,192,360001,1,0,0:0:0:0:
36,192,360076,1,0,0:0:0:0:
182,192,360076,1,0,0:0:0:0:
109,192,360076,1,0,0:0:0:0:
256,192,360151,1,0,0:0:0:0:
402,192,360151,1,0,0:0:0:0:
329,192,360226,1,0,0:0:0:0:
475,192,360226,1,0,0:0:0:0:
36,192,360226,1,0,0:0:0:0:
182,192,360301,1,0,0:0:0:0:
109,192,360301,1,0,0:0:0:0:
329,192,360376,1,0,0:0:0:0:
256,192,360376,1,0,0:0:0:0:
402,192,360376,1,0,0:0:0:0:
475,192,360376,1,0,0:0:0:0:
109,192,360451,1,0,0:0:0:0:
36,192,360451,1,0,0:0:0:0:
182,192,360526,1,0,0:0:0:0:
402,192,360526,1,0,0:0:0:0:
329,192,360526,1,0,0:0:0:0:
256,192,360601,1,0,0:0:0:0:
475,192,360601,1,0,0:0:0:0:
109,192,360676,1,0,0:0:0:0:
182,192,360676,1,0,0:0:0:0:
402,192,360676,1,0,0:0:0:0:
36,192,360676,1,0,0:0:0:0:
329,192,360751,1,0,0:0:0:0:
256,192,360751,1,0,0:0:0:0:
475,192,360826,1,0,0:0:0:0:
182,192,360826,1,0,0:0:0:0:
36,192,360826,1,0,0:0:0:0:
109,192,360901,1,0,0:0:0:0:
402,192,360901,1,0,0:0:0:0:
329,192,360976,1,0,0:0:0:0:
256,192,360976,1,0,0:0:0:0:
36,192,360976,1,0,0:0:0:0:
475,192,360976,1,0,0:0:0:0:
182,192,361051,1,0,0:0:0:0:
402,192,361051,1,0,0:0:0:0:
256,192,361126,1,0,0:0:0:0:
329,192,361126,1,0,0:0:0:0:
109,192,361126,1,0,0:0:0:0:
36,192,361201,1,0,0:0:0:0:
475,192,361201,1,0,0:0:0:0:
109,192,361276,1,0,0:0:0:0:
182,192,361276,1,0,0:0:0:0:
402,192,361276,1,0,0:0:0:0:
256,192,361276,1,0,0:0:0:0:
329,192,361351,1,0,0:0:0:0:
36,192,361351,1,0,0:0:0:0:
182,192,361426,1,0,0:0:0:0:
475,192,361426,1,0,0:0:0:0:
109,192,361426,1,0,0:0:0:0:
256,192,361501,1,0,0:0:0:0:
329,192,361501,1,0,0:0:0:0:
402,192,361501,1,0,0:0:0:0:
36,192,361576,1,0,0:0:0:0:
109,192,361576,1,0,0:0:0:0:
475,192,361576,1,0,0:0:0:0:
256,192,361651,1,0,0:0:0:0:
182,192,361651,1,0,0:0:0:0:
329,192,361726,1,0,0:0:0:0:
475,192,361726,1,0,0:0:0:0:
36,192,361726,1,0,0:0:0:0:
182,192,361801,1,0,0:0:0:0:
402,192,361801,1,0,0:0:0:0:
256,192,361876,1,0,0:0:0:0:
329,192,361876,1,0,0:0:0:0:
109,192,361876,1,0,0:0:0:0:
36,192,361876,1,0,0:0:0:0:
475,192,361951,1,0,0:0:0:0:
402,192,361951,1,0,0:0:0:0:
109,192,362026,1,0,0:0:0:0:
256,192,362026,1,0,0:0:0:0:
182,192,362026,1,0,0:0:0:0:
36,192,362101,1,0,0:0:0:0:
329,192,362101,1,0,0:0:0:0:
182,192,362176,1,0,0:0:0:0:
402,192,362176,1,0,0:0:0:0:
475,192,362176,1,0,0:0:0:0:
109,192,362176,1,0,0:0:0:0:
256,192,362251,1,0,0:0:0:0:
36,192,362251,1,0,0:0:0:0:
329,192,362326,1,0,0:0:0:0:
475,192,362326,1,0,0:0:0:0:
182,192,362326,1,0,0:0:0:0:
402,192,362401,1,0,0:0:0:0:
109,192,362401,1,0,0:0:0:0:
329,192,362476,1,0,0:0:0:0:
256,192,362476,1,0,0:0:0:0:
36,192,362476,1,0,0:0:0:0:
475,192,362476,1,0,0:0:0:0:
109,192,362551,1,0,0:0:0:0:
402,192,362551,1,0,0:0:0:0:
256,192,362626,1,0,0:0:0:0:
329,192,362626,1,0,0:0:0:0:
182,192,362626,1,0,0:0:0:0:
36,192,362701,1,0,0:0:0:0:
475,192,362701,1,0,0:0:0:0:
182,192,362776,1,0,0:0:0:0:
109,192,362776,1,0,0:0:0:0:
402,192,362776,1,0,0:0:0:0:
256,192,362776,1,0,0:0:0:0:
329,192,362776,1,0,0:0:0:0:
36,192,362851,1,0,0:0:0:0:
182,192,362926,1,0,0:0:0:0:
402,192,362926,1,0,0:0:0:0:
475,192,362926,1,0,0:0:0:0:
109,192,363001,1,0,0:0:0:0:
36,192,363001,1,0,0:0:0:0:
182,192,363076,1,0,0:0:0:0:
329,192,363076,1,0,0:0:0:0:
256,192,363076,1,0,0:0:0:0:
475,192,363076,1,0,0:0:0:0:
109,192,363151,1,0,0:0:0:0:
36,192,363151,1,0,0:0:0:0:
402,192,363226,1,0,0:0:0:0:
256,192,363226,1,0,0:0:0:0:
329,192,363226,1,0,0:0:0:0:
182,192,363301,1,0,0:0:0:0:
475,192,363301,1,0,0:0:0:0:
109,192,363301,1,0,0:0:0:0:
256,192,363376,1,0,0:0:0:0:
402,192,363376,1,0,0:0:0:0:
36,192,363376,1,0,0:0:0:0:
329,192,363451,1,0,0:0:0:0:
475,192,363451,1,0,0:0:0:0:
256,192,363526,1,0,0:0:0:0:
182,192,363526,1,0,0:0:0:0:
36,192,363526,1,0,0:0:0:0:
402,192,363601,1,0,0:0:0:0:
109,192,363601,1,0,0:0:0:0:
475,192,363601,1,0,0:0:0:0:
329,192,363676,1,0,0:0:0:0:
256,192,363676,1,0,0:0:0:0:
182,192,363676,1,0,0:0:0:0:
402,192,363751,1,0,0:0:0:0:
109,192,363751,1,0,0:0:0:0:
36,192,363826,1,0,0:0:0:0:
329,192,363826,1,0,0:0:0:0:
475,192,363826,1,0,0:0:0:0:
109,192,363901,1,0,0:0:0:0:
256,192,363901,1,0,0:0:0:0:
182,192,363901,1,0,0:0:0:0:
402,192,363976,1,0,0:0:0:0:
36,192,363976,1,0,0:0:0:0:
329,192,363976,1,0,0:0:0:0:
475,192,363976,1,0,0:0:0:0:
182,192,364051,1,0,0:0:0:0:
256,192,364126,1,0,0:0:0:0:
109,192,364126,1,0,0:0:0:0:
402,192,364126,1,0,0:0:0:0:
475,192,364201,1,0,0:0:0:0:
329,192,364201,1,0,0:0:0:0:
256,192,364276,1,0,0:0:0:0:
182,192,364276,1,0,0:0:0:0:
36,192,364276,1,0,0:0:0:0:
109,192,364276,1,0,0:0:0:0:
475,192,364351,1,0,0:0:0:0:
402,192,364351,1,0,0:0:0:0:
329,192,364426,1,0,0:0:0:0:
256,192,364426,1,0,0:0:0:0:
36,192,364501,1,0,0:0:0:0:
109,192,364501,1,0,0:0:0:0:
329,192,364576,1,0,0:0:0:0:
182,192,364576,1,0,0:0:0:0:
402,192,364576,1,0,0:0:0:0:
475,192,364576,1,0,0:0:0:0:
256,192,364651,1,0,0:0:0:0:
109,192,364651,1,0,0:0:0:0:
182,192,364726,1,0,0:0:0:0:
36,192,364726,1,0,0:0:0:0:
475,192,364726,1,0,0:0:0:0:
329,192,364801,1,0,0:0:0:0:
256,192,364801,1,0,0:0:0:0:
402,192,364876,1,0,0:0:0:0:
36,192,364876,1,0,0:0:0:0:
182,192,364876,1,0,0:0:0:0:
109,192,364876,1,0,0:0:0:0:
475,192,364951,1,0,0:0:0:0:
329,192,364951,1,0,0:0:0:0:
256,192,365026,1,0,0:0:0:0:
402,192,365026,1,0,0:0:0:0:
36,192,365026,1,0,0:0:0:0:
182,192,365101,1,0,0:0:0:0:
109,192,365101,1,0,0:0:0:0:
256,192,365176,1,0,0:0:0:0:
329,192,365176,1,0,0:0:0:0:
402,192,365176,1,0,0:0:0:0:
475,192,365176,1,0,0:0:0:0:
36,192,365251,1,0,0:0:0:0:
109,192,365251,1,0,0:0:0:0:
182,192,365326,1,0,0:0:0:0:
475,192,365326,1,0,0:0:0:0:
256,192,365326,1,0,0:0:0:0:
329,192,365401,1,0,0:0:0:0:
402,192,365401,1,0,0:0:0:0:
36,192,365401,1,0,0:0:0:0:
256,192,365476,1,0,0:0:0:0:
109,192,365476,1,0,0:0:0:0:
182,192,365476,1,0,0:0:0:0:
475,192,365476,1,0,0:0:0:0:
36,192,365551,1,0,0:0:0:0:
402,192,365626,1,0,0:0:0:0:
329,192,365626,1,0,0:0:0:0:
109,192,365626,1,0,0:0:0:0:
182,192,365701,1,0,0:0:0:0:
256,192,365701,1,0,0:0:0:0:
475,192,365701,1,0,0:0:0:0:
109,192,365776,1,0,0:0:0:0:
402,192,365776,1,0,0:0:0:0:
36,192,365776,1,0,0:0:0:0:
329,192,365776,1,0,0:0:0:0:
256,192,365851,1,0,0:0:0:0:
36,192,365926,1,0,0:0:0:0:
182,192,365926,1,0,0:0:0:0:
475,192,365926,1,0,0:0:0:0:
109,192,366001,1,0,0:0:0:0:
329,192,366001,1,0,0:0:0:0:
402,192,366001,1,0,0:0:0:0:
256,192,366076,1,0,0:0:0:0:
182,192,366076,1,0,0:0:0:0:
475,192,366076,1,0,0:0:0:0:
36,192,366076,1,0,0:0:0:0:
329,192,366151,1,0,0:0:0:0:
402,192,366151,1,0,0:0:0:0:
109,192,366226,1,0,0:0:0:0:
256,192,366226,1,0,0:0:0:0:
475,192,366226,1,0,0:0:0:0:
182,192,366301,1,0,0:0:0:0:
36,192,366301,1,0,0:0:0:0:
402,192,366376,1,0,0:0:0:0:
329,192,366376,1,0,0:0:0:0:
109,192,366376,1,0,0:0:0:0:
475,192,366376,1,0,0:0:0:0:
256,192,366376,1,0,0:0:0:0:
182,192,366451,1,0,0:0:0:0:
256,192,366526,1,0,0:0:0:0:
109,192,366526,1,0,0:0:0:0:
36,192,366526,1,0,0:0:0:0:
402,192,366601,1,0,0:0:0:0:
329,192,366601,1,0,0:0:0:0:
256,192,366676,1,0,0:0:0:0:
182,192,366676,1,0,0:0:0:0:
36,192,366676,1,0,0:0:0:0:
475,192,366676,1,0,0:0:0:0:
109,192,366676,1,0,0:0:0:0:
329,192,366751,1,0,0:0:0:0:
182,192,366826,1,0,0:0:0:0:
402,192,366826,1,0,0:0:0:0:
36,192,366826,1,0,0:0:0:0:
256,192,366901,1,0,0:0:0:0:
475,192,366901,1,0,0:0:0:0:
182,192,366976,1,0,0:0:0:0:
109,192,366976,1,0,0:0:0:0:
329,192,366976,1,0,0:0:0:0:
36,192,366976,1,0,0:0:0:0:
402,192,366976,1,0,0:0:0:0:
256,192,367051,1,0,0:0:0:0:
402,192,367126,1,0,0:0:0:0:
109,192,367126,1,0,0:0:0:0:
475,192,367126,1,0,0:0:0:0:
329,192,367201,1,0,0:0:0:0:
36,192,367201,1,0,0:0:0:0:
182,192,367276,1,0,0:0:0:0:
256,192,367276,1,0,0:0:0:0:
402,192,367276,1,0,0:0:0:0:
475,192,367276,1,0,0:0:0:0:
109,192,367276,1,0,0:0:0:0:
329,192,367351,1,0,0:0:0:0:
109,192,367426,1,0,0:0:0:0:
182,192,367426,1,0,0:0:0:0:
36,192,367426,1,0,0:0:0:0:
256,192,367501,1,0,0:0:0:0:
329,192,367501,1,0,0:0:0:0:
182,192,367576,1,0,0:0:0:0:
36,192,367576,1,0,0:0:0:0:
475,192,367576,1,0,0:0:0:0:
402,192,367576,1,0,0:0:0:0:
256,192,367651,1,0,0:0:0:0:
329,192,367726,1,0,0:0:0:0:
109,192,367726,1,0,0:0:0:0:
182,192,367801,1,0,0:0:0:0:
256,192,367876,1,0,0:0:0:0:
475,192,367876,1,0,0:0:0:0:
36,192,367876,1,0,0:0:0:0:
402,192,367876,1,0,0:0:0:0:
329,192,367951,1,0,0:0:0:0:
109,192,367951,1,0,0:0:0:0:
182,192,368026,1,0,0:0:0:0:
402,192,368026,1,0,0:0:0:0:
329,192,368101,1,0,0:0:0:0:
109,192,368101,1,0,0:0:0:0:
182,192,368176,1,0,0:0:0:0:
402,192,368176,1,0,0:0:0:0:
329,192,368251,1,0,0:0:0:0:
109,192,368251,1,0,0:0:0:0:
36,192,368326,1,0,0:0:0:0:
475,192,368326,1,0,0:0:0:0:
256,192,368326,1,0,0:0:0:0:
109,192,368401,1,0,0:0:0:0:
402,192,368401,1,0,0:0:0:0:
329,192,368476,1,0,0:0:0:0:
182,192,368476,1,0,0:0:0:0:
256,192,368551,1,0,0:0:0:0:
36,192,368551,1,0,0:0:0:0:
475,192,368551,1,0,0:0:0:0:
329,192,368626,1,0,0:0:0:0:
182,192,368626,1,0,0:0:0:0:
402,192,368626,1,0,0:0:0:0:
109,192,368626,1,0,0:0:0:0:
36,192,368701,1,0,0:0:0:0:
475,192,368701,1,0,0:0:0:0:
109,192,368776,1,0,0:0:0:0:
402,192,368776,1,0,0:0:0:0:
182,192,368776,1,0,0:0:0:0:
256,192,368776,1,0,0:0:0:0:
329,192,368776,1,0,0:0:0:0:
