osu file format v14

[General]
AudioFilename: audio.mp3
AudioLeadIn: 0
PreviewTime: 82360
Countdown: 0
SampleSet: Normal
StackLeniency: 0.7
Mode: 1
LetterboxInBreaks: 0
WidescreenStoryboard: 1

[Editor]
Bookmarks: 12891,22996,43207,52049,62154,72259,82364
DistanceSpacing: 1.7
BeatDivisor: 4
GridSize: 16
TimelineZoom: 2.3

[Metadata]
Title:Bloody Desire
TitleUnicode:Bloody Desire
Artist:Hayakore Tatsumi
ArtistUnicode:Hayakore Tatsumi
Creator:Roxy-
Version:op45667's Oni
Source:FORTUNE ARTERIAL 赤い約束
Tags:速核巽 tamolarm japanese j-core jcore hardcore electronic remix bootleg 絆-kizunairo-色 anime lia op45667 KuroKuroKuro
BeatmapID:3841701
BeatmapSetID:1811212

[Difficulty]
HPDrainRate:6
CircleSize:5
OverallDifficulty:5
ApproachRate:5
SliderMultiplier:1.4
SliderTickRate:1

[Events]
//Background and Video events
0,0,"ok.png",0,0
//Break Periods
//Storyboard Layer 0 (Background)
//Storyboard Layer 1 (Fail)
//Storyboard Layer 2 (Pass)
//Storyboard Layer 3 (Foreground)
//Storyboard Layer 4 (Overlay)
//Storyboard Sound Samples

[TimingPoints]
2782,315.78947368421,4,1,0,80,1,0
12882,-95.2380952380952,4,1,0,80,0,0
22987,-95.2380952380952,4,1,0,90,0,0
40670,-95.2381,4,1,0,90,0,0
40749,-94.95526,4,1,0,90,0,0
40828,-94.67411,4,1,0,90,0,0
40907,-94.394615,4,1,0,90,0,0
40986,-94.11677,4,1,0,90,0,0
41144,-93.565956,4,1,0,90,0,0
41302,-93.02154,4,1,0,90,0,0
41381,-92.75171,4,1,0,90,0,0
41460,-92.48342,4,1,0,90,0,0
41539,-92.2167,4,1,0,90,0,0
41618,-91.951515,4,1,0,90,0,0
41775,-91.42898,4,1,0,90,0,0
41933,-90.90909,4,1,0,90,0,0
43198,-117.647058823529,4,1,0,60,0,0
48249,-111.11111,4,1,0,70,0,0
48565,-109.58825,4,1,0,70,0,0
48881,-108.10657,4,1,0,70,0,0
49118,-107.02133,4,1,0,70,0,0
49354,-105.96211,4,1,0,70,0,0
49512,-105.26462,4,1,0,70,0,0
49749,-104.23543,4,1,0,70,0,0
49986,-103.22616,4,1,0,70,0,0
50460,-101.26515,4,1,0,70,0,0
50618,-100.62793,4,1,0,70,0,0
50775,-100.00264,4,1,0,70,0,0
50933,-99.381165,4,1,0,70,0,0
51012,-99.07332,4,1,0,70,0,0
51170,-98.463295,4,1,0,70,0,0
51249,-98.1611,4,1,0,70,0,0
51565,-96.97063,4,1,0,70,0,0
51723,-96.38615,4,1,0,70,0,0
51881,-95.808685,4,1,0,70,0,0
52039,-95.2381,4,1,0,80,0,0
52045,315.78947368421,4,1,0,80,1,0
62145,-100,4,1,0,80,0,0
77302,-100,4,1,0,80,0,0
77460,-99.637436,4,1,0,80,0,0
77539,-99.45713,4,1,0,80,0,0
77697,-99.09848,4,1,0,80,0,0
77775,-98.92238,4,1,0,80,0,0
77933,-98.56757,4,1,0,80,0,0
78091,-98.2153,4,1,0,80,0,0
78170,-98.0401,4,1,0,80,0,0
78249,-97.865524,4,1,0,80,0,0
78565,-97.173416,4,1,0,80,0,0
78723,-96.831024,4,1,0,80,0,0
78802,-96.660736,4,1,0,80,0,0
78881,-96.49103,4,1,0,80,0,0
79039,-96.15342,4,1,0,80,0,0
79197,-95.81816,4,1,0,80,0,0
79275,-95.65351,4,1,0,80,0,0
79354,-95.487335,4,1,0,80,0,0
79512,-95.156685,4,1,0,80,0,0
79828,-94.50224,4,1,0,80,0,0
79986,-94.178375,4,1,0,80,0,0
80144,-93.85673,4,1,0,80,0,0
80302,-93.53726,4,1,0,80,0,0
80381,-93.37834,4,1,0,80,0,0
80460,-93.21997,4,1,0,80,0,0
80618,-92.90482,4,1,0,80,0,0
80775,-92.59377,4,1,0,80,0,0
80933,-92.28283,4,1,0,80,0,0
81091,-91.97398,4,1,0,80,0,0
81249,-91.6672,4,1,0,80,0,0
81328,-91.51456,4,1,0,80,0,0
81486,-91.21082,4,1,0,80,0,0
81644,-90.90909,4,1,0,80,0,0
81882,-80,4,1,0,80,0,0
81961,-83.3333333333333,4,1,0,80,0,0
82040,-86.9565217391304,4,1,0,80,0,0
82360,-95.2380952380952,4,1,0,100,0,1
100829,-97.0873786407767,4,1,0,100,0,1
100987,-98.0392156862745,4,1,0,100,0,1
101145,-99.009900990099,4,1,0,100,0,1
101308,315.78947368421,4,1,0,80,1,0
101308,-100,4,1,0,80,0,0
111408,-100,4,1,0,80,0,0
126565,-100,4,1,0,80,0,0
126723,-99.64388,4,1,0,80,0,0
126802,-99.466774,4,1,0,80,0,0
126881,-99.290306,4,1,0,80,0,0
127039,-98.93922,4,1,0,80,0,0
127197,-98.590614,4,1,0,80,0,0
127354,-98.24662,4,1,0,80,0,0
127512,-97.90287,4,1,0,80,0,0
127828,-97.22252,4,1,0,80,0,0
127986,-96.88589,4,1,0,80,0,0
128065,-96.71844,4,1,0,80,0,0
128144,-96.55157,4,1,0,80,0,0
128223,-96.38528,4,1,0,80,0,0
128302,-96.21956,4,1,0,80,0,0
128460,-95.88982,4,1,0,80,0,0
128618,-95.562325,4,1,0,80,0,0
128697,-95.399414,4,1,0,80,0,0
128775,-95.23911,4,1,0,80,0,0
128933,-94.916046,4,1,0,80,0,0
129091,-94.59517,4,1,0,80,0,0
129249,-94.27645,4,1,0,80,0,0
129407,-93.95986,4,1,0,80,0,0
129565,-93.64541,4,1,0,80,0,0
129723,-93.333046,4,1,0,80,0,0
129881,-93.022766,4,1,0,80,0,0
130039,-92.71453,4,1,0,80,0,0
130118,-92.56118,4,1,0,80,0,0
130197,-92.40834,4,1,0,80,0,0
130354,-92.10608,4,1,0,80,0,0
130512,-91.80388,4,1,0,80,0,0
130591,-91.653534,4,1,0,80,0,0
130749,-91.354294,4,1,0,80,0,0
130828,-91.20541,4,1,0,80,0,0
130907,-91.057,4,1,0,80,0,0
130986,-90.90909,4,1,0,80,0,0
131303,-83.3333333333333,4,1,0,80,0,0
131382,-86.9565217391304,4,1,0,80,0,0
131461,-90.9090909090909,4,1,0,80,0,0
131623,-95.2380952380952,4,1,0,100,0,1
153097,315.78947368421,4,1,0,100,1,1
153097,-93.0232558139535,4,1,0,100,0,1
161934,-93.0232558139535,4,1,0,100,0,1
162013,-93.8967136150235,4,1,0,100,0,1
162092,-94.3396226415094,4,1,0,100,0,1
162171,-94.7867298578199,4,1,0,100,0,1
162250,-95.2380952380952,4,1,0,100,0,1
162408,-96.1538461538461,4,1,0,100,0,1
162566,-96.6183574879227,4,1,0,100,0,1
162645,-97.0873786407767,4,1,0,100,0,1
162724,-97.5609756097561,4,1,0,100,0,1
162803,-98.0392156862745,4,1,0,100,0,1
162882,-98.5221674876847,4,1,0,100,0,1
163040,-99.009900990099,4,1,0,100,0,1
163202,-100,4,1,0,80,0,0
168249,-100,4,1,0,80,0,0
168407,-99.58485,4,1,0,80,0,0
168565,-99.17312,4,1,0,80,0,0
168723,-98.764786,4,1,0,80,0,0
168802,-98.56188,4,1,0,80,0,0
168960,-98.15856,4,1,0,80,0,0
169039,-97.95813,4,1,0,80,0,0
169118,-97.75852,4,1,0,80,0,0
169197,-97.559715,4,1,0,80,0,0
169354,-97.16702,4,1,0,80,0,0
169512,-96.77501,4,1,0,80,0,0
169591,-96.58019,4,1,0,80,0,0
169670,-96.38615,4,1,0,80,0,0
169749,-96.192894,4,1,0,80,0,0
169828,-96.00041,4,1,0,80,0,0
169986,-95.61774,4,1,0,80,0,0
170144,-95.23809,4,1,0,80,0,0
170302,-94.86146,4,1,0,80,0,0
170381,-94.674255,4,1,0,80,0,0
170460,-94.48779,4,1,0,80,0,0
170618,-94.11706,4,1,0,80,0,0
170775,-93.75155,4,1,0,80,0,0
170933,-93.38656,4,1,0,80,0,0
171091,-93.02438,4,1,0,80,0,0
171170,-92.84436,4,1,0,80,0,0
171249,-92.66502,4,1,0,80,0,0
171407,-92.30843,4,1,0,80,0,0
171565,-91.95457,4,1,0,80,0,0
171644,-91.778656,4,1,0,80,0,0
171723,-91.60341,4,1,0,80,0,0
171881,-91.25494,4,1,0,80,0,0
172039,-90.90909,4,1,0,80,0,0
173303,-117.647058823529,4,1,0,60,0,0
178354,-111.11111,4,1,0,70,0,0
178670,-109.75546,4,1,0,70,0,0
178986,-108.43251,4,1,0,70,0,0
179223,-107.46103,4,1,0,70,0,0
179459,-106.5108,4,1,0,70,0,0
179617,-105.88395,4,1,0,70,0,0
179854,-104.95741,4,1,0,70,0,0
180091,-104.04694,4,1,0,70,0,0
180723,-101.69451,4,1,0,70,0,0
180802,-101.40791,4,1,0,70,0,0
180881,-101.12293,4,1,0,70,0,0
181354,-99.449585,4,1,0,70,0,0
181670,-98.36217,4,1,0,70,0,0
181828,-97.82734,4,1,0,70,0,0
181986,-97.29828,4,1,0,70,0,0
182144,-96.774925,4,1,0,70,0,0
182302,-96.257164,4,1,0,70,0,0
182381,-96.00036,4,1,0,70,0,0
182539,-95.49083,4,1,0,70,0,0
182618,-95.2381,4,1,0,70,0,0
183092,-83.3333333333333,4,1,0,70,0,0
183171,-86.9565217391304,4,1,0,70,0,0
183250,-90.9090909090909,4,1,0,70,0,0
183412,-95.2380952380952,4,1,0,100,0,1
194781,315.78947368421,4,1,0,100,1,1
194781,-93.0232558139535,4,1,0,100,0,0
195096,-93.0232558139535,4,1,0,100,0,1
214991,-90.9090909090909,4,1,0,80,0,0
215303,-100,4,1,0,80,0,0
225090,-95.2380952380952,4,1,0,80,0,0
235197,-100,4,1,0,80,0,0
235354,-100.08363,4,1,0,80,0,0
235512,-100.16794,4,1,0,80,0,0
235670,-100.25238,4,1,0,80,0,0
235828,-100.33697,4,1,0,80,0,0
235986,-100.42171,4,1,0,80,0,0
236065,-100.46412,4,1,0,80,0,0
236223,-100.54906,4,1,0,80,0,0
236302,-100.59159,4,1,0,80,0,0
236460,-100.67675,4,1,0,80,0,0
236618,-100.762054,4,1,0,80,0,0
236697,-100.80476,4,1,0,80,0,0
236775,-100.84697,4,1,0,80,0,0
236933,-100.932556,4,1,0,80,0,0
237091,-101.018295,4,1,0,80,0,0
237249,-101.10419,4,1,0,80,0,0
237407,-101.190216,4,1,0,80,0,0
237723,-101.362724,4,1,0,80,0,0
237881,-101.449196,4,1,0,80,0,0
238039,-101.53582,4,1,0,80,0,0
238197,-101.62258,4,1,0,80,0,0
238354,-101.708954,4,1,0,80,0,0
238512,-101.79602,4,1,0,80,0,0
238591,-101.83961,4,1,0,80,0,0
238749,-101.926895,4,1,0,80,0,0
238828,-101.97059,4,1,0,80,0,0
238907,-102.014336,4,1,0,80,0,0
238986,-102.058105,4,1,0,80,0,0
239144,-102.14577,4,1,0,80,0,0
239223,-102.18967,4,1,0,80,0,0
239302,-102.23358,4,1,0,80,0,0
239460,-102.32155,4,1,0,80,0,0
239539,-102.36559,4,1,0,80,0,0
239618,-102.40967,4,1,0,80,0,0
239775,-102.49738,4,1,0,80,0,0
239933,-102.5858,4,1,0,80,0,0
240249,-102.7631,4,1,0,80,0,0
240406,-102.85142,4,1,0,80,0,0
240564,-102.94045,4,1,0,80,0,0
240722,-103.02964,4,1,0,80,0,0
240880,-103.11898,4,1,0,80,0,0
241038,-103.20848,4,1,0,80,0,0
241117,-103.25328,4,1,0,80,0,0
241275,-103.34301,4,1,0,80,0,0
241354,-103.38794,4,1,0,80,0,0
241512,-103.4779,4,1,0,80,0,0
241670,-103.568016,4,1,0,80,0,0
241749,-103.613144,4,1,0,80,0,0
241827,-103.65773,4,1,0,80,0,0
241985,-103.74816,4,1,0,80,0,0
242143,-103.83875,4,1,0,80,0,0
242301,-103.92951,4,1,0,80,0,0
242459,-104.02042,4,1,0,80,0,0
242775,-104.20271,4,1,0,80,0,0
242932,-104.293526,4,1,0,80,0,0
243090,-104.38508,4,1,0,80,0,0
243248,-104.47678,4,1,0,80,0,0
243406,-104.56866,4,1,0,80,0,0
243564,-104.66069,4,1,0,80,0,0
243643,-104.706764,4,1,0,80,0,0
243801,-104.799034,4,1,0,80,0,0
243880,-104.84523,4,1,0,80,0,0
244038,-104.93775,4,1,0,80,0,0
244196,-105.03043,4,1,0,80,0,0
244275,-105.07684,4,1,0,80,0,0
244353,-105.122696,4,1,0,80,0,0
244511,-105.215706,4,1,0,80,0,0
244669,-105.30888,4,1,0,80,0,0
244827,-105.40222,4,1,0,80,0,0
244985,-105.49573,4,1,0,80,0,0
245302,-105.68383,4,1,0,80,0,0
245617,-105.87142,4,1,0,80,0,0
245775,-105.96576,4,1,0,80,0,0
245933,-106.060265,4,1,0,80,0,0
246091,-106.15494,4,1,0,80,0,0
246170,-106.20234,4,1,0,80,0,0
246328,-106.29727,4,1,0,80,0,0
246407,-106.3448,4,1,0,80,0,0
246565,-106.43999,4,1,0,80,0,0
246723,-106.535355,4,1,0,80,0,0
246802,-106.583084,4,1,0,80,0,0
246880,-106.63027,4,1,0,80,0,0
247038,-106.72597,4,1,0,80,0,0
247196,-106.82183,4,1,0,80,0,0
247275,-106.86984,4,1,0,80,0,0
247433,-106.965965,4,1,0,80,0,0
247512,-107.01409,4,1,0,80,0,0
247591,-107.06227,4,1,0,80,0,0
247670,-107.11048,4,1,0,80,0,0
247828,-107.20704,4,1,0,80,0,0
248144,-107.400696,4,1,0,80,0,0
248302,-107.49778,4,1,0,80,0,0
248460,-107.59505,4,1,0,80,0,0
248539,-107.643745,4,1,0,80,0,0
248618,-107.69248,4,1,0,80,0,0
248775,-107.78948,4,1,0,80,0,0
248933,-107.887276,4,1,0,80,0,0
249091,-107.985245,4,1,0,80,0,0
249249,-108.08339,4,1,0,80,0,0
249328,-108.13253,4,1,0,80,0,0
249486,-108.23094,4,1,0,80,0,0
249565,-108.28022,4,1,0,80,0,0
249723,-108.37891,4,1,0,80,0,0
249802,-108.42831,4,1,0,80,0,0
249881,-108.47777,4,1,0,80,0,0
249960,-108.52727,4,1,0,80,0,0
250039,-108.57682,4,1,0,80,0,0
250197,-108.67603,4,1,0,80,0,0
250354,-108.77481,4,1,0,80,0,0
250670,-108.97417,4,1,0,80,0,0
250828,-109.07413,4,1,0,80,0,0
250986,-109.17426,4,1,0,80,0,0
251065,-109.224396,4,1,0,80,0,0
251144,-109.27458,4,1,0,80,0,0
251301,-109.37446,4,1,0,80,0,0
251459,-109.47514,4,1,0,80,0,0
251617,-109.57602,4,1,0,80,0,0
251775,-109.677086,4,1,0,80,0,0
251854,-109.72768,4,1,0,80,0,0
252012,-109.82902,4,1,0,80,0,0
252091,-109.87976,4,1,0,80,0,0
252249,-109.98138,4,1,0,80,0,0
252328,-110.032265,4,1,0,80,0,0
252407,-110.0832,4,1,0,80,0,0
252486,-110.13417,4,1,0,80,0,0
252565,-110.18519,4,1,0,80,0,0
252723,-110.287384,4,1,0,80,0,0
252880,-110.38911,4,1,0,80,0,0
253197,-110.595085,4,1,0,80,0,0
253355,-110.69804,4,1,0,80,0,0
253513,-110.801186,4,1,0,80,0,0
253592,-110.85283,4,1,0,80,0,0
253671,-110.90452,4,1,0,80,0,0
253828,-111.007385,4,1,0,80,0,0
253986,-111.11111,4,1,0,80,0,0
254144,-86.9565217391304,4,1,0,80,0,0
255407,-125,4,1,0,50,0,0
255570,-125,4,1,0,45,0,0
256675,-128.205128205128,4,1,0,40,0,0
257938,-131.578947368421,4,1,0,35,0,0
259202,-135.135135135135,4,1,0,30,0,0
260465,-138.888888888889,4,1,0,25,0,0
261728,-142.857142857143,4,1,0,20,0,0
262991,-147.058823529412,4,1,0,15,0,0
264254,-151.515151515152,4,1,0,10,0,0

[HitObjects]
175,222,2782,5,4,0:0:0:0:
99,317,3097,1,8,0:0:0:0:
99,317,3255,1,8,0:0:0:0:
99,317,3413,1,0,0:0:0:0:
99,317,3571,1,0,0:0:0:0:
99,317,3729,1,8,0:0:0:0:
303,270,3808,1,0,0:0:0:0:
99,317,3887,1,8,0:0:0:0:
99,317,4045,1,0,0:0:0:0:
190,99,4360,1,0,0:0:0:0:
190,99,4518,1,0,0:0:0:0:
190,99,4676,1,8,0:0:0:0:
271,237,4755,1,0,0:0:0:0:
190,99,4834,1,8,0:0:0:0:
190,99,4992,1,0,0:0:0:0:
190,99,5150,1,8,0:0:0:0:
190,99,5308,1,0,0:0:0:0:
190,99,5624,1,8,0:0:0:0:
190,99,5781,1,8,0:0:0:0:
190,99,5939,1,0,0:0:0:0:
190,99,6097,1,8,0:0:0:0:
190,99,6255,1,0,0:0:0:0:
303,270,6334,1,8,0:0:0:0:
197,94,6413,1,0,0:0:0:0:
197,94,6571,1,8,0:0:0:0:
197,94,6887,1,0,0:0:0:0:
190,99,7045,1,0,0:0:0:0:
190,99,7203,1,8,0:0:0:0:
197,94,7518,1,8,0:0:0:0:
271,237,7676,1,8,0:0:0:0:
197,94,7834,1,0,0:0:0:0:
99,317,8150,1,8,0:0:0:0:
99,317,8308,1,8,0:0:0:0:
99,317,8466,1,0,0:0:0:0:
99,317,8624,1,0,0:0:0:0:
99,317,8781,1,8,0:0:0:0:
303,270,8860,1,0,0:0:0:0:
99,317,8939,1,8,0:0:0:0:
99,317,9097,1,0,0:0:0:0:
99,317,9413,1,8,0:0:0:0:
99,317,9571,1,0,0:0:0:0:
99,317,9729,1,0,0:0:0:0:
319,210,9808,1,0,0:0:0:0:
99,317,9887,1,8,0:0:0:0:
99,317,10045,1,8,0:0:0:0:
99,317,10203,1,0,0:0:0:0:
99,317,10360,1,0,0:0:0:0:
99,317,10676,1,0,0:0:0:0:
99,317,10834,1,8,0:0:0:0:
99,317,10992,1,0,0:0:0:0:
99,317,11150,1,0,0:0:0:0:
99,317,11308,1,8,0:0:0:0:
339,180,11387,1,8,0:0:0:0:
99,317,11466,1,0,0:0:0:0:
99,317,11624,1,0,0:0:0:0:
99,317,11939,1,8,0:0:0:0:
99,317,12097,1,8,0:0:0:0:
99,317,12255,1,0,0:0:0:0:
277,75,12334,1,8,0:0:0:0:
99,317,12413,1,0,0:0:0:0:
277,75,12571,1,8,0:0:0:0:
179,103,12729,1,8,0:0:0:0:
179,103,12808,1,8,0:0:0:0:
99,317,12887,1,4,0:0:0:0:
261,73,13203,1,8,0:0:0:0:
261,73,13360,1,8,0:0:0:0:
379,218,13518,1,0,0:0:0:0:
379,218,13676,1,0,0:0:0:0:
379,218,13755,1,8,0:0:0:0:
241,83,13913,1,8,0:0:0:0:
241,83,13992,1,0,0:0:0:0:
241,83,14150,1,8,0:0:0:0:
241,83,14308,1,0,0:0:0:0:
241,83,14466,1,8,0:0:0:0:
250,253,14624,1,8,0:0:0:0:
250,253,14781,1,0,0:0:0:0:
250,253,14939,1,0,0:0:0:0:
250,253,15018,1,0,0:0:0:0:
242,228,15097,1,8,0:0:0:0:
242,228,15413,1,0,0:0:0:0:
274,34,15492,1,0,0:0:0:0:
242,228,15571,1,8,0:0:0:0:
274,34,15729,1,8,0:0:0:0:
274,38,15887,1,0,0:0:0:0:
242,228,16045,1,0,0:0:0:0:
274,38,16203,1,8,0:0:0:0:
314,205,16281,1,0,0:0:0:0:
274,38,16439,1,0,0:0:0:0:
274,38,16518,1,8,0:0:0:0:
274,38,16676,1,0,0:0:0:0:
274,38,16834,1,8,0:0:0:0:
274,38,16913,1,0,0:0:0:0:
274,38,16992,1,8,0:0:0:0:
274,38,17150,1,8,0:0:0:0:
274,38,17308,1,0,0:0:0:0:
274,38,17466,1,8,0:0:0:0:
274,38,17624,1,0,0:0:0:0:
274,38,17939,1,0,0:0:0:0:
318,179,18097,1,8,0:0:0:0:
318,179,18255,1,8,0:0:0:0:
318,179,18413,1,0,0:0:0:0:
318,179,18571,1,8,0:0:0:0:
318,179,18650,1,0,0:0:0:0:
318,179,18808,1,0,0:0:0:0:
318,179,18887,1,8,0:0:0:0:
318,179,19045,1,0,0:0:0:0:
318,179,19203,1,8,0:0:0:0:
318,179,19360,1,0,0:0:0:0:
318,179,19518,1,8,0:0:0:0:
318,179,19676,1,8,0:0:0:0:
318,179,19834,1,0,0:0:0:0:
318,179,19913,1,0,0:0:0:0:
318,179,19992,1,8,0:0:0:0:
318,179,20150,1,8,0:0:0:0:
318,179,20466,1,0,0:0:0:0:
318,179,20624,1,8,0:0:0:0:
246,49,20703,1,8,0:0:0:0:
268,32,20781,1,0,0:0:0:0:
282,100,20939,1,8,0:0:0:0:
282,100,21097,1,0,0:0:0:0:
282,100,21255,1,0,0:0:0:0:
282,100,21413,1,8,0:0:0:0:
282,100,21571,1,8,0:0:0:0:
310,108,21729,1,4,0:0:0:0:
256,192,21887,12,0,22834,0:0:0:0:
310,108,22992,5,4,0:0:0:0:
357,215,23150,1,0,0:0:0:0:
357,215,23229,1,8,0:0:0:0:
357,215,23387,1,8,0:0:0:0:
357,215,23466,1,0,0:0:0:0:
357,215,23545,1,0,0:0:0:0:
357,215,23624,1,8,0:0:0:0:
261,136,23781,1,0,0:0:0:0:
261,136,23939,1,8,0:0:0:0:
348,193,24097,1,8,0:0:0:0:
261,136,24255,1,0,0:0:0:0:
261,136,24413,1,0,0:0:0:0:
261,136,24492,1,8,0:0:0:0:
261,136,24571,1,0,0:0:0:0:
261,136,24729,1,8,0:0:0:0:
261,136,24887,1,0,0:0:0:0:
261,136,25045,1,0,0:0:0:0:
421,232,25203,1,8,0:0:0:0:
432,120,25518,1,0,0:0:0:0:
432,120,25676,1,0,0:0:0:0:
323,208,25755,1,8,0:0:0:0:
323,208,25913,1,8,0:0:0:0:
176,171,25992,1,0,0:0:0:0:
176,171,26071,1,8,0:0:0:0:
176,171,26150,1,0,0:0:0:0:
176,171,26308,1,8,0:0:0:0:
176,171,26466,1,8,0:0:0:0:
176,171,26624,1,0,0:0:0:0:
176,171,26703,1,8,0:0:0:0:
176,171,26781,1,0,0:0:0:0:
176,171,26939,1,8,0:0:0:0:
176,171,27097,1,0,0:0:0:0:
176,171,27255,1,0,0:0:0:0:
176,171,27334,1,8,0:0:0:0:
176,171,27413,1,8,0:0:0:0:
176,171,27571,1,0,0:0:0:0:
356,228,27729,1,8,0:0:0:0:
430,190,28045,1,0,0:0:0:0:
456,271,28203,1,8,0:0:0:0:
456,271,28281,1,0,0:0:0:0:
456,271,28439,1,0,0:0:0:0:
456,271,28518,1,8,0:0:0:0:
456,271,28597,1,8,0:0:0:0:
456,271,28676,1,0,0:0:0:0:
267,197,28834,1,0,0:0:0:0:
267,197,28992,1,8,0:0:0:0:
267,197,29150,1,8,0:0:0:0:
267,197,29308,1,0,0:0:0:0:
267,197,29466,1,8,0:0:0:0:
267,197,29545,1,8,0:0:0:0:
267,197,29624,1,0,0:0:0:0:
267,197,29781,1,8,0:0:0:0:
267,197,29939,1,0,0:0:0:0:
267,197,30097,1,0,0:0:0:0:
267,197,30255,1,8,0:0:0:0:
434,258,30571,1,0,0:0:0:0:
285,267,30729,1,8,0:0:0:0:
285,267,30808,1,0,0:0:0:0:
285,267,30966,1,8,0:0:0:0:
285,267,31045,1,8,0:0:0:0:
285,267,31124,1,0,0:0:0:0:
285,267,31203,1,0,0:0:0:0:
285,267,31360,1,0,0:0:0:0:
285,267,31518,1,8,0:0:0:0:
285,267,31676,1,0,0:0:0:0:
285,267,31755,1,0,0:0:0:0:
285,267,31834,1,8,0:0:0:0:
285,267,31992,1,0,0:0:0:0:
285,267,32071,1,8,0:0:0:0:
285,267,32229,1,8,0:0:0:0:
285,267,32308,1,0,0:0:0:0:
285,267,32466,1,8,0:0:0:0:
285,267,32624,1,0,0:0:0:0:
285,267,32781,1,8,0:0:0:0:
434,258,33097,1,4,0:0:0:0:
285,267,33255,1,8,0:0:0:0:
285,267,33334,1,0,0:0:0:0:
285,267,33492,1,8,0:0:0:0:
285,267,33571,1,8,0:0:0:0:
285,267,33650,1,0,0:0:0:0:
285,267,33729,1,8,0:0:0:0:
285,267,33887,1,0,0:0:0:0:
285,267,34045,1,8,0:0:0:0:
285,267,34203,1,0,0:0:0:0:
285,267,34281,1,8,0:0:0:0:
285,267,34360,1,8,0:0:0:0:
285,267,34518,1,0,0:0:0:0:
285,267,34597,1,8,0:0:0:0:
285,267,34755,1,0,0:0:0:0:
285,267,34834,1,0,0:0:0:0:
285,267,34913,1,0,0:0:0:0:
285,267,34992,1,8,0:0:0:0:
285,267,35150,1,0,0:0:0:0:
285,267,35308,1,8,0:0:0:0:
434,258,35624,1,0,0:0:0:0:
285,267,35781,1,0,0:0:0:0:
285,267,35860,1,8,0:0:0:0:
285,267,36018,1,0,0:0:0:0:
285,267,36097,1,8,0:0:0:0:
285,267,36176,1,8,0:0:0:0:
285,267,36255,1,0,0:0:0:0:
285,267,36413,1,8,0:0:0:0:
285,267,36571,1,0,0:0:0:0:
285,267,36729,1,8,0:0:0:0:
285,267,36808,1,0,0:0:0:0:
285,267,36887,1,8,0:0:0:0:
285,267,37045,1,0,0:0:0:0:
285,267,37124,1,8,0:0:0:0:
285,267,37281,1,8,0:0:0:0:
285,267,37360,1,0,0:0:0:0:
285,267,37439,1,8,0:0:0:0:
285,267,37518,1,0,0:0:0:0:
285,267,37676,1,0,0:0:0:0:
285,267,37834,1,8,0:0:0:0:
434,258,38150,1,0,0:0:0:0:
285,267,38308,1,0,0:0:0:0:
285,267,38387,1,8,0:0:0:0:
285,267,38545,1,0,0:0:0:0:
285,267,38624,1,8,0:0:0:0:
285,267,38703,1,8,0:0:0:0:
285,267,38781,1,0,0:0:0:0:
285,267,38939,1,8,0:0:0:0:
285,267,39097,1,0,0:0:0:0:
285,267,39255,1,8,0:0:0:0:
285,267,39334,1,0,0:0:0:0:
285,267,39413,1,8,0:0:0:0:
285,267,39571,1,0,0:0:0:0:
285,267,39650,1,8,0:0:0:0:
285,267,39808,1,8,0:0:0:0:
285,267,39887,1,0,0:0:0:0:
285,267,39966,1,8,0:0:0:0:
285,267,40045,1,0,0:0:0:0:
285,267,40203,1,0,0:0:0:0:
285,267,40360,1,8,0:0:0:0:
313,28,40676,1,0,0:0:0:0:
349,148,40755,1,0,0:0:0:0:
349,148,40834,1,8,0:0:0:0:
349,148,40913,1,8,0:0:0:0:
349,148,40992,1,0,0:0:0:0:
349,148,41150,1,8,0:0:0:0:
349,148,41308,1,0,0:0:0:0:
349,148,41387,1,0,0:0:0:0:
349,148,41466,1,8,0:0:0:0:
349,148,41545,1,0,0:0:0:0:
349,148,41624,1,8,0:0:0:0:
167,117,41781,1,8,0:0:0:0:
197,178,41939,1,4,0:0:0:0:
197,178,43203,1,0,0:0:0:0:
345,171,44466,1,8,0:0:0:0:
345,171,45729,1,0,0:0:0:0:
345,171,46992,1,0,0:0:0:0:
345,171,47466,1,8,0:0:0:0:
345,171,48255,1,8,0:0:0:0:
250,85,48571,1,0,0:0:0:0:
250,85,48887,1,8,0:0:0:0:
250,85,49124,1,8,0:0:0:0:
250,85,49360,1,0,0:0:0:0:
250,85,49518,1,8,0:0:0:0:
292,57,49755,1,0,0:0:0:0:
292,57,49992,1,8,0:0:0:0:
292,57,50466,1,0,0:0:0:0:
292,57,50624,1,0,0:0:0:0:
292,57,50781,1,8,0:0:0:0:
292,57,50939,1,0,0:0:0:0:
292,57,51018,1,8,0:0:0:0:
292,57,51176,1,0,0:0:0:0:
292,57,51255,1,8,0:0:0:0:
292,57,51571,1,8,0:0:0:0:
252,28,51729,1,0,0:0:0:0:
252,28,51887,1,8,0:0:0:0:
252,28,52045,1,4,0:0:0:0:
182,177,52203,1,8,0:0:0:0:
296,266,52360,1,8,0:0:0:0:
296,266,52518,1,0,0:0:0:0:
296,266,52676,1,8,0:0:0:0:
296,266,52755,1,8,0:0:0:0:
296,266,52834,1,0,0:0:0:0:
214,238,52992,1,0,0:0:0:0:
214,238,53150,1,8,0:0:0:0:
214,238,53308,1,8,0:0:0:0:
214,238,53466,1,0,0:0:0:0:
214,238,53545,1,8,0:0:0:0:
328,239,53703,1,8,0:0:0:0:
328,239,53781,1,0,0:0:0:0:
328,239,53860,1,0,0:0:0:0:
328,239,53939,1,8,0:0:0:0:
216,202,54097,1,0,0:0:0:0:
216,202,54255,1,8,0:0:0:0:
216,202,54571,1,0,0:0:0:0:
398,268,54729,1,8,0:0:0:0:
336,210,54808,1,0,0:0:0:0:
336,210,54966,1,0,0:0:0:0:
336,210,55045,1,0,0:0:0:0:
336,210,55124,1,8,0:0:0:0:
336,210,55203,1,0,0:0:0:0:
336,210,55360,1,8,0:0:0:0:
290,164,55518,1,0,0:0:0:0:
290,164,55676,1,8,0:0:0:0:
290,164,55834,1,0,0:0:0:0:
290,164,55913,1,8,0:0:0:0:
203,146,55992,1,0,0:0:0:0:
243,85,56071,1,0,0:0:0:0:
243,97,56150,1,8,0:0:0:0:
243,97,56308,1,8,0:0:0:0:
243,97,56387,1,0,0:0:0:0:
243,97,56466,1,8,0:0:0:0:
243,97,56624,1,0,0:0:0:0:
243,97,56781,1,8,0:0:0:0:
243,97,57097,1,4,0:0:0:0:
182,177,57255,1,8,0:0:0:0:
296,266,57413,1,8,0:0:0:0:
296,266,57571,1,0,0:0:0:0:
296,266,57729,1,8,0:0:0:0:
296,266,57808,1,8,0:0:0:0:
296,266,57887,1,0,0:0:0:0:
214,238,58045,1,0,0:0:0:0:
214,238,58203,1,8,0:0:0:0:
214,238,58360,1,0,0:0:0:0:
214,238,58518,1,8,0:0:0:0:
214,238,58597,1,0,0:0:0:0:
328,239,58755,1,0,0:0:0:0:
328,239,58834,1,8,0:0:0:0:
328,239,58913,1,8,0:0:0:0:
328,239,58992,1,0,0:0:0:0:
216,202,59150,1,0,0:0:0:0:
216,202,59308,1,8,0:0:0:0:
216,202,59624,1,0,0:0:0:0:
398,268,59781,1,0,0:0:0:0:
336,210,59860,1,8,0:0:0:0:
336,210,60018,1,0,0:0:0:0:
336,210,60097,1,8,0:0:0:0:
336,210,60176,1,0,0:0:0:0:
336,210,60255,1,8,0:0:0:0:
336,210,60413,1,8,0:0:0:0:
290,164,60571,1,0,0:0:0:0:
290,164,60729,1,8,0:0:0:0:
290,164,60887,1,8,0:0:0:0:
290,164,60966,1,0,0:0:0:0:
203,146,61045,1,0,0:0:0:0:
243,85,61124,1,0,0:0:0:0:
243,97,61203,1,8,0:0:0:0:
243,97,61360,1,8,0:0:0:0:
243,97,61439,1,8,0:0:0:0:
243,97,61518,1,0,0:0:0:0:
243,97,61676,1,0,0:0:0:0:
243,97,61834,1,8,0:0:0:0:
195,262,62150,1,4,0:0:0:0:
341,214,62308,1,8,0:0:0:0:
307,149,62466,1,0,0:0:0:0:
307,149,62624,1,8,0:0:0:0:
307,149,62703,1,8,0:0:0:0:
307,149,62781,1,0,0:0:0:0:
307,149,62939,1,8,0:0:0:0:
307,149,63018,1,0,0:0:0:0:
212,117,63413,1,0,0:0:0:0:
212,117,63571,1,0,0:0:0:0:
212,117,63650,1,0,0:0:0:0:
212,117,63729,1,8,0:0:0:0:
313,92,63887,1,8,0:0:0:0:
313,92,63966,1,8,0:0:0:0:
313,92,64045,1,0,0:0:0:0:
313,92,64203,1,8,0:0:0:0:
313,92,64281,1,0,0:0:0:0:
313,92,64439,1,0,0:0:0:0:
313,92,64518,1,8,0:0:0:0:
313,92,64676,1,0,0:0:0:0:
313,92,64834,1,0,0:0:0:0:
313,92,64913,1,8,0:0:0:0:
303,211,65308,1,0,0:0:0:0:
303,211,65387,1,8,0:0:0:0:
303,211,65466,1,0,0:0:0:0:
303,211,65624,1,8,0:0:0:0:
303,211,65781,1,0,0:0:0:0:
303,211,65939,1,8,0:0:0:0:
303,211,66018,1,8,0:0:0:0:
303,211,66097,1,0,0:0:0:0:
201,197,66255,1,8,0:0:0:0:
201,197,66413,1,0,0:0:0:0:
201,197,66492,1,8,0:0:0:0:
201,197,66650,1,8,0:0:0:0:
201,197,66729,1,0,0:0:0:0:
201,197,66887,1,8,0:0:0:0:
195,262,67203,1,4,0:0:0:0:
341,214,67360,1,8,0:0:0:0:
307,149,67518,1,0,0:0:0:0:
307,149,67676,1,8,0:0:0:0:
307,149,67755,1,8,0:0:0:0:
307,149,67834,1,0,0:0:0:0:
307,149,67992,1,8,0:0:0:0:
307,149,68071,1,0,0:0:0:0:
212,117,68466,1,0,0:0:0:0:
212,117,68624,1,0,0:0:0:0:
212,117,68703,1,8,0:0:0:0:
212,117,68781,1,0,0:0:0:0:
313,92,68939,1,8,0:0:0:0:
313,92,69018,1,8,0:0:0:0:
313,92,69097,1,0,0:0:0:0:
313,92,69255,1,8,0:0:0:0:
313,92,69334,1,0,0:0:0:0:
313,92,69492,1,8,0:0:0:0:
313,92,69571,1,0,0:0:0:0:
313,92,69729,1,8,0:0:0:0:
313,92,69887,1,0,0:0:0:0:
313,92,69966,1,8,0:0:0:0:
321,217,70124,1,0,0:0:0:0:
321,217,70203,1,8,0:0:0:0:
303,211,70518,1,0,0:0:0:0:
303,211,70676,1,8,0:0:0:0:
303,211,70834,1,8,0:0:0:0:
303,211,70992,1,0,0:0:0:0:
303,211,71150,1,0,0:0:0:0:
307,46,71229,1,0,0:0:0:0:
201,197,71308,1,8,0:0:0:0:
201,197,71466,1,0,0:0:0:0:
387,222,71624,1,8,0:0:0:0:
201,197,71781,1,0,0:0:0:0:
201,197,71860,1,0,0:0:0:0:
201,197,71939,1,8,0:0:0:0:
203,15,72255,1,4,0:0:0:0:
248,237,72413,1,8,0:0:0:0:
248,237,72571,1,8,0:0:0:0:
248,237,72729,1,0,0:0:0:0:
248,237,72808,1,8,0:0:0:0:
248,237,72887,1,0,0:0:0:0:
248,237,73045,1,0,0:0:0:0:
248,237,73203,1,8,0:0:0:0:
248,237,73360,1,8,0:0:0:0:
248,237,73439,1,8,0:0:0:0:
248,237,73518,1,0,0:0:0:0:
248,237,73676,1,0,0:0:0:0:
248,237,73755,1,8,0:0:0:0:
248,237,73913,1,8,0:0:0:0:
248,237,73992,1,0,0:0:0:0:
313,221,74150,1,0,0:0:0:0:
313,221,74308,1,0,0:0:0:0:
394,311,74387,1,0,0:0:0:0:
242,129,74466,1,8,0:0:0:0:
458,306,74781,1,0,0:0:0:0:
285,253,74939,1,8,0:0:0:0:
285,253,75097,1,8,0:0:0:0:
285,253,75255,1,0,0:0:0:0:
266,215,75413,1,0,0:0:0:0:
266,215,75571,1,8,0:0:0:0:
266,215,75650,1,8,0:0:0:0:
266,215,75729,1,0,0:0:0:0:
266,215,75887,1,8,0:0:0:0:
266,215,76045,1,0,0:0:0:0:
266,215,76203,1,0,0:0:0:0:
266,215,76360,1,8,0:0:0:0:
266,215,76518,1,8,0:0:0:0:
266,215,76597,1,8,0:0:0:0:
266,215,76676,1,0,0:0:0:0:
266,215,76834,1,8,0:0:0:0:
266,215,76913,1,8,0:0:0:0:
266,215,76992,1,0,0:0:0:0:
139,114,77071,1,0,0:0:0:0:
139,114,77150,1,8,0:0:0:0:
139,114,77308,1,4,0:0:0:0:
381,240,77466,1,0,0:0:0:0:
381,240,77545,1,8,0:0:0:0:
381,240,77703,1,8,0:0:0:0:
381,240,77781,1,0,0:0:0:0:
381,240,77939,1,8,0:0:0:0:
381,240,78097,1,0,0:0:0:0:
279,194,78176,1,8,0:0:0:0:
381,240,78255,1,0,0:0:0:0:
337,257,78571,1,4,0:0:0:0:
337,257,78729,1,8,0:0:0:0:
337,257,78808,1,0,0:0:0:0:
256,224,78887,1,8,0:0:0:0:
195,135,79045,1,4,0:0:0:0:
334,138,79203,1,8,0:0:0:0:
334,138,79281,1,8,0:0:0:0:
334,138,79360,1,0,0:0:0:0:
161,138,79518,1,8,0:0:0:0:
161,138,79834,1,4,0:0:0:0:
223,173,79992,1,8,0:0:0:0:
223,173,80150,1,0,0:0:0:0:
223,173,80308,1,8,0:0:0:0:
223,173,80387,1,8,0:0:0:0:
223,173,80466,1,4,0:0:0:0:
190,142,80624,1,8,0:0:0:0:
168,91,80781,1,0,0:0:0:0:
168,91,80939,1,8,0:0:0:0:
168,91,81097,1,4,0:0:0:0:
300,106,81255,1,8,0:0:0:0:
300,106,81334,1,0,0:0:0:0:
207,42,81492,1,8,0:0:0:0:
236,40,81650,1,4,0:0:0:0:
359,155,81887,1,8,0:0:0:0:
359,155,81966,1,8,0:0:0:0:
359,155,82045,1,8,0:0:0:0:
264,241,82360,1,4,0:0:0:0:
291,192,82518,1,0,0:0:0:0:
291,192,82597,1,8,0:0:0:0:
291,192,82755,1,8,0:0:0:0:
291,192,82834,1,0,0:0:0:0:
291,192,82913,1,0,0:0:0:0:
291,192,82992,1,8,0:0:0:0:
222,141,83150,1,0,0:0:0:0:
222,141,83308,1,8,0:0:0:0:
218,78,83387,1,0,0:0:0:0:
303,109,83466,1,8,0:0:0:0:
215,128,83545,1,8,0:0:0:0:
215,128,83624,1,0,0:0:0:0:
215,128,83781,1,8,0:0:0:0:
215,128,83939,1,0,0:0:0:0:
215,128,84097,1,8,0:0:0:0:
215,128,84176,1,8,0:0:0:0:
215,128,84255,1,0,0:0:0:0:
215,128,84413,1,0,0:0:0:0:
215,128,84571,1,8,0:0:0:0:
379,306,84729,1,8,0:0:0:0:
379,306,84887,1,0,0:0:0:0:
337,117,85045,1,8,0:0:0:0:
337,117,85124,1,0,0:0:0:0:
337,117,85281,1,0,0:0:0:0:
337,117,85360,1,0,0:0:0:0:
337,117,85439,1,8,0:0:0:0:
337,117,85518,1,8,0:0:0:0:
219,113,85676,1,0,0:0:0:0:
219,113,85834,1,8,0:0:0:0:
219,113,85992,1,8,0:0:0:0:
219,113,86150,1,0,0:0:0:0:
219,113,86308,1,8,0:0:0:0:
303,82,86387,1,0,0:0:0:0:
254,73,86545,1,8,0:0:0:0:
254,73,86624,1,0,0:0:0:0:
254,73,86703,1,0,0:0:0:0:
254,73,86781,1,8,0:0:0:0:
254,73,86939,1,0,0:0:0:0:
274,100,87097,1,8,0:0:0:0:
237,94,87176,1,0,0:0:0:0:
237,94,87255,1,8,0:0:0:0:
237,94,87413,1,4,0:0:0:0:
395,97,87729,1,8,0:0:0:0:
337,278,87887,1,0,0:0:0:0:
337,278,88045,1,8,0:0:0:0:
375,280,88203,1,8,0:0:0:0:
337,278,88281,1,0,0:0:0:0:
375,280,88439,1,0,0:0:0:0:
375,280,88518,1,8,0:0:0:0:
375,280,88676,1,4,0:0:0:0:
317,249,88913,1,0,0:0:0:0:
507,300,88992,1,8,0:0:0:0:
317,249,89150,1,4,0:0:0:0:
225,234,89466,1,0,0:0:0:0:
252,222,89544,1,0,0:0:0:0:
225,234,89624,1,8,0:0:0:0:
225,234,89781,1,8,0:0:0:0:
239,146,89939,1,4,0:0:0:0:
265,342,90413,1,8,0:0:0:0:
194,286,90571,1,4,0:0:0:0:
280,280,90729,1,8,0:0:0:0:
280,280,90887,1,8,0:0:0:0:
280,280,91045,1,8,0:0:0:0:
194,286,91203,1,4,0:0:0:0:
446,343,91439,1,4,0:0:0:0:
194,286,91676,1,12,0:0:0:0:
314,233,92150,1,8,0:0:0:0:
314,233,92308,1,8,0:0:0:0:
264,241,92466,1,4,0:0:0:0:
291,192,92624,1,0,0:0:0:0:
291,192,92703,1,8,0:0:0:0:
291,192,92860,1,0,0:0:0:0:
291,192,92939,1,8,0:0:0:0:
291,192,93018,1,0,0:0:0:0:
291,192,93097,1,8,0:0:0:0:
222,141,93255,1,0,0:0:0:0:
222,141,93413,1,0,0:0:0:0:
218,78,93492,1,0,0:0:0:0:
190,124,93571,1,8,0:0:0:0:
215,128,93650,1,0,0:0:0:0:
215,128,93729,1,8,0:0:0:0:
215,128,93887,1,8,0:0:0:0:
215,128,94045,1,0,0:0:0:0:
215,128,94203,1,8,0:0:0:0:
215,128,94281,1,8,0:0:0:0:
215,128,94360,1,0,0:0:0:0:
215,128,94518,1,0,0:0:0:0:
215,128,94676,1,8,0:0:0:0:
379,306,94834,1,8,0:0:0:0:
379,306,94992,1,0,0:0:0:0:
337,117,95150,1,8,0:0:0:0:
337,117,95229,1,0,0:0:0:0:
337,117,95387,1,0,0:0:0:0:
337,117,95466,1,8,0:0:0:0:
337,117,95545,1,8,0:0:0:0:
337,117,95624,1,0,0:0:0:0:
219,113,95781,1,0,0:0:0:0:
219,113,95939,1,8,0:0:0:0:
219,113,96097,1,8,0:0:0:0:
219,113,96255,1,0,0:0:0:0:
219,113,96413,1,8,0:0:0:0:
303,82,96492,1,0,0:0:0:0:
254,73,96650,1,8,0:0:0:0:
254,73,96729,1,8,0:0:0:0:
254,73,96808,1,0,0:0:0:0:
254,73,96887,1,8,0:0:0:0:
254,73,97045,1,0,0:0:0:0:
274,100,97203,1,8,0:0:0:0:
237,94,97281,1,0,0:0:0:0:
237,94,97360,1,8,0:0:0:0:
237,94,97518,1,4,0:0:0:0:
395,97,97834,1,8,0:0:0:0:
337,278,97992,1,0,0:0:0:0:
337,278,98150,1,8,0:0:0:0:
375,280,98308,1,8,0:0:0:0:
337,278,98387,1,0,0:0:0:0:
375,280,98545,1,0,0:0:0:0:
375,280,98624,1,8,0:0:0:0:
375,280,98781,1,4,0:0:0:0:
317,249,99018,1,0,0:0:0:0:
507,300,99097,1,8,0:0:0:0:
317,249,99255,1,4,0:0:0:0:
225,234,99571,1,0,0:0:0:0:
225,234,99729,1,8,0:0:0:0:
225,234,99887,1,8,0:0:0:0:
239,146,100045,1,4,0:0:0:0:
316,160,100203,1,8,0:0:0:0:
316,160,100281,1,0,0:0:0:0:
316,160,100439,1,0,0:0:0:0:
316,160,100518,1,8,0:0:0:0:
316,160,100834,1,8,0:0:0:0:
316,160,100992,1,0,0:0:0:0:
316,160,101150,1,8,0:0:0:0:
316,160,101308,1,4,0:0:0:0:
305,200,101466,1,8,0:0:0:0:
262,297,101624,1,8,0:0:0:0:
305,200,101781,1,0,0:0:0:0:
305,200,101939,1,8,0:0:0:0:
305,200,102097,1,0,0:0:0:0:
163,177,102176,1,8,0:0:0:0:
163,177,102334,1,8,0:0:0:0:
163,177,102413,1,0,0:0:0:0:
163,177,102492,1,0,0:0:0:0:
163,177,102571,1,8,0:0:0:0:
163,177,102729,1,0,0:0:0:0:
163,177,102887,1,8,0:0:0:0:
163,177,103045,1,0,0:0:0:0:
163,177,103124,1,0,0:0:0:0:
163,177,103203,1,8,0:0:0:0:
299,173,103360,1,0,0:0:0:0:
299,173,103518,1,8,0:0:0:0:
299,173,103834,1,0,0:0:0:0:
468,311,103992,1,8,0:0:0:0:
468,311,104071,1,0,0:0:0:0:
292,253,104229,1,0,0:0:0:0:
292,253,104308,1,8,0:0:0:0:
258,240,104387,1,8,0:0:0:0:
258,240,104466,1,0,0:0:0:0:
408,279,104624,1,0,0:0:0:0:
393,273,104781,1,8,0:0:0:0:
223,243,104939,1,8,0:0:0:0:
223,243,105097,1,0,0:0:0:0:
223,243,105176,1,8,0:0:0:0:
223,243,105255,1,0,0:0:0:0:
223,243,105413,1,8,0:0:0:0:
223,243,105571,1,0,0:0:0:0:
250,80,105650,1,0,0:0:0:0:
223,243,105729,1,8,0:0:0:0:
223,243,105887,1,0,0:0:0:0:
223,243,106045,1,8,0:0:0:0:
316,160,106360,1,0,0:0:0:0:
305,200,106518,1,8,0:0:0:0:
262,297,106676,1,8,0:0:0:0:
192,75,106755,1,8,0:0:0:0:
305,200,106834,1,0,0:0:0:0:
305,200,106992,1,8,0:0:0:0:
305,200,107150,1,0,0:0:0:0:
163,177,107229,1,8,0:0:0:0:
163,177,107387,1,8,0:0:0:0:
163,177,107466,1,0,0:0:0:0:
163,177,107545,1,8,0:0:0:0:
163,177,107624,1,8,0:0:0:0:
163,177,107781,1,0,0:0:0:0:
163,177,107939,1,8,0:0:0:0:
163,177,108097,1,8,0:0:0:0:
163,177,108176,1,0,0:0:0:0:
163,177,108255,1,8,0:0:0:0:
299,173,108413,1,0,0:0:0:0:
299,173,108571,1,8,0:0:0:0:
299,173,108887,1,0,0:0:0:0:
468,311,109045,1,0,0:0:0:0:
468,311,109124,1,8,0:0:0:0:
292,253,109281,1,0,0:0:0:0:
292,253,109360,1,0,0:0:0:0:
258,240,109439,1,8,0:0:0:0:
258,240,109518,1,0,0:0:0:0:
408,279,109676,1,0,0:0:0:0:
393,273,109834,1,8,0:0:0:0:
223,243,109992,1,8,0:0:0:0:
223,243,110150,1,0,0:0:0:0:
223,243,110229,1,8,0:0:0:0:
223,243,110308,1,0,0:0:0:0:
223,243,110466,1,8,0:0:0:0:
223,243,110624,1,8,0:0:0:0:
250,80,110703,1,8,0:0:0:0:
223,243,110781,1,0,0:0:0:0:
323,95,110860,1,0,0:0:0:0:
223,243,110939,1,8,0:0:0:0:
223,243,111097,1,8,0:0:0:0:
455,286,111413,1,4,0:0:0:0:
352,279,111571,1,8,0:0:0:0:
352,279,111729,1,8,0:0:0:0:
352,279,111887,1,0,0:0:0:0:
352,279,111966,1,0,0:0:0:0:
352,279,112045,1,8,0:0:0:0:
352,279,112203,1,0,0:0:0:0:
352,279,112281,1,8,0:0:0:0:
352,279,112518,1,8,0:0:0:0:
182,206,112676,1,0,0:0:0:0:
395,304,112834,1,8,0:0:0:0:
395,304,112913,1,0,0:0:0:0:
395,304,112992,1,8,0:0:0:0:
395,304,113150,1,8,0:0:0:0:
395,304,113229,1,8,0:0:0:0:
395,304,113308,1,0,0:0:0:0:
395,304,113466,1,0,0:0:0:0:
395,304,113545,1,8,0:0:0:0:
395,304,113781,1,0,0:0:0:0:
395,304,113939,1,8,0:0:0:0:
398,328,114097,1,0,0:0:0:0:
398,328,114176,1,8,0:0:0:0:
488,328,114255,1,0,0:0:0:0:
488,328,114413,1,8,0:0:0:0:
488,328,114492,1,8,0:0:0:0:
488,328,114571,1,0,0:0:0:0:
488,328,114729,1,8,0:0:0:0:
488,328,114887,1,8,0:0:0:0:
427,223,115045,1,0,0:0:0:0:
427,223,115203,1,0,0:0:0:0:
317,98,115281,1,0,0:0:0:0:
443,311,115360,1,8,0:0:0:0:
443,311,115518,1,0,0:0:0:0:
443,311,115676,1,8,0:0:0:0:
443,311,115755,1,8,0:0:0:0:
443,311,115834,1,0,0:0:0:0:
443,311,115992,1,8,0:0:0:0:
443,311,116150,1,8,0:0:0:0:
279,248,116466,1,4,0:0:0:0:
392,306,116624,1,0,0:0:0:0:
392,306,116781,1,8,0:0:0:0:
392,306,116939,1,8,0:0:0:0:
392,306,117018,1,0,0:0:0:0:
392,306,117097,1,8,0:0:0:0:
392,306,117255,1,0,0:0:0:0:
392,306,117334,1,8,0:0:0:0:
343,302,117492,1,8,0:0:0:0:
343,302,117571,1,0,0:0:0:0:
263,278,117729,1,0,0:0:0:0:
263,278,117887,1,0,0:0:0:0:
263,278,117966,1,8,0:0:0:0:
263,278,118045,1,0,0:0:0:0:
263,278,118203,1,0,0:0:0:0:
263,278,118281,1,8,0:0:0:0:
263,278,118360,1,8,0:0:0:0:
263,278,118518,1,0,0:0:0:0:
263,278,118597,1,8,0:0:0:0:
261,286,118755,1,0,0:0:0:0:
261,286,118834,1,8,0:0:0:0:
261,289,118992,1,0,0:0:0:0:
261,289,119150,1,0,0:0:0:0:
261,289,119229,1,8,0:0:0:0:
332,260,119387,1,0,0:0:0:0:
261,289,119466,1,8,0:0:0:0:
332,260,119939,1,8,0:0:0:0:
332,260,120097,1,8,0:0:0:0:
332,260,120255,1,0,0:0:0:0:
362,320,120413,1,0,0:0:0:0:
362,320,120571,1,8,0:0:0:0:
362,320,120729,1,0,0:0:0:0:
362,320,120808,1,8,0:0:0:0:
225,269,120887,1,0,0:0:0:0:
225,269,121045,1,0,0:0:0:0:
225,269,121203,1,8,0:0:0:0:
225,269,121518,1,4,0:0:0:0:
405,313,121676,1,0,0:0:0:0:
405,313,121755,1,8,0:0:0:0:
349,284,121913,1,0,0:0:0:0:
349,284,121992,1,8,0:0:0:0:
263,73,122071,1,8,0:0:0:0:
207,109,122150,1,0,0:0:0:0:
207,109,122308,1,8,0:0:0:0:
207,109,122466,1,8,0:0:0:0:
207,109,122624,1,0,0:0:0:0:
207,109,122703,1,0,0:0:0:0:
207,109,122781,1,8,0:0:0:0:
207,109,122939,1,0,0:0:0:0:
207,109,123018,1,8,0:0:0:0:
207,109,123176,1,8,0:0:0:0:
207,109,123255,1,0,0:0:0:0:
207,109,123334,1,0,0:0:0:0:
207,109,123413,1,8,0:0:0:0:
207,109,123571,1,0,0:0:0:0:
263,73,123729,1,8,0:0:0:0:
263,73,124045,1,0,0:0:0:0:
263,73,124203,1,0,0:0:0:0:
263,73,124360,1,8,0:0:0:0:
328,234,124439,1,0,0:0:0:0:
263,73,124518,1,8,0:0:0:0:
263,73,124676,1,0,0:0:0:0:
263,73,124834,1,8,0:0:0:0:
250,84,124913,1,0,0:0:0:0:
263,73,125071,1,8,0:0:0:0:
271,55,125150,1,0,0:0:0:0:
271,55,125229,1,0,0:0:0:0:
271,55,125308,1,8,0:0:0:0:
271,55,125466,1,0,0:0:0:0:
271,55,125624,1,8,0:0:0:0:
271,55,125781,1,8,0:0:0:0:
271,55,126097,1,0,0:0:0:0:
271,55,126176,1,0,0:0:0:0:
228,60,126255,1,8,0:0:0:0:
228,60,126334,1,8,0:0:0:0:
228,60,126413,1,0,0:0:0:0:
228,60,126571,1,12,0:0:0:0:
228,60,126729,1,8,0:0:0:0:
228,60,126808,1,8,0:0:0:0:
228,60,126887,1,0,0:0:0:0:
228,60,127045,1,8,0:0:0:0:
228,60,127203,1,8,0:0:0:0:
228,60,127360,1,0,0:0:0:0:
228,60,127518,1,8,0:0:0:0:
228,60,127834,1,4,0:0:0:0:
228,60,127992,1,8,0:0:0:0:
228,60,128071,1,0,0:0:0:0:
228,60,128150,1,8,0:0:0:0:
228,60,128229,1,8,0:0:0:0:
228,60,128308,1,0,0:0:0:0:
228,60,128466,1,8,0:0:0:0:
228,60,128624,1,0,0:0:0:0:
182,29,128703,1,0,0:0:0:0:
228,60,128781,1,8,0:0:0:0:
228,60,128939,1,8,0:0:0:0:
228,60,129097,1,4,0:0:0:0:
228,60,129255,1,8,0:0:0:0:
228,60,129413,1,8,0:0:0:0:
228,60,129571,1,8,0:0:0:0:
228,60,129729,1,4,0:0:0:0:
228,60,129887,1,0,0:0:0:0:
228,60,130045,1,8,0:0:0:0:
246,31,130124,1,0,0:0:0:0:
228,60,130203,1,8,0:0:0:0:
228,60,130360,1,8,0:0:0:0:
228,60,130518,1,0,0:0:0:0:
228,60,130597,1,8,0:0:0:0:
228,60,130755,1,8,0:0:0:0:
188,75,130834,1,8,0:0:0:0:
188,75,130913,1,0,0:0:0:0:
188,75,130992,1,8,0:0:0:0:
188,75,131308,1,8,0:0:0:0:
188,75,131387,1,8,0:0:0:0:
188,75,131466,1,8,0:0:0:0:
264,241,131624,1,4,0:0:0:0:
291,192,131781,1,0,0:0:0:0:
291,192,131860,1,8,0:0:0:0:
291,192,132018,1,8,0:0:0:0:
291,192,132097,1,0,0:0:0:0:
291,192,132176,1,0,0:0:0:0:
291,192,132255,1,8,0:0:0:0:
222,141,132413,1,0,0:0:0:0:
222,141,132571,1,8,0:0:0:0:
218,78,132650,1,0,0:0:0:0:
303,109,132729,1,8,0:0:0:0:
215,128,132808,1,8,0:0:0:0:
215,128,132887,1,0,0:0:0:0:
215,128,133045,1,8,0:0:0:0:
215,128,133203,1,0,0:0:0:0:
215,128,133360,1,8,0:0:0:0:
215,128,133439,1,8,0:0:0:0:
215,128,133518,1,0,0:0:0:0:
215,128,133676,1,0,0:0:0:0:
215,128,133834,1,8,0:0:0:0:
379,306,133992,1,8,0:0:0:0:
379,306,134150,1,0,0:0:0:0:
337,117,134308,1,8,0:0:0:0:
337,117,134387,1,0,0:0:0:0:
337,117,134545,1,0,0:0:0:0:
337,117,134624,1,0,0:0:0:0:
337,117,134703,1,8,0:0:0:0:
337,117,134781,1,8,0:0:0:0:
219,113,134939,1,0,0:0:0:0:
219,113,135097,1,8,0:0:0:0:
219,113,135255,1,8,0:0:0:0:
219,113,135413,1,0,0:0:0:0:
219,113,135571,1,8,0:0:0:0:
303,82,135650,1,0,0:0:0:0:
254,73,135808,1,8,0:0:0:0:
254,73,135887,1,0,0:0:0:0:
254,73,135966,1,0,0:0:0:0:
254,73,136045,1,8,0:0:0:0:
254,73,136203,1,0,0:0:0:0:
274,100,136360,1,8,0:0:0:0:
237,94,136439,1,0,0:0:0:0:
237,94,136518,1,8,0:0:0:0:
237,94,136676,1,4,0:0:0:0:
395,97,136992,1,8,0:0:0:0:
337,278,137150,1,0,0:0:0:0:
337,278,137308,1,8,0:0:0:0:
375,280,137466,1,8,0:0:0:0:
337,278,137545,1,0,0:0:0:0:
375,280,137703,1,0,0:0:0:0:
375,280,137781,1,8,0:0:0:0:
375,280,137939,1,4,0:0:0:0:
365,180,138097,1,8,0:0:0:0:
317,249,138176,1,0,0:0:0:0:
507,300,138255,1,8,0:0:0:0:
317,249,138413,1,4,0:0:0:0:
225,234,138729,1,0,0:0:0:0:
277,200,138807,1,0,0:0:0:0:
225,234,138887,1,8,0:0:0:0:
225,234,139045,1,8,0:0:0:0:
239,146,139203,1,4,0:0:0:0:
265,342,139676,1,8,0:0:0:0:
194,286,139834,1,4,0:0:0:0:
280,280,139992,1,8,0:0:0:0:
280,280,140150,1,8,0:0:0:0:
280,280,140308,1,8,0:0:0:0:
194,286,140466,1,4,0:0:0:0:
446,343,140703,1,4,0:0:0:0:
194,286,140939,1,12,0:0:0:0:
314,233,141413,1,8,0:0:0:0:
381,259,141492,1,8,0:0:0:0:
314,233,141571,1,8,0:0:0:0:
264,241,141729,1,4,0:0:0:0:
291,192,141887,1,0,0:0:0:0:
291,192,141966,1,8,0:0:0:0:
291,192,142124,1,0,0:0:0:0:
291,192,142203,1,8,0:0:0:0:
291,192,142281,1,0,0:0:0:0:
291,192,142360,1,8,0:0:0:0:
222,141,142518,1,0,0:0:0:0:
222,141,142676,1,0,0:0:0:0:
218,78,142755,1,8,0:0:0:0:
190,124,142834,1,8,0:0:0:0:
215,128,142913,1,8,0:0:0:0:
215,128,142992,1,0,0:0:0:0:
215,128,143150,1,8,0:0:0:0:
215,128,143308,1,0,0:0:0:0:
215,128,143466,1,8,0:0:0:0:
215,128,143545,1,8,0:0:0:0:
215,128,143624,1,0,0:0:0:0:
215,128,143781,1,0,0:0:0:0:
215,128,143939,1,8,0:0:0:0:
379,306,144097,1,8,0:0:0:0:
379,306,144255,1,0,0:0:0:0:
337,117,144413,1,8,0:0:0:0:
337,117,144492,1,0,0:0:0:0:
337,117,144650,1,0,0:0:0:0:
337,117,144729,1,8,0:0:0:0:
337,117,144808,1,8,0:0:0:0:
337,117,144887,1,0,0:0:0:0:
219,113,145045,1,0,0:0:0:0:
219,113,145203,1,8,0:0:0:0:
219,113,145360,1,8,0:0:0:0:
219,113,145518,1,0,0:0:0:0:
219,113,145676,1,8,0:0:0:0:
303,82,145755,1,0,0:0:0:0:
254,73,145913,1,8,0:0:0:0:
254,73,145992,1,0,0:0:0:0:
254,73,146071,1,0,0:0:0:0:
254,73,146150,1,8,0:0:0:0:
254,73,146308,1,0,0:0:0:0:
274,100,146466,1,8,0:0:0:0:
237,94,146545,1,0,0:0:0:0:
237,94,146624,1,8,0:0:0:0:
237,94,146781,1,4,0:0:0:0:
395,97,147097,1,8,0:0:0:0:
337,278,147255,1,0,0:0:0:0:
337,278,147413,1,8,0:0:0:0:
375,280,147571,1,8,0:0:0:0:
337,278,147650,1,0,0:0:0:0:
375,280,147808,1,0,0:0:0:0:
375,280,147887,1,8,0:0:0:0:
375,280,148045,1,4,0:0:0:0:
317,249,148281,1,0,0:0:0:0:
507,300,148360,1,8,0:0:0:0:
317,249,148518,1,4,0:0:0:0:
225,234,148834,1,0,0:0:0:0:
225,234,148992,1,8,0:0:0:0:
225,234,149150,1,8,0:0:0:0:
239,146,149308,1,4,0:0:0:0:
316,160,149466,1,8,0:0:0:0:
316,160,149545,1,0,0:0:0:0:
316,160,149703,1,0,0:0:0:0:
316,160,149781,1,8,0:0:0:0:
316,160,150097,1,8,0:0:0:0:
316,160,150255,1,0,0:0:0:0:
316,160,150413,1,8,0:0:0:0:
316,160,150571,1,4,0:0:0:0:
375,99,150729,1,0,0:0:0:0:
375,99,150808,1,8,0:0:0:0:
458,195,150966,1,0,0:0:0:0:
458,195,151045,1,0,0:0:0:0:
458,195,151124,1,8,0:0:0:0:
458,195,151203,1,8,0:0:0:0:
458,195,151360,1,0,0:0:0:0:
458,195,151518,1,8,0:0:0:0:
461,182,151676,1,0,0:0:0:0:
461,182,151834,1,8,0:0:0:0:
461,182,151913,1,8,0:0:0:0:
461,182,151992,1,0,0:0:0:0:
344,160,152150,1,8,0:0:0:0:
344,160,152308,1,0,0:0:0:0:
344,160,152387,1,8,0:0:0:0:
344,160,152545,1,8,0:0:0:0:
344,160,152624,1,0,0:0:0:0:
344,160,152703,1,0,0:0:0:0:
344,160,152781,1,8,0:0:0:0:
315,146,153097,1,4,0:0:0:0:
407,173,153255,1,8,0:0:0:0:
392,241,153413,1,8,0:0:0:0:
238,164,153492,1,0,0:0:0:0:
403,237,153571,1,8,0:0:0:0:
407,173,153729,1,0,0:0:0:0:
328,185,153887,1,8,0:0:0:0:
314,106,153966,1,8,0:0:0:0:
328,185,154045,1,0,0:0:0:0:
252,166,154203,1,0,0:0:0:0:
254,154,154360,1,8,0:0:0:0:
263,160,154518,1,0,0:0:0:0:
263,160,154597,1,8,0:0:0:0:
263,160,154676,1,0,0:0:0:0:
347,125,154834,1,0,0:0:0:0:
347,125,154913,1,8,0:0:0:0:
347,125,155071,1,8,0:0:0:0:
347,125,155150,1,8,0:0:0:0:
347,125,155229,1,0,0:0:0:0:
347,125,155308,1,8,0:0:0:0:
347,125,155466,1,0,0:0:0:0:
347,125,155624,1,0,0:0:0:0:
347,125,155781,1,8,0:0:0:0:
347,125,155939,1,8,0:0:0:0:
347,125,156255,1,0,0:0:0:0:
347,125,156334,1,8,0:0:0:0:
217,128,156492,1,0,0:0:0:0:
217,128,156571,1,0,0:0:0:0:
217,128,156650,1,8,0:0:0:0:
217,128,156729,1,0,0:0:0:0:
217,128,156887,1,8,0:0:0:0:
217,128,157045,1,8,0:0:0:0:
217,128,157124,1,0,0:0:0:0:
217,128,157281,1,0,0:0:0:0:
217,128,157360,1,8,0:0:0:0:
217,128,157439,1,8,0:0:0:0:
217,128,157518,1,0,0:0:0:0:
217,128,157676,1,8,0:0:0:0:
217,128,157755,1,0,0:0:0:0:
217,128,157834,1,8,0:0:0:0:
247,212,158150,1,4,0:0:0:0:
334,255,158466,1,8,0:0:0:0:
334,255,158624,1,8,0:0:0:0:
334,255,158781,1,0,0:0:0:0:
334,255,158939,1,8,0:0:0:0:
334,255,159018,1,0,0:0:0:0:
334,255,159176,1,8,0:0:0:0:
334,255,159255,1,8,0:0:0:0:
334,255,159334,1,8,0:0:0:0:
247,212,159413,1,4,0:0:0:0:
435,273,159729,1,0,0:0:0:0:
435,273,159808,1,0,0:0:0:0:
321,240,159887,1,8,0:0:0:0:
247,212,160045,1,4,0:0:0:0:
321,240,160203,1,8,0:0:0:0:
321,240,160360,1,8,0:0:0:0:
321,240,160439,1,8,0:0:0:0:
321,240,160518,1,0,0:0:0:0:
247,212,160676,1,4,0:0:0:0:
321,240,160834,1,8,0:0:0:0:
321,240,160992,1,0,0:0:0:0:
321,240,161071,1,0,0:0:0:0:
321,240,161150,1,8,0:0:0:0:
247,212,161308,1,4,0:0:0:0:
321,240,161624,1,8,0:0:0:0:
321,240,161781,1,8,0:0:0:0:
321,240,161939,1,0,0:0:0:0:
321,240,162018,1,0,0:0:0:0:
321,240,162097,1,0,0:0:0:0:
321,240,162176,1,0,0:0:0:0:
321,240,162255,1,8,0:0:0:0:
321,240,162413,1,4,0:0:0:0:
321,240,162571,1,8,0:0:0:0:
321,240,162650,1,8,0:0:0:0:
321,240,162729,1,8,0:0:0:0:
321,240,162808,1,8,0:0:0:0:
321,240,162887,1,0,0:0:0:0:
321,240,163045,1,8,0:0:0:0:
247,212,163203,1,4,0:0:0:0:
362,148,163360,1,8,0:0:0:0:
270,138,163518,1,8,0:0:0:0:
348,175,163676,1,0,0:0:0:0:
259,127,163834,1,8,0:0:0:0:
259,127,163992,1,0,0:0:0:0:
259,127,164071,1,8,0:0:0:0:
259,127,164229,1,8,0:0:0:0:
259,127,164308,1,8,0:0:0:0:
259,127,164387,1,0,0:0:0:0:
259,127,164466,1,0,0:0:0:0:
259,127,164624,1,8,0:0:0:0:
259,127,164781,1,8,0:0:0:0:
259,127,164939,1,0,0:0:0:0:
259,127,165018,1,0,0:0:0:0:
259,127,165097,1,8,0:0:0:0:
259,127,165255,1,0,0:0:0:0:
259,127,165413,1,8,0:0:0:0:
259,127,165729,1,0,0:0:0:0:
277,264,165887,1,0,0:0:0:0:
277,264,166045,1,8,0:0:0:0:
245,189,166124,1,0,0:0:0:0:
245,189,166203,1,8,0:0:0:0:
245,189,166360,1,8,0:0:0:0:
245,189,166518,1,0,0:0:0:0:
245,189,166597,1,8,0:0:0:0:
245,189,166755,1,8,0:0:0:0:
126,166,166834,1,0,0:0:0:0:
245,189,166913,1,0,0:0:0:0:
126,166,166992,1,8,0:0:0:0:
126,166,167150,1,0,0:0:0:0:
126,166,167308,1,8,0:0:0:0:
126,166,167466,1,8,0:0:0:0:
126,166,167624,1,0,0:0:0:0:
126,166,167703,1,0,0:0:0:0:
126,166,167781,1,8,0:0:0:0:
126,166,167860,1,0,0:0:0:0:
126,166,167939,1,8,0:0:0:0:
253,124,168255,1,4,0:0:0:0:
283,199,168413,1,8,0:0:0:0:
283,199,168571,1,8,0:0:0:0:
227,95,168729,1,0,0:0:0:0:
283,199,168808,1,8,0:0:0:0:
303,162,168966,1,8,0:0:0:0:
303,162,169045,1,0,0:0:0:0:
303,162,169124,1,0,0:0:0:0:
303,162,169203,1,8,0:0:0:0:
368,165,169360,1,0,0:0:0:0:
368,165,169518,1,8,0:0:0:0:
368,165,169597,1,8,0:0:0:0:
368,165,169676,1,0,0:0:0:0:
368,165,169755,1,8,0:0:0:0:
368,165,169834,1,0,0:0:0:0:
368,165,169992,1,8,0:0:0:0:
368,165,170150,1,0,0:0:0:0:
368,165,170308,1,8,0:0:0:0:
368,165,170387,1,8,0:0:0:0:
368,165,170466,1,0,0:0:0:0:
349,251,170624,1,8,0:0:0:0:
349,251,170781,1,0,0:0:0:0:
349,251,170939,1,0,0:0:0:0:
349,251,171097,1,8,0:0:0:0:
408,304,171176,1,0,0:0:0:0:
349,251,171255,1,8,0:0:0:0:
349,251,171413,1,0,0:0:0:0:
408,304,171571,1,0,0:0:0:0:
370,182,171650,1,0,0:0:0:0:
349,251,171729,1,8,0:0:0:0:
349,251,171887,1,8,0:0:0:0:
349,251,172045,1,4,0:0:0:0:
197,178,173307,1,8,0:0:0:0:
345,171,174571,1,8,0:0:0:0:
345,171,175834,1,0,0:0:0:0:
345,171,177097,1,0,0:0:0:0:
345,171,177571,1,8,0:0:0:0:
345,171,178360,1,8,0:0:0:0:
250,85,178676,1,0,0:0:0:0:
250,85,178992,1,8,0:0:0:0:
250,85,179229,1,8,0:0:0:0:
250,85,179466,1,0,0:0:0:0:
250,85,179624,1,8,0:0:0:0:
292,57,179860,1,0,0:0:0:0:
292,57,180097,1,8,0:0:0:0:
297,314,180729,1,0,0:0:0:0:
297,314,180808,1,0,0:0:0:0:
297,314,180887,1,8,0:0:0:0:
441,350,181360,1,8,0:0:0:0:
441,350,181676,1,8,0:0:0:0:
441,350,181834,1,0,0:0:0:0:
441,350,181992,1,8,0:0:0:0:
441,350,182150,1,0,0:0:0:0:
223,305,182308,1,8,0:0:0:0:
223,305,182387,1,0,0:0:0:0:
223,305,182545,1,0,0:0:0:0:
223,305,182624,1,8,0:0:0:0:
387,164,183097,1,8,0:0:0:0:
387,164,183176,1,8,0:0:0:0:
387,164,183255,1,8,0:0:0:0:
264,241,183413,1,4,0:0:0:0:
291,192,183571,1,0,0:0:0:0:
291,192,183650,1,8,0:0:0:0:
291,192,183808,1,8,0:0:0:0:
291,192,183887,1,0,0:0:0:0:
291,192,183966,1,0,0:0:0:0:
291,192,184045,1,8,0:0:0:0:
222,141,184203,1,0,0:0:0:0:
222,141,184360,1,8,0:0:0:0:
218,78,184439,1,0,0:0:0:0:
303,109,184518,1,8,0:0:0:0:
215,128,184597,1,8,0:0:0:0:
215,128,184676,1,0,0:0:0:0:
215,128,184834,1,8,0:0:0:0:
215,128,184992,1,0,0:0:0:0:
215,128,185150,1,8,0:0:0:0:
215,128,185229,1,8,0:0:0:0:
215,128,185308,1,0,0:0:0:0:
215,128,185466,1,0,0:0:0:0:
215,128,185624,1,8,0:0:0:0:
379,306,185781,1,8,0:0:0:0:
379,306,185939,1,0,0:0:0:0:
337,117,186097,1,8,0:0:0:0:
337,117,186176,1,0,0:0:0:0:
337,117,186334,1,0,0:0:0:0:
337,117,186413,1,0,0:0:0:0:
337,117,186492,1,8,0:0:0:0:
337,117,186571,1,8,0:0:0:0:
219,113,186729,1,0,0:0:0:0:
219,113,186887,1,8,0:0:0:0:
219,113,187045,1,8,0:0:0:0:
219,113,187203,1,0,0:0:0:0:
219,113,187360,1,8,0:0:0:0:
303,82,187439,1,0,0:0:0:0:
254,73,187597,1,8,0:0:0:0:
254,73,187676,1,0,0:0:0:0:
254,73,187755,1,0,0:0:0:0:
254,73,187834,1,8,0:0:0:0:
254,73,187992,1,0,0:0:0:0:
274,100,188150,1,8,0:0:0:0:
237,94,188229,1,0,0:0:0:0:
237,94,188308,1,8,0:0:0:0:
237,94,188466,1,4,0:0:0:0:
395,97,188781,1,8,0:0:0:0:
337,278,188939,1,0,0:0:0:0:
337,278,189097,1,8,0:0:0:0:
375,280,189255,1,8,0:0:0:0:
337,278,189334,1,0,0:0:0:0:
375,280,189492,1,0,0:0:0:0:
375,280,189571,1,8,0:0:0:0:
375,280,189729,1,4,0:0:0:0:
365,180,189887,1,8,0:0:0:0:
317,249,189966,1,0,0:0:0:0:
507,300,190045,1,8,0:0:0:0:
317,249,190203,1,4,0:0:0:0:
225,234,190518,1,0,0:0:0:0:
290,209,190596,1,0,0:0:0:0:
225,234,190676,1,8,0:0:0:0:
225,234,190834,1,8,0:0:0:0:
239,146,190992,1,4,0:0:0:0:
306,112,191150,1,8,0:0:0:0:
306,112,191229,1,0,0:0:0:0:
306,112,191387,1,0,0:0:0:0:
265,342,191466,1,8,0:0:0:0:
194,286,191624,1,4,0:0:0:0:
280,280,191781,1,8,0:0:0:0:
280,280,191939,1,8,0:0:0:0:
280,280,192097,1,8,0:0:0:0:
194,286,192255,1,4,0:0:0:0:
446,343,192413,1,0,0:0:0:0:
446,343,192492,1,8,0:0:0:0:
458,195,192650,1,0,0:0:0:0:
458,195,192729,1,0,0:0:0:0:
458,195,192808,1,8,0:0:0:0:
458,195,192887,1,8,0:0:0:0:
458,195,193045,1,0,0:0:0:0:
458,195,193203,1,8,0:0:0:0:
461,182,193360,1,0,0:0:0:0:
461,182,193518,1,8,0:0:0:0:
461,182,193597,1,8,0:0:0:0:
461,182,193676,1,0,0:0:0:0:
344,160,193834,1,8,0:0:0:0:
344,160,193992,1,0,0:0:0:0:
344,160,194071,1,8,0:0:0:0:
344,160,194229,1,8,0:0:0:0:
344,160,194308,1,0,0:0:0:0:
344,160,194387,1,0,0:0:0:0:
344,160,194466,1,8,0:0:0:0:
330,232,194623,1,8,0:0:0:0:
315,146,194781,1,0,0:0:0:0:
392,241,195097,1,12,0:0:0:0:
403,237,195255,1,0,0:0:0:0:
407,173,195412,1,8,0:0:0:0:
365,151,195491,1,0,0:0:0:0:
328,185,195571,1,8,0:0:0:0:
314,106,195650,1,8,0:0:0:0:
328,185,195729,1,0,0:0:0:0:
252,166,195887,1,0,0:0:0:0:
254,154,196045,1,8,0:0:0:0:
263,160,196203,1,0,0:0:0:0:
263,160,196281,1,8,0:0:0:0:
263,160,196360,1,0,0:0:0:0:
347,125,196518,1,0,0:0:0:0:
347,125,196597,1,8,0:0:0:0:
347,125,196755,1,8,0:0:0:0:
347,125,196834,1,8,0:0:0:0:
347,125,196913,1,0,0:0:0:0:
347,125,196992,1,8,0:0:0:0:
347,125,197150,1,0,0:0:0:0:
347,125,197308,1,0,0:0:0:0:
347,125,197466,1,8,0:0:0:0:
347,125,197624,1,8,0:0:0:0:
347,125,197939,1,0,0:0:0:0:
347,125,198018,1,8,0:0:0:0:
217,128,198176,1,0,0:0:0:0:
217,128,198255,1,0,0:0:0:0:
217,128,198334,1,8,0:0:0:0:
217,128,198413,1,8,0:0:0:0:
217,128,198571,1,4,0:0:0:0:
217,128,198729,1,8,0:0:0:0:
217,128,198808,1,0,0:0:0:0:
217,128,198966,1,0,0:0:0:0:
217,128,199045,1,8,0:0:0:0:
217,128,199124,1,8,0:0:0:0:
217,128,199203,1,0,0:0:0:0:
217,128,199360,1,8,0:0:0:0:
217,128,199439,1,0,0:0:0:0:
217,128,199518,1,8,0:0:0:0:
247,212,199834,1,4,0:0:0:0:
334,255,200150,1,8,0:0:0:0:
334,255,200308,1,8,0:0:0:0:
334,255,200466,1,0,0:0:0:0:
334,255,200624,1,8,0:0:0:0:
334,255,200703,1,0,0:0:0:0:
334,255,200860,1,8,0:0:0:0:
334,255,200939,1,8,0:0:0:0:
334,255,201018,1,8,0:0:0:0:
247,212,201097,1,4,0:0:0:0:
435,273,201413,1,0,0:0:0:0:
435,273,201492,1,0,0:0:0:0:
321,240,201571,1,8,0:0:0:0:
247,212,201729,1,0,0:0:0:0:
321,240,201887,1,8,0:0:0:0:
321,240,202045,1,8,0:0:0:0:
321,240,202124,1,8,0:0:0:0:
321,240,202203,1,0,0:0:0:0:
247,212,202360,1,4,0:0:0:0:
321,240,202518,1,8,0:0:0:0:
321,240,202676,1,0,0:0:0:0:
321,240,202755,1,0,0:0:0:0:
321,240,202834,1,8,0:0:0:0:
247,212,202992,1,4,0:0:0:0:
321,240,203308,1,8,0:0:0:0:
321,240,203466,1,0,0:0:0:0:
321,240,203623,1,8,0:0:0:0:
321,240,203703,1,8,0:0:0:0:
321,240,203781,1,4,0:0:0:0:
321,240,203939,1,8,0:0:0:0:
321,240,204096,1,4,0:0:0:0:
321,240,204255,1,8,0:0:0:0:
321,240,204334,1,8,0:0:0:0:
321,240,204412,1,4,0:0:0:0:
321,240,204571,1,8,0:0:0:0:
321,240,204729,1,8,0:0:0:0:
306,47,204808,1,8,0:0:0:0:
315,146,204887,1,4,0:0:0:0:
203,55,205045,1,8,0:0:0:0:
392,241,205203,1,4,0:0:0:0:
403,237,205360,1,8,0:0:0:0:
407,173,205518,1,0,0:0:0:0:
328,185,205676,1,8,0:0:0:0:
314,106,205755,1,8,0:0:0:0:
328,185,205834,1,0,0:0:0:0:
252,166,205992,1,0,0:0:0:0:
254,154,206150,1,8,0:0:0:0:
263,160,206308,1,0,0:0:0:0:
263,160,206387,1,8,0:0:0:0:
263,160,206466,1,0,0:0:0:0:
347,125,206624,1,0,0:0:0:0:
347,125,206703,1,8,0:0:0:0:
347,125,206860,1,8,0:0:0:0:
347,125,206939,1,8,0:0:0:0:
347,125,207018,1,0,0:0:0:0:
347,125,207097,1,8,0:0:0:0:
347,125,207255,1,0,0:0:0:0:
347,125,207413,1,0,0:0:0:0:
347,125,207571,1,8,0:0:0:0:
347,125,207729,1,8,0:0:0:0:
347,125,208045,1,0,0:0:0:0:
347,125,208124,1,8,0:0:0:0:
217,128,208281,1,8,0:0:0:0:
217,128,208360,1,0,0:0:0:0:
217,128,208439,1,0,0:0:0:0:
217,128,208518,1,8,0:0:0:0:
217,128,208676,1,4,0:0:0:0:
217,128,208834,1,8,0:0:0:0:
217,128,208913,1,0,0:0:0:0:
217,128,209071,1,0,0:0:0:0:
217,128,209150,1,8,0:0:0:0:
217,128,209229,1,8,0:0:0:0:
217,128,209308,1,0,0:0:0:0:
217,128,209466,1,8,0:0:0:0:
217,128,209545,1,0,0:0:0:0:
217,128,209624,1,8,0:0:0:0:
247,212,209939,1,4,0:0:0:0:
334,255,210255,1,8,0:0:0:0:
334,255,210413,1,8,0:0:0:0:
334,255,210571,1,0,0:0:0:0:
334,255,210729,1,8,0:0:0:0:
334,255,210808,1,0,0:0:0:0:
334,255,210966,1,8,0:0:0:0:
334,255,211045,1,8,0:0:0:0:
334,255,211124,1,8,0:0:0:0:
247,212,211203,1,4,0:0:0:0:
435,273,211518,1,0,0:0:0:0:
435,273,211597,1,0,0:0:0:0:
321,240,211676,1,8,0:0:0:0:
247,212,211834,1,0,0:0:0:0:
321,240,211992,1,8,0:0:0:0:
321,240,212150,1,8,0:0:0:0:
321,240,212229,1,8,0:0:0:0:
321,240,212308,1,0,0:0:0:0:
247,212,212466,1,4,0:0:0:0:
321,240,212624,1,8,0:0:0:0:
321,240,212781,1,0,0:0:0:0:
321,240,212860,1,0,0:0:0:0:
321,240,212939,1,8,0:0:0:0:
247,212,213097,1,4,0:0:0:0:
321,240,213413,1,8,0:0:0:0:
321,240,213571,1,8,0:0:0:0:
321,240,213729,1,4,0:0:0:0:
321,240,213966,1,4,0:0:0:0:
321,240,214202,1,12,0:0:0:0:
321,240,214360,1,8,0:0:0:0:
321,240,214439,1,8,0:0:0:0:
321,240,214518,1,8,0:0:0:0:
321,240,214597,1,8,0:0:0:0:
321,240,214676,1,0,0:0:0:0:
321,240,214834,1,8,0:0:0:0:
247,212,214992,1,4,0:0:0:0:
350,151,215308,1,12,0:0:0:0:
318,247,215466,1,0,0:0:0:0:
318,247,215624,1,8,0:0:0:0:
261,144,215781,1,0,0:0:0:0:
261,144,215860,1,8,0:0:0:0:
261,144,216018,1,8,0:0:0:0:
261,144,216097,1,0,0:0:0:0:
261,144,216176,1,0,0:0:0:0:
261,144,216255,1,8,0:0:0:0:
261,144,216413,1,8,0:0:0:0:
261,144,216571,1,0,0:0:0:0:
364,302,216729,1,0,0:0:0:0:
364,302,216808,1,0,0:0:0:0:
364,302,216887,1,8,0:0:0:0:
364,302,217045,1,0,0:0:0:0:
364,302,217203,1,8,0:0:0:0:
291,286,217518,1,0,0:0:0:0:
400,315,217676,1,8,0:0:0:0:
400,315,217834,1,0,0:0:0:0:
400,315,217992,1,8,0:0:0:0:
400,315,218071,1,8,0:0:0:0:
400,315,218150,1,0,0:0:0:0:
400,315,218308,1,0,0:0:0:0:
400,315,218387,1,8,0:0:0:0:
252,142,218466,1,0,0:0:0:0:
400,315,218545,1,0,0:0:0:0:
400,315,218624,1,8,0:0:0:0:
400,315,218781,1,0,0:0:0:0:
400,315,218860,1,8,0:0:0:0:
205,91,219018,1,8,0:0:0:0:
205,91,219097,1,0,0:0:0:0:
205,91,219176,1,0,0:0:0:0:
400,315,219255,1,8,0:0:0:0:
400,315,219413,1,0,0:0:0:0:
346,349,219571,1,0,0:0:0:0:
346,349,219729,1,8,0:0:0:0:
478,278,220045,1,0,0:0:0:0:
478,278,220203,1,0,0:0:0:0:
478,278,220281,1,8,0:0:0:0:
478,278,220439,1,8,0:0:0:0:
478,278,220518,1,0,0:0:0:0:
250,209,220597,1,0,0:0:0:0:
478,278,220676,1,8,0:0:0:0:
263,69,220834,1,8,0:0:0:0:
274,80,220913,1,0,0:0:0:0:
274,80,220992,1,8,0:0:0:0:
274,80,221150,1,0,0:0:0:0:
274,80,221308,1,8,0:0:0:0:
274,80,221466,1,0,0:0:0:0:
274,80,221624,1,0,0:0:0:0:
274,80,221703,1,8,0:0:0:0:
252,60,221860,1,0,0:0:0:0:
252,60,221939,1,0,0:0:0:0:
252,60,222018,1,8,0:0:0:0:
252,60,222097,1,8,0:0:0:0:
180,35,222255,1,0,0:0:0:0:
180,35,222334,1,8,0:0:0:0:
291,286,222413,1,8,0:0:0:0:
180,35,222492,1,8,0:0:0:0:
260,45,222571,1,0,0:0:0:0:
260,45,222729,1,8,0:0:0:0:
260,45,222887,1,0,0:0:0:0:
260,45,222966,1,0,0:0:0:0:
260,45,223045,1,8,0:0:0:0:
260,45,223203,1,0,0:0:0:0:
260,45,223360,1,8,0:0:0:0:
260,45,223518,1,0,0:0:0:0:
220,259,223676,1,0,0:0:0:0:
511,180,223834,1,8,0:0:0:0:
328,86,224150,1,0,0:0:0:0:
328,86,224466,1,8,0:0:0:0:
361,205,224545,1,8,0:0:0:0:
361,205,224624,1,0,0:0:0:0:
361,205,224703,1,0,0:0:0:0:
361,205,224781,1,8,0:0:0:0:
243,151,224939,1,8,0:0:0:0:
310,108,225096,1,4,0:0:0:0:
357,215,225255,1,0,0:0:0:0:
357,215,225334,1,8,0:0:0:0:
357,215,225492,1,8,0:0:0:0:
357,215,225571,1,0,0:0:0:0:
357,215,225650,1,0,0:0:0:0:
357,215,225729,1,8,0:0:0:0:
261,136,225887,1,0,0:0:0:0:
261,136,226045,1,8,0:0:0:0:
348,193,226203,1,8,0:0:0:0:
261,136,226360,1,0,0:0:0:0:
261,136,226518,1,0,0:0:0:0:
261,136,226597,1,8,0:0:0:0:
261,136,226676,1,0,0:0:0:0:
261,136,226834,1,8,0:0:0:0:
261,136,226992,1,0,0:0:0:0:
261,136,227150,1,0,0:0:0:0:
305,163,227229,1,8,0:0:0:0:
305,163,227387,1,8,0:0:0:0:
291,86,227466,1,8,0:0:0:0:
291,86,227545,1,0,0:0:0:0:
432,120,227624,1,0,0:0:0:0:
432,120,227781,1,0,0:0:0:0:
323,208,227860,1,8,0:0:0:0:
323,208,228018,1,8,0:0:0:0:
176,171,228097,1,0,0:0:0:0:
176,171,228176,1,8,0:0:0:0:
176,171,228255,1,0,0:0:0:0:
176,171,228413,1,8,0:0:0:0:
176,171,228571,1,8,0:0:0:0:
176,171,228729,1,0,0:0:0:0:
176,171,228808,1,8,0:0:0:0:
176,171,228887,1,0,0:0:0:0:
176,171,229045,1,8,0:0:0:0:
176,171,229203,1,0,0:0:0:0:
176,171,229360,1,0,0:0:0:0:
176,171,229439,1,8,0:0:0:0:
176,171,229518,1,8,0:0:0:0:
176,171,229676,1,0,0:0:0:0:
356,228,229834,1,8,0:0:0:0:
430,190,230150,1,0,0:0:0:0:
456,271,230308,1,8,0:0:0:0:
456,271,230387,1,0,0:0:0:0:
456,271,230545,1,0,0:0:0:0:
456,271,230624,1,8,0:0:0:0:
456,271,230703,1,8,0:0:0:0:
456,271,230781,1,0,0:0:0:0:
267,197,230939,1,0,0:0:0:0:
267,197,231097,1,8,0:0:0:0:
267,197,231255,1,8,0:0:0:0:
267,197,231413,1,0,0:0:0:0:
267,197,231571,1,8,0:0:0:0:
267,197,231650,1,8,0:0:0:0:
267,197,231729,1,0,0:0:0:0:
267,197,231887,1,8,0:0:0:0:
267,197,232045,1,0,0:0:0:0:
267,197,232203,1,0,0:0:0:0:
267,197,232360,1,8,0:0:0:0:
434,258,232676,1,0,0:0:0:0:
285,267,232834,1,8,0:0:0:0:
285,267,232913,1,0,0:0:0:0:
285,267,233071,1,8,0:0:0:0:
285,267,233150,1,8,0:0:0:0:
285,267,233229,1,0,0:0:0:0:
285,267,233308,1,0,0:0:0:0:
285,267,233466,1,8,0:0:0:0:
285,267,233624,1,8,0:0:0:0:
285,267,233781,1,0,0:0:0:0:
285,267,233860,1,0,0:0:0:0:
285,267,233939,1,8,0:0:0:0:
285,267,234097,1,0,0:0:0:0:
285,267,234176,1,8,0:0:0:0:
285,267,234334,1,8,0:0:0:0:
285,267,234413,1,0,0:0:0:0:
285,267,234571,1,8,0:0:0:0:
285,267,234729,1,0,0:0:0:0:
285,267,234887,1,8,0:0:0:0:
296,164,235203,1,4,0:0:0:0:
198,169,235360,1,8,0:0:0:0:
198,169,235518,1,8,0:0:0:0:
198,169,235676,1,0,0:0:0:0:
198,169,235834,1,8,0:0:0:0:
198,169,235992,1,0,0:0:0:0:
198,169,236071,1,8,0:0:0:0:
198,169,236229,1,0,0:0:0:0:
198,169,236308,1,8,0:0:0:0:
198,169,236466,1,0,0:0:0:0:
198,169,236624,1,0,0:0:0:0:
199,123,236703,1,0,0:0:0:0:
198,169,236781,1,8,0:0:0:0:
199,123,236939,1,0,0:0:0:0:
348,237,237097,1,0,0:0:0:0:
199,123,237255,1,8,0:0:0:0:
199,123,237413,1,8,0:0:0:0:
348,237,237729,1,0,0:0:0:0:
348,237,237887,1,0,0:0:0:0:
348,237,238045,1,8,0:0:0:0:
273,168,238203,1,0,0:0:0:0:
273,168,238360,1,8,0:0:0:0:
273,168,238518,1,0,0:0:0:0:
273,168,238597,1,8,0:0:0:0:
273,168,238755,1,0,0:0:0:0:
273,168,238834,1,0,0:0:0:0:
229,126,238913,1,8,0:0:0:0:
229,126,238992,1,0,0:0:0:0:
229,126,239150,1,8,0:0:0:0:
229,126,239229,1,0,0:0:0:0:
166,103,239308,1,8,0:0:0:0:
166,103,239466,1,0,0:0:0:0:
166,103,239545,1,0,0:0:0:0:
166,103,239624,1,8,0:0:0:0:
166,103,239781,1,0,0:0:0:0:
166,103,239939,1,8,0:0:0:0:
296,164,240255,1,0,0:0:0:0:
198,169,240413,1,8,0:0:0:0:
198,169,240571,1,8,0:0:0:0:
198,169,240729,1,0,0:0:0:0:
198,169,240887,1,8,0:0:0:0:
198,169,241045,1,0,0:0:0:0:
198,169,241124,1,8,0:0:0:0:
198,169,241281,1,0,0:0:0:0:
198,169,241360,1,8,0:0:0:0:
198,169,241518,1,0,0:0:0:0:
198,169,241676,1,0,0:0:0:0:
199,123,241755,1,0,0:0:0:0:
198,169,241834,1,8,0:0:0:0:
199,123,241992,1,0,0:0:0:0:
348,237,242150,1,0,0:0:0:0:
199,123,242308,1,8,0:0:0:0:
199,123,242466,1,8,0:0:0:0:
296,164,242781,1,0,0:0:0:0:
198,169,242939,1,8,0:0:0:0:
198,169,243097,1,8,0:0:0:0:
198,169,243255,1,0,0:0:0:0:
198,169,243413,1,8,0:0:0:0:
198,169,243571,1,0,0:0:0:0:
198,169,243650,1,8,0:0:0:0:
198,169,243808,1,0,0:0:0:0:
198,169,243887,1,8,0:0:0:0:
198,169,244045,1,0,0:0:0:0:
198,169,244203,1,0,0:0:0:0:
199,123,244281,1,0,0:0:0:0:
198,169,244360,1,8,0:0:0:0:
199,123,244518,1,0,0:0:0:0:
348,237,244676,1,0,0:0:0:0:
199,123,244834,1,8,0:0:0:0:
199,123,244992,1,8,0:0:0:0:
296,164,245308,1,4,0:0:0:0:
198,169,245624,1,8,0:0:0:0:
198,169,245781,1,0,0:0:0:0:
198,169,245939,1,8,0:0:0:0:
198,169,246097,1,0,0:0:0:0:
198,169,246176,1,8,0:0:0:0:
198,169,246334,1,0,0:0:0:0:
198,169,246413,1,8,0:0:0:0:
198,169,246571,1,0,0:0:0:0:
198,169,246729,1,0,0:0:0:0:
199,123,246808,1,0,0:0:0:0:
198,169,246887,1,8,0:0:0:0:
199,123,247045,1,0,0:0:0:0:
348,237,247203,1,0,0:0:0:0:
425,118,247281,1,8,0:0:0:0:
199,123,247439,1,8,0:0:0:0:
199,123,247518,1,8,0:0:0:0:
261,68,247597,1,0,0:0:0:0:
261,68,247676,1,8,0:0:0:0:
428,330,247834,1,0,0:0:0:0:
317,61,248150,1,8,0:0:0:0:
317,61,248308,1,0,0:0:0:0:
317,61,248466,1,0,0:0:0:0:
382,227,248545,1,8,0:0:0:0:
317,61,248624,1,0,0:0:0:0:
382,227,248781,1,8,0:0:0:0:
382,227,248939,1,8,0:0:0:0:
382,227,249097,1,0,0:0:0:0:
266,172,249255,1,8,0:0:0:0:
266,172,249334,1,0,0:0:0:0:
266,172,249492,1,0,0:0:0:0:
266,172,249571,1,8,0:0:0:0:
266,172,249729,1,0,0:0:0:0:
237,75,249808,1,8,0:0:0:0:
277,151,249887,1,0,0:0:0:0:
277,151,249966,1,0,0:0:0:0:
277,151,250045,1,8,0:0:0:0:
277,151,250203,1,8,0:0:0:0:
277,151,250360,1,0,0:0:0:0:
317,61,250676,1,8,0:0:0:0:
317,61,250834,1,0,0:0:0:0:
317,61,250992,1,0,0:0:0:0:
382,227,251071,1,8,0:0:0:0:
317,61,251150,1,0,0:0:0:0:
382,227,251308,1,8,0:0:0:0:
382,227,251466,1,8,0:0:0:0:
382,227,251624,1,0,0:0:0:0:
266,172,251781,1,8,0:0:0:0:
266,172,251860,1,0,0:0:0:0:
266,172,252018,1,0,0:0:0:0:
266,172,252097,1,8,0:0:0:0:
266,172,252255,1,0,0:0:0:0:
237,75,252334,1,8,0:0:0:0:
277,151,252413,1,0,0:0:0:0:
277,151,252492,1,0,0:0:0:0:
277,151,252571,1,8,0:0:0:0:
277,151,252729,1,8,0:0:0:0:
277,151,252887,1,0,0:0:0:0:
317,61,253203,1,8,0:0:0:0:
317,61,253360,1,0,0:0:0:0:
317,61,253518,1,0,0:0:0:0:
382,227,253597,1,8,0:0:0:0:
317,61,253676,1,0,0:0:0:0:
382,227,253834,1,8,0:0:0:0:
382,227,253992,1,8,0:0:0:0:
382,227,254149,1,4,0:0:0:0:
336,53,255412,1,12,0:0:0:0:
256,192,255571,12,0,264255,0:0:0:0:
