osu file format v14

[General]
AudioFilename: audio.mp3
AudioLeadIn: 0
PreviewTime: 82360
Countdown: 0
SampleSet: Normal
StackLeniency: 0.7
Mode: 1
LetterboxInBreaks: 0
WidescreenStoryboard: 0

[Editor]
Bookmarks: 12891,22996,43207,52049,62154,72259,82364
DistanceSpacing: 1.7
BeatDivisor: 4
GridSize: 16
TimelineZoom: 2.3

[Metadata]
Title:Bloody Desire
TitleUnicode:Bloody Desire
Artist:Hayakore Tatsumi
ArtistUnicode:Hayakore Tatsumi
Creator:Roxy-
Version:Inner Oni
Source:FORTUNE ARTERIAL 赤い約束
Tags:速核巽 tamolarm japanese j-core jcore hardcore electronic remix bootleg 絆-kizunairo-色 anime lia op45667 KuroKuroKuro
BeatmapID:3717461
BeatmapSetID:1811212

[Difficulty]
HPDrainRate:5.5
CircleSize:5
OverallDifficulty:6.5
ApproachRate:5
SliderMultiplier:1.4
SliderTickRate:1

[Events]
//Background and Video events
0,0,"ok.png",0,0
//Break Periods
//Storyboard Layer 0 (Background)
//Storyboard Layer 1 (Fail)
//Storyboard Layer 2 (Pass)
//Storyboard Layer 3 (Foreground)
//Storyboard Layer 4 (Overlay)
//Storyboard Sound Samples

[TimingPoints]
2782,315.78947368421,4,1,0,100,1,0
2782,-100,4,1,0,80,0,0
12887,-100,4,1,0,85,0,0
22992,-100,4,1,0,90,0,0
43203,-125,4,1,0,70,0,0
44466,-120.69012584969,4,1,0,73,0,0
45729,-116.667546313401,4,1,0,76,0,0
46992,-112.904461526675,4,1,0,79,0,0
47466,-111.554086447478,4,1,0,80,0,0
48255,-109.376546264226,4,1,0,81,0,0
48571,-108.528083267871,4,1,0,82,0,0
48887,-107.692682451525,4,1,0,83,0,0
49203,-106.870044478824,4,1,0,84,0,0
49518,-106.062423529976,4,1,0,84,0,0
49834,-105.264411057406,4,1,0,85,0,0
49992,-104.869891121285,4,1,0,85,0,0
50466,-103.703877460064,4,1,0,86,0,0
50781,-102.943231034322,4,1,0,87,0,0
51097,-102.191299523832,4,1,0,88,0,0
51255,-101.819438046983,4,1,0,88,0,0
51571,-101.08377537955,4,1,0,89,0,0
51729,-100.719916161662,4,1,0,89,0,0
51887,-100.358667029874,4,1,0,90,0,0
52045,315.78947368421,4,1,0,90,1,0
52045,-100,4,1,0,90,0,0
62150,-100,4,1,0,90,0,0
79834,-100,4,1,0,90,0,0
79992,-97.55989939549,4,1,0,90,0,0
80150,-95.236044107512,4,1,0,90,0,0
80308,-93.020320585637,4,1,0,90,0,0
80387,-91.950676841821,4,1,0,90,0,0
80466,-90.905353178193,4,1,0,90,0,0
80545,-89.883529483505,4,1,0,90,0,0
80624,-88.884422110553,4,1,0,90,0,0
80703,-87.907281871857,4,1,0,90,0,0
80781,-86.963362111349,4,1,0,90,0,0
80860,-86.027781020194,4,1,0,90,0,0
80939,-85.112116254451,4,1,0,90,0,0
81018,-84.215738554125,4,1,0,90,0,0
81097,-83.338044891728,4,1,0,90,0,0
81255,-81.63642069895,4,1,0,90,0,0
81334,-80.811403508772,4,1,0,90,0,0
81492,-71.4285714285714,4,1,0,90,0,0
81650,-71.4285714285714,4,1,0,90,0,0
81887,-80.645161290323,4,1,0,90,0,0
81966,-80.645161290323,4,1,0,90,0,0
82045,-62.5,4,1,0,90,0,0
82360,-90.909090909091,4,1,0,95,0,1
100045,-90.909090909091,4,1,0,95,0,1
100203,-91.954859847106,4,1,0,94,0,1
100281,-92.480046862415,4,1,0,94,0,1
100360,-93.018117543084,4,1,0,94,0,1
100518,-94.113263785395,4,1,0,93,0,1
100676,-95.234504599608,4,1,0,93,0,1
100755,-95.805203671395,4,1,0,92,0,1
100834,-96.382783882784,4,1,0,92,0,1
100913,-96.967370441459,4,1,0,92,0,1
100992,-97.559091611309,4,1,0,91,0,1
101071,-98.158078806249,4,1,0,91,0,1
101150,-98.76446668752,4,1,0,91,0,1
101308,315.78947368421,4,1,0,90,1,0
101308,-100,4,1,0,90,0,0
121515,-100,4,1,0,90,0,0
121673,-100.213363582348,4,1,0,90,0,0
121752,-100.320387168291,4,1,0,90,0,0
121831,-100.427639591848,4,1,0,90,0,0
121910,-100.535121587753,4,1,0,90,0,0
121989,-100.642833893892,4,1,0,90,0,0
122147,-100.858952404251,4,1,0,90,0,0
122305,-101.076001089621,4,1,0,89,0,0
122384,-101.184876126587,4,1,0,89,0,0
122541,-101.401945780498,4,1,0,89,0,0
122620,-101.511524519527,4,1,0,89,0,0
122778,-101.7313940258,4,1,0,89,0,0
122936,-101.952218054926,4,1,0,89,0,0
123015,-102.062989960116,4,1,0,89,0,0
123094,-102.174002836254,4,1,0,89,0,0
123173,-102.285257470504,4,1,0,89,0,0
123252,-102.396754653457,4,1,0,89,0,0
123410,-102.620479845122,4,1,0,89,0,0
123568,-102.845184805355,4,1,0,89,0,0
123647,-102.957906712173,4,1,0,89,0,0
123805,-103.184093437152,4,1,0,88,0,0
123884,-103.2975598892,4,1,0,88,0,0
124041,-103.523798895151,4,1,0,88,0,0
124199,-103.752481615077,4,1,0,88,0,0
124278,-103.867202261816,4,1,0,88,0,0
124357,-103.982176885999,4,1,0,88,0,0
124515,-104.21289144783,4,1,0,88,0,0
124673,-104.444632100433,4,1,0,88,0,0
124831,-104.677405704291,4,1,0,88,0,0
124910,-104.794182023583,4,1,0,88,0,0
125068,-105.028518051998,4,1,0,88,0,0
125147,-105.146079514863,4,1,0,88,0,0
125305,-105.381993751775,4,1,0,87,0,0
125463,-105.618969001736,4,1,0,87,0,0
125620,-105.855502460595,4,1,0,87,0,0
125699,-105.974923599806,4,1,0,87,0,0
125778,-106.094614493831,4,1,0,87,0,0
125936,-106.334809210621,4,1,0,87,0,0
126094,-106.576093981129,4,1,0,87,0,0
126173,-106.697147458017,4,1,0,87,0,0
126331,-106.940081275038,4,1,0,87,0,0
126410,-107.061963499964,4,1,0,87,0,0
126568,-107.306563326923,4,1,0,87,0,0
126726,-107.552283366426,4,1,0,86,0,0
126805,-107.675565873476,4,1,0,86,0,0
126884,-107.799131331619,4,1,0,86,0,0
127041,-108.045541902044,4,1,0,86,0,0
127200,-108.296242247355,4,1,0,86,0,0
127278,-108.419653162301,4,1,0,86,0,0
127436,-108.670503302142,4,1,0,86,0,0
127515,-108.796364169477,4,1,0,86,0,0
127673,-109.048962558044,4,1,0,86,0,0
127831,-109.302736618847,4,1,0,86,0,0
127910,-109.430067094301,4,1,0,86,0,0
127989,-109.557694578954,4,1,0,86,0,0
128068,-109.685620113218,4,1,0,86,0,0
128147,-109.813844742372,4,1,0,86,0,0
128305,-110.071195490952,4,1,0,85,0,0
128384,-110.200323725516,4,1,0,85,0,0
128542,-110.459491240344,4,1,0,85,0,0
128621,-110.589532665713,4,1,0,85,0,0
128778,-110.848880457675,4,1,0,85,0,0
128936,-111.111111111111,4,1,0,85,0,0
129094,-111.111111111111,4,1,0,90,0,0
129252,-110.04726699794,4,1,0,90,0,0
129331,-109.522947952476,4,1,0,89,0,0
129410,-109.003601440576,4,1,0,89,0,0
129489,-108.489157058367,4,1,0,89,0,0
129568,-107.979545724819,4,1,0,89,0,0
129726,-106.974552309142,4,1,0,88,0,0
129884,-105.988093848488,4,1,0,88,0,0
129963,-105.501655725324,4,1,0,88,0,0
130042,-105.019662271571,4,1,0,87,0,0
130121,-104.542052846699,4,1,0,87,0,0
130200,-104.068767908309,4,1,0,87,0,0
130357,-103.140796274209,4,1,0,87,0,0
130515,-102.223473121306,4,1,0,86,0,0
130594,-101.770903384891,4,1,0,86,0,0
130752,-100.877680257749,4,1,0,85,0,0
130910,-100,4,1,0,85,0,0
131623,-90.909090909091,4,1,0,95,0,1
153097,315.78947368421,4,1,0,95,1,1
153097,-90.9090909090909,4,1,0,95,0,1
161939,-90.909090909091,4,1,0,95,0,1
162018,-91.428985087592,4,1,0,95,0,1
162097,-91.954859847106,4,1,0,94,0,1
162176,-92.480046862415,4,1,0,94,0,1
162255,-93.018117543084,4,1,0,94,0,1
162334,-93.562486110082,4,1,0,93,0,1
162413,-94.113263785395,4,1,0,93,0,1
162492,-94.670564425455,4,1,0,93,0,1
162571,-95.234504599608,4,1,0,93,0,1
162650,-95.805203671395,4,1,0,92,0,1
162729,-96.382783882784,4,1,0,92,0,1
162808,-96.967370441459,4,1,0,92,0,1
162887,-97.559091611309,4,1,0,91,0,1
162965,-98.158078806249,4,1,0,91,0,1
163044,-98.76446668752,4,1,0,91,0,1
163202,-100,4,1,0,90,0,0
173303,-142.857142857143,4,1,0,70,0,0
181671,-142.857142857143,4,1,0,70,0,0
181829,-134.965034965035,4,1,0,72,0,0
181987,-127.899271040424,4,1,0,75,0,0
182145,-121.536523929471,4,1,0,77,0,0
182224,-118.586789554532,4,1,0,78,0,0
182303,-115.776844631074,4,1,0,79,0,0
182382,-113.096982127161,4,1,0,80,0,0
182461,-110.538373424971,4,1,0,81,0,0
182540,-108.092971156539,4,1,0,83,0,0
182619,-105.753424657534,4,1,0,84,0,0
182698,-103.513006167873,4,1,0,85,0,0
182776,-101.392172314158,4,1,0,86,0,0
182855,-99.330931549151,4,1,0,87,0,0
182934,-97.351828499369,4,1,0,88,0,0
183013,-95.450049455984,4,1,0,89,0,0
183092,-93.621149648314,4,1,0,90,0,0
183171,-91.861018562589,4,1,0,92,0,0
183250,-90.165849100677,4,1,0,93,0,0
183412,-86.95652173913,4,1,0,95,0,1
194781,315.78947368421,4,1,0,95,1,1
194781,-86.9565217391304,4,1,0,95,0,0
195096,-86.9565217391304,4,1,0,95,0,1
214515,-86.95652173913,4,1,0,95,0,1
214593,-88.863892013498,4,1,0,94,0,1
214672,-90.882945067587,4,1,0,93,0,1
214751,-92.99587992937,4,1,0,93,0,1
214831,-95.238095238095,4,1,0,92,0,1
214911,-97.560975609756,4,1,0,91,0,1
214991,-100,4,1,0,90,0,0
223832,-100,4,1,0,80,0,0
225094,-100,4,1,0,90,0,0
235200,-100,4,1,0,80,0,0
245305,-100,4,1,0,85,0,0
255410,-62.5,4,1,0,85,0,0
255570,-62.5,4,1,0,75,0,0
256675,-66.6666666666667,4,1,0,65,0,0
257938,-71.4285714285714,4,1,0,55,0,0
259202,-76.9230769230769,4,1,0,45,0,0
260465,-83.3333333333333,4,1,0,35,0,0
261728,-90.9090909090909,4,1,0,25,0,0
262991,-100,4,1,0,15,0,0
264254,-111.111111111111,4,1,0,5,0,0

[HitObjects]
256,208,2782,5,4,0:0:0:0:
256,208,2939,1,8,0:0:0:0:
256,208,3097,1,0,0:0:0:0:
256,208,3255,1,8,0:0:0:0:
256,208,3334,1,8,0:0:0:0:
256,208,3413,1,0,0:0:0:0:
256,208,3571,1,8,0:0:0:0:
256,208,3729,1,0,0:0:0:0:
256,208,4045,1,0,0:0:0:0:
256,208,4203,1,0,0:0:0:0:
256,208,4360,1,8,0:0:0:0:
256,208,4518,1,0,0:0:0:0:
256,208,4597,1,0,0:0:0:0:
256,208,4676,1,8,0:0:0:0:
256,208,4834,1,0,0:0:0:0:
256,208,4992,1,8,0:0:0:0:
256,208,5308,1,0,0:0:0:0:
256,208,5466,1,8,0:0:0:0:
256,208,5624,1,0,0:0:0:0:
256,208,5781,1,8,0:0:0:0:
256,208,5860,1,8,0:0:0:0:
256,208,5939,1,0,0:0:0:0:
256,208,6018,1,0,0:0:0:0:
256,208,6097,1,8,0:0:0:0:
256,208,6255,1,0,0:0:0:0:
256,208,6571,1,0,0:0:0:0:
256,208,6729,1,0,0:0:0:0:
256,208,6887,1,8,0:0:0:0:
256,208,7045,1,0,0:0:0:0:
256,208,7124,1,0,0:0:0:0:
256,208,7203,1,8,0:0:0:0:
256,208,7360,1,0,0:0:0:0:
256,208,7518,1,8,0:0:0:0:
256,208,7834,1,0,0:0:0:0:
256,208,7992,1,8,0:0:0:0:
256,208,8150,1,0,0:0:0:0:
256,208,8308,1,8,0:0:0:0:
256,208,8387,1,8,0:0:0:0:
256,208,8466,1,0,0:0:0:0:
256,208,8624,1,8,0:0:0:0:
256,208,8781,1,0,0:0:0:0:
256,208,9097,1,0,0:0:0:0:
256,208,9255,1,0,0:0:0:0:
256,208,9413,1,8,0:0:0:0:
256,208,9571,1,0,0:0:0:0:
256,208,9650,1,0,0:0:0:0:
256,208,9729,1,8,0:0:0:0:
256,208,9808,1,8,0:0:0:0:
256,208,9887,1,0,0:0:0:0:
256,208,10045,1,8,0:0:0:0:
256,208,10360,1,0,0:0:0:0:
256,208,10518,1,8,0:0:0:0:
256,208,10676,1,0,0:0:0:0:
256,208,10834,1,8,0:0:0:0:
256,208,10913,1,8,0:0:0:0:
256,208,10992,1,0,0:0:0:0:
256,208,11150,1,8,0:0:0:0:
256,208,11308,1,0,0:0:0:0:
256,208,11624,1,0,0:0:0:0:
256,208,11781,1,8,0:0:0:0:
256,208,11939,1,0,0:0:0:0:
256,208,12097,1,8,0:0:0:0:
256,208,12176,1,0,0:0:0:0:
256,208,12255,1,8,0:0:0:0:
256,208,12334,1,8,0:0:0:0:
256,208,12413,1,0,0:0:0:0:
256,208,12571,1,8,0:0:0:0:
256,208,12887,5,4,0:0:0:0:
256,208,13045,1,8,0:0:0:0:
256,208,13203,1,0,0:0:0:0:
256,208,13360,1,8,0:0:0:0:
256,208,13439,1,8,0:0:0:0:
256,208,13518,1,0,0:0:0:0:
256,208,13676,1,8,0:0:0:0:
256,208,13834,1,0,0:0:0:0:
256,208,13913,1,0,0:0:0:0:
256,208,13992,1,8,0:0:0:0:
256,208,14150,1,0,0:0:0:0:
256,208,14308,1,8,0:0:0:0:
256,208,14466,1,0,0:0:0:0:
256,208,14624,1,8,0:0:0:0:
256,208,14703,1,0,0:0:0:0:
256,208,14781,1,8,0:0:0:0:
256,208,14939,1,0,0:0:0:0:
256,208,15097,1,8,0:0:0:0:
256,208,15413,1,0,0:0:0:0:
256,208,15571,1,8,0:0:0:0:
256,208,15729,1,0,0:0:0:0:
256,208,15887,1,8,0:0:0:0:
256,208,15966,1,8,0:0:0:0:
256,208,16045,1,0,0:0:0:0:
256,208,16124,1,0,0:0:0:0:
256,208,16203,1,8,0:0:0:0:
256,208,16360,1,0,0:0:0:0:
256,208,16518,1,8,0:0:0:0:
256,208,16676,1,0,0:0:0:0:
256,208,16755,1,0,0:0:0:0:
256,208,16834,1,0,0:0:0:0:
256,208,16992,1,8,0:0:0:0:
256,208,17150,1,0,0:0:0:0:
256,208,17229,1,0,0:0:0:0:
256,208,17308,1,8,0:0:0:0:
256,208,17466,1,0,0:0:0:0:
256,208,17624,1,8,0:0:0:0:
256,208,17939,1,0,0:0:0:0:
256,208,18097,1,8,0:0:0:0:
256,208,18255,1,0,0:0:0:0:
256,208,18413,1,8,0:0:0:0:
256,208,18492,1,8,0:0:0:0:
256,208,18571,1,0,0:0:0:0:
256,208,18729,1,8,0:0:0:0:
256,208,18887,1,0,0:0:0:0:
256,208,18966,1,0,0:0:0:0:
256,208,19045,1,8,0:0:0:0:
256,208,19203,1,0,0:0:0:0:
256,208,19360,1,8,0:0:0:0:
256,208,19518,1,0,0:0:0:0:
256,208,19676,1,8,0:0:0:0:
256,208,19755,1,0,0:0:0:0:
256,208,19834,1,8,0:0:0:0:
256,208,19913,1,8,0:0:0:0:
256,208,19992,1,0,0:0:0:0:
256,208,20150,1,8,0:0:0:0:
256,208,20466,1,0,0:0:0:0:
256,208,20624,1,8,0:0:0:0:
256,208,20781,1,0,0:0:0:0:
256,208,20939,1,8,0:0:0:0:
256,208,21018,1,8,0:0:0:0:
256,208,21097,1,0,0:0:0:0:
256,208,21176,1,0,0:0:0:0:
256,208,21255,1,8,0:0:0:0:
256,208,21413,1,0,0:0:0:0:
256,208,21571,1,8,0:0:0:0:
256,208,21729,1,4,0:0:0:0:
256,192,21887,12,0,22834,0:0:0:0:
256,208,22992,5,4,0:0:0:0:
256,208,23150,1,8,0:0:0:0:
256,208,23308,1,0,0:0:0:0:
256,208,23387,1,0,0:0:0:0:
256,208,23466,1,8,0:0:0:0:
256,208,23545,1,8,0:0:0:0:
256,208,23624,1,0,0:0:0:0:
256,208,23781,1,8,0:0:0:0:
256,208,23939,1,0,0:0:0:0:
256,208,24018,1,0,0:0:0:0:
256,208,24097,1,8,0:0:0:0:
256,208,24255,1,0,0:0:0:0:
256,208,24413,1,8,0:0:0:0:
256,208,24571,1,0,0:0:0:0:
256,208,24729,1,8,0:0:0:0:
256,208,24808,1,0,0:0:0:0:
256,208,24887,1,8,0:0:0:0:
256,208,24966,1,8,0:0:0:0:
256,208,25045,1,0,0:0:0:0:
256,208,25203,1,8,0:0:0:0:
256,208,25360,1,0,0:0:0:0:
256,208,25439,1,8,0:0:0:0:
256,208,25518,1,0,0:0:0:0:
256,208,25676,1,8,0:0:0:0:
256,208,25834,1,0,0:0:0:0:
256,208,25992,1,8,0:0:0:0:
256,208,26071,1,8,0:0:0:0:
256,208,26150,1,0,0:0:0:0:
256,208,26229,1,0,0:0:0:0:
256,208,26308,1,8,0:0:0:0:
256,208,26466,1,0,0:0:0:0:
256,208,26624,1,8,0:0:0:0:
256,208,26781,1,0,0:0:0:0:
256,208,26860,1,8,0:0:0:0:
256,208,26939,1,0,0:0:0:0:
256,208,27018,1,0,0:0:0:0:
256,208,27097,1,8,0:0:0:0:
256,208,27255,1,0,0:0:0:0:
256,208,27334,1,0,0:0:0:0:
256,208,27413,1,8,0:0:0:0:
256,208,27571,1,0,0:0:0:0:
256,208,27729,1,8,0:0:0:0:
256,208,27887,1,0,0:0:0:0:
256,208,27966,1,8,0:0:0:0:
256,208,28045,1,0,0:0:0:0:
256,208,28203,1,8,0:0:0:0:
256,208,28360,1,0,0:0:0:0:
256,208,28518,1,8,0:0:0:0:
256,208,28597,1,8,0:0:0:0:
256,208,28676,1,0,0:0:0:0:
256,208,28834,1,8,0:0:0:0:
256,208,28992,1,0,0:0:0:0:
256,208,29071,1,0,0:0:0:0:
256,208,29150,1,8,0:0:0:0:
256,208,29229,1,8,0:0:0:0:
256,208,29308,1,0,0:0:0:0:
256,208,29466,1,8,0:0:0:0:
256,208,29624,1,0,0:0:0:0:
256,208,29781,1,8,0:0:0:0:
256,208,29860,1,0,0:0:0:0:
256,208,29939,1,8,0:0:0:0:
256,208,30018,1,8,0:0:0:0:
256,208,30097,1,0,0:0:0:0:
256,208,30255,1,8,0:0:0:0:
256,208,30413,1,0,0:0:0:0:
256,208,30492,1,8,0:0:0:0:
256,208,30571,5,0,0:0:0:0:
256,208,30729,1,8,0:0:0:0:
256,208,30887,1,0,0:0:0:0:
256,208,31045,1,8,0:0:0:0:
256,208,31124,1,8,0:0:0:0:
256,208,31203,1,0,0:0:0:0:
256,208,31281,1,0,0:0:0:0:
256,208,31360,1,8,0:0:0:0:
256,208,31518,1,0,0:0:0:0:
256,208,31597,1,0,0:0:0:0:
256,208,31676,1,8,0:0:0:0:
256,208,31834,1,0,0:0:0:0:
256,208,31992,1,8,0:0:0:0:
256,208,32150,1,0,0:0:0:0:
256,208,32308,1,8,0:0:0:0:
256,208,32387,1,0,0:0:0:0:
256,208,32466,1,8,0:0:0:0:
256,208,32624,1,0,0:0:0:0:
256,208,32703,1,8,0:0:0:0:
256,208,33097,1,4,0:0:0:0:
256,208,33255,1,8,0:0:0:0:
256,208,33413,1,0,0:0:0:0:
256,208,33571,1,8,0:0:0:0:
256,208,33650,1,8,0:0:0:0:
256,208,33729,1,0,0:0:0:0:
256,208,33808,1,0,0:0:0:0:
256,208,33887,1,8,0:0:0:0:
256,208,34045,1,0,0:0:0:0:
256,208,34203,1,8,0:0:0:0:
256,208,34360,1,0,0:0:0:0:
256,208,34439,1,0,0:0:0:0:
256,208,34518,1,8,0:0:0:0:
256,208,34676,1,0,0:0:0:0:
256,208,34834,1,8,0:0:0:0:
256,208,34913,1,0,0:0:0:0:
256,208,34992,1,8,0:0:0:0:
256,208,35071,1,8,0:0:0:0:
256,208,35150,1,0,0:0:0:0:
256,208,35308,1,8,0:0:0:0:
256,208,35466,1,0,0:0:0:0:
256,208,35545,1,8,0:0:0:0:
256,208,35624,1,0,0:0:0:0:
256,208,35781,1,8,0:0:0:0:
256,208,35939,1,0,0:0:0:0:
256,208,36097,1,8,0:0:0:0:
256,208,36176,1,8,0:0:0:0:
256,208,36255,1,0,0:0:0:0:
256,208,36413,1,8,0:0:0:0:
256,208,36571,1,0,0:0:0:0:
256,208,36650,1,0,0:0:0:0:
256,208,36729,1,8,0:0:0:0:
256,208,36808,1,8,0:0:0:0:
256,208,36887,1,0,0:0:0:0:
256,208,37045,1,8,0:0:0:0:
256,208,37203,1,0,0:0:0:0:
256,208,37360,1,8,0:0:0:0:
256,208,37439,1,8,0:0:0:0:
256,208,37518,1,0,0:0:0:0:
256,208,37597,1,8,0:0:0:0:
256,208,37676,1,0,0:0:0:0:
256,208,37834,1,8,0:0:0:0:
256,208,38150,5,0,0:0:0:0:
256,208,38308,1,8,0:0:0:0:
256,208,38466,1,0,0:0:0:0:
256,208,38624,1,8,0:0:0:0:
256,208,38703,1,8,0:0:0:0:
256,208,38781,1,0,0:0:0:0:
256,208,38939,1,8,0:0:0:0:
256,208,39097,1,0,0:0:0:0:
256,208,39176,1,0,0:0:0:0:
256,208,39255,1,8,0:0:0:0:
256,208,39334,1,8,0:0:0:0:
256,208,39413,1,0,0:0:0:0:
256,208,39571,1,8,0:0:0:0:
256,208,39729,1,0,0:0:0:0:
256,208,39887,1,8,0:0:0:0:
256,208,39966,1,8,0:0:0:0:
256,208,40045,1,0,0:0:0:0:
256,208,40203,1,8,0:0:0:0:
256,208,40360,1,0,0:0:0:0:
256,208,40439,1,0,0:0:0:0:
256,208,40518,1,8,0:0:0:0:
256,208,40676,1,0,0:0:0:0:
256,208,40755,1,0,0:0:0:0:
256,208,40834,1,0,0:0:0:0:
256,208,40913,1,0,0:0:0:0:
256,208,40992,1,8,0:0:0:0:
256,208,41071,1,0,0:0:0:0:
256,208,41150,1,8,0:0:0:0:
256,208,41229,1,8,0:0:0:0:
256,208,41308,1,0,0:0:0:0:
256,208,41387,1,0,0:0:0:0:
256,208,41466,1,8,0:0:0:0:
256,208,41545,1,0,0:0:0:0:
256,208,41624,1,8,0:0:0:0:
256,208,41703,1,8,0:0:0:0:
256,208,41781,1,8,0:0:0:0:
256,208,41860,1,8,0:0:0:0:
256,208,41939,1,0,0:0:0:0:
256,192,42097,12,0,43045,0:0:0:0:
256,208,43203,5,0,0:0:0:0:
256,208,44466,1,8,0:0:0:0:
256,208,45729,1,8,0:0:0:0:
256,208,46992,1,8,0:0:0:0:
256,208,47466,1,0,0:0:0:0:
256,208,48255,1,4,0:0:0:0:
256,208,48571,1,8,0:0:0:0:
256,208,48887,1,0,0:0:0:0:
256,208,49203,1,8,0:0:0:0:
256,208,49518,1,0,0:0:0:0:
256,208,49834,1,8,0:0:0:0:
256,208,49992,1,0,0:0:0:0:
256,208,50466,1,8,0:0:0:0:
256,208,50781,1,0,0:0:0:0:
256,208,51097,1,8,0:0:0:0:
256,208,51255,1,0,0:0:0:0:
256,208,51571,1,0,0:0:0:0:
256,208,51729,1,8,0:0:0:0:
256,208,51887,1,8,0:0:0:0:
256,208,52045,1,4,0:0:0:0:
444,188,52281,1,0,0:0:0:0:
256,208,52360,1,8,0:0:0:0:
256,208,52518,1,0,0:0:0:0:
256,208,52676,1,8,0:0:0:0:
256,208,52755,1,0,0:0:0:0:
256,208,52913,1,8,0:0:0:0:
160,32,52992,1,0,0:0:0:0:
176,80,53071,1,0,0:0:0:0:
176,80,53150,1,8,0:0:0:0:
176,80,53308,1,0,0:0:0:0:
176,80,53466,1,8,0:0:0:0:
176,80,53624,1,0,0:0:0:0:
176,80,53703,1,0,0:0:0:0:
176,80,53781,1,8,0:0:0:0:
176,80,53939,1,0,0:0:0:0:
176,80,54018,1,8,0:0:0:0:
176,80,54176,1,0,0:0:0:0:
176,80,54255,1,8,0:0:0:0:
176,80,54334,1,8,0:0:0:0:
176,80,54413,1,0,0:0:0:0:
176,80,54571,1,8,0:0:0:0:
176,80,54729,1,0,0:0:0:0:
176,80,54887,1,8,0:0:0:0:
176,80,54966,1,8,0:0:0:0:
176,80,55045,1,0,0:0:0:0:
176,80,55203,5,8,0:0:0:0:
176,80,55281,1,8,0:0:0:0:
176,80,55360,1,0,0:0:0:0:
176,80,55439,1,0,0:0:0:0:
176,80,55518,1,8,0:0:0:0:
176,80,55676,1,0,0:0:0:0:
160,32,55834,1,8,0:0:0:0:
160,32,55913,5,8,0:0:0:0:
160,32,55992,1,0,0:0:0:0:
160,32,56071,1,8,0:0:0:0:
160,32,56150,1,0,0:0:0:0:
160,32,56229,1,0,0:0:0:0:
160,32,56308,1,8,0:0:0:0:
160,32,56387,1,0,0:0:0:0:
160,32,56466,1,8,0:0:0:0:
160,32,56545,1,8,0:0:0:0:
160,32,56624,1,0,0:0:0:0:
160,32,56703,1,0,0:0:0:0:
160,32,56781,1,8,0:0:0:0:
160,32,57097,1,4,0:0:0:0:
160,32,57255,1,8,0:0:0:0:
160,32,57413,1,0,0:0:0:0:
160,32,57492,1,0,0:0:0:0:
160,32,57571,1,8,0:0:0:0:
160,32,57729,1,0,0:0:0:0:
160,32,57808,1,8,0:0:0:0:
160,32,57966,1,0,0:0:0:0:
160,32,58045,1,8,0:0:0:0:
160,32,58124,1,8,0:0:0:0:
160,32,58203,1,0,0:0:0:0:
160,32,58360,1,8,0:0:0:0:
160,32,58518,1,0,0:0:0:0:
160,32,58676,1,8,0:0:0:0:
160,32,58755,1,8,0:0:0:0:
160,32,58834,1,0,0:0:0:0:
160,32,58992,1,8,0:0:0:0:
160,32,59071,1,0,0:0:0:0:
160,32,59229,1,8,0:0:0:0:
160,32,59308,1,0,0:0:0:0:
160,32,59466,1,8,0:0:0:0:
160,32,59624,1,0,0:0:0:0:
160,32,59781,1,8,0:0:0:0:
160,32,59860,1,0,0:0:0:0:
160,32,59939,1,8,0:0:0:0:
160,32,60018,1,8,0:0:0:0:
160,32,60097,1,0,0:0:0:0:
160,32,60255,1,8,0:0:0:0:
160,32,60413,1,0,0:0:0:0:
160,32,60492,1,0,0:0:0:0:
160,32,60571,1,8,0:0:0:0:
160,32,60729,1,0,0:0:0:0:
160,32,60887,5,8,0:0:0:0:
160,32,60966,1,8,0:0:0:0:
160,32,61045,1,0,0:0:0:0:
160,32,61124,5,8,0:0:0:0:
160,32,61203,1,0,0:0:0:0:
160,32,61281,1,0,0:0:0:0:
160,32,61360,1,8,0:0:0:0:
160,32,61439,1,8,0:0:0:0:
160,32,61518,1,0,0:0:0:0:
160,32,61597,1,0,0:0:0:0:
160,32,61676,1,0,0:0:0:0:
160,32,61755,1,0,0:0:0:0:
160,32,61834,1,8,0:0:0:0:
254,194,62150,5,4,0:0:0:0:
254,194,62308,1,8,0:0:0:0:
254,194,62466,1,0,0:0:0:0:
254,194,62545,1,0,0:0:0:0:
254,194,62624,1,8,0:0:0:0:
254,194,62781,1,0,0:0:0:0:
254,194,62939,1,8,0:0:0:0:
254,194,63018,1,0,0:0:0:0:
254,194,63176,1,0,0:0:0:0:
254,194,63255,1,8,0:0:0:0:
254,194,63413,1,0,0:0:0:0:
254,194,63571,1,8,0:0:0:0:
254,194,63729,1,0,0:0:0:0:
254,194,63808,1,0,0:0:0:0:
254,194,63887,1,8,0:0:0:0:
254,194,63966,1,8,0:0:0:0:
254,194,64045,1,0,0:0:0:0:
254,194,64203,1,8,0:0:0:0:
254,194,64281,1,0,0:0:0:0:
254,194,64360,1,8,0:0:0:0:
254,194,64439,1,8,0:0:0:0:
254,194,64518,1,0,0:0:0:0:
254,194,64676,1,8,0:0:0:0:
254,194,64834,1,0,0:0:0:0:
254,194,64913,1,0,0:0:0:0:
254,194,64992,1,8,0:0:0:0:
254,194,65150,1,0,0:0:0:0:
254,194,65308,5,8,0:0:0:0:
254,194,65387,1,8,0:0:0:0:
254,194,65466,1,0,0:0:0:0:
254,194,65545,1,8,0:0:0:0:
254,194,65624,1,0,0:0:0:0:
254,194,65703,1,0,0:0:0:0:
254,194,65781,1,8,0:0:0:0:
254,194,65860,1,8,0:0:0:0:
254,194,65939,1,0,0:0:0:0:
254,194,66018,1,8,0:0:0:0:
254,194,66097,1,0,0:0:0:0:
254,194,66176,1,8,0:0:0:0:
254,194,66255,1,0,0:0:0:0:
254,194,66334,1,0,0:0:0:0:
254,194,66413,1,8,0:0:0:0:
254,194,66492,1,0,0:0:0:0:
254,194,66571,1,8,0:0:0:0:
254,194,66650,5,8,0:0:0:0:
254,194,66729,1,0,0:0:0:0:
254,194,66808,1,0,0:0:0:0:
254,194,66887,1,8,0:0:0:0:
254,194,67203,1,4,0:0:0:0:
254,194,67360,1,8,0:0:0:0:
254,194,67518,1,0,0:0:0:0:
254,194,67597,1,0,0:0:0:0:
254,194,67676,1,8,0:0:0:0:
254,194,67834,1,0,0:0:0:0:
254,194,67992,1,8,0:0:0:0:
254,194,68071,1,0,0:0:0:0:
254,194,68229,1,0,0:0:0:0:
254,194,68308,1,8,0:0:0:0:
254,194,68466,1,0,0:0:0:0:
254,194,68624,1,8,0:0:0:0:
254,194,68703,1,8,0:0:0:0:
254,194,68781,1,0,0:0:0:0:
254,194,68939,1,8,0:0:0:0:
254,194,69018,1,0,0:0:0:0:
254,194,69097,1,0,0:0:0:0:
254,194,69255,1,8,0:0:0:0:
254,194,69334,1,0,0:0:0:0:
254,194,69492,1,0,0:0:0:0:
254,194,69571,1,8,0:0:0:0:
254,194,69729,1,0,0:0:0:0:
254,194,69887,1,8,0:0:0:0:
254,194,70045,1,0,0:0:0:0:
254,194,70124,1,8,0:0:0:0:
254,194,70203,5,0,0:0:0:0:
254,194,70281,1,0,0:0:0:0:
254,194,70360,5,8,0:0:0:0:
254,194,70518,1,0,0:0:0:0:
254,194,70597,1,0,0:0:0:0:
254,194,70676,1,8,0:0:0:0:
254,194,70755,1,0,0:0:0:0:
254,194,70834,1,8,0:0:0:0:
254,194,70992,1,0,0:0:0:0:
254,194,71150,1,0,0:0:0:0:
254,194,71229,1,0,0:0:0:0:
254,194,71308,1,8,0:0:0:0:
254,194,71466,1,0,0:0:0:0:
254,194,71545,1,8,0:0:0:0:
254,194,71703,1,8,0:0:0:0:
254,194,71781,1,0,0:0:0:0:
254,194,71939,1,8,0:0:0:0:
254,194,72255,1,4,0:0:0:0:
254,194,72413,1,8,0:0:0:0:
254,194,72492,1,0,0:0:0:0:
254,194,72571,1,8,0:0:0:0:
254,194,72650,1,8,0:0:0:0:
254,194,72729,1,0,0:0:0:0:
254,194,72808,1,8,0:0:0:0:
254,194,72887,1,0,0:0:0:0:
254,194,73045,1,8,0:0:0:0:
254,194,73124,1,0,0:0:0:0:
254,194,73281,1,0,0:0:0:0:
254,194,73360,1,8,0:0:0:0:
254,194,73439,1,8,0:0:0:0:
254,194,73518,1,0,0:0:0:0:
254,194,73676,1,8,0:0:0:0:
254,194,73755,1,0,0:0:0:0:
254,194,73834,1,8,0:0:0:0:
254,194,73913,1,8,0:0:0:0:
254,194,73992,1,0,0:0:0:0:
254,194,74150,1,8,0:0:0:0:
254,194,74308,1,0,0:0:0:0:
254,194,74387,1,8,0:0:0:0:
254,194,74545,1,0,0:0:0:0:
254,194,74624,1,8,0:0:0:0:
254,194,74781,1,0,0:0:0:0:
254,194,74939,1,8,0:0:0:0:
254,194,75018,1,8,0:0:0:0:
254,194,75097,1,0,0:0:0:0:
254,194,75176,1,0,0:0:0:0:
254,194,75255,1,8,0:0:0:0:
254,194,75413,1,0,0:0:0:0:
254,194,75571,1,8,0:0:0:0:
254,194,75650,1,0,0:0:0:0:
254,194,75808,1,0,0:0:0:0:
254,194,75887,1,8,0:0:0:0:
254,194,76045,1,0,0:0:0:0:
254,194,76203,1,8,0:0:0:0:
254,194,76281,1,8,0:0:0:0:
254,194,76360,1,0,0:0:0:0:
254,194,76439,1,8,0:0:0:0:
254,194,76518,1,0,0:0:0:0:
254,194,76597,1,0,0:0:0:0:
254,194,76676,1,8,0:0:0:0:
254,194,76834,1,0,0:0:0:0:
254,194,76913,1,8,0:0:0:0:
254,194,76992,1,0,0:0:0:0:
254,194,77071,1,0,0:0:0:0:
254,194,77150,1,8,0:0:0:0:
254,194,77308,1,0,0:0:0:0:
254,194,77466,1,8,0:0:0:0:
254,194,77545,1,0,0:0:0:0:
254,194,77624,1,8,0:0:0:0:
254,194,77703,1,8,0:0:0:0:
254,194,77781,1,0,0:0:0:0:
254,194,77939,1,8,0:0:0:0:
254,194,78018,1,0,0:0:0:0:
254,194,78176,1,0,0:0:0:0:
254,194,78255,1,8,0:0:0:0:
254,194,78413,1,0,0:0:0:0:
254,194,78492,1,0,0:0:0:0:
254,194,78571,1,8,0:0:0:0:
254,194,78729,5,0,0:0:0:0:
254,194,78808,1,0,0:0:0:0:
254,194,78887,1,8,0:0:0:0:
254,194,78966,1,8,0:0:0:0:
254,194,79045,1,0,0:0:0:0:
254,194,79203,1,8,0:0:0:0:
254,194,79360,1,0,0:0:0:0:
254,194,79439,1,8,0:0:0:0:
254,194,79518,1,0,0:0:0:0:
254,194,79676,1,8,0:0:0:0:
254,194,79755,1,8,0:0:0:0:
254,194,79834,5,0,0:0:0:0:
254,194,79992,1,8,0:0:0:0:
254,194,80150,1,0,0:0:0:0:
254,194,80308,1,8,0:0:0:0:
254,194,80387,1,0,0:0:0:0:
254,194,80466,1,8,0:0:0:0:
254,194,80545,1,8,0:0:0:0:
254,194,80624,1,0,0:0:0:0:
254,194,80703,1,8,0:0:0:0:
254,194,80781,1,0,0:0:0:0:
254,194,80860,1,0,0:0:0:0:
254,194,80939,1,8,0:0:0:0:
254,194,81018,1,8,0:0:0:0:
254,194,81097,1,0,0:0:0:0:
254,194,81255,1,8,0:0:0:0:
254,194,81334,1,0,0:0:0:0:
254,194,81492,1,12,0:0:0:0:
254,194,81650,1,4,0:0:0:0:
254,194,81887,5,0,0:0:0:0:
254,194,81966,1,0,0:0:0:0:
254,194,82045,1,12,0:0:0:0:
254,194,82360,5,4,0:0:0:0:
254,194,82518,1,8,0:0:0:0:
254,194,82597,1,0,0:0:0:0:
254,194,82676,1,0,0:0:0:0:
254,194,82755,1,8,0:0:0:0:
254,194,82913,1,0,0:0:0:0:
254,194,82992,1,8,0:0:0:0:
254,194,83150,1,0,0:0:0:0:
254,194,83229,1,0,0:0:0:0:
254,194,83308,1,8,0:0:0:0:
254,194,83387,1,0,0:0:0:0:
254,194,83466,1,8,0:0:0:0:
254,194,83624,1,0,0:0:0:0:
254,194,83781,1,8,0:0:0:0:
254,194,83860,1,8,0:0:0:0:
254,194,83939,1,0,0:0:0:0:
254,194,84097,1,8,0:0:0:0:
254,194,84176,1,0,0:0:0:0:
254,194,84334,1,0,0:0:0:0:
254,194,84413,1,8,0:0:0:0:
254,194,84571,1,0,0:0:0:0:
254,194,84650,1,8,0:0:0:0:
254,194,84729,1,0,0:0:0:0:
254,194,84808,1,0,0:0:0:0:
254,194,84887,1,8,0:0:0:0:
254,194,85045,1,0,0:0:0:0:
254,194,85124,1,8,0:0:0:0:
254,194,85203,1,8,0:0:0:0:
254,194,85281,1,0,0:0:0:0:
254,194,85439,1,8,0:0:0:0:
254,194,85518,1,0,0:0:0:0:
254,194,85676,1,8,0:0:0:0:
254,194,85834,1,0,0:0:0:0:
254,194,85913,1,0,0:0:0:0:
254,194,85992,1,8,0:0:0:0:
254,194,86150,1,0,0:0:0:0:
254,194,86308,1,8,0:0:0:0:
254,194,86387,1,0,0:0:0:0:
254,194,86545,1,8,0:0:0:0:
254,194,86624,1,0,0:0:0:0:
254,194,86703,1,0,0:0:0:0:
254,194,86781,1,8,0:0:0:0:
254,194,86939,1,0,0:0:0:0:
254,194,87097,1,8,0:0:0:0:
254,194,87176,1,0,0:0:0:0:
254,194,87255,1,8,0:0:0:0:
254,194,87334,1,8,0:0:0:0:
254,194,87413,1,0,0:0:0:0:
254,194,87571,1,0,0:0:0:0:
254,194,87650,1,0,0:0:0:0:
254,194,87729,1,8,0:0:0:0:
254,194,87887,1,8,0:0:0:0:
254,194,87966,1,8,0:0:0:0:
254,194,88045,1,0,0:0:0:0:
254,194,88203,1,8,0:0:0:0:
254,194,88281,1,0,0:0:0:0:
254,194,88439,1,0,0:0:0:0:
254,194,88518,1,8,0:0:0:0:
254,194,88676,1,0,0:0:0:0:
254,194,88834,1,8,0:0:0:0:
254,194,88913,1,8,0:0:0:0:
254,194,88992,1,0,0:0:0:0:
254,194,89071,1,8,0:0:0:0:
254,194,89150,1,0,0:0:0:0:
254,194,89466,1,0,0:0:0:0:
254,194,89624,1,8,0:0:0:0:
254,194,89781,1,0,0:0:0:0:
254,194,89860,1,0,0:0:0:0:
254,194,89939,1,8,0:0:0:0:
254,194,90097,1,0,0:0:0:0:
254,194,90255,1,8,0:0:0:0:
254,194,90334,1,8,0:0:0:0:
254,194,90413,1,0,0:0:0:0:
254,194,90492,1,0,0:0:0:0:
254,194,90571,1,8,0:0:0:0:
254,194,90729,1,0,0:0:0:0:
254,194,90887,1,8,0:0:0:0:
254,194,90966,1,0,0:0:0:0:
254,194,91045,1,0,0:0:0:0:
254,194,91124,1,0,0:0:0:0:
254,194,91203,1,8,0:0:0:0:
254,194,91360,1,0,0:0:0:0:
254,194,91439,1,8,0:0:0:0:
254,194,91597,1,8,0:0:0:0:
254,194,91676,1,0,0:0:0:0:
254,194,91834,1,0,0:0:0:0:
254,194,91913,1,0,0:0:0:0:
254,194,91992,1,0,0:0:0:0:
254,194,92071,1,0,0:0:0:0:
254,194,92150,1,8,0:0:0:0:
254,194,92229,1,8,0:0:0:0:
254,194,92308,1,0,0:0:0:0:
254,194,92387,1,8,0:0:0:0:
254,194,92466,1,0,0:0:0:0:
254,194,92624,1,8,0:0:0:0:
254,194,92703,1,0,0:0:0:0:
254,194,92781,1,0,0:0:0:0:
254,194,92860,1,8,0:0:0:0:
254,194,93018,1,0,0:0:0:0:
254,194,93097,1,8,0:0:0:0:
254,194,93255,1,0,0:0:0:0:
254,194,93334,1,0,0:0:0:0:
254,194,93413,1,8,0:0:0:0:
254,194,93492,1,0,0:0:0:0:
254,194,93571,1,8,0:0:0:0:
254,194,93650,1,8,0:0:0:0:
254,194,93729,1,0,0:0:0:0:
254,194,93887,1,8,0:0:0:0:
254,194,93966,1,8,0:0:0:0:
254,194,94045,1,0,0:0:0:0:
254,194,94203,1,8,0:0:0:0:
254,194,94281,1,0,0:0:0:0:
254,194,94439,1,0,0:0:0:0:
254,194,94518,1,8,0:0:0:0:
254,194,94676,1,0,0:0:0:0:
254,194,94755,1,8,0:0:0:0:
254,194,94834,1,0,0:0:0:0:
254,194,94992,1,8,0:0:0:0:
254,194,95150,1,0,0:0:0:0:
254,194,95229,1,8,0:0:0:0:
254,194,95308,1,8,0:0:0:0:
254,194,95387,1,0,0:0:0:0:
254,194,95545,1,8,0:0:0:0:
254,194,95624,1,0,0:0:0:0:
254,194,95781,1,8,0:0:0:0:
254,194,95939,1,0,0:0:0:0:
254,194,96018,1,0,0:0:0:0:
254,194,96097,1,8,0:0:0:0:
254,194,96176,1,8,0:0:0:0:
254,194,96255,1,0,0:0:0:0:
254,194,96413,1,8,0:0:0:0:
254,194,96492,1,0,0:0:0:0:
254,194,96650,1,8,0:0:0:0:
254,194,96729,1,0,0:0:0:0:
254,194,96808,1,0,0:0:0:0:
254,194,96887,1,8,0:0:0:0:
254,194,97045,1,0,0:0:0:0:
254,194,97203,1,8,0:0:0:0:
254,194,97281,1,8,0:0:0:0:
254,194,97360,1,0,0:0:0:0:
254,194,97439,1,8,0:0:0:0:
254,194,97518,1,0,0:0:0:0:
254,194,97676,1,0,0:0:0:0:
254,194,97755,1,0,0:0:0:0:
254,194,97834,1,8,0:0:0:0:
254,194,97992,1,8,0:0:0:0:
254,194,98071,1,8,0:0:0:0:
254,194,98150,1,0,0:0:0:0:
254,194,98308,1,8,0:0:0:0:
254,194,98387,1,0,0:0:0:0:
254,194,98545,1,0,0:0:0:0:
254,194,98624,1,8,0:0:0:0:
254,194,98781,1,0,0:0:0:0:
254,194,98939,1,8,0:0:0:0:
254,194,99018,1,8,0:0:0:0:
254,194,99097,1,0,0:0:0:0:
254,194,99176,1,8,0:0:0:0:
254,194,99255,1,0,0:0:0:0:
254,194,99571,1,0,0:0:0:0:
254,194,99729,1,0,0:0:0:0:
254,194,99887,1,8,0:0:0:0:
254,194,99966,1,0,0:0:0:0:
254,194,100045,1,0,0:0:0:0:
254,194,100203,1,0,0:0:0:0:
254,194,100281,1,0,0:0:0:0:
254,194,100360,1,8,0:0:0:0:
254,194,100518,5,0,0:0:0:0:
254,194,100676,1,8,0:0:0:0:
254,194,100755,1,8,0:0:0:0:
254,194,100834,1,0,0:0:0:0:
254,194,100913,1,8,0:0:0:0:
254,194,100992,1,0,0:0:0:0:
254,194,101071,1,0,0:0:0:0:
254,194,101150,1,8,0:0:0:0:
254,194,101308,1,4,0:0:0:0:
160,32,101624,5,8,0:0:0:0:
160,32,101781,1,0,0:0:0:0:
160,32,101939,1,8,0:0:0:0:
160,32,102018,1,0,0:0:0:0:
160,32,102176,1,8,0:0:0:0:
160,32,102255,1,0,0:0:0:0:
160,32,102334,1,0,0:0:0:0:
160,32,102413,1,8,0:0:0:0:
160,32,102571,1,0,0:0:0:0:
160,32,102729,1,8,0:0:0:0:
160,32,102887,1,0,0:0:0:0:
160,32,102966,1,0,0:0:0:0:
160,32,103045,1,8,0:0:0:0:
160,32,103203,1,0,0:0:0:0:
160,32,103281,1,8,0:0:0:0:
160,32,103439,1,0,0:0:0:0:
160,32,103518,1,8,0:0:0:0:
160,32,103597,1,8,0:0:0:0:
160,32,103676,1,0,0:0:0:0:
160,32,103834,1,8,0:0:0:0:
160,32,103992,1,0,0:0:0:0:
160,32,104150,1,8,0:0:0:0:
160,32,104229,1,8,0:0:0:0:
160,32,104308,1,0,0:0:0:0:
160,32,104466,5,8,0:0:0:0:
160,32,104545,1,8,0:0:0:0:
160,32,104624,1,0,0:0:0:0:
160,32,104703,1,8,0:0:0:0:
160,32,104781,1,0,0:0:0:0:
160,32,104860,1,0,0:0:0:0:
160,32,104939,1,8,0:0:0:0:
160,32,105018,1,0,0:0:0:0:
160,32,105097,1,8,0:0:0:0:
160,32,105176,5,8,0:0:0:0:
160,32,105255,1,0,0:0:0:0:
160,32,105334,1,8,0:0:0:0:
160,32,105413,1,0,0:0:0:0:
160,32,105492,1,0,0:0:0:0:
160,32,105571,1,8,0:0:0:0:
160,32,105650,1,0,0:0:0:0:
160,32,105729,1,8,0:0:0:0:
160,32,105808,1,8,0:0:0:0:
160,32,105887,1,0,0:0:0:0:
160,32,105966,1,0,0:0:0:0:
160,32,106045,1,8,0:0:0:0:
160,32,106360,1,4,0:0:0:0:
160,32,106518,1,8,0:0:0:0:
160,32,106676,1,0,0:0:0:0:
160,32,106755,1,0,0:0:0:0:
160,32,106834,1,8,0:0:0:0:
160,32,106992,1,0,0:0:0:0:
160,32,107071,1,8,0:0:0:0:
160,32,107229,1,0,0:0:0:0:
160,32,107308,1,8,0:0:0:0:
160,32,107387,1,8,0:0:0:0:
160,32,107466,1,0,0:0:0:0:
160,32,107624,1,8,0:0:0:0:
160,32,107781,1,0,0:0:0:0:
160,32,107939,1,8,0:0:0:0:
160,32,108018,1,8,0:0:0:0:
160,32,108097,1,0,0:0:0:0:
160,32,108255,1,8,0:0:0:0:
160,32,108334,1,0,0:0:0:0:
160,32,108492,1,8,0:0:0:0:
160,32,108571,1,0,0:0:0:0:
160,32,108729,1,8,0:0:0:0:
208,64,108808,1,8,0:0:0:0:
160,32,108887,1,0,0:0:0:0:
160,32,108966,1,0,0:0:0:0:
160,32,109045,1,8,0:0:0:0:
160,32,109124,1,0,0:0:0:0:
160,32,109203,1,8,0:0:0:0:
160,32,109281,1,8,0:0:0:0:
160,32,109360,1,8,0:0:0:0:
160,32,109439,1,8,0:0:0:0:
160,32,109518,1,0,0:0:0:0:
160,32,109597,1,8,0:0:0:0:
160,32,109676,1,0,0:0:0:0:
160,32,109755,1,0,0:0:0:0:
160,32,109834,1,8,0:0:0:0:
160,32,109913,1,8,0:0:0:0:
160,32,109992,1,0,0:0:0:0:
160,32,110150,5,8,0:0:0:0:
160,32,110229,1,8,0:0:0:0:
160,32,110308,1,0,0:0:0:0:
160,32,110387,1,8,0:0:0:0:
160,32,110466,1,0,0:0:0:0:
160,32,110545,1,0,0:0:0:0:
160,32,110624,1,8,0:0:0:0:
160,32,110703,1,8,0:0:0:0:
160,32,110781,1,0,0:0:0:0:
160,32,110860,1,0,0:0:0:0:
160,32,110939,1,0,0:0:0:0:
160,32,111018,1,0,0:0:0:0:
160,32,111097,1,8,0:0:0:0:
149,34,111413,5,4,0:0:0:0:
149,34,111571,1,8,0:0:0:0:
149,34,111729,1,0,0:0:0:0:
149,34,111808,1,0,0:0:0:0:
149,34,111887,1,8,0:0:0:0:
149,34,112045,1,0,0:0:0:0:
149,34,112203,1,8,0:0:0:0:
149,34,112281,1,0,0:0:0:0:
149,34,112439,1,0,0:0:0:0:
176,80,112518,1,8,0:0:0:0:
149,34,112676,1,0,0:0:0:0:
149,34,112834,1,8,0:0:0:0:
149,34,112992,1,0,0:0:0:0:
149,34,113071,1,0,0:0:0:0:
149,34,113150,1,8,0:0:0:0:
149,34,113229,1,8,0:0:0:0:
149,34,113308,1,0,0:0:0:0:
149,34,113466,1,8,0:0:0:0:
149,34,113545,1,0,0:0:0:0:
149,34,113703,1,0,0:0:0:0:
160,32,113781,1,8,0:0:0:0:
160,32,113939,1,0,0:0:0:0:
160,32,114097,1,8,0:0:0:0:
160,32,114255,1,0,0:0:0:0:
160,32,114334,1,0,0:0:0:0:
160,32,114413,1,8,0:0:0:0:
160,32,114571,5,0,0:0:0:0:
160,32,114729,1,8,0:0:0:0:
160,32,114808,1,8,0:0:0:0:
160,32,114887,1,0,0:0:0:0:
160,32,115044,1,8,0:0:0:0:
160,32,115203,1,0,0:0:0:0:
160,32,115281,1,0,0:0:0:0:
160,32,115360,1,8,0:0:0:0:
206,69,115439,1,0,0:0:0:0:
160,32,115518,1,8,0:0:0:0:
206,69,115597,1,8,0:0:0:0:
160,32,115676,1,0,0:0:0:0:
160,32,115755,1,0,0:0:0:0:
160,32,115834,1,8,0:0:0:0:
160,32,115992,1,0,0:0:0:0:
160,32,116150,1,8,0:0:0:0:
160,32,116229,1,0,0:0:0:0:
160,32,116466,1,4,0:0:0:0:
160,32,116624,1,8,0:0:0:0:
160,32,116781,1,0,0:0:0:0:
160,32,116860,1,0,0:0:0:0:
160,32,116939,1,8,0:0:0:0:
160,32,117097,1,0,0:0:0:0:
160,32,117255,1,8,0:0:0:0:
160,32,117334,1,0,0:0:0:0:
160,32,117492,1,8,0:0:0:0:
160,32,117571,1,0,0:0:0:0:
160,32,117650,1,0,0:0:0:0:
160,32,117729,1,8,0:0:0:0:
160,32,117887,1,0,0:0:0:0:
160,32,118045,1,8,0:0:0:0:
160,32,118124,1,8,0:0:0:0:
160,32,118203,1,0,0:0:0:0:
160,32,118281,1,0,0:0:0:0:
160,32,118360,1,8,0:0:0:0:
160,32,118518,1,0,0:0:0:0:
160,32,118597,1,8,0:0:0:0:
160,32,118755,1,0,0:0:0:0:
160,32,118834,1,8,0:0:0:0:
160,32,118913,1,8,0:0:0:0:
160,32,118992,1,0,0:0:0:0:
160,32,119150,1,8,0:0:0:0:
160,32,119228,1,0,0:0:0:0:
160,32,119307,1,0,0:0:0:0:
160,32,119466,1,8,0:0:0:0:
160,32,119624,5,0,0:0:0:0:
160,32,119781,1,8,0:0:0:0:
160,32,119860,1,0,0:0:0:0:
160,32,119939,1,8,0:0:0:0:
160,32,120018,1,8,0:0:0:0:
160,32,120097,1,0,0:0:0:0:
160,32,120255,1,8,0:0:0:0:
160,32,120413,1,0,0:0:0:0:
160,32,120492,1,0,0:0:0:0:
160,32,120571,1,8,0:0:0:0:
160,32,120729,1,0,0:0:0:0:
160,32,120808,1,8,0:0:0:0:
160,32,120966,1,8,0:0:0:0:
160,32,121045,1,0,0:0:0:0:
196,92,121123,1,0,0:0:0:0:
160,32,121203,1,8,0:0:0:0:
160,32,121518,1,4,0:0:0:0:
160,32,121676,1,8,0:0:0:0:
160,32,121755,1,8,0:0:0:0:
160,32,121834,1,0,0:0:0:0:
160,32,121913,1,0,0:0:0:0:
160,32,121992,1,8,0:0:0:0:
160,32,122150,1,0,0:0:0:0:
160,32,122308,1,8,0:0:0:0:
160,32,122387,1,0,0:0:0:0:
160,32,122545,1,8,0:0:0:0:
160,32,122624,1,0,0:0:0:0:
160,32,122781,1,8,0:0:0:0:
160,32,122939,1,0,0:0:0:0:
160,32,123018,1,0,0:0:0:0:
160,32,123097,1,8,0:0:0:0:
160,32,123176,1,8,0:0:0:0:
160,32,123255,1,0,0:0:0:0:
160,32,123413,1,8,0:0:0:0:
160,32,123571,1,0,0:0:0:0:
160,32,123650,1,8,0:0:0:0:
160,32,123808,1,0,0:0:0:0:
160,32,123887,1,8,0:0:0:0:
160,32,124045,1,0,0:0:0:0:
160,32,124203,1,8,0:0:0:0:
160,32,124281,1,8,0:0:0:0:
160,32,124360,1,0,0:0:0:0:
160,32,124518,1,8,0:0:0:0:
160,32,124676,1,0,0:0:0:0:
160,32,124834,1,8,0:0:0:0:
160,32,124913,1,0,0:0:0:0:
160,32,125071,1,8,0:0:0:0:
160,32,125150,1,0,0:0:0:0:
160,32,125308,1,8,0:0:0:0:
160,32,125466,1,0,0:0:0:0:
160,32,125624,1,8,0:0:0:0:
160,32,125703,1,0,0:0:0:0:
160,32,125781,1,8,0:0:0:0:
160,32,125939,1,0,0:0:0:0:
160,32,126097,1,8,0:0:0:0:
160,32,126176,1,0,0:0:0:0:
160,32,126334,1,0,0:0:0:0:
160,32,126413,1,8,0:0:0:0:
160,32,126571,1,0,0:0:0:0:
160,32,126729,1,8,0:0:0:0:
160,32,126808,1,8,0:0:0:0:
160,32,126887,1,0,0:0:0:0:
160,32,127045,1,8,0:0:0:0:
160,32,127203,1,0,0:0:0:0:
160,32,127281,1,8,0:0:0:0:
160,32,127439,1,8,0:0:0:0:
160,32,127518,1,0,0:0:0:0:
160,32,127676,1,8,0:0:0:0:
160,32,127834,1,0,0:0:0:0:
160,32,127913,1,0,0:0:0:0:
160,32,127992,1,8,0:0:0:0:
160,32,128071,1,8,0:0:0:0:
160,32,128150,1,0,0:0:0:0:
160,32,128308,1,8,0:0:0:0:
160,32,128387,1,0,0:0:0:0:
160,32,128545,1,0,0:0:0:0:
160,32,128624,1,8,0:0:0:0:
160,32,128781,1,0,0:0:0:0:
160,32,128939,1,8,0:0:0:0:
160,32,129097,1,0,0:0:0:0:
160,32,129255,1,8,0:0:0:0:
160,32,129334,1,8,0:0:0:0:
160,32,129413,1,0,0:0:0:0:
160,32,129492,1,0,0:0:0:0:
160,32,129571,1,8,0:0:0:0:
160,32,129729,1,0,0:0:0:0:
160,32,129887,1,8,0:0:0:0:
160,32,129966,1,0,0:0:0:0:
160,32,130045,1,0,0:0:0:0:
160,32,130124,1,0,0:0:0:0:
160,32,130203,1,8,0:0:0:0:
160,32,130360,1,0,0:0:0:0:
160,32,130518,1,8,0:0:0:0:
160,32,130597,1,0,0:0:0:0:
160,32,130755,1,8,0:0:0:0:
160,32,130913,1,0,0:0:0:0:
160,32,131150,5,0,0:0:0:0:
160,32,131229,1,0,0:0:0:0:
160,32,131308,1,8,0:0:0:0:
254,194,131624,5,4,0:0:0:0:
254,194,131781,1,8,0:0:0:0:
254,194,131860,1,0,0:0:0:0:
254,194,131939,1,0,0:0:0:0:
254,194,132018,1,8,0:0:0:0:
254,194,132176,1,0,0:0:0:0:
254,194,132255,1,8,0:0:0:0:
254,194,132413,1,0,0:0:0:0:
254,194,132492,1,0,0:0:0:0:
254,194,132571,1,8,0:0:0:0:
254,194,132650,1,0,0:0:0:0:
254,194,132729,1,8,0:0:0:0:
254,194,132808,1,8,0:0:0:0:
254,194,132887,1,0,0:0:0:0:
254,194,133045,1,8,0:0:0:0:
254,194,133124,1,8,0:0:0:0:
254,194,133203,1,0,0:0:0:0:
254,194,133360,1,8,0:0:0:0:
254,194,133439,1,0,0:0:0:0:
254,194,133597,1,0,0:0:0:0:
254,194,133676,1,8,0:0:0:0:
254,194,133834,1,0,0:0:0:0:
254,194,133913,1,8,0:0:0:0:
254,194,133992,1,0,0:0:0:0:
254,194,134071,1,0,0:0:0:0:
254,194,134150,1,8,0:0:0:0:
254,194,134308,1,0,0:0:0:0:
254,194,134387,1,8,0:0:0:0:
254,194,134466,1,8,0:0:0:0:
254,194,134545,1,0,0:0:0:0:
254,194,134703,1,8,0:0:0:0:
254,194,134781,1,0,0:0:0:0:
254,194,134939,1,8,0:0:0:0:
254,194,135097,1,0,0:0:0:0:
254,194,135176,1,0,0:0:0:0:
254,194,135255,1,8,0:0:0:0:
254,194,135334,1,8,0:0:0:0:
254,194,135413,1,0,0:0:0:0:
254,194,135571,1,8,0:0:0:0:
254,194,135650,1,0,0:0:0:0:
254,194,135808,1,8,0:0:0:0:
254,194,135887,1,0,0:0:0:0:
254,194,135966,1,0,0:0:0:0:
254,194,136045,1,8,0:0:0:0:
254,194,136203,1,0,0:0:0:0:
254,194,136360,1,8,0:0:0:0:
254,194,136439,1,0,0:0:0:0:
254,194,136518,1,8,0:0:0:0:
254,194,136597,1,8,0:0:0:0:
254,194,136676,1,0,0:0:0:0:
254,194,136834,1,0,0:0:0:0:
254,194,136913,1,0,0:0:0:0:
254,194,136992,1,8,0:0:0:0:
254,194,137150,1,8,0:0:0:0:
254,194,137229,1,8,0:0:0:0:
254,194,137308,1,0,0:0:0:0:
254,194,137466,1,8,0:0:0:0:
254,194,137545,1,0,0:0:0:0:
254,194,137703,1,0,0:0:0:0:
254,194,137781,1,8,0:0:0:0:
254,194,137939,1,0,0:0:0:0:
254,194,138097,1,8,0:0:0:0:
254,194,138176,1,8,0:0:0:0:
254,194,138255,1,0,0:0:0:0:
254,194,138334,1,8,0:0:0:0:
254,194,138413,1,0,0:0:0:0:
254,194,138729,1,0,0:0:0:0:
254,194,138887,1,8,0:0:0:0:
254,194,139045,1,0,0:0:0:0:
254,194,139124,1,0,0:0:0:0:
254,194,139203,1,8,0:0:0:0:
254,194,139360,1,0,0:0:0:0:
254,194,139518,1,8,0:0:0:0:
254,194,139597,1,8,0:0:0:0:
254,194,139676,1,0,0:0:0:0:
254,194,139755,1,0,0:0:0:0:
254,194,139834,1,8,0:0:0:0:
254,194,139992,1,0,0:0:0:0:
254,194,140150,1,8,0:0:0:0:
254,194,140229,1,0,0:0:0:0:
254,194,140308,1,0,0:0:0:0:
254,194,140387,1,0,0:0:0:0:
254,194,140466,1,8,0:0:0:0:
254,194,140624,1,0,0:0:0:0:
254,194,140703,1,8,0:0:0:0:
254,194,140860,1,8,0:0:0:0:
254,194,140939,1,0,0:0:0:0:
254,194,141097,1,0,0:0:0:0:
254,194,141176,1,0,0:0:0:0:
254,194,141255,1,0,0:0:0:0:
254,194,141334,1,0,0:0:0:0:
254,194,141413,1,8,0:0:0:0:
254,194,141492,1,8,0:0:0:0:
254,194,141571,1,0,0:0:0:0:
254,194,141650,1,8,0:0:0:0:
254,194,141729,1,0,0:0:0:0:
254,194,141887,1,8,0:0:0:0:
254,194,141966,1,0,0:0:0:0:
254,194,142045,1,0,0:0:0:0:
254,194,142124,1,8,0:0:0:0:
254,194,142281,1,0,0:0:0:0:
254,194,142360,1,8,0:0:0:0:
254,194,142518,1,0,0:0:0:0:
254,194,142597,1,0,0:0:0:0:
254,194,142676,1,8,0:0:0:0:
254,194,142755,1,0,0:0:0:0:
254,194,142834,1,8,0:0:0:0:
254,194,142913,1,8,0:0:0:0:
254,194,142992,1,0,0:0:0:0:
254,194,143150,1,8,0:0:0:0:
254,194,143229,1,8,0:0:0:0:
254,194,143308,1,0,0:0:0:0:
254,194,143466,1,8,0:0:0:0:
254,194,143545,1,0,0:0:0:0:
254,194,143703,1,0,0:0:0:0:
254,194,143781,1,8,0:0:0:0:
254,194,143860,1,8,0:0:0:0:
254,194,143939,1,0,0:0:0:0:
254,194,144018,1,0,0:0:0:0:
254,194,144097,1,8,0:0:0:0:
254,194,144255,1,0,0:0:0:0:
254,194,144413,1,8,0:0:0:0:
254,194,144492,1,0,0:0:0:0:
254,194,144571,1,0,0:0:0:0:
254,194,144650,1,8,0:0:0:0:
254,194,144808,1,0,0:0:0:0:
254,194,144887,1,8,0:0:0:0:
254,194,145045,1,0,0:0:0:0:
254,194,145203,1,8,0:0:0:0:
254,194,145281,1,0,0:0:0:0:
254,194,145360,1,8,0:0:0:0:
254,194,145439,1,8,0:0:0:0:
254,194,145518,1,0,0:0:0:0:
254,194,145676,1,8,0:0:0:0:
254,194,145755,1,0,0:0:0:0:
254,194,145913,1,8,0:0:0:0:
254,194,145992,1,0,0:0:0:0:
254,194,146071,1,0,0:0:0:0:
254,194,146150,1,8,0:0:0:0:
254,194,146308,1,0,0:0:0:0:
254,194,146466,1,8,0:0:0:0:
254,194,146545,1,8,0:0:0:0:
254,194,146624,1,0,0:0:0:0:
254,194,146703,1,8,0:0:0:0:
254,194,146781,1,0,0:0:0:0:
254,194,146939,1,0,0:0:0:0:
254,194,147018,1,0,0:0:0:0:
254,194,147097,1,8,0:0:0:0:
254,194,147255,1,8,0:0:0:0:
254,194,147334,1,8,0:0:0:0:
254,194,147413,1,0,0:0:0:0:
254,194,147571,1,8,0:0:0:0:
254,194,147650,1,0,0:0:0:0:
254,194,147808,1,0,0:0:0:0:
254,194,147887,1,8,0:0:0:0:
254,194,148045,1,0,0:0:0:0:
254,194,148203,1,8,0:0:0:0:
254,194,148281,1,8,0:0:0:0:
254,194,148360,1,0,0:0:0:0:
254,194,148439,1,8,0:0:0:0:
254,194,148518,1,0,0:0:0:0:
254,194,148834,1,0,0:0:0:0:
254,194,148992,1,0,0:0:0:0:
254,194,149150,1,8,0:0:0:0:
254,194,149229,1,0,0:0:0:0:
254,194,149308,1,0,0:0:0:0:
254,194,149466,1,0,0:0:0:0:
254,194,149545,1,0,0:0:0:0:
254,194,149624,1,8,0:0:0:0:
254,194,149781,1,0,0:0:0:0:
254,194,149860,1,0,0:0:0:0:
254,194,149939,1,8,0:0:0:0:
254,194,150018,1,8,0:0:0:0:
254,194,150097,1,0,0:0:0:0:
254,194,150176,1,8,0:0:0:0:
254,194,150255,1,0,0:0:0:0:
254,194,150334,1,0,0:0:0:0:
254,194,150413,1,8,0:0:0:0:
254,194,150492,1,8,0:0:0:0:
254,194,150571,1,0,0:0:0:0:
254,194,150887,5,8,0:0:0:0:
254,194,151045,1,0,0:0:0:0:
254,194,151203,1,8,0:0:0:0:
254,194,151281,1,0,0:0:0:0:
254,194,151439,1,8,0:0:0:0:
254,194,151518,1,0,0:0:0:0:
254,194,151597,1,0,0:0:0:0:
254,194,151676,1,8,0:0:0:0:
254,194,151834,1,0,0:0:0:0:
254,194,151913,1,0,0:0:0:0:
254,194,151992,1,0,0:0:0:0:
254,194,152071,1,0,0:0:0:0:
254,194,152150,1,8,0:0:0:0:
254,194,152229,1,8,0:0:0:0:
254,194,152308,1,0,0:0:0:0:
254,194,152387,1,8,0:0:0:0:
254,194,152466,1,0,0:0:0:0:
254,194,152545,1,0,0:0:0:0:
254,194,152624,1,0,0:0:0:0:
254,194,152702,1,0,0:0:0:0:
254,194,152781,1,8,0:0:0:0:
254,194,152860,1,0,0:0:0:0:
254,194,152939,1,8,0:0:0:0:
254,194,153097,1,4,0:0:0:0:
254,194,153255,1,8,0:0:0:0:
254,194,153334,1,0,0:0:0:0:
254,194,153413,1,8,0:0:0:0:
254,194,153492,1,8,0:0:0:0:
254,194,153571,1,0,0:0:0:0:
254,194,153729,1,8,0:0:0:0:
254,194,153808,1,0,0:0:0:0:
254,194,153966,1,8,0:0:0:0:
254,194,154045,1,0,0:0:0:0:
254,194,154203,1,8,0:0:0:0:
254,194,154281,1,8,0:0:0:0:
254,194,154360,1,0,0:0:0:0:
254,194,154518,1,8,0:0:0:0:
254,194,154597,1,8,0:0:0:0:
254,194,154676,1,0,0:0:0:0:
254,194,154755,1,8,0:0:0:0:
254,194,154834,1,0,0:0:0:0:
254,194,154913,1,0,0:0:0:0:
254,194,154992,1,8,0:0:0:0:
254,194,155071,1,0,0:0:0:0:
254,194,155150,1,8,0:0:0:0:
254,194,155229,1,8,0:0:0:0:
254,194,155308,1,0,0:0:0:0:
254,194,155466,1,8,0:0:0:0:
254,194,155545,1,0,0:0:0:0:
254,194,155624,1,8,0:0:0:0:
254,194,155703,1,8,0:0:0:0:
254,194,155781,1,0,0:0:0:0:
254,194,155939,1,8,0:0:0:0:
254,194,156097,1,0,0:0:0:0:
254,194,156176,1,0,0:0:0:0:
254,194,156255,1,8,0:0:0:0:
254,194,156413,1,0,0:0:0:0:
254,194,156492,1,0,0:0:0:0:
254,194,156571,1,8,0:0:0:0:
254,194,156650,1,0,0:0:0:0:
254,194,156729,1,8,0:0:0:0:
254,194,156808,1,8,0:0:0:0:
254,194,156887,1,0,0:0:0:0:
254,194,157045,1,8,0:0:0:0:
254,194,157124,1,0,0:0:0:0:
254,194,157281,1,0,0:0:0:0:
254,194,157360,1,8,0:0:0:0:
254,194,157518,1,0,0:0:0:0:
254,194,157676,1,8,0:0:0:0:
254,194,157755,1,8,0:0:0:0:
254,194,157834,1,0,0:0:0:0:
254,194,158150,1,4,0:0:0:0:
254,194,158308,1,8,0:0:0:0:
254,194,158387,1,8,0:0:0:0:
254,194,158466,1,0,0:0:0:0:
254,194,158545,1,0,0:0:0:0:
254,194,158624,1,8,0:0:0:0:
254,194,158781,1,0,0:0:0:0:
254,194,158860,1,8,0:0:0:0:
254,194,159018,1,0,0:0:0:0:
254,194,159097,1,8,0:0:0:0:
254,194,159255,1,0,0:0:0:0:
254,194,159334,1,0,0:0:0:0:
254,194,159413,1,8,0:0:0:0:
254,194,159571,1,0,0:0:0:0:
254,194,159650,1,0,0:0:0:0:
254,194,159729,1,8,0:0:0:0:
254,194,159808,1,0,0:0:0:0:
254,194,159887,1,8,0:0:0:0:
254,194,159966,1,8,0:0:0:0:
254,194,160045,1,0,0:0:0:0:
254,194,160124,1,8,0:0:0:0:
254,194,160203,1,0,0:0:0:0:
254,194,160281,1,0,0:0:0:0:
254,194,160360,1,8,0:0:0:0:
254,194,160518,1,0,0:0:0:0:
254,194,160676,1,8,0:0:0:0:
254,194,160754,1,8,0:0:0:0:
254,194,160833,1,0,0:0:0:0:
254,194,160912,1,0,0:0:0:0:
254,194,160991,1,8,0:0:0:0:
254,194,161150,1,0,0:0:0:0:
254,194,161229,1,0,0:0:0:0:
254,194,161308,1,8,0:0:0:0:
254,194,161466,1,0,0:0:0:0:
254,194,161544,1,8,0:0:0:0:
254,194,161623,1,0,0:0:0:0:
254,194,161702,1,0,0:0:0:0:
254,194,161781,1,8,0:0:0:0:
254,194,161939,1,0,0:0:0:0:
254,194,162018,1,0,0:0:0:0:
254,194,162097,1,0,0:0:0:0:
254,194,162176,1,0,0:0:0:0:
254,194,162255,1,8,0:0:0:0:
254,194,162334,1,0,0:0:0:0:
254,194,162413,1,8,0:0:0:0:
254,194,162492,1,8,0:0:0:0:
254,194,162571,1,0,0:0:0:0:
254,194,162650,1,8,0:0:0:0:
254,194,162729,1,0,0:0:0:0:
254,194,162808,1,0,0:0:0:0:
254,194,162887,1,8,0:0:0:0:
254,194,162965,1,0,0:0:0:0:
254,194,163044,1,8,0:0:0:0:
254,194,163203,1,4,0:0:0:0:
254,194,163360,1,8,0:0:0:0:
254,194,163439,1,8,0:0:0:0:
254,194,163518,1,0,0:0:0:0:
254,194,163597,1,0,0:0:0:0:
254,194,163676,1,8,0:0:0:0:
254,194,163755,1,8,0:0:0:0:
254,194,163834,1,0,0:0:0:0:
254,194,163913,1,8,0:0:0:0:
254,194,163992,1,0,0:0:0:0:
254,194,164071,1,0,0:0:0:0:
254,194,164150,1,8,0:0:0:0:
254,194,164229,1,0,0:0:0:0:
254,194,164307,1,8,0:0:0:0:
254,194,164387,1,8,0:0:0:0:
254,194,164466,1,0,0:0:0:0:
254,194,164624,1,8,0:0:0:0:
254,194,164703,1,8,0:0:0:0:
254,194,164781,1,0,0:0:0:0:
254,194,164939,1,8,0:0:0:0:
254,194,165097,1,0,0:0:0:0:
254,194,165175,1,8,0:0:0:0:
254,194,165255,1,0,0:0:0:0:
254,194,165334,1,0,0:0:0:0:
254,194,165413,1,8,0:0:0:0:
254,194,165571,1,0,0:0:0:0:
254,194,165728,1,8,0:0:0:0:
254,194,165887,1,0,0:0:0:0:
254,194,165966,1,0,0:0:0:0:
254,194,166044,1,8,0:0:0:0:
254,194,166203,1,0,0:0:0:0:
254,194,166360,1,8,0:0:0:0:
254,194,166439,1,8,0:0:0:0:
254,194,166518,1,0,0:0:0:0:
254,194,166597,1,0,0:0:0:0:
254,194,166676,1,8,0:0:0:0:
254,194,166834,1,0,0:0:0:0:
254,194,166992,1,8,0:0:0:0:
254,194,167150,1,0,0:0:0:0:
254,194,167229,1,0,0:0:0:0:
254,194,167308,1,8,0:0:0:0:
254,194,167466,1,0,0:0:0:0:
254,194,167623,1,8,0:0:0:0:
254,194,167703,1,8,0:0:0:0:
254,194,167781,1,0,0:0:0:0:
254,194,167939,1,8,0:0:0:0:
254,194,168255,1,4,0:0:0:0:
254,194,168413,1,0,0:0:0:0:
254,194,168571,1,8,0:0:0:0:
254,194,168649,1,8,0:0:0:0:
254,194,168728,1,0,0:0:0:0:
254,194,168808,1,8,0:0:0:0:
254,194,168887,1,0,0:0:0:0:
254,194,168965,1,0,0:0:0:0:
254,194,169045,1,8,0:0:0:0:
254,194,169123,1,0,0:0:0:0:
254,194,169202,1,8,0:0:0:0:
254,194,169281,1,8,0:0:0:0:
254,194,169360,1,0,0:0:0:0:
254,194,169439,1,8,0:0:0:0:
254,194,169518,1,0,0:0:0:0:
254,194,169676,1,8,0:0:0:0:
254,194,169755,1,8,0:0:0:0:
254,194,169834,1,0,0:0:0:0:
254,194,169992,1,8,0:0:0:0:
254,194,170150,1,0,0:0:0:0:
254,194,170229,1,0,0:0:0:0:
254,194,170308,1,8,0:0:0:0:
254,194,170387,1,8,0:0:0:0:
254,194,170466,1,0,0:0:0:0:
254,194,170624,1,8,0:0:0:0:
254,194,170781,1,0,0:0:0:0:
254,194,170939,1,8,0:0:0:0:
254,194,171018,1,8,0:0:0:0:
254,194,171097,1,0,0:0:0:0:
254,194,171254,1,8,0:0:0:0:
254,194,171413,1,0,0:0:0:0:
254,194,171492,1,8,0:0:0:0:
254,194,171571,1,0,0:0:0:0:
254,194,171650,1,0,0:0:0:0:
254,194,171729,1,8,0:0:0:0:
254,194,171887,1,0,0:0:0:0:
254,194,172045,1,12,0:0:0:0:
254,194,173307,1,4,0:0:0:0:
254,194,174571,1,0,0:0:0:0:
254,194,175834,1,0,0:0:0:0:
254,194,177097,1,0,0:0:0:0:
254,194,177571,1,8,0:0:0:0:
254,194,178360,1,0,0:0:0:0:
254,194,178992,1,0,0:0:0:0:
254,194,179624,1,8,0:0:0:0:
254,194,180097,1,0,0:0:0:0:
254,194,180887,1,0,0:0:0:0:
254,194,181360,1,8,0:0:0:0:
254,194,181676,1,0,0:0:0:0:
254,194,181834,1,0,0:0:0:0:
254,194,181992,1,8,0:0:0:0:
254,194,182150,1,0,0:0:0:0:
254,194,182229,1,0,0:0:0:0:
254,194,182308,1,8,0:0:0:0:
254,194,182387,1,0,0:0:0:0:
254,194,182466,1,8,0:0:0:0:
254,194,182545,1,0,0:0:0:0:
254,194,182624,1,8,0:0:0:0:
254,194,182703,1,8,0:0:0:0:
254,194,182781,1,0,0:0:0:0:
254,194,182860,1,8,0:0:0:0:
254,194,182939,1,0,0:0:0:0:
254,194,183018,1,0,0:0:0:0:
254,194,183097,1,8,0:0:0:0:
254,194,183413,5,4,0:0:0:0:
254,194,183571,1,8,0:0:0:0:
254,194,183650,1,0,0:0:0:0:
254,194,183729,1,0,0:0:0:0:
254,194,183808,1,8,0:0:0:0:
254,194,183966,1,0,0:0:0:0:
254,194,184045,1,8,0:0:0:0:
254,194,184203,1,0,0:0:0:0:
254,194,184281,1,0,0:0:0:0:
254,194,184360,1,8,0:0:0:0:
254,194,184439,1,0,0:0:0:0:
254,194,184518,1,8,0:0:0:0:
254,194,184597,1,8,0:0:0:0:
254,194,184676,1,0,0:0:0:0:
254,194,184834,1,8,0:0:0:0:
254,194,184913,1,8,0:0:0:0:
254,194,184992,1,0,0:0:0:0:
254,194,185150,1,8,0:0:0:0:
254,194,185229,1,0,0:0:0:0:
254,194,185387,1,0,0:0:0:0:
254,194,185466,1,8,0:0:0:0:
254,194,185624,1,0,0:0:0:0:
254,194,185703,1,8,0:0:0:0:
254,194,185781,1,0,0:0:0:0:
254,194,185860,1,0,0:0:0:0:
254,194,185939,1,8,0:0:0:0:
254,194,186097,1,0,0:0:0:0:
254,194,186176,1,8,0:0:0:0:
254,194,186255,1,8,0:0:0:0:
254,194,186334,1,0,0:0:0:0:
254,194,186492,1,8,0:0:0:0:
254,194,186571,1,0,0:0:0:0:
254,194,186729,1,8,0:0:0:0:
254,194,186887,1,0,0:0:0:0:
254,194,186966,1,0,0:0:0:0:
254,194,187045,1,8,0:0:0:0:
254,194,187124,1,8,0:0:0:0:
254,194,187203,1,0,0:0:0:0:
254,194,187360,1,8,0:0:0:0:
254,194,187439,1,0,0:0:0:0:
254,194,187597,1,8,0:0:0:0:
254,194,187676,1,0,0:0:0:0:
254,194,187755,1,0,0:0:0:0:
254,194,187834,1,8,0:0:0:0:
254,194,187992,1,0,0:0:0:0:
254,194,188150,1,8,0:0:0:0:
254,194,188229,1,0,0:0:0:0:
254,194,188308,1,8,0:0:0:0:
254,194,188387,1,8,0:0:0:0:
254,194,188466,1,0,0:0:0:0:
254,194,188624,1,0,0:0:0:0:
254,194,188703,1,0,0:0:0:0:
254,194,188781,1,8,0:0:0:0:
254,194,188939,1,8,0:0:0:0:
254,194,189018,1,8,0:0:0:0:
254,194,189097,1,0,0:0:0:0:
254,194,189176,1,0,0:0:0:0:
254,194,189255,1,8,0:0:0:0:
254,194,189334,1,0,0:0:0:0:
254,194,189492,1,0,0:0:0:0:
254,194,189571,1,8,0:0:0:0:
254,194,189729,1,0,0:0:0:0:
254,194,189887,1,8,0:0:0:0:
254,194,189966,1,8,0:0:0:0:
254,194,190045,1,0,0:0:0:0:
254,194,190124,1,8,0:0:0:0:
254,194,190203,1,0,0:0:0:0:
254,194,190518,1,0,0:0:0:0:
254,194,190676,1,8,0:0:0:0:
254,194,190834,1,0,0:0:0:0:
254,194,190913,1,0,0:0:0:0:
254,194,190992,1,8,0:0:0:0:
254,194,191150,1,0,0:0:0:0:
254,194,191229,1,8,0:0:0:0:
254,194,191308,1,0,0:0:0:0:
254,194,191387,1,8,0:0:0:0:
254,194,191466,1,0,0:0:0:0:
254,194,191545,1,0,0:0:0:0:
254,194,191624,1,8,0:0:0:0:
254,194,191781,1,0,0:0:0:0:
254,194,191939,1,8,0:0:0:0:
254,194,192018,1,0,0:0:0:0:
254,194,192097,1,0,0:0:0:0:
254,194,192176,1,0,0:0:0:0:
254,194,192255,1,8,0:0:0:0:
254,194,192413,1,0,0:0:0:0:
254,194,192492,1,8,0:0:0:0:
254,194,192650,1,8,0:0:0:0:
254,194,192729,1,0,0:0:0:0:
254,194,192887,1,8,0:0:0:0:
254,194,192966,1,8,0:0:0:0:
254,194,193045,1,0,0:0:0:0:
254,194,193124,1,8,0:0:0:0:
254,194,193203,1,0,0:0:0:0:
254,194,193281,1,0,0:0:0:0:
254,194,193360,1,8,0:0:0:0:
254,194,193439,1,8,0:0:0:0:
254,194,193518,1,0,0:0:0:0:
254,194,193676,1,0,0:0:0:0:
254,194,193834,1,8,0:0:0:0:
254,194,193992,1,0,0:0:0:0:
254,194,194150,1,8,0:0:0:0:
254,194,194229,1,8,0:0:0:0:
254,194,194307,1,0,0:0:0:0:
254,194,194387,1,8,0:0:0:0:
254,194,194466,1,0,0:0:0:0:
254,194,194545,1,0,0:0:0:0:
254,194,194624,1,8,0:0:0:0:
254,194,194703,1,8,0:0:0:0:
254,194,194781,1,0,0:0:0:0:
254,194,195096,5,4,0:0:0:0:
254,194,195255,1,8,0:0:0:0:
254,194,195413,1,0,0:0:0:0:
254,194,195492,1,8,0:0:0:0:
265,192,195571,1,0,0:0:0:0:
254,194,195650,1,0,0:0:0:0:
254,194,195729,1,8,0:0:0:0:
254,194,195887,1,0,0:0:0:0:
254,194,195966,1,0,0:0:0:0:
254,194,196045,1,8,0:0:0:0:
254,194,196203,1,0,0:0:0:0:
254,194,196281,1,0,0:0:0:0:
254,194,196360,1,8,0:0:0:0:
254,194,196439,1,0,0:0:0:0:
254,194,196518,1,8,0:0:0:0:
254,194,196597,1,8,0:0:0:0:
254,194,196676,1,0,0:0:0:0:
254,194,196755,1,8,0:0:0:0:
254,194,196834,1,0,0:0:0:0:
254,194,196913,1,0,0:0:0:0:
254,194,196992,1,8,0:0:0:0:
254,194,197071,1,0,0:0:0:0:
254,194,197150,1,8,0:0:0:0:
254,194,197229,1,8,0:0:0:0:
254,194,197308,1,0,0:0:0:0:
254,194,197466,1,8,0:0:0:0:
254,194,197624,1,0,0:0:0:0:
254,194,197703,1,8,0:0:0:0:
254,194,197781,1,0,0:0:0:0:
254,194,197860,1,0,0:0:0:0:
254,194,197939,1,8,0:0:0:0:
254,194,198097,1,0,0:0:0:0:
254,194,198176,1,0,0:0:0:0:
254,194,198255,1,8,0:0:0:0:
254,194,198334,1,0,0:0:0:0:
254,194,198413,1,8,0:0:0:0:
254,194,198492,1,8,0:0:0:0:
254,194,198571,1,0,0:0:0:0:
254,194,198729,1,8,0:0:0:0:
254,194,198808,1,0,0:0:0:0:
254,194,198966,1,8,0:0:0:0:
254,194,199045,1,0,0:0:0:0:
254,194,199124,1,0,0:0:0:0:
254,194,199203,1,8,0:0:0:0:
254,194,199360,1,0,0:0:0:0:
254,194,199438,1,0,0:0:0:0:
254,194,199517,1,8,0:0:0:0:
254,194,199597,1,8,0:0:0:0:
254,194,199676,1,0,0:0:0:0:
254,194,199755,1,8,0:0:0:0:
254,194,199834,1,0,0:0:0:0:
254,194,199992,1,8,0:0:0:0:
254,194,200150,1,0,0:0:0:0:
254,194,200229,1,0,0:0:0:0:
254,194,200308,1,8,0:0:0:0:
254,194,200466,1,0,0:0:0:0:
254,194,200545,1,0,0:0:0:0:
254,194,200624,1,0,0:0:0:0:
254,194,200703,1,0,0:0:0:0:
254,194,200781,1,8,0:0:0:0:
254,194,200860,1,0,0:0:0:0:
254,194,200939,1,8,0:0:0:0:
254,194,201018,1,8,0:0:0:0:
254,194,201097,1,0,0:0:0:0:
254,194,201255,1,8,0:0:0:0:
254,194,201413,1,0,0:0:0:0:
254,194,201492,1,8,0:0:0:0:
254,194,201571,1,0,0:0:0:0:
254,194,201650,1,0,0:0:0:0:
254,194,201729,1,8,0:0:0:0:
254,194,201808,1,0,0:0:0:0:
254,194,201887,1,8,0:0:0:0:
254,194,201966,1,8,0:0:0:0:
254,194,202045,1,0,0:0:0:0:
254,194,202124,1,0,0:0:0:0:
254,194,202203,1,8,0:0:0:0:
254,194,202281,1,8,0:0:0:0:
254,194,202360,1,0,0:0:0:0:
254,194,202518,1,8,0:0:0:0:
254,194,202676,1,0,0:0:0:0:
254,194,202755,1,8,0:0:0:0:
254,194,202834,1,0,0:0:0:0:
254,194,202913,1,0,0:0:0:0:
254,194,202992,1,8,0:0:0:0:
254,194,203150,1,0,0:0:0:0:
254,194,203308,1,8,0:0:0:0:
254,194,203387,1,0,0:0:0:0:
254,194,203466,1,8,0:0:0:0:
254,194,203545,1,8,0:0:0:0:
254,194,203624,1,0,0:0:0:0:
254,194,203781,5,8,0:0:0:0:
254,194,203939,1,0,0:0:0:0:
254,194,204018,1,0,0:0:0:0:
254,194,204097,1,8,0:0:0:0:
254,194,204255,1,0,0:0:0:0:
254,194,204413,1,8,0:0:0:0:
254,194,204492,1,0,0:0:0:0:
254,194,204571,1,8,0:0:0:0:
254,194,204650,1,8,0:0:0:0:
254,194,204729,1,0,0:0:0:0:
254,194,204808,1,8,0:0:0:0:
254,194,204887,1,0,0:0:0:0:
254,194,205045,1,8,0:0:0:0:
254,194,205123,1,8,0:0:0:0:
254,194,205203,1,0,0:0:0:0:
254,194,205360,1,8,0:0:0:0:
254,194,205439,5,8,0:0:0:0:
254,194,205518,1,0,0:0:0:0:
254,194,205597,1,8,0:0:0:0:
265,192,205676,1,0,0:0:0:0:
254,194,205755,1,0,0:0:0:0:
254,194,205834,1,8,0:0:0:0:
254,194,205913,1,0,0:0:0:0:
254,194,205992,1,8,0:0:0:0:
254,194,206150,1,0,0:0:0:0:
254,194,206308,1,8,0:0:0:0:
254,194,206387,1,8,0:0:0:0:
254,194,206466,1,0,0:0:0:0:
254,194,206545,1,8,0:0:0:0:
254,194,206624,1,0,0:0:0:0:
254,194,206703,1,0,0:0:0:0:
254,194,206781,1,8,0:0:0:0:
254,194,206860,1,0,0:0:0:0:
254,194,206939,1,8,0:0:0:0:
254,194,207018,1,8,0:0:0:0:
254,194,207097,1,0,0:0:0:0:
254,194,207176,1,0,0:0:0:0:
254,194,207255,1,8,0:0:0:0:
254,194,207334,1,8,0:0:0:0:
254,194,207413,1,0,0:0:0:0:
254,194,207571,1,8,0:0:0:0:
254,194,207729,1,0,0:0:0:0:
254,194,207808,1,0,0:0:0:0:
254,194,207887,1,8,0:0:0:0:
254,194,208045,1,0,0:0:0:0:
254,194,208203,1,8,0:0:0:0:
254,194,208281,1,8,0:0:0:0:
254,194,208360,1,0,0:0:0:0:
254,194,208439,1,0,0:0:0:0:
254,194,208518,1,8,0:0:0:0:
254,194,208676,1,0,0:0:0:0:
254,194,208834,1,8,0:0:0:0:
254,194,208913,1,0,0:0:0:0:
254,194,209071,1,8,0:0:0:0:
254,194,209150,1,0,0:0:0:0:
254,194,209229,1,0,0:0:0:0:
254,194,209308,1,8,0:0:0:0:
254,194,209466,1,0,0:0:0:0:
254,194,209545,1,0,0:0:0:0:
254,194,209624,1,8,0:0:0:0:
254,194,209703,1,0,0:0:0:0:
254,194,209781,1,8,0:0:0:0:
254,194,209860,1,8,0:0:0:0:
254,194,209939,1,0,0:0:0:0:
254,194,210097,1,8,0:0:0:0:
254,194,210255,1,0,0:0:0:0:
254,194,210334,1,0,0:0:0:0:
254,194,210413,1,8,0:0:0:0:
254,194,210571,1,0,0:0:0:0:
254,194,210650,1,8,0:0:0:0:
254,194,210729,1,0,0:0:0:0:
254,194,210808,1,0,0:0:0:0:
254,194,210887,1,8,0:0:0:0:
254,194,211045,1,0,0:0:0:0:
254,194,211124,1,0,0:0:0:0:
254,194,211203,1,8,0:0:0:0:
254,194,211360,1,0,0:0:0:0:
254,194,211439,1,0,0:0:0:0:
254,194,211518,1,8,0:0:0:0:
254,194,211597,1,0,0:0:0:0:
254,194,211676,1,8,0:0:0:0:
254,194,211755,1,8,0:0:0:0:
254,194,211834,1,0,0:0:0:0:
254,194,211913,1,8,0:0:0:0:
254,194,211992,1,0,0:0:0:0:
254,194,212071,1,0,0:0:0:0:
254,194,212150,1,8,0:0:0:0:
254,194,212229,1,0,0:0:0:0:
254,194,212308,1,8,0:0:0:0:
254,194,212387,1,8,0:0:0:0:
254,194,212466,1,0,0:0:0:0:
254,194,212624,1,8,0:0:0:0:
254,194,212781,1,0,0:0:0:0:
254,194,212860,1,0,0:0:0:0:
254,194,212939,1,8,0:0:0:0:
254,194,213097,1,0,0:0:0:0:
254,194,213255,1,8,0:0:0:0:
254,194,213334,1,8,0:0:0:0:
254,194,213413,1,0,0:0:0:0:
254,194,213492,1,0,0:0:0:0:
254,194,213571,1,8,0:0:0:0:
254,194,213729,1,0,0:0:0:0:
254,194,213887,1,8,0:0:0:0:
254,194,213966,1,0,0:0:0:0:
254,194,214124,1,8,0:0:0:0:
254,194,214203,1,0,0:0:0:0:
254,194,214360,1,8,0:0:0:0:
254,194,214518,1,0,0:0:0:0:
254,194,214597,1,0,0:0:0:0:
254,194,214676,1,8,0:0:0:0:
254,194,214755,1,8,0:0:0:0:
254,194,214834,1,8,0:0:0:0:
254,194,214913,1,8,0:0:0:0:
254,194,214992,1,0,0:0:0:0:
254,194,215308,1,4,0:0:0:0:
254,194,215466,1,8,0:0:0:0:
254,194,215545,1,0,0:0:0:0:
254,194,215703,1,0,0:0:0:0:
254,194,215781,1,8,0:0:0:0:
254,194,215939,1,0,0:0:0:0:
254,194,216097,1,8,0:0:0:0:
254,194,216255,1,0,0:0:0:0:
254,194,216334,1,0,0:0:0:0:
254,194,216413,1,8,0:0:0:0:
254,194,216571,1,0,0:0:0:0:
254,194,216650,1,8,0:0:0:0:
254,194,216808,1,0,0:0:0:0:
254,194,216887,1,8,0:0:0:0:
254,194,216966,1,0,0:0:0:0:
254,194,217124,1,8,0:0:0:0:
254,194,217203,1,0,0:0:0:0:
254,194,217360,1,8,0:0:0:0:
254,194,217518,1,0,0:0:0:0:
254,194,217834,1,8,0:0:0:0:
254,194,217992,1,0,0:0:0:0:
254,194,218150,1,8,0:0:0:0:
254,194,218229,1,8,0:0:0:0:
254,194,218308,1,0,0:0:0:0:
254,194,218466,1,8,0:0:0:0:
254,194,218624,1,0,0:0:0:0:
254,194,218781,1,8,0:0:0:0:
254,194,218939,1,0,0:0:0:0:
254,194,219018,1,0,0:0:0:0:
254,194,219097,1,8,0:0:0:0:
254,194,219255,1,0,0:0:0:0:
254,194,219334,1,8,0:0:0:0:
254,194,219492,1,8,0:0:0:0:
254,194,219571,1,0,0:0:0:0:
254,194,219729,1,8,0:0:0:0:
254,194,220045,1,0,0:0:0:0:
254,194,220203,1,8,0:0:0:0:
254,194,220281,1,0,0:0:0:0:
254,194,220360,1,0,0:0:0:0:
254,194,220439,1,8,0:0:0:0:
254,194,220597,1,0,0:0:0:0:
254,194,220755,1,8,0:0:0:0:
254,194,220834,1,0,0:0:0:0:
254,194,220992,1,8,0:0:0:0:
254,194,221071,1,0,0:0:0:0:
254,194,221150,1,8,0:0:0:0:
254,194,221229,1,8,0:0:0:0:
254,194,221308,1,0,0:0:0:0:
254,194,221466,1,8,0:0:0:0:
254,194,221624,1,0,0:0:0:0:
254,194,221703,1,8,0:0:0:0:
254,194,221781,1,8,0:0:0:0:
254,194,221860,1,0,0:0:0:0:
254,194,222018,1,8,0:0:0:0:
254,194,222097,1,0,0:0:0:0:
254,194,222176,1,0,0:0:0:0:
254,194,222255,1,8,0:0:0:0:
254,194,222413,1,0,0:0:0:0:
254,194,222571,1,8,0:0:0:0:
254,194,222729,1,0,0:0:0:0:
254,194,222808,1,0,0:0:0:0:
254,194,222887,1,8,0:0:0:0:
254,194,222966,1,0,0:0:0:0:
254,194,223124,1,8,0:0:0:0:
254,194,223203,1,8,0:0:0:0:
254,194,223281,1,0,0:0:0:0:
254,194,223439,1,8,0:0:0:0:
254,194,223518,1,0,0:0:0:0:
254,194,223675,1,8,0:0:0:0:
254,194,223834,1,0,0:0:0:0:
254,194,223992,1,8,0:0:0:0:
254,194,224150,1,0,0:0:0:0:
254,194,224229,1,8,0:0:0:0:
254,194,224387,1,0,0:0:0:0:
254,194,224466,1,8,0:0:0:0:
254,194,224624,1,0,0:0:0:0:
254,194,224703,1,8,0:0:0:0:
254,194,224781,1,0,0:0:0:0:
254,194,224859,1,0,0:0:0:0:
254,194,224938,1,8,0:0:0:0:
254,194,225097,1,4,0:0:0:0:
254,194,225254,1,8,0:0:0:0:
254,194,225413,1,0,0:0:0:0:
254,194,225571,1,8,0:0:0:0:
254,194,225650,1,0,0:0:0:0:
254,194,225808,1,0,0:0:0:0:
254,194,225887,1,8,0:0:0:0:
254,194,226045,1,0,0:0:0:0:
254,194,226124,1,0,0:0:0:0:
254,194,226203,1,8,0:0:0:0:
254,194,226360,1,0,0:0:0:0:
254,194,226518,1,8,0:0:0:0:
254,194,226676,1,0,0:0:0:0:
254,194,226834,1,8,0:0:0:0:
254,194,226913,1,0,0:0:0:0:
254,194,227071,1,0,0:0:0:0:
254,194,227150,1,8,0:0:0:0:
254,194,227229,1,8,0:0:0:0:
254,194,227308,1,0,0:0:0:0:
254,194,227466,1,8,0:0:0:0:
254,194,227624,1,0,0:0:0:0:
254,194,227781,1,8,0:0:0:0:
254,194,227860,1,8,0:0:0:0:
254,194,227939,1,0,0:0:0:0:
254,194,228097,1,8,0:0:0:0:
254,194,228176,1,0,0:0:0:0:
254,194,228334,1,0,0:0:0:0:
254,194,228413,1,8,0:0:0:0:
254,194,228571,1,0,0:0:0:0:
254,194,228650,1,0,0:0:0:0:
254,194,228729,1,8,0:0:0:0:
254,194,228887,1,0,0:0:0:0:
254,194,229045,1,8,0:0:0:0:
254,194,229203,1,0,0:0:0:0:
254,194,229360,1,8,0:0:0:0:
254,194,229439,1,0,0:0:0:0:
254,194,229597,1,0,0:0:0:0:
254,194,229676,1,8,0:0:0:0:
254,194,229755,1,8,0:0:0:0:
254,194,229834,1,0,0:0:0:0:
254,194,229992,1,8,0:0:0:0:
254,194,230150,1,0,0:0:0:0:
254,194,230308,1,8,0:0:0:0:
254,194,230387,1,8,0:0:0:0:
254,194,230466,1,0,0:0:0:0:
254,194,230624,1,8,0:0:0:0:
254,194,230703,1,0,0:0:0:0:
254,194,230860,1,0,0:0:0:0:
254,194,230939,1,8,0:0:0:0:
254,194,231097,1,0,0:0:0:0:
254,194,231176,1,0,0:0:0:0:
254,194,231255,1,8,0:0:0:0:
254,194,231334,1,8,0:0:0:0:
254,194,231413,1,0,0:0:0:0:
254,194,231571,1,8,0:0:0:0:
254,194,231729,1,0,0:0:0:0:
254,194,231887,1,8,0:0:0:0:
254,194,231966,1,0,0:0:0:0:
254,194,232124,1,0,0:0:0:0:
254,194,232203,1,8,0:0:0:0:
254,194,232360,1,0,0:0:0:0:
254,194,232439,1,0,0:0:0:0:
254,194,232518,1,8,0:0:0:0:
254,194,232676,5,0,0:0:0:0:
254,194,232755,1,0,0:0:0:0:
254,194,232834,1,0,0:0:0:0:
254,194,232913,1,0,0:0:0:0:
254,194,232992,1,8,0:0:0:0:
254,194,233071,1,0,0:0:0:0:
254,194,233150,1,8,0:0:0:0:
254,194,233229,1,8,0:0:0:0:
254,194,233308,1,0,0:0:0:0:
254,194,233387,1,8,0:0:0:0:
254,194,233466,1,0,0:0:0:0:
254,194,233545,1,0,0:0:0:0:
254,194,233624,1,8,0:0:0:0:
254,194,233703,1,0,0:0:0:0:
254,194,233781,1,8,0:0:0:0:
254,194,233860,1,8,0:0:0:0:
254,194,233939,1,0,0:0:0:0:
256,192,234097,12,0,235045,0:0:0:0:
256,208,235203,5,4,0:0:0:0:
256,208,235360,1,8,0:0:0:0:
256,208,235518,1,0,0:0:0:0:
256,208,235676,1,8,0:0:0:0:
256,208,235755,1,8,0:0:0:0:
256,208,235834,1,0,0:0:0:0:
256,208,235992,1,8,0:0:0:0:
256,208,236150,1,0,0:0:0:0:
256,208,236466,1,0,0:0:0:0:
256,208,236624,1,0,0:0:0:0:
256,208,236781,1,8,0:0:0:0:
256,208,236939,1,0,0:0:0:0:
256,208,237018,1,0,0:0:0:0:
256,208,237097,1,8,0:0:0:0:
256,208,237255,1,0,0:0:0:0:
256,208,237413,1,8,0:0:0:0:
256,208,237729,1,0,0:0:0:0:
256,208,237887,1,8,0:0:0:0:
256,208,238045,1,0,0:0:0:0:
256,208,238203,1,8,0:0:0:0:
256,208,238281,1,8,0:0:0:0:
256,208,238360,1,0,0:0:0:0:
256,208,238439,1,0,0:0:0:0:
256,208,238518,1,8,0:0:0:0:
256,208,238676,1,0,0:0:0:0:
256,208,238992,1,0,0:0:0:0:
256,208,239150,1,0,0:0:0:0:
256,208,239308,1,8,0:0:0:0:
256,208,239466,1,0,0:0:0:0:
256,208,239545,1,0,0:0:0:0:
256,208,239624,1,8,0:0:0:0:
256,208,239781,1,0,0:0:0:0:
256,208,239939,1,8,0:0:0:0:
256,208,240255,1,0,0:0:0:0:
256,208,240413,1,8,0:0:0:0:
256,208,240571,1,0,0:0:0:0:
256,208,240729,1,8,0:0:0:0:
256,208,240808,1,8,0:0:0:0:
256,208,240887,1,0,0:0:0:0:
256,208,241045,1,8,0:0:0:0:
256,208,241203,1,0,0:0:0:0:
256,208,241518,1,0,0:0:0:0:
256,208,241676,1,0,0:0:0:0:
256,208,241834,1,8,0:0:0:0:
256,208,241992,1,0,0:0:0:0:
256,208,242071,1,0,0:0:0:0:
256,208,242150,1,8,0:0:0:0:
256,208,242229,1,8,0:0:0:0:
256,208,242308,1,0,0:0:0:0:
256,208,242466,1,8,0:0:0:0:
256,208,242781,1,0,0:0:0:0:
256,208,242939,1,8,0:0:0:0:
256,208,243097,1,0,0:0:0:0:
256,208,243255,1,8,0:0:0:0:
256,208,243334,1,8,0:0:0:0:
256,208,243413,1,0,0:0:0:0:
256,208,243571,1,8,0:0:0:0:
256,208,243729,1,0,0:0:0:0:
256,208,244045,1,0,0:0:0:0:
256,208,244203,1,8,0:0:0:0:
256,208,244360,1,0,0:0:0:0:
256,208,244518,1,8,0:0:0:0:
256,208,244597,1,0,0:0:0:0:
256,208,244676,1,8,0:0:0:0:
256,208,244755,1,8,0:0:0:0:
256,208,244834,1,0,0:0:0:0:
256,208,244992,1,8,0:0:0:0:
256,208,245308,5,4,0:0:0:0:
256,208,245466,1,8,0:0:0:0:
256,208,245624,1,0,0:0:0:0:
256,208,245781,1,8,0:0:0:0:
256,208,245860,1,8,0:0:0:0:
256,208,245939,1,0,0:0:0:0:
256,208,246097,1,8,0:0:0:0:
256,208,246255,1,0,0:0:0:0:
256,208,246334,1,0,0:0:0:0:
256,208,246413,1,8,0:0:0:0:
256,208,246571,1,0,0:0:0:0:
256,208,246729,1,8,0:0:0:0:
256,208,246808,1,0,0:0:0:0:
256,208,246966,1,0,0:0:0:0:
256,208,247045,1,8,0:0:0:0:
256,208,247203,1,0,0:0:0:0:
256,208,247281,1,8,0:0:0:0:
256,208,247360,1,8,0:0:0:0:
256,208,247518,1,0,0:0:0:0:
256,208,247834,1,0,0:0:0:0:
256,208,247992,1,8,0:0:0:0:
256,208,248150,1,0,0:0:0:0:
256,208,248308,1,8,0:0:0:0:
256,208,248387,1,8,0:0:0:0:
256,208,248466,1,0,0:0:0:0:
256,208,248545,1,0,0:0:0:0:
256,208,248624,1,8,0:0:0:0:
256,208,248781,1,0,0:0:0:0:
256,208,248939,1,8,0:0:0:0:
256,208,249097,1,0,0:0:0:0:
256,208,249176,1,8,0:0:0:0:
256,208,249334,1,0,0:0:0:0:
256,208,249413,1,8,0:0:0:0:
256,208,249492,1,8,0:0:0:0:
256,208,249571,1,0,0:0:0:0:
256,208,249729,1,8,0:0:0:0:
256,208,249808,1,8,0:0:0:0:
256,208,249887,1,0,0:0:0:0:
256,208,250045,1,8,0:0:0:0:
256,208,250360,1,0,0:0:0:0:
256,208,250518,1,8,0:0:0:0:
256,208,250676,1,0,0:0:0:0:
256,208,250834,1,8,0:0:0:0:
256,208,250913,1,8,0:0:0:0:
256,208,250992,1,0,0:0:0:0:
256,208,251150,1,8,0:0:0:0:
256,208,251308,1,0,0:0:0:0:
256,208,251387,1,0,0:0:0:0:
256,208,251466,1,8,0:0:0:0:
256,208,251624,1,0,0:0:0:0:
256,208,251781,1,8,0:0:0:0:
256,208,251860,1,0,0:0:0:0:
256,208,252018,1,0,0:0:0:0:
256,208,252097,1,8,0:0:0:0:
256,208,252255,1,0,0:0:0:0:
256,208,252334,1,0,0:0:0:0:
256,208,252413,1,8,0:0:0:0:
256,208,252571,1,0,0:0:0:0:
256,208,252887,1,0,0:0:0:0:
256,208,253045,1,8,0:0:0:0:
256,208,253203,1,0,0:0:0:0:
256,208,253360,1,8,0:0:0:0:
256,208,253439,1,8,0:0:0:0:
256,208,253518,1,0,0:0:0:0:
256,208,253597,1,0,0:0:0:0:
256,208,253676,1,8,0:0:0:0:
256,208,253834,1,0,0:0:0:0:
256,208,253992,1,8,0:0:0:0:
256,192,254149,12,0,255254,0:0:0:0:
256,192,255413,5,4,0:0:0:0:
256,192,255571,12,0,264255,0:0:0:0:
