osu file format v14

[General]
AudioFilename: audio.mp3
AudioLeadIn: 0
PreviewTime: 1424
Countdown: 0
SampleSet: Normal
StackLeniency: 0.7
Mode: 1
LetterboxInBreaks: 0
WidescreenStoryboard: 0

[Editor]
DistanceSpacing: 0.8
BeatDivisor: 4
GridSize: 16
TimelineZoom: 1.2

[Metadata]
Title:Cepstrum
TitleUnicode:ケプストラム
Artist:Hayabusa
ArtistUnicode:ハヤブサ
Creator:iloveyou4ever
Version:Memories
Source:
Tags:Falconnect ナミダノキヲク Namida no Kioku Vocaloid Hatsune Miku 初音ミク jrock j-rock rock japanese
BeatmapID:1332976
BeatmapSetID:631308

[Difficulty]
HPDrainRate:6
CircleSize:5
OverallDifficulty:6
ApproachRate:5
SliderMultiplier:1.4
SliderTickRate:1

[Events]
//Background and Video events
0,0,"cepstrum.jpg",0,-55
//Break Periods
//Storyboard Layer 0 (Background)
//Storyboard Layer 1 (Fail)
//Storyboard Layer 2 (Pass)
//Storyboard Layer 3 (Foreground)
//Storyboard Layer 4 (Overlay)
//Storyboard Sound Samples

[TimingPoints]
2844,340.909090909091,4,1,0,95,1,0
21934,-95.2380952380952,4,1,0,95,0,0
23298,-90.9090909090909,4,1,0,95,0,0
24662,-100,4,1,0,85,0,0
24832,-111.111111111111,4,1,0,85,0,0
40344,-109.289617486339,4,1,0,85,0,0
40684,-105.820105820106,4,1,0,85,0,0
41025,-104.166666666667,4,1,0,85,0,0
46139,-102.040816326531,4,1,0,90,0,0
46480,-100,4,1,0,95,0,0
67275,-101.522842639594,4,1,0,95,0,0
67446,-103.092783505155,4,1,0,95,0,0
67616,-104.712041884817,4,1,0,95,0,0
67787,-106.382978723404,4,1,0,95,0,0
67957,-108.108108108108,4,1,0,95,0,0
68298,-109.89010989011,4,1,0,95,0,0
72389,-109.289617486339,4,1,0,95,0,0
72559,-108.108108108108,4,1,0,95,0,0
72730,-106.951871657754,4,1,0,95,0,0
72900,-105.820105820106,4,1,0,95,0,0
72986,-104.98687664042,4,1,0,95,0,0
73071,-104.166666666667,4,1,0,95,0,0
73241,-103.092783505155,4,1,0,95,0,0
73412,-102.040816326531,4,1,0,95,0,0
73753,-99.009900990099,4,1,0,95,0,0
75116,-94.3396226415094,4,1,0,95,0,0
77844,-90.0900900900901,4,1,0,95,0,0
79207,-90.0900900900901,4,1,0,95,0,1
79548,-90.9090909090909,4,1,0,95,0,1
79889,-91.743119266055,4,1,0,95,0,1
80059,-92.5925925925926,4,1,0,95,0,1
80230,-93.4579439252336,4,1,0,95,0,1
80571,-94.3396226415094,4,1,0,95,0,1
80741,-95.5109837631328,4,1,0,95,0,1
80912,-95.9692898272553,4,1,0,95,0,1
81082,-96.7117988394584,4,1,0,95,0,1
81253,-97.4658869395711,4,1,0,95,0,1
81423,-98.2318271119843,4,1,0,95,0,1
81594,-99.009900990099,4,1,0,95,0,1
81934,-100,4,1,0,95,0,1
90116,-106.382978723404,4,1,0,95,0,0
95230,-104.166666666667,4,1,0,95,0,0
95400,-102.040816326531,4,1,0,95,0,0
95571,-100,4,1,0,95,0,0
101025,-100,4,1,0,95,0,1
105116,-100,4,1,0,95,0,0
106480,461.538461538462,4,1,0,95,1,0
106480,-80,4,1,0,95,0,0
108095,461.538461538462,3,1,0,95,1,0
108095,-80,3,1,0,95,0,0
109479,461.538461538462,4,1,0,95,1,0
109479,-80,4,1,0,95,0,0
111094,461.538461538462,4,1,0,95,1,0
111094,-80,4,1,0,95,0,0
112940,461.538461538462,4,1,0,95,1,0
112940,-80,4,1,0,95,0,0
142478,-83.3333333333333,4,1,0,95,0,0
157247,-86.9565217391304,4,1,0,95,0,0
171555,-85.1063829787234,4,1,0,95,0,0
172016,-83.3333333333333,4,1,0,95,0,0
179516,-86.9565217391304,4,1,0,95,0,0
186324,-86.2068965517241,4,1,0,95,0,0
186440,-85.4700854700855,4,1,0,95,0,0
186555,-84.7457627118644,4,1,0,95,0,0
186670,-84.0336134453781,4,1,0,95,0,0
186786,-83.3333333333333,4,1,0,95,0,0
192324,521.739130434783,4,1,0,95,1,0
192324,-73.7463126843658,4,1,0,95,0,0
192845,545.454545454546,4,1,0,90,1,8
192845,-75.3579502637528,4,1,0,90,0,0
193423,600,4,1,0,85,1,8
193423,-73.5294117647059,4,1,0,85,0,0
194050,705.882352941176,4,1,0,80,1,8
194050,-67.476383265857,4,1,0,80,0,0
194695,681.818181818182,4,1,0,72,1,0
194695,-75.8725341426404,4,1,0,72,0,0
236626,-71.2758374910905,4,1,0,80,0,0
236797,-67.1591672263264,4,1,0,85,0,0
236967,-63.4920634920635,4,1,0,90,0,0
237307,-60.2409638554217,4,1,0,90,0,0
237478,-57.3065902578797,4,1,0,90,0,0
237819,-54.6448087431694,4,1,0,90,0,0
237989,-52.2193211488251,4,1,0,90,0,0
238330,340.909090909091,4,1,0,95,1,0
238330,-100,4,1,0,95,0,0
248386,-101.522842639594,4,1,0,95,0,0
248557,-103.092783505155,4,1,0,95,0,0
248727,-104.712041884817,4,1,0,95,0,0
248898,-106.382978723404,4,1,0,95,0,0
249239,-108.695652173913,4,1,0,95,0,0
253670,-107.962213225371,4,1,0,95,0,0
253841,-107.238605898123,4,1,0,95,0,0
254011,-106.524633821571,4,1,0,95,0,0
254182,-105.042016806723,4,1,0,95,0,0
254267,-104.166666666667,4,1,0,95,0,0
254352,-103.305785123967,4,1,0,95,0,0
254437,-102.459016393443,4,1,0,95,0,0
254523,-101.626016260163,4,1,0,95,0,0
254608,-100.806451612903,4,1,0,95,0,0
254693,-100,4,1,0,95,0,0
264239,-88.4955752212389,4,1,0,95,0,0
265602,-88.4955752212389,4,1,0,95,0,1
265687,-100,4,1,0,95,0,1
270972,-95.2380952380952,4,1,0,95,0,0
281455,-94.7867298578199,4,1,0,95,0,0
281540,-94.3396226415094,4,1,0,95,0,0
281625,-93.8967136150235,4,1,0,95,0,0
281795,-93.1098696461825,4,1,0,95,0,0
281966,-92.3361034164358,4,1,0,100,0,1
301057,-88.4955752212389,4,1,0,100,0,0
302420,-84.7457627118644,4,1,0,100,0,0
303785,-84.7457627118644,4,1,0,50,0,0
305148,-91.743119266055,4,1,0,45,0,0
306512,-100,4,1,0,40,0,0

[HitObjects]
387,194,2844,5,4,0:0:0:0:
416,192,3014,1,0,0:0:0:0:
448,192,3099,1,0,0:0:0:0:
432,176,3184,1,8,0:0:0:0:
416,192,3270,1,0,0:0:0:0:
416,192,3355,1,8,0:0:0:0:
432,176,3440,1,0,0:0:0:0:
464,160,3525,1,0,0:0:0:0:
464,160,3611,1,0,0:0:0:0:
432,176,3696,1,8,0:0:0:0:
448,208,3781,1,0,0:0:0:0:
464,176,3866,1,0,0:0:0:0:
464,160,3951,1,0,0:0:0:0:
464,176,4037,1,8,0:0:0:0:
464,176,4207,1,0,0:0:0:0:
432,160,4292,1,0,0:0:0:0:
448,208,4378,1,0,0:0:0:0:
384,176,4463,1,0,0:0:0:0:
432,176,4548,1,8,0:0:0:0:
400,160,4633,1,0,0:0:0:0:
464,176,4719,1,0,0:0:0:0:
464,176,4804,1,0,0:0:0:0:
448,208,4889,1,8,0:0:0:0:
448,240,4974,1,8,0:0:0:0:
416,176,5059,1,0,0:0:0:0:
416,176,5145,1,0,0:0:0:0:
384,160,5230,1,8,0:0:0:0:
304,224,5315,1,0,0:0:0:0:
376,180,5400,1,0,0:0:0:0:
416,273,5571,1,4,0:0:0:0:
368,144,5741,1,0,0:0:0:0:
464,176,5826,1,0,0:0:0:0:
464,176,5912,1,8,0:0:0:0:
432,176,5997,1,0,0:0:0:0:
448,160,6082,1,8,0:0:0:0:
448,192,6167,1,0,0:0:0:0:
448,192,6253,1,0,0:0:0:0:
448,192,6338,1,0,0:0:0:0:
464,176,6423,1,8,0:0:0:0:
464,176,6508,1,8,0:0:0:0:
432,176,6594,1,0,0:0:0:0:
400,176,6679,1,0,0:0:0:0:
400,176,6764,1,8,0:0:0:0:
400,176,6934,1,0,0:0:0:0:
400,176,7020,1,0,0:0:0:0:
448,192,7105,1,0,0:0:0:0:
448,192,7190,1,0,0:0:0:0:
416,176,7275,1,8,0:0:0:0:
464,176,7361,1,0,0:0:0:0:
432,176,7446,1,0,0:0:0:0:
418,172,7531,1,0,0:0:0:0:
444,162,7616,1,8,0:0:0:0:
445,167,7701,1,8,0:0:0:0:
413,171,7787,1,0,0:0:0:0:
413,171,7872,1,0,0:0:0:0:
432,176,7957,1,8,0:0:0:0:
379,168,8042,1,8,0:0:0:0:
374,158,8128,1,0,0:0:0:0:
370,181,8298,1,12,0:0:0:0:
438,168,8469,1,0,0:0:0:0:
438,168,8554,1,0,0:0:0:0:
416,183,8639,1,8,0:0:0:0:
416,183,8724,1,8,0:0:0:0:
423,175,8809,1,0,0:0:0:0:
423,175,8895,1,0,0:0:0:0:
396,180,8980,1,8,0:0:0:0:
423,200,9065,1,8,0:0:0:0:
395,180,9150,1,8,0:0:0:0:
395,180,9236,1,8,0:0:0:0:
406,168,9321,1,0,0:0:0:0:
397,168,9406,1,0,0:0:0:0:
403,199,9491,1,0,0:0:0:0:
355,147,9576,1,0,0:0:0:0:
384,176,9662,1,8,0:0:0:0:
384,160,9832,1,0,0:0:0:0:
384,160,9917,1,0,0:0:0:0:
384,176,10003,1,8,0:0:0:0:
455,195,10088,1,0,0:0:0:0:
384,160,10173,1,0,0:0:0:0:
384,160,10258,1,0,0:0:0:0:
384,160,10344,1,8,0:0:0:0:
384,160,10429,1,8,0:0:0:0:
411,161,10514,1,0,0:0:0:0:
438,162,10599,1,0,0:0:0:0:
411,161,10684,1,8,0:0:0:0:
442,178,10770,1,0,0:0:0:0:
437,172,10855,1,0,0:0:0:0:
458,168,11025,1,12,0:0:0:0:
455,195,11196,1,0,0:0:0:0:
455,195,11281,1,0,0:0:0:0:
438,162,11366,1,8,0:0:0:0:
465,158,11451,1,0,0:0:0:0:
465,158,11537,1,8,0:0:0:0:
465,158,11622,1,8,0:0:0:0:
493,155,11707,1,0,0:0:0:0:
413,189,11792,1,0,0:0:0:0:
413,189,11878,1,0,0:0:0:0:
413,189,11963,1,0,0:0:0:0:
445,177,12048,1,8,0:0:0:0:
438,162,12133,1,8,0:0:0:0:
409,164,12219,1,0,0:0:0:0:
480,160,12304,1,0,0:0:0:0:
438,162,12389,1,8,0:0:0:0:
432,224,12559,1,0,0:0:0:0:
432,192,12645,1,0,0:0:0:0:
438,162,12730,1,8,0:0:0:0:
464,160,12815,1,8,0:0:0:0:
352,176,12900,1,0,0:0:0:0:
413,189,12986,1,0,0:0:0:0:
352,176,13071,1,8,0:0:0:0:
381,166,13156,1,0,0:0:0:0:
352,176,13241,1,0,0:0:0:0:
352,176,13326,1,0,0:0:0:0:
438,162,13412,1,8,0:0:0:0:
389,187,13753,1,12,0:0:0:0:
448,176,13923,1,0,0:0:0:0:
448,176,14008,1,0,0:0:0:0:
416,176,14094,1,8,0:0:0:0:
416,176,14179,1,0,0:0:0:0:
416,176,14264,1,8,0:0:0:0:
448,192,14349,1,0,0:0:0:0:
448,176,14434,1,0,0:0:0:0:
448,176,14520,1,0,0:0:0:0:
448,176,14605,1,8,0:0:0:0:
448,176,14690,1,0,0:0:0:0:
384,192,14775,1,8,0:0:0:0:
384,192,14861,1,8,0:0:0:0:
416,192,14946,1,0,0:0:0:0:
416,224,15116,1,8,0:0:0:0:
432,192,15201,1,8,0:0:0:0:
432,176,15287,1,0,0:0:0:0:
432,176,15372,1,0,0:0:0:0:
400,160,15457,1,8,0:0:0:0:
432,176,15542,1,0,0:0:0:0:
416,192,15628,1,0,0:0:0:0:
416,192,15713,1,0,0:0:0:0:
384,192,15798,1,8,0:0:0:0:
400,208,15883,1,8,0:0:0:0:
432,192,15969,1,0,0:0:0:0:
432,192,16054,1,0,0:0:0:0:
406,181,16139,1,8,0:0:0:0:
427,198,16224,1,8,0:0:0:0:
401,208,16309,1,0,0:0:0:0:
384,160,16480,1,12,0:0:0:0:
416,176,16650,1,0,0:0:0:0:
432,192,16736,1,0,0:0:0:0:
404,185,16821,1,8,0:0:0:0:
432,192,16906,1,0,0:0:0:0:
443,176,16991,1,0,0:0:0:0:
443,176,17076,1,0,0:0:0:0:
470,182,17162,1,8,0:0:0:0:
497,188,17247,1,8,0:0:0:0:
432,176,17332,1,0,0:0:0:0:
432,176,17417,1,0,0:0:0:0:
470,182,17503,1,8,0:0:0:0:
448,192,17588,1,0,0:0:0:0:
416,192,17673,1,0,0:0:0:0:
404,185,17844,1,12,0:0:0:0:
416,192,18014,1,0,0:0:0:0:
416,192,18099,1,0,0:0:0:0:
432,176,18184,1,8,0:0:0:0:
432,176,18270,1,8,0:0:0:0:
432,176,18355,1,8,0:0:0:0:
400,128,18525,1,4,0:0:0:0:
416,192,18696,1,8,0:0:0:0:
448,176,18781,1,0,0:0:0:0:
448,176,18866,1,8,0:0:0:0:
448,176,18951,1,8,0:0:0:0:
448,176,19037,1,0,0:0:0:0:
400,144,19207,1,12,0:0:0:0:
448,176,19378,1,0,0:0:0:0:
448,176,19463,1,0,0:0:0:0:
464,160,19548,1,8,0:0:0:0:
432,160,19633,1,8,0:0:0:0:
432,144,19719,1,0,0:0:0:0:
432,144,19804,1,0,0:0:0:0:
400,144,19889,1,8,0:0:0:0:
448,176,19974,1,0,0:0:0:0:
448,176,20059,1,0,0:0:0:0:
448,176,20145,1,0,0:0:0:0:
432,160,20230,1,8,0:0:0:0:
320,176,20315,1,0,0:0:0:0:
352,176,20400,1,8,0:0:0:0:
363,170,20571,1,4,0:0:0:0:
464,208,20741,1,0,0:0:0:0:
496,192,20826,1,0,0:0:0:0:
464,192,20912,1,8,0:0:0:0:
464,192,20997,1,8,0:0:0:0:
416,176,21082,1,0,0:0:0:0:
416,176,21167,1,0,0:0:0:0:
384,176,21253,1,8,0:0:0:0:
416,176,21338,1,0,0:0:0:0:
384,176,21423,1,8,0:0:0:0:
384,176,21508,1,8,0:0:0:0:
400,192,21594,1,0,0:0:0:0:
400,192,21679,1,0,0:0:0:0:
448,240,21764,1,8,0:0:0:0:
409,262,21934,1,0,0:0:0:0:
432,176,22105,1,0,0:0:0:0:
448,160,22275,1,8,0:0:0:0:
432,176,22446,1,8,0:0:0:0:
416,192,22616,1,0,0:0:0:0:
416,192,22787,1,0,0:0:0:0:
384,160,22957,1,8,0:0:0:0:
432,176,23128,1,8,0:0:0:0:
448,192,23298,1,4,0:0:0:0:
448,192,23469,1,4,0:0:0:0:
448,192,23639,1,4,0:0:0:0:
288,144,23809,1,4,0:0:0:0:
432,176,23980,1,12,0:0:0:0:
410,291,24662,1,4,0:0:0:0:
400,208,25684,1,8,0:0:0:0:
439,185,25855,1,0,0:0:0:0:
384,176,26707,1,0,0:0:0:0:
406,250,27048,1,0,0:0:0:0:
427,164,27389,1,8,0:0:0:0:
436,224,27730,1,0,0:0:0:0:
402,174,27900,1,8,0:0:0:0:
425,382,28241,1,8,0:0:0:0:
393,172,28582,1,8,0:0:0:0:
418,207,29434,1,0,0:0:0:0:
336,160,29775,1,8,0:0:0:0:
407,239,30116,1,0,0:0:0:0:
386,168,30798,1,0,0:0:0:0:
464,176,31139,1,8,0:0:0:0:
438,210,31480,1,8,0:0:0:0:
416,176,31821,1,0,0:0:0:0:
416,176,31991,1,8,0:0:0:0:
443,169,32332,1,0,0:0:0:0:
457,175,32673,1,8,0:0:0:0:
421,243,33866,1,0,0:0:0:0:
470,166,34207,1,8,0:0:0:0:
409,170,34548,1,8,0:0:0:0:
420,171,34719,1,8,0:0:0:0:
455,197,35059,1,0,0:0:0:0:
434,167,35400,1,8,0:0:0:0:
474,164,35571,1,4,0:0:0:0:
432,176,36594,1,0,0:0:0:0:
316,125,36934,1,0,0:0:0:0:
356,166,37275,1,8,0:0:0:0:
392,143,37446,1,0,0:0:0:0:
304,160,37957,1,8,0:0:0:0:
432,192,38298,1,0,0:0:0:0:
489,190,38639,1,0,0:0:0:0:
396,158,38809,1,8,0:0:0:0:
389,177,39150,1,8,0:0:0:0:
379,144,39491,1,0,0:0:0:0:
432,160,40344,1,0,0:0:0:0:
432,160,40684,1,8,0:0:0:0:
382,248,41025,1,4,0:0:0:0:
471,184,41366,1,0,0:0:0:0:
471,184,41707,1,0,0:0:0:0:
471,184,42048,1,0,0:0:0:0:
395,188,42219,1,8,0:0:0:0:
446,238,42389,1,0,0:0:0:0:
446,238,42730,1,0,0:0:0:0:
432,314,43071,1,8,0:0:0:0:
448,192,43412,1,8,0:0:0:0:
487,215,43753,1,0,0:0:0:0:
478,194,44094,1,8,0:0:0:0:
467,209,44264,1,8,0:0:0:0:
375,167,44605,1,0,0:0:0:0:
339,174,44946,1,8,0:0:0:0:
470,179,45116,1,0,0:0:0:0:
470,179,45457,1,0,0:0:0:0:
448,208,45628,1,0,0:0:0:0:
425,166,45798,1,8,0:0:0:0:
320,181,46139,1,12,0:0:0:0:
421,231,46480,1,4,0:0:0:0:
368,144,46650,1,0,0:0:0:0:
425,166,46821,1,8,0:0:0:0:
480,160,46991,1,0,0:0:0:0:
480,160,47076,1,0,0:0:0:0:
480,160,47162,1,0,0:0:0:0:
485,171,47332,1,0,0:0:0:0:
512,192,47503,1,8,0:0:0:0:
480,176,47673,1,8,0:0:0:0:
480,192,47844,1,0,0:0:0:0:
467,181,48184,1,8,0:0:0:0:
496,176,48355,1,8,0:0:0:0:
449,173,48525,1,0,0:0:0:0:
449,173,48696,1,0,0:0:0:0:
496,192,48781,1,0,0:0:0:0:
475,170,48866,1,8,0:0:0:0:
495,173,49037,1,0,0:0:0:0:
466,174,49207,1,8,0:0:0:0:
455,224,49548,1,0,0:0:0:0:
464,172,49719,1,8,0:0:0:0:
458,178,49889,1,0,0:0:0:0:
471,220,50059,1,8,0:0:0:0:
449,200,50145,1,8,0:0:0:0:
449,171,50230,1,8,0:0:0:0:
382,177,50400,1,0,0:0:0:0:
387,185,50571,1,8,0:0:0:0:
432,176,50741,1,8,0:0:0:0:
382,177,50912,1,0,0:0:0:0:
382,177,51082,1,0,0:0:0:0:
400,160,51167,1,0,0:0:0:0:
389,161,51253,1,8,0:0:0:0:
336,128,51423,1,0,0:0:0:0:
410,167,51594,1,8,0:0:0:0:
416,160,51764,1,8,0:0:0:0:
400,160,51934,1,4,0:0:0:0:
464,163,52275,1,0,0:0:0:0:
463,163,52446,1,0,0:0:0:0:
428,153,52616,1,8,0:0:0:0:
473,168,52787,1,0,0:0:0:0:
473,168,52872,1,0,0:0:0:0:
469,158,52957,1,8,0:0:0:0:
499,171,53128,1,0,0:0:0:0:
464,163,53298,1,8,0:0:0:0:
384,112,53639,1,8,0:0:0:0:
368,160,53809,1,8,0:0:0:0:
368,160,53895,1,8,0:0:0:0:
400,160,53980,1,0,0:0:0:0:
448,160,54150,1,0,0:0:0:0:
448,160,54321,1,8,0:0:0:0:
448,160,54491,1,8,0:0:0:0:
416,160,54662,1,0,0:0:0:0:
480,160,55003,1,8,0:0:0:0:
480,160,55173,1,8,0:0:0:0:
480,160,55344,1,0,0:0:0:0:
480,160,55514,1,0,0:0:0:0:
480,160,55599,1,0,0:0:0:0:
496,160,55684,1,8,0:0:0:0:
512,176,55855,1,0,0:0:0:0:
496,176,56025,1,12,0:0:0:0:
368,176,56366,1,0,0:0:0:0:
480,160,56707,1,12,0:0:0:0:
400,160,57048,1,8,0:0:0:0:
496,160,57219,1,8,0:0:0:0:
480,160,57389,1,4,0:0:0:0:
464,176,57730,1,8,0:0:0:0:
464,176,57900,1,8,0:0:0:0:
464,176,57986,1,8,0:0:0:0:
464,160,58071,1,0,0:0:0:0:
448,160,58241,1,0,0:0:0:0:
448,160,58412,1,8,0:0:0:0:
448,176,58582,1,0,0:0:0:0:
464,176,58753,1,8,0:0:0:0:
480,176,58838,1,0,0:0:0:0:
496,160,58923,1,0,0:0:0:0:
448,160,59094,1,8,0:0:0:0:
464,176,59264,1,8,0:0:0:0:
464,176,59349,1,8,0:0:0:0:
448,160,59434,1,0,0:0:0:0:
448,160,59605,1,0,0:0:0:0:
448,160,59775,1,8,0:0:0:0:
400,160,60116,1,0,0:0:0:0:
384,144,60287,1,0,0:0:0:0:
400,176,60457,1,8,0:0:0:0:
464,160,60628,1,0,0:0:0:0:
464,160,60713,1,0,0:0:0:0:
432,160,60798,1,8,0:0:0:0:
480,160,60969,1,8,0:0:0:0:
480,160,61054,1,8,0:0:0:0:
432,144,61139,1,0,0:0:0:0:
432,160,61309,1,8,0:0:0:0:
416,160,61480,1,0,0:0:0:0:
448,160,61650,1,0,0:0:0:0:
480,160,61821,1,8,0:0:0:0:
432,160,61991,1,0,0:0:0:0:
320,112,62076,1,0,0:0:0:0:
416,160,62162,1,8,0:0:0:0:
416,160,62247,1,8,0:0:0:0:
336,144,62332,1,0,0:0:0:0:
416,176,62503,1,8,0:0:0:0:
464,176,62673,1,8,0:0:0:0:
368,160,62844,1,4,0:0:0:0:
448,160,63184,1,8,0:0:0:0:
448,160,63355,1,8,0:0:0:0:
448,160,63525,1,0,0:0:0:0:
480,160,63696,1,0,0:0:0:0:
480,160,63781,1,0,0:0:0:0:
464,160,63866,1,8,0:0:0:0:
336,96,64037,1,0,0:0:0:0:
432,176,64207,1,8,0:0:0:0:
448,176,64292,1,8,0:0:0:0:
432,160,64378,1,0,0:0:0:0:
448,176,64548,1,8,0:0:0:0:
352,160,64719,1,0,0:0:0:0:
432,176,64804,1,8,0:0:0:0:
384,160,64889,1,0,0:0:0:0:
400,160,64974,1,0,0:0:0:0:
400,160,65059,1,8,0:0:0:0:
384,160,65230,1,0,0:0:0:0:
464,176,65400,1,8,0:0:0:0:
416,160,65571,1,0,0:0:0:0:
368,160,65912,1,8,0:0:0:0:
464,144,66082,1,0,0:0:0:0:
400,160,66253,1,0,0:0:0:0:
400,144,66338,1,0,0:0:0:0:
384,160,66423,1,8,0:0:0:0:
384,176,66508,1,0,0:0:0:0:
400,160,66594,1,8,0:0:0:0:
416,144,66764,1,4,0:0:0:0:
432,144,67105,1,0,0:0:0:0:
432,160,67275,1,8,0:0:0:0:
400,160,67446,1,8,0:0:0:0:
416,160,67616,1,0,0:0:0:0:
400,160,67787,1,0,0:0:0:0:
400,176,67957,1,8,0:0:0:0:
464,144,68298,1,4,0:0:0:0:
432,176,68639,1,0,0:0:0:0:
432,176,68809,1,8,0:0:0:0:
368,160,68980,1,0,0:0:0:0:
448,176,69321,1,8,0:0:0:0:
448,176,69491,1,8,0:0:0:0:
416,160,69662,1,0,0:0:0:0:
448,208,70003,1,0,0:0:0:0:
448,176,70173,1,8,0:0:0:0:
384,176,70344,1,0,0:0:0:0:
448,176,70514,1,0,0:0:0:0:
400,176,70684,1,8,0:0:0:0:
400,176,70855,1,8,0:0:0:0:
352,160,71025,1,4,0:0:0:0:
464,176,71366,1,8,0:0:0:0:
464,176,71537,1,8,0:0:0:0:
432,160,71707,1,0,0:0:0:0:
480,160,72048,1,0,0:0:0:0:
432,160,72219,1,8,0:0:0:0:
480,160,72389,1,0,0:0:0:0:
480,208,72559,1,0,0:0:0:0:
448,176,72730,1,8,0:0:0:0:
480,192,72900,1,8,0:0:0:0:
448,176,72986,1,8,0:0:0:0:
416,160,73071,1,0,0:0:0:0:
416,160,73241,1,0,0:0:0:0:
448,160,73412,1,8,0:0:0:0:
432,176,73753,1,12,0:0:0:0:
432,160,73923,1,0,0:0:0:0:
352,176,74094,1,0,0:0:0:0:
464,176,74264,1,12,0:0:0:0:
400,176,74434,1,0,0:0:0:0:
416,160,74605,1,0,0:0:0:0:
432,176,74775,1,12,0:0:0:0:
402,166,74946,1,4,0:0:0:0:
400,176,75287,1,12,0:0:0:0:
438,179,75457,1,0,0:0:0:0:
464,160,75628,1,0,0:0:0:0:
432,176,75798,1,12,0:0:0:0:
464,160,75969,1,8,0:0:0:0:
432,176,76139,1,4,0:0:0:0:
432,192,76480,1,12,0:0:0:0:
464,160,76650,1,0,0:0:0:0:
448,160,76821,1,0,0:0:0:0:
432,192,76991,1,12,0:0:0:0:
416,160,77162,1,0,0:0:0:0:
416,160,77332,1,0,0:0:0:0:
432,192,77503,1,12,0:0:0:0:
352,160,77673,1,12,0:0:0:0:
448,176,78014,1,8,0:0:0:0:
448,176,78099,1,8,0:0:0:0:
416,176,78184,1,0,0:0:0:0:
381,197,78355,1,0,0:0:0:0:
381,197,78412,1,0,0:0:0:0:
381,197,78469,1,0,0:0:0:0:
416,176,78525,1,8,0:0:0:0:
480,176,78696,1,0,0:0:0:0:
400,160,78781,1,0,0:0:0:0:
448,176,78866,1,8,0:0:0:0:
448,176,78951,1,8,0:0:0:0:
448,176,79037,1,8,0:0:0:0:
448,176,79122,1,8,0:0:0:0:
450,193,79207,1,4,0:0:0:0:
416,160,79548,1,8,0:0:0:0:
368,128,79889,1,0,0:0:0:0:
384,144,80059,1,0,0:0:0:0:
464,144,80230,1,8,0:0:0:0:
400,176,80571,1,8,0:0:0:0:
400,176,80741,1,0,0:0:0:0:
464,160,80912,1,8,0:0:0:0:
464,208,81082,1,8,0:0:0:0:
480,240,81253,1,0,0:0:0:0:
416,320,81423,1,0,0:0:0:0:
400,176,81594,1,8,0:0:0:0:
416,192,81934,1,0,0:0:0:0:
480,160,82275,1,8,0:0:0:0:
480,208,82616,1,8,0:0:0:0:
512,160,82787,1,0,0:0:0:0:
464,176,82957,1,8,0:0:0:0:
432,192,83298,1,0,0:0:0:0:
432,160,83469,1,0,0:0:0:0:
448,176,83639,1,8,0:0:0:0:
416,176,83809,1,8,0:0:0:0:
400,176,83895,1,8,0:0:0:0:
384,176,83980,1,0,0:0:0:0:
448,192,84150,1,0,0:0:0:0:
448,176,84321,1,8,0:0:0:0:
448,176,84491,1,8,0:0:0:0:
448,160,84662,1,4,0:0:0:0:
480,192,85003,1,0,0:0:0:0:
460,166,85173,1,8,0:0:0:0:
480,176,85344,1,8,0:0:0:0:
464,160,85514,1,0,0:0:0:0:
464,176,85684,1,8,0:0:0:0:
464,176,85855,1,8,0:0:0:0:
448,160,86025,1,0,0:0:0:0:
464,176,86366,1,8,0:0:0:0:
448,176,86622,1,8,0:0:0:0:
448,160,86707,1,0,0:0:0:0:
448,160,86878,1,0,0:0:0:0:
480,160,87048,1,8,0:0:0:0:
464,176,87389,1,0,0:0:0:0:
464,160,87559,1,0,0:0:0:0:
464,160,87730,1,8,0:0:0:0:
448,176,88071,1,8,0:0:0:0:
448,160,88241,1,0,0:0:0:0:
448,176,88412,1,0,0:0:0:0:
448,160,88582,1,8,0:0:0:0:
432,160,88753,1,0,0:0:0:0:
512,176,89094,1,0,0:0:0:0:
480,160,89264,1,8,0:0:0:0:
448,160,89434,1,0,0:0:0:0:
432,160,89605,1,0,0:0:0:0:
432,160,89690,1,0,0:0:0:0:
480,160,89775,1,8,0:0:0:0:
448,160,90116,1,12,0:0:0:0:
464,192,90628,1,0,0:0:0:0:
448,160,90798,1,8,0:0:0:0:
448,160,91139,1,8,0:0:0:0:
448,160,91309,1,8,0:0:0:0:
480,160,91480,1,0,0:0:0:0:
464,144,91650,1,0,0:0:0:0:
480,160,91991,1,0,0:0:0:0:
448,160,92162,1,8,0:0:0:0:
416,160,92503,1,0,0:0:0:0:
480,160,92673,1,0,0:0:0:0:
480,160,92844,1,8,0:0:0:0:
464,176,93355,1,8,0:0:0:0:
464,160,93525,1,0,0:0:0:0:
464,160,94037,1,0,0:0:0:0:
464,176,94207,1,8,0:0:0:0:
512,160,94378,1,0,0:0:0:0:
464,160,94548,1,0,0:0:0:0:
464,160,94719,1,8,0:0:0:0:
406,161,94889,1,4,0:0:0:0:
352,144,95230,1,8,0:0:0:0:
416,96,95400,1,8,0:0:0:0:
464,160,95571,1,4,0:0:0:0:
464,160,95912,1,0,0:0:0:0:
448,160,96253,1,0,0:0:0:0:
480,176,96594,1,0,0:0:0:0:
512,176,96934,1,0,0:0:0:0:
512,176,97275,1,0,0:0:0:0:
464,192,97446,1,8,0:0:0:0:
416,176,97616,1,0,0:0:0:0:
464,208,97787,1,0,0:0:0:0:
448,160,97957,1,8,0:0:0:0:
448,160,98128,1,8,0:0:0:0:
432,160,98298,1,4,0:0:0:0:
492,166,98639,1,0,0:0:0:0:
448,176,98809,1,8,0:0:0:0:
448,176,98980,1,0,0:0:0:0:
480,176,99150,1,8,0:0:0:0:
432,160,99236,1,8,0:0:0:0:
448,160,99321,1,0,0:0:0:0:
464,160,99491,1,8,0:0:0:0:
389,157,99662,1,4,0:0:0:0:
498,168,99832,1,0,0:0:0:0:
496,171,100003,1,8,0:0:0:0:
464,173,100173,1,8,0:0:0:0:
440,168,100258,1,0,0:0:0:0:
484,169,100344,1,8,0:0:0:0:
484,169,100429,1,8,0:0:0:0:
499,164,100514,1,0,0:0:0:0:
484,164,100599,1,0,0:0:0:0:
480,167,100684,1,8,0:0:0:0:
447,159,101025,1,12,0:0:0:0:
450,147,101196,1,0,0:0:0:0:
450,147,101281,1,0,0:0:0:0:
469,158,101366,1,8,0:0:0:0:
484,210,101451,1,8,0:0:0:0:
484,210,101537,1,8,0:0:0:0:
448,208,101622,1,0,0:0:0:0:
416,176,101707,1,8,0:0:0:0:
452,199,101792,1,0,0:0:0:0:
440,178,101878,1,8,0:0:0:0:
453,152,101963,1,0,0:0:0:0:
402,153,102048,1,8,0:0:0:0:
446,160,102133,1,8,0:0:0:0:
425,154,102219,1,0,0:0:0:0:
445,154,102304,1,0,0:0:0:0:
404,166,102389,1,8,0:0:0:0:
436,146,102559,1,0,0:0:0:0:
436,146,102645,1,0,0:0:0:0:
480,167,102730,1,8,0:0:0:0:
480,167,102815,1,8,0:0:0:0:
501,163,102900,1,8,0:0:0:0:
447,202,102986,1,8,0:0:0:0:
488,168,103071,1,0,0:0:0:0:
462,168,103156,1,0,0:0:0:0:
406,173,103241,1,0,0:0:0:0:
445,154,103326,1,0,0:0:0:0:
440,153,103412,1,8,0:0:0:0:
440,153,103497,1,8,0:0:0:0:
438,164,103582,1,0,0:0:0:0:
430,166,103667,1,0,0:0:0:0:
406,166,103753,1,8,0:0:0:0:
453,179,103923,1,0,0:0:0:0:
451,179,104094,1,0,0:0:0:0:
418,173,104264,1,8,0:0:0:0:
406,166,104434,1,0,0:0:0:0:
417,166,104605,1,0,0:0:0:0:
440,159,104775,1,8,0:0:0:0:
450,168,104946,1,8,0:0:0:0:
484,171,105116,1,4,0:0:0:0:
430,173,106480,1,12,0:0:0:0:
403,190,107287,1,12,0:0:0:0:
496,176,107633,1,4,0:0:0:0:
464,176,107864,1,4,0:0:0:0:
464,176,108095,1,12,0:0:0:0:
416,160,108902,1,12,0:0:0:0:
480,176,109248,1,4,0:0:0:0:
448,176,109479,1,12,0:0:0:0:
480,160,110286,1,12,0:0:0:0:
416,160,110632,1,4,0:0:0:0:
416,160,110863,1,4,0:0:0:0:
432,160,111094,1,12,0:0:0:0:
398,169,111440,1,4,0:0:0:0:
463,172,111670,1,12,0:0:0:0:
443,175,111901,1,4,0:0:0:0:
448,144,112132,1,0,0:0:0:0:
384,144,112247,1,0,0:0:0:0:
496,160,112363,1,8,0:0:0:0:
464,176,112478,1,0,0:0:0:0:
496,176,112594,1,8,0:0:0:0:
480,160,112709,1,8,0:0:0:0:
464,192,112824,1,8,0:0:0:0:
410,161,112940,1,4,0:0:0:0:
464,160,113170,1,8,0:0:0:0:
432,160,113401,1,0,0:0:0:0:
480,160,113516,1,0,0:0:0:0:
448,160,113632,1,8,0:0:0:0:
416,144,113747,1,0,0:0:0:0:
432,176,113978,1,0,0:0:0:0:
448,160,114093,1,8,0:0:0:0:
464,176,114324,1,0,0:0:0:0:
448,176,114555,1,0,0:0:0:0:
416,176,114670,1,8,0:0:0:0:
400,176,114786,1,0,0:0:0:0:
416,176,115016,1,8,0:0:0:0:
464,144,115247,1,0,0:0:0:0:
400,160,115363,1,0,0:0:0:0:
416,160,115478,1,8,0:0:0:0:
448,192,115593,1,0,0:0:0:0:
464,176,115824,1,0,0:0:0:0:
496,160,115940,1,8,0:0:0:0:
464,192,116170,1,8,0:0:0:0:
448,160,116401,1,8,0:0:0:0:
448,160,116516,1,8,0:0:0:0:
464,160,116632,1,0,0:0:0:0:
432,176,116863,1,8,0:0:0:0:
464,160,117093,1,0,0:0:0:0:
464,160,117209,1,0,0:0:0:0:
432,160,117324,1,8,0:0:0:0:
448,160,117440,1,0,0:0:0:0:
464,160,117555,1,8,0:0:0:0:
429,221,117786,1,8,0:0:0:0:
499,174,118016,1,0,0:0:0:0:
476,168,118132,1,0,0:0:0:0:
411,173,118247,1,8,0:0:0:0:
288,80,118478,1,0,0:0:0:0:
432,160,118709,1,8,0:0:0:0:
464,192,118940,1,0,0:0:0:0:
464,192,119055,1,0,0:0:0:0:
448,176,119170,1,8,0:0:0:0:
400,192,119286,1,0,0:0:0:0:
464,208,119516,1,0,0:0:0:0:
400,192,119632,1,8,0:0:0:0:
436,181,119863,1,0,0:0:0:0:
442,181,119978,1,0,0:0:0:0:
397,185,120093,1,8,0:0:0:0:
421,194,120324,1,8,0:0:0:0:
419,189,120555,1,0,0:0:0:0:
419,189,120670,1,0,0:0:0:0:
448,176,120786,1,8,0:0:0:0:
448,176,120901,1,8,0:0:0:0:
464,176,121132,1,8,0:0:0:0:
416,176,121363,1,0,0:0:0:0:
416,176,121478,1,8,0:0:0:0:
431,200,121709,1,0,0:0:0:0:
464,192,121824,1,0,0:0:0:0:
400,176,121940,1,8,0:0:0:0:
491,203,122170,1,0,0:0:0:0:
401,195,122401,1,8,0:0:0:0:
481,200,122632,1,0,0:0:0:0:
471,175,122747,1,0,0:0:0:0:
432,176,122863,1,8,0:0:0:0:
457,176,122978,1,0,0:0:0:0:
461,185,123093,1,8,0:0:0:0:
363,169,123324,1,0,0:0:0:0:
371,180,123440,1,8,0:0:0:0:
407,168,123670,1,8,0:0:0:0:
376,184,123786,1,0,0:0:0:0:
349,178,124016,1,8,0:0:0:0:
391,173,124247,1,0,0:0:0:0:
421,173,124478,1,0,0:0:0:0:
421,173,124593,1,0,0:0:0:0:
453,188,124709,1,8,0:0:0:0:
458,188,124824,1,0,0:0:0:0:
443,189,124940,1,8,0:0:0:0:
460,187,125055,1,8,0:0:0:0:
442,188,125170,1,0,0:0:0:0:
448,192,125401,1,8,0:0:0:0:
432,181,125516,1,0,0:0:0:0:
448,176,125632,1,8,0:0:0:0:
432,192,125863,1,8,0:0:0:0:
448,176,126093,1,0,0:0:0:0:
448,208,126209,1,8,0:0:0:0:
496,176,126324,1,0,0:0:0:0:
480,176,126440,1,0,0:0:0:0:
448,160,126555,1,8,0:0:0:0:
480,176,126670,1,0,0:0:0:0:
448,192,126786,1,8,0:0:0:0:
448,208,127016,1,0,0:0:0:0:
432,179,127132,1,8,0:0:0:0:
432,179,127478,1,8,0:0:0:0:
408,173,127709,1,4,0:0:0:0:
448,224,127940,1,8,0:0:0:0:
464,208,128055,1,0,0:0:0:0:
438,228,128286,1,0,0:0:0:0:
448,192,128401,1,8,0:0:0:0:
454,220,128516,1,0,0:0:0:0:
446,208,128632,1,0,0:0:0:0:
499,203,128747,1,0,0:0:0:0:
356,183,128863,1,8,0:0:0:0:
416,176,129093,1,8,0:0:0:0:
388,190,129209,1,0,0:0:0:0:
416,176,129324,1,8,0:0:0:0:
497,179,129555,1,0,0:0:0:0:
432,192,129786,1,8,0:0:0:0:
496,192,130016,1,0,0:0:0:0:
465,180,130132,1,0,0:0:0:0:
464,176,130247,1,8,0:0:0:0:
512,176,130363,1,0,0:0:0:0:
475,187,130593,1,0,0:0:0:0:
412,184,130709,1,8,0:0:0:0:
482,192,130940,1,0,0:0:0:0:
482,192,131055,1,0,0:0:0:0:
448,176,131170,1,8,0:0:0:0:
432,176,131401,1,0,0:0:0:0:
432,192,131632,1,8,0:0:0:0:
480,224,131747,1,0,0:0:0:0:
432,192,131978,1,0,0:0:0:0:
464,192,132093,1,8,0:0:0:0:
440,177,132209,1,8,0:0:0:0:
447,188,132324,1,0,0:0:0:0:
435,244,132440,1,0,0:0:0:0:
416,192,132555,1,8,0:0:0:0:
432,192,132670,1,0,0:0:0:0:
432,176,132901,1,0,0:0:0:0:
378,196,133016,1,8,0:0:0:0:
453,210,133247,1,0,0:0:0:0:
432,176,133478,1,8,0:0:0:0:
448,192,133709,1,0,0:0:0:0:
464,224,133824,1,0,0:0:0:0:
449,186,133940,1,8,0:0:0:0:
442,228,134055,1,0,0:0:0:0:
446,192,134170,1,8,0:0:0:0:
411,182,134401,1,0,0:0:0:0:
455,182,134632,1,0,0:0:0:0:
386,191,134747,1,0,0:0:0:0:
440,182,134863,1,8,0:0:0:0:
406,181,135093,1,0,0:0:0:0:
478,201,135324,1,8,0:0:0:0:
464,192,135440,1,0,0:0:0:0:
438,194,135670,1,0,0:0:0:0:
427,187,135786,1,8,0:0:0:0:
386,179,135901,1,8,0:0:0:0:
382,183,136016,1,0,0:0:0:0:
432,199,136247,1,8,0:0:0:0:
384,168,136478,1,0,0:0:0:0:
384,168,136593,1,0,0:0:0:0:
353,171,136709,1,8,0:0:0:0:
420,182,136940,1,0,0:0:0:0:
409,175,137170,1,8,0:0:0:0:
454,192,137401,1,0,0:0:0:0:
454,192,137516,1,0,0:0:0:0:
416,176,137632,1,8,0:0:0:0:
400,192,137747,1,0,0:0:0:0:
464,208,137978,1,0,0:0:0:0:
416,182,138093,1,8,0:0:0:0:
445,198,138324,1,8,0:0:0:0:
460,178,138440,1,0,0:0:0:0:
445,198,138555,1,8,0:0:0:0:
511,203,138786,1,0,0:0:0:0:
480,176,139016,1,8,0:0:0:0:
464,192,139247,1,0,0:0:0:0:
464,192,139363,1,0,0:0:0:0:
500,181,139478,1,8,0:0:0:0:
495,182,139593,1,0,0:0:0:0:
459,184,139709,1,8,0:0:0:0:
468,177,139940,1,0,0:0:0:0:
456,177,140055,1,8,0:0:0:0:
486,182,140286,1,8,0:0:0:0:
443,193,140401,1,0,0:0:0:0:
492,169,140632,1,8,0:0:0:0:
445,178,140863,1,0,0:0:0:0:
454,184,141093,1,8,0:0:0:0:
460,193,141209,1,0,0:0:0:0:
441,214,141324,1,0,0:0:0:0:
447,227,141440,1,8,0:0:0:0:
464,192,141555,1,8,0:0:0:0:
432,208,141670,1,0,0:0:0:0:
483,190,141901,1,0,0:0:0:0:
464,176,142016,1,8,0:0:0:0:
432,176,142478,1,4,0:0:0:0:
466,188,142940,1,8,0:0:0:0:
432,192,143286,1,0,0:0:0:0:
466,188,143632,1,0,0:0:0:0:
368,160,143863,1,8,0:0:0:0:
448,176,144324,1,0,0:0:0:0:
397,162,144786,1,8,0:0:0:0:
475,179,145132,1,0,0:0:0:0:
435,172,145363,1,8,0:0:0:0:
475,179,145478,1,0,0:0:0:0:
430,136,145709,1,8,0:0:0:0:
436,145,146170,1,4,0:0:0:0:
452,152,146632,1,8,0:0:0:0:
440,160,146978,1,0,0:0:0:0:
440,160,147324,1,0,0:0:0:0:
371,171,147555,1,8,0:0:0:0:
486,178,148016,1,0,0:0:0:0:
445,182,148247,1,8,0:0:0:0:
442,184,148363,1,0,0:0:0:0:
315,212,148709,1,0,0:0:0:0:
449,171,148940,1,12,0:0:0:0:
461,226,149401,1,4,0:0:0:0:
457,171,149863,1,8,0:0:0:0:
453,177,150093,1,0,0:0:0:0:
443,180,150209,1,8,0:0:0:0:
440,174,150670,1,12,0:0:0:0:
416,192,151016,1,8,0:0:0:0:
376,261,151709,1,0,0:0:0:0:
465,202,151940,1,8,0:0:0:0:
432,176,152170,1,0,0:0:0:0:
464,208,152401,1,0,0:0:0:0:
343,161,152516,1,12,0:0:0:0:
414,163,153093,1,8,0:0:0:0:
414,163,153170,1,8,0:0:0:0:
414,163,153247,1,8,0:0:0:0:
448,192,153324,1,0,0:0:0:0:
447,220,153440,1,0,0:0:0:0:
464,192,153555,1,8,0:0:0:0:
480,208,153786,1,0,0:0:0:0:
432,128,154016,1,0,0:0:0:0:
464,176,154247,1,0,0:0:0:0:
400,192,154478,1,8,0:0:0:0:
400,192,154709,1,8,0:0:0:0:
464,176,154940,1,0,0:0:0:0:
496,240,155170,1,8,0:0:0:0:
480,176,155401,1,12,0:0:0:0:
480,192,155632,1,0,0:0:0:0:
425,231,155747,1,8,0:0:0:0:
434,216,156093,1,0,0:0:0:0:
434,216,156209,1,0,0:0:0:0:
505,185,156324,1,8,0:0:0:0:
416,186,156555,1,8,0:0:0:0:
462,173,156670,1,0,0:0:0:0:
480,168,156786,1,8,0:0:0:0:
425,173,157247,1,4,0:0:0:0:
437,169,157593,1,8,0:0:0:0:
359,176,157824,1,8,0:0:0:0:
332,166,158055,1,0,0:0:0:0:
406,170,158170,1,8,0:0:0:0:
350,120,158863,1,0,0:0:0:0:
392,164,159093,1,8,0:0:0:0:
445,164,159324,1,0,0:0:0:0:
445,164,159440,1,0,0:0:0:0:
370,179,159670,1,8,0:0:0:0:
416,192,159901,1,8,0:0:0:0:
432,208,160016,1,0,0:0:0:0:
352,128,160478,1,0,0:0:0:0:
352,144,160709,1,0,0:0:0:0:
448,160,160940,1,8,0:0:0:0:
432,176,161286,1,0,0:0:0:0:
432,176,161401,1,8,0:0:0:0:
453,203,161632,1,0,0:0:0:0:
448,182,161863,1,8,0:0:0:0:
454,189,162209,1,8,0:0:0:0:
496,176,162324,1,0,0:0:0:0:
430,169,162555,1,8,0:0:0:0:
336,160,162670,1,0,0:0:0:0:
501,201,162786,1,0,0:0:0:0:
432,176,163132,1,8,0:0:0:0:
397,184,163478,1,0,0:0:0:0:
436,232,163709,1,8,0:0:0:0:
464,176,163940,1,0,0:0:0:0:
448,176,164170,1,8,0:0:0:0:
448,192,164401,1,0,0:0:0:0:
416,176,164516,1,8,0:0:0:0:
448,176,164632,1,0,0:0:0:0:
469,188,165324,1,0,0:0:0:0:
404,183,165555,1,8,0:0:0:0:
448,160,165786,1,0,0:0:0:0:
400,176,166016,1,8,0:0:0:0:
455,178,166247,1,8,0:0:0:0:
400,176,166363,1,8,0:0:0:0:
449,181,166478,1,0,0:0:0:0:
441,156,166940,1,0,0:0:0:0:
452,170,167170,1,0,0:0:0:0:
437,182,167401,1,8,0:0:0:0:
414,155,167632,1,0,0:0:0:0:
414,159,167863,1,8,0:0:0:0:
434,196,168324,1,8,0:0:0:0:
464,192,168555,1,0,0:0:0:0:
463,203,168786,1,8,0:0:0:0:
496,192,169016,1,8,0:0:0:0:
448,176,169247,1,0,0:0:0:0:
448,176,169478,1,0,0:0:0:0:
448,176,169709,1,8,0:0:0:0:
464,208,169940,1,8,0:0:0:0:
480,224,170170,1,4,0:0:0:0:
480,208,170401,1,0,0:0:0:0:
475,190,170632,1,8,0:0:0:0:
475,190,170863,1,8,0:0:0:0:
453,200,171093,1,4,0:0:0:0:
464,192,171555,1,12,0:0:0:0:
453,200,172016,1,4,0:0:0:0:
479,188,172247,1,8,0:0:0:0:
432,192,172363,1,8,0:0:0:0:
480,176,172593,1,0,0:0:0:0:
432,240,172709,1,8,0:0:0:0:
423,179,172824,1,8,0:0:0:0:
464,224,172940,1,0,0:0:0:0:
432,176,173170,1,8,0:0:0:0:
442,207,173401,1,0,0:0:0:0:
442,207,173516,1,0,0:0:0:0:
425,203,173632,1,8,0:0:0:0:
436,189,173863,1,0,0:0:0:0:
459,191,174093,1,8,0:0:0:0:
447,203,174209,1,0,0:0:0:0:
400,112,174440,1,8,0:0:0:0:
416,192,174555,1,8,0:0:0:0:
486,167,174670,1,8,0:0:0:0:
443,171,174786,1,0,0:0:0:0:
447,173,175016,1,8,0:0:0:0:
452,178,175247,1,0,0:0:0:0:
449,178,175363,1,0,0:0:0:0:
440,173,175478,1,8,0:0:0:0:
476,216,175709,1,0,0:0:0:0:
449,195,175940,1,8,0:0:0:0:
384,160,176170,1,0,0:0:0:0:
458,177,176286,1,0,0:0:0:0:
424,188,176401,1,8,0:0:0:0:
442,186,176632,1,8,0:0:0:0:
446,181,176747,1,0,0:0:0:0:
416,192,176863,1,8,0:0:0:0:
466,174,177093,1,0,0:0:0:0:
412,193,177209,1,0,0:0:0:0:
453,189,177324,1,8,0:0:0:0:
465,186,177440,1,8,0:0:0:0:
499,194,177555,1,0,0:0:0:0:
487,174,177786,1,8,0:0:0:0:
447,173,177901,1,0,0:0:0:0:
446,173,178132,1,0,0:0:0:0:
453,189,178247,1,8,0:0:0:0:
445,192,178478,1,4,0:0:0:0:
445,192,178824,1,4,0:0:0:0:
438,184,179170,1,12,0:0:0:0:
502,190,179401,1,4,0:0:0:0:
464,192,180093,1,0,0:0:0:0:
448,192,180324,1,8,0:0:0:0:
448,208,181016,1,8,0:0:0:0:
416,192,181247,1,0,0:0:0:0:
430,185,181478,1,8,0:0:0:0:
447,183,181593,1,0,0:0:0:0:
388,126,181940,1,0,0:0:0:0:
473,188,182170,1,8,0:0:0:0:
490,210,182632,1,8,0:0:0:0:
352,160,182863,1,0,0:0:0:0:
430,175,183093,1,8,0:0:0:0:
502,173,183324,1,0,0:0:0:0:
462,171,183440,1,8,0:0:0:0:
490,210,183786,1,8,0:0:0:0:
480,186,184016,1,0,0:0:0:0:
477,195,184478,1,0,0:0:0:0:
474,182,184709,1,8,0:0:0:0:
465,182,184824,1,8,0:0:0:0:
430,183,184940,1,0,0:0:0:0:
487,179,185170,1,0,0:0:0:0:
434,205,185286,1,8,0:0:0:0:
445,175,185632,1,0,0:0:0:0:
459,188,185863,1,8,0:0:0:0:
448,192,186093,1,0,0:0:0:0:
447,192,186209,1,0,0:0:0:0:
436,179,186324,1,8,0:0:0:0:
431,179,186440,1,8,0:0:0:0:
431,179,186555,1,8,0:0:0:0:
431,179,186670,1,8,0:0:0:0:
399,240,186786,1,4,0:0:0:0:
490,205,187016,1,8,0:0:0:0:
475,181,187247,1,0,0:0:0:0:
460,181,187363,1,0,0:0:0:0:
418,190,187478,1,8,0:0:0:0:
416,192,187593,1,0,0:0:0:0:
448,192,187709,1,8,0:0:0:0:
456,190,187940,1,8,0:0:0:0:
445,186,188170,1,0,0:0:0:0:
462,188,188286,1,0,0:0:0:0:
432,183,188401,1,8,0:0:0:0:
464,160,188516,1,8,0:0:0:0:
485,183,188632,1,0,0:0:0:0:
482,184,188863,1,8,0:0:0:0:
416,176,189093,1,0,0:0:0:0:
480,160,189209,1,0,0:0:0:0:
496,176,189324,1,8,0:0:0:0:
400,160,189555,1,8,0:0:0:0:
432,160,189670,1,0,0:0:0:0:
464,176,189786,1,8,0:0:0:0:
447,167,189901,1,8,0:0:0:0:
384,128,190016,1,0,0:0:0:0:
400,192,190132,1,0,0:0:0:0:
448,176,190247,1,8,0:0:0:0:
448,144,190478,1,4,0:0:0:0:
448,160,190940,1,8,0:0:0:0:
480,176,191170,1,8,0:0:0:0:
480,176,191401,1,8,0:0:0:0:
480,176,191632,1,8,0:0:0:0:
480,176,191863,1,8,0:0:0:0:
480,176,192093,1,8,0:0:0:0:
448,160,192324,1,4,0:0:0:0:
464,176,192845,1,8,0:0:0:0:
403,196,193423,1,0,0:0:0:0:
404,175,194050,1,8,0:0:0:0:
416,192,194695,1,4,0:0:0:0:
466,184,197422,5,0,0:0:0:0:
472,180,198104,1,8,0:0:0:0:
477,182,198785,1,0,0:0:0:0:
490,180,199467,1,8,0:0:0:0:
457,174,200149,1,0,0:0:0:0:
471,179,200831,1,8,0:0:0:0:
471,179,201513,1,8,0:0:0:0:
485,179,202195,1,0,0:0:0:0:
473,175,202876,1,8,0:0:0:0:
492,185,203558,1,8,0:0:0:0:
492,185,203899,1,8,0:0:0:0:
478,166,204240,1,0,0:0:0:0:
488,174,204581,1,8,0:0:0:0:
491,175,204922,1,0,0:0:0:0:
478,175,205263,1,0,0:0:0:0:
470,175,205604,1,8,0:0:0:0:
460,227,206285,1,8,0:0:0:0:
466,196,206626,1,8,0:0:0:0:
393,188,206967,1,0,0:0:0:0:
399,189,207308,1,8,0:0:0:0:
363,192,207649,1,0,0:0:0:0:
402,192,207990,1,8,0:0:0:0:
399,189,208160,1,8,0:0:0:0:
432,208,208331,1,0,0:0:0:0:
432,208,208672,1,0,0:0:0:0:
384,208,209013,1,8,0:0:0:0:
492,194,209695,1,0,0:0:0:0:
464,192,210376,1,8,0:0:0:0:
416,176,210717,1,0,0:0:0:0:
448,192,211058,1,8,0:0:0:0:
423,194,211740,1,0,0:0:0:0:
430,187,212081,1,8,0:0:0:0:
331,179,212422,1,0,0:0:0:0:
428,182,212763,1,8,0:0:0:0:
416,186,213104,1,8,0:0:0:0:
380,172,213445,1,0,0:0:0:0:
452,189,213615,1,8,0:0:0:0:
422,181,213785,1,0,0:0:0:0:
422,191,214467,1,8,0:0:0:0:
388,195,214808,1,8,0:0:0:0:
416,224,215149,1,8,0:0:0:0:
368,176,215490,1,0,0:0:0:0:
400,192,215831,1,8,0:0:0:0:
448,208,216172,1,0,0:0:0:0:
432,192,216513,1,8,0:0:0:0:
437,210,217195,1,8,0:0:0:0:
355,161,217535,1,0,0:0:0:0:
394,173,217876,1,8,0:0:0:0:
432,256,218217,1,8,0:0:0:0:
408,181,218558,1,0,0:0:0:0:
455,192,218899,1,8,0:0:0:0:
416,192,219070,1,8,0:0:0:0:
363,198,219240,1,0,0:0:0:0:
432,176,219922,1,8,0:0:0:0:
400,192,220263,1,8,0:0:0:0:
448,192,220604,1,0,0:0:0:0:
448,192,221285,1,8,0:0:0:0:
448,192,221626,1,0,0:0:0:0:
400,192,221967,1,8,0:0:0:0:
432,192,222649,1,0,0:0:0:0:
448,176,223331,1,8,0:0:0:0:
496,192,223672,1,0,0:0:0:0:
464,189,224013,1,8,0:0:0:0:
429,195,224354,1,0,0:0:0:0:
496,192,224524,1,8,0:0:0:0:
457,198,224695,1,0,0:0:0:0:
425,153,225035,1,0,0:0:0:0:
479,184,225376,1,8,0:0:0:0:
466,184,225717,1,8,0:0:0:0:
421,175,226058,1,0,0:0:0:0:
457,175,227081,1,8,0:0:0:0:
398,182,227422,1,0,0:0:0:0:
459,164,228104,1,0,0:0:0:0:
473,175,228445,1,8,0:0:0:0:
464,194,228785,1,0,0:0:0:0:
442,151,230149,1,0,0:0:0:0:
447,209,230831,1,0,0:0:0:0:
477,183,231172,1,8,0:0:0:0:
453,199,231513,1,8,0:0:0:0:
427,246,232876,1,0,0:0:0:0:
438,203,233558,1,0,0:0:0:0:
485,186,233899,1,8,0:0:0:0:
399,188,234240,1,0,0:0:0:0:
503,182,234922,1,8,0:0:0:0:
503,182,235604,1,0,0:0:0:0:
503,182,235945,1,0,0:0:0:0:
485,177,236285,1,8,0:0:0:0:
490,179,236626,1,0,0:0:0:0:
503,182,236797,1,0,0:0:0:0:
477,182,236967,1,8,0:0:0:0:
450,181,237307,1,0,0:0:0:0:
414,182,237478,1,8,0:0:0:0:
428,165,237819,1,8,0:0:0:0:
365,167,237989,1,0,0:0:0:0:
395,192,238330,1,4,0:0:0:0:
353,200,238670,1,8,0:0:0:0:
454,182,239011,1,0,0:0:0:0:
464,196,239352,1,8,0:0:0:0:
352,192,239693,1,0,0:0:0:0:
448,192,240034,1,8,0:0:0:0:
401,218,240375,1,0,0:0:0:0:
453,189,240716,1,8,0:0:0:0:
453,189,240886,1,8,0:0:0:0:
469,197,241057,1,0,0:0:0:0:
459,172,241398,1,8,0:0:0:0:
441,175,241739,1,0,0:0:0:0:
438,179,242080,1,0,0:0:0:0:
485,179,242250,1,8,0:0:0:0:
464,192,242420,1,0,0:0:0:0:
448,176,242591,1,0,0:0:0:0:
448,189,242761,1,8,0:0:0:0:
448,176,242932,1,8,0:0:0:0:
464,176,243102,1,0,0:0:0:0:
440,175,243273,1,8,0:0:0:0:
368,144,243443,1,0,0:0:0:0:
448,176,243614,1,8,0:0:0:0:
448,176,243784,1,4,0:0:0:0:
448,176,244125,1,8,0:0:0:0:
464,176,244466,1,0,0:0:0:0:
453,212,244807,1,8,0:0:0:0:
462,176,244977,1,8,0:0:0:0:
461,176,245062,1,8,0:0:0:0:
461,176,245148,1,8,0:0:0:0:
496,176,245489,1,0,0:0:0:0:
464,176,245659,1,8,0:0:0:0:
432,176,245830,1,0,0:0:0:0:
432,176,246000,1,0,0:0:0:0:
416,176,246170,1,8,0:0:0:0:
445,189,246341,1,8,0:0:0:0:
421,155,246511,1,4,0:0:0:0:
448,176,246852,1,8,0:0:0:0:
390,156,247023,1,8,0:0:0:0:
448,176,247108,1,8,0:0:0:0:
448,176,247193,1,0,0:0:0:0:
432,176,247364,1,0,0:0:0:0:
448,160,247534,1,8,0:0:0:0:
448,160,247705,1,8,0:0:0:0:
464,176,247875,1,0,0:0:0:0:
496,192,248216,1,0,0:0:0:0:
464,192,248386,1,8,0:0:0:0:
464,192,248557,1,0,0:0:0:0:
432,208,248727,1,0,0:0:0:0:
416,192,248898,1,8,0:0:0:0:
448,176,249239,1,4,0:0:0:0:
469,180,249580,1,0,0:0:0:0:
471,184,249920,1,8,0:0:0:0:
463,205,250261,1,0,0:0:0:0:
414,190,250432,1,8,0:0:0:0:
443,179,250602,1,0,0:0:0:0:
486,181,250773,1,0,0:0:0:0:
446,192,250943,1,0,0:0:0:0:
456,254,251114,1,0,0:0:0:0:
480,192,251284,1,8,0:0:0:0:
480,192,251625,1,0,0:0:0:0:
486,181,251795,1,8,0:0:0:0:
416,176,251966,1,0,0:0:0:0:
432,160,252307,1,0,0:0:0:0:
432,160,252477,1,0,0:0:0:0:
448,176,252648,1,8,0:0:0:0:
432,176,252989,1,0,0:0:0:0:
464,176,253159,1,8,0:0:0:0:
448,176,253330,1,0,0:0:0:0:
448,176,253500,1,0,0:0:0:0:
454,232,253670,1,8,0:0:0:0:
448,160,253841,1,0,0:0:0:0:
464,176,254011,1,8,0:0:0:0:
480,192,254182,1,0,0:0:0:0:
480,192,254267,1,0,0:0:0:0:
448,176,254352,1,8,0:0:0:0:
416,176,254437,1,8,0:0:0:0:
416,176,254523,1,8,0:0:0:0:
416,176,254608,1,8,0:0:0:0:
432,176,254693,1,0,0:0:0:0:
480,176,254864,1,0,0:0:0:0:
480,176,254949,1,0,0:0:0:0:
464,160,255034,1,8,0:0:0:0:
432,224,255205,1,8,0:0:0:0:
451,198,255290,1,0,0:0:0:0:
416,272,255375,1,8,0:0:0:0:
416,272,255460,1,8,0:0:0:0:
464,192,255545,1,0,0:0:0:0:
384,176,255631,1,8,0:0:0:0:
456,184,255716,1,0,0:0:0:0:
430,197,255886,1,12,0:0:0:0:
470,185,256227,1,0,0:0:0:0:
471,171,256398,1,8,0:0:0:0:
438,158,256568,1,0,0:0:0:0:
411,169,256653,1,8,0:0:0:0:
440,179,256739,1,0,0:0:0:0:
432,180,256824,1,8,0:0:0:0:
477,214,256909,1,0,0:0:0:0:
466,176,257080,1,8,0:0:0:0:
443,193,257250,1,0,0:0:0:0:
442,183,257335,1,0,0:0:0:0:
451,178,257420,1,8,0:0:0:0:
464,173,257591,1,0,0:0:0:0:
418,153,257761,1,8,0:0:0:0:
434,166,257847,1,0,0:0:0:0:
406,175,257932,1,8,0:0:0:0:
436,175,258017,1,8,0:0:0:0:
458,188,258102,1,8,0:0:0:0:
406,175,258187,1,0,0:0:0:0:
432,192,258273,1,0,0:0:0:0:
456,173,258358,1,8,0:0:0:0:
412,175,258443,1,0,0:0:0:0:
367,166,258614,1,12,0:0:0:0:
470,171,258955,1,0,0:0:0:0:
470,171,259040,1,0,0:0:0:0:
439,180,259125,1,8,0:0:0:0:
456,181,259295,1,0,0:0:0:0:
456,181,259381,1,0,0:0:0:0:
432,176,259466,1,8,0:0:0:0:
432,160,259551,1,8,0:0:0:0:
448,176,259636,1,0,0:0:0:0:
464,176,259722,1,0,0:0:0:0:
464,192,259807,1,8,0:0:0:0:
512,176,259892,1,0,0:0:0:0:
452,182,259977,1,8,0:0:0:0:
381,175,260062,1,8,0:0:0:0:
430,185,260148,1,4,0:0:0:0:
415,187,260489,1,8,0:0:0:0:
441,184,260659,1,8,0:0:0:0:
437,184,260744,1,8,0:0:0:0:
415,177,260830,1,0,0:0:0:0:
404,177,261000,1,0,0:0:0:0:
439,176,261170,1,8,0:0:0:0:
432,224,261511,1,8,0:0:0:0:
400,160,261682,1,0,0:0:0:0:
416,176,261767,1,0,0:0:0:0:
400,160,261852,1,8,0:0:0:0:
445,196,262023,1,8,0:0:0:0:
464,192,262193,1,0,0:0:0:0:
464,192,262278,1,0,0:0:0:0:
432,187,262364,1,0,0:0:0:0:
464,182,262534,1,8,0:0:0:0:
416,192,262875,1,0,0:0:0:0:
464,192,263045,1,0,0:0:0:0:
464,192,263131,1,0,0:0:0:0:
400,192,263216,1,8,0:0:0:0:
458,185,263386,1,8,0:0:0:0:
480,160,263472,1,0,0:0:0:0:
384,176,263557,1,8,0:0:0:0:
460,201,263727,1,8,0:0:0:0:
467,180,263898,1,0,0:0:0:0:
432,208,263983,1,0,0:0:0:0:
467,180,264068,1,0,0:0:0:0:
460,195,264239,1,12,0:0:0:0:
464,190,264580,1,4,0:0:0:0:
480,176,264920,1,12,0:0:0:0:
432,176,265261,1,4,0:0:0:0:
464,176,265602,1,12,0:0:0:0:
446,166,265773,1,0,0:0:0:0:
446,166,265858,1,0,0:0:0:0:
432,176,265943,1,8,0:0:0:0:
464,176,266114,1,8,0:0:0:0:
412,171,266199,1,0,0:0:0:0:
451,175,266284,1,8,0:0:0:0:
452,189,266369,1,0,0:0:0:0:
414,172,266455,1,0,0:0:0:0:
414,172,266540,1,0,0:0:0:0:
383,169,266625,1,8,0:0:0:0:
420,164,266710,1,0,0:0:0:0:
371,169,266795,1,8,0:0:0:0:
371,169,266881,1,8,0:0:0:0:
402,173,266966,1,0,0:0:0:0:
418,180,267136,1,0,0:0:0:0:
418,180,267222,1,0,0:0:0:0:
436,171,267307,1,8,0:0:0:0:
414,172,267477,1,8,0:0:0:0:
507,187,267562,1,0,0:0:0:0:
416,172,267648,1,8,0:0:0:0:
458,187,267733,1,8,0:0:0:0:
466,173,267818,1,0,0:0:0:0:
466,173,267903,1,0,0:0:0:0:
432,176,267989,1,8,0:0:0:0:
400,176,268074,1,8,0:0:0:0:
464,192,268159,1,0,0:0:0:0:
445,176,268330,1,8,0:0:0:0:
432,160,268415,1,8,0:0:0:0:
496,160,268500,1,0,0:0:0:0:
496,160,268585,1,0,0:0:0:0:
400,176,268670,1,8,0:0:0:0:
464,192,268756,1,0,0:0:0:0:
480,176,268841,1,8,0:0:0:0:
480,176,268926,1,8,0:0:0:0:
400,176,269011,1,0,0:0:0:0:
400,176,269097,1,0,0:0:0:0:
432,192,269182,1,0,0:0:0:0:
432,176,269267,1,0,0:0:0:0:
432,176,269352,1,8,0:0:0:0:
416,176,269437,1,8,0:0:0:0:
448,176,269523,1,0,0:0:0:0:
368,176,269693,1,8,0:0:0:0:
377,173,269778,1,0,0:0:0:0:
448,192,269864,1,8,0:0:0:0:
448,160,269949,1,8,0:0:0:0:
400,160,270034,1,0,0:0:0:0:
384,160,270119,1,0,0:0:0:0:
400,176,270205,1,8,0:0:0:0:
400,160,270290,1,0,0:0:0:0:
384,160,270375,1,8,0:0:0:0:
427,190,270460,1,0,0:0:0:0:
421,178,270545,1,8,0:0:0:0:
401,172,270631,1,8,0:0:0:0:
409,179,270716,1,0,0:0:0:0:
404,177,270801,1,0,0:0:0:0:
381,179,270886,1,8,0:0:0:0:
432,176,271057,1,12,0:0:0:0:
496,176,271227,1,0,0:0:0:0:
496,160,271398,1,0,0:0:0:0:
480,176,271568,1,12,0:0:0:0:
512,176,271739,1,0,0:0:0:0:
512,176,271909,1,0,0:0:0:0:
480,176,272080,1,12,0:0:0:0:
464,176,272250,1,0,0:0:0:0:
480,176,272420,1,12,0:0:0:0:
480,176,272591,1,0,0:0:0:0:
464,176,272761,1,0,0:0:0:0:
448,192,272932,1,12,0:0:0:0:
480,176,273102,1,0,0:0:0:0:
480,176,273273,1,0,0:0:0:0:
464,192,273443,1,12,0:0:0:0:
496,176,273614,1,0,0:0:0:0:
464,176,273784,1,12,0:0:0:0:
448,160,274125,1,0,0:0:0:0:
384,176,274295,1,8,0:0:0:0:
400,160,274466,1,0,0:0:0:0:
384,160,274636,1,0,0:0:0:0:
432,128,274722,1,0,0:0:0:0:
368,160,274807,1,8,0:0:0:0:
434,158,274977,1,8,0:0:0:0:
465,156,275148,1,4,0:0:0:0:
368,128,275318,1,8,0:0:0:0:
384,144,275403,1,8,0:0:0:0:
448,192,275489,1,0,0:0:0:0:
464,176,275659,1,8,0:0:0:0:
416,176,275830,1,0,0:0:0:0:
384,176,275915,1,8,0:0:0:0:
416,176,276000,1,0,0:0:0:0:
416,176,276085,1,0,0:0:0:0:
368,176,276170,1,8,0:0:0:0:
432,244,276341,1,0,0:0:0:0:
448,192,276511,1,12,0:0:0:0:
464,176,276682,1,0,0:0:0:0:
448,176,276852,1,0,0:0:0:0:
496,176,277023,1,12,0:0:0:0:
496,192,277193,1,0,0:0:0:0:
480,192,277364,1,0,0:0:0:0:
496,208,277534,1,12,0:0:0:0:
480,192,277705,1,0,0:0:0:0:
464,224,277875,1,12,0:0:0:0:
464,192,278045,1,0,0:0:0:0:
448,192,278216,1,0,0:0:0:0:
429,181,278386,1,12,0:0:0:0:
442,192,278557,1,0,0:0:0:0:
441,193,278727,1,0,0:0:0:0:
430,183,278898,1,12,0:0:0:0:
423,189,279068,1,0,0:0:0:0:
462,166,279239,1,12,0:0:0:0:
428,166,279580,1,8,0:0:0:0:
379,250,279750,1,8,0:0:0:0:
379,250,279920,1,8,0:0:0:0:
434,184,280091,1,8,0:0:0:0:
434,184,280261,1,8,0:0:0:0:
434,184,280432,1,8,0:0:0:0:
409,179,280602,1,0,0:0:0:0:
388,130,280773,1,0,0:0:0:0:
458,194,280943,1,12,0:0:0:0:
443,155,281284,1,8,0:0:0:0:
487,188,281455,1,0,0:0:0:0:
487,188,281540,1,0,0:0:0:0:
423,181,281625,1,8,0:0:0:0:
389,189,281795,1,8,0:0:0:0:
424,226,281966,1,4,0:0:0:0:
443,184,282136,1,0,0:0:0:0:
424,202,282222,1,0,0:0:0:0:
448,192,282307,1,8,0:0:0:0:
432,160,282392,1,0,0:0:0:0:
432,176,282477,1,8,0:0:0:0:
432,176,282562,1,8,0:0:0:0:
416,176,282648,1,0,0:0:0:0:
416,176,282733,1,0,0:0:0:0:
496,176,282818,1,8,0:0:0:0:
464,160,282903,1,0,0:0:0:0:
448,176,282989,1,8,0:0:0:0:
448,160,283074,1,8,0:0:0:0:
432,176,283159,1,0,0:0:0:0:
496,192,283330,1,8,0:0:0:0:
432,160,283415,1,0,0:0:0:0:
464,192,283500,1,0,0:0:0:0:
368,192,283585,1,0,0:0:0:0:
416,176,283670,1,8,0:0:0:0:
448,192,283756,1,0,0:0:0:0:
416,192,283841,1,8,0:0:0:0:
448,192,283926,1,0,0:0:0:0:
448,192,284011,1,8,0:0:0:0:
416,192,284097,1,8,0:0:0:0:
464,176,284182,1,0,0:0:0:0:
448,176,284267,1,0,0:0:0:0:
432,176,284352,1,8,0:0:0:0:
400,240,284437,1,0,0:0:0:0:
478,195,284523,1,0,0:0:0:0:
380,191,284693,1,4,0:0:0:0:
438,182,284864,1,0,0:0:0:0:
414,172,284949,1,0,0:0:0:0:
479,181,285034,1,8,0:0:0:0:
468,183,285119,1,0,0:0:0:0:
464,192,285205,1,8,0:0:0:0:
437,207,285290,1,0,0:0:0:0:
464,192,285375,1,0,0:0:0:0:
464,176,285460,1,0,0:0:0:0:
417,177,285545,1,8,0:0:0:0:
462,182,285631,1,8,0:0:0:0:
456,172,285716,1,0,0:0:0:0:
456,172,285801,1,0,0:0:0:0:
438,182,285886,1,8,0:0:0:0:
448,177,286057,1,8,0:0:0:0:
394,170,286142,1,0,0:0:0:0:
512,176,286227,1,0,0:0:0:0:
480,176,286312,1,0,0:0:0:0:
464,256,286398,1,8,0:0:0:0:
464,192,286483,1,0,0:0:0:0:
496,192,286568,1,8,0:0:0:0:
448,192,286653,1,0,0:0:0:0:
432,176,286739,1,8,0:0:0:0:
432,192,286824,1,8,0:0:0:0:
496,176,286909,1,0,0:0:0:0:
448,160,286994,1,0,0:0:0:0:
416,176,287080,1,8,0:0:0:0:
464,176,287165,1,8,0:0:0:0:
448,160,287250,1,0,0:0:0:0:
361,195,287420,1,12,0:0:0:0:
448,192,287591,1,0,0:0:0:0:
461,215,287676,1,0,0:0:0:0:
473,190,287761,1,8,0:0:0:0:
448,160,287847,1,0,0:0:0:0:
496,176,287932,1,8,0:0:0:0:
448,160,288017,1,0,0:0:0:0:
448,160,288102,1,8,0:0:0:0:
448,160,288187,1,8,0:0:0:0:
464,176,288273,1,0,0:0:0:0:
464,176,288358,1,0,0:0:0:0:
400,176,288443,1,8,0:0:0:0:
504,177,288528,1,0,0:0:0:0:
496,176,288614,1,0,0:0:0:0:
400,112,288699,1,0,0:0:0:0:
410,177,288784,1,8,0:0:0:0:
486,171,288955,1,0,0:0:0:0:
486,171,289040,1,0,0:0:0:0:
434,162,289125,1,8,0:0:0:0:
458,168,289210,1,0,0:0:0:0:
488,172,289295,1,8,0:0:0:0:
434,162,289381,1,0,0:0:0:0:
445,162,289466,1,8,0:0:0:0:
481,210,289551,1,8,0:0:0:0:
478,175,289636,1,0,0:0:0:0:
471,164,289722,1,0,0:0:0:0:
466,161,289807,1,8,0:0:0:0:
388,184,289892,1,8,0:0:0:0:
486,171,289977,1,0,0:0:0:0:
464,176,290148,1,12,0:0:0:0:
480,160,290318,1,0,0:0:0:0:
480,160,290403,1,0,0:0:0:0:
512,160,290489,1,8,0:0:0:0:
432,160,290574,1,0,0:0:0:0:
480,160,290659,1,8,0:0:0:0:
464,192,290744,1,8,0:0:0:0:
448,176,290830,1,0,0:0:0:0:
448,192,290915,1,0,0:0:0:0:
400,176,291000,1,8,0:0:0:0:
480,160,291085,1,0,0:0:0:0:
448,160,291170,1,8,0:0:0:0:
448,192,291256,1,8,0:0:0:0:
480,176,291341,1,0,0:0:0:0:
480,176,291426,1,0,0:0:0:0:
448,176,291511,1,8,0:0:0:0:
464,160,291597,1,0,0:0:0:0:
460,231,291682,1,8,0:0:0:0:
496,192,291767,1,0,0:0:0:0:
448,176,291852,1,8,0:0:0:0:
446,212,291937,1,8,0:0:0:0:
453,192,292023,1,0,0:0:0:0:
453,192,292108,1,0,0:0:0:0:
432,192,292193,1,8,0:0:0:0:
448,160,292278,1,0,0:0:0:0:
448,176,292364,1,0,0:0:0:0:
464,176,292449,1,0,0:0:0:0:
400,160,292534,1,8,0:0:0:0:
409,175,292875,1,12,0:0:0:0:
445,166,293045,1,0,0:0:0:0:
440,167,293131,1,0,0:0:0:0:
485,169,293216,1,8,0:0:0:0:
479,169,293301,1,0,0:0:0:0:
465,172,293386,1,8,0:0:0:0:
448,144,293472,1,0,0:0:0:0:
470,175,293557,1,0,0:0:0:0:
470,175,293642,1,0,0:0:0:0:
484,168,293727,1,8,0:0:0:0:
477,169,293812,1,0,0:0:0:0:
482,168,293898,1,8,0:0:0:0:
484,168,293983,1,8,0:0:0:0:
508,174,294068,1,0,0:0:0:0:
508,174,294153,1,0,0:0:0:0:
432,256,294239,1,8,0:0:0:0:
442,175,294324,1,8,0:0:0:0:
455,164,294409,1,0,0:0:0:0:
439,164,294494,1,0,0:0:0:0:
401,176,294580,1,8,0:0:0:0:
453,194,294665,1,0,0:0:0:0:
457,173,294750,1,0,0:0:0:0:
483,172,294835,1,0,0:0:0:0:
434,189,294920,1,8,0:0:0:0:
433,189,295006,1,8,0:0:0:0:
410,185,295091,1,0,0:0:0:0:
431,191,295176,1,0,0:0:0:0:
433,184,295261,1,8,0:0:0:0:
410,186,295347,1,8,0:0:0:0:
393,180,295432,1,0,0:0:0:0:
492,234,295602,1,12,0:0:0:0:
487,206,295773,1,0,0:0:0:0:
487,206,295858,1,0,0:0:0:0:
480,160,295943,1,8,0:0:0:0:
400,176,296028,1,8,0:0:0:0:
453,179,296114,1,0,0:0:0:0:
453,179,296199,1,0,0:0:0:0:
448,224,296284,1,8,0:0:0:0:
464,176,296369,1,0,0:0:0:0:
464,176,296455,1,0,0:0:0:0:
464,176,296540,1,0,0:0:0:0:
432,176,296625,1,8,0:0:0:0:
432,176,296710,1,8,0:0:0:0:
448,176,296795,1,0,0:0:0:0:
464,192,296966,1,12,0:0:0:0:
464,176,297136,1,0,0:0:0:0:
464,176,297222,1,0,0:0:0:0:
464,160,297307,1,8,0:0:0:0:
448,160,297392,1,8,0:0:0:0:
448,160,297477,1,8,0:0:0:0:
496,176,297648,1,4,0:0:0:0:
464,160,297818,1,8,0:0:0:0:
432,160,297903,1,0,0:0:0:0:
464,160,297989,1,8,0:0:0:0:
464,160,298074,1,8,0:0:0:0:
448,176,298159,1,0,0:0:0:0:
448,192,298330,1,12,0:0:0:0:
482,183,298500,1,0,0:0:0:0:
482,183,298585,1,0,0:0:0:0:
447,166,298670,1,8,0:0:0:0:
433,166,298756,1,0,0:0:0:0:
454,168,298841,1,8,0:0:0:0:
456,169,298926,1,0,0:0:0:0:
421,168,299011,1,8,0:0:0:0:
421,168,299097,1,8,0:0:0:0:
448,176,299182,1,0,0:0:0:0:
399,175,299267,1,0,0:0:0:0:
410,178,299352,1,8,0:0:0:0:
416,176,299437,1,0,0:0:0:0:
406,193,299523,1,8,0:0:0:0:
418,175,299693,1,4,0:0:0:0:
397,182,299864,1,8,0:0:0:0:
422,182,299949,1,0,0:0:0:0:
391,175,300034,1,8,0:0:0:0:
430,192,300119,1,0,0:0:0:0:
374,177,300205,1,0,0:0:0:0:
366,179,300290,1,0,0:0:0:0:
380,193,300375,1,8,0:0:0:0:
429,182,300460,1,8,0:0:0:0:
391,183,300545,1,0,0:0:0:0:
388,183,300631,1,0,0:0:0:0:
397,182,300716,1,8,0:0:0:0:
442,186,300801,1,0,0:0:0:0:
428,174,300886,1,8,0:0:0:0:
401,262,301057,1,0,0:0:0:0:
436,171,301227,1,0,0:0:0:0:
436,171,301398,1,0,0:0:0:0:
436,171,301568,1,0,0:0:0:0:
412,177,301739,1,8,0:0:0:0:
406,177,301909,1,8,0:0:0:0:
354,177,302080,1,8,0:0:0:0:
447,175,302250,1,8,0:0:0:0:
447,182,302420,1,4,0:0:0:0:
441,182,302591,1,4,0:0:0:0:
441,182,302761,1,4,0:0:0:0:
441,182,302932,1,4,0:0:0:0:
388,191,303102,1,12,0:0:0:0:
397,191,303273,1,12,0:0:0:0:
397,191,303443,1,12,0:0:0:0:
397,191,303614,1,12,0:0:0:0:
256,192,303784,12,0,306511,0:0:0:0:
