osu file format v14

[General]
AudioFilename: Goodbye Forever.mp3
AudioLeadIn: 0
PreviewTime: 29503
Countdown: 1
SampleSet: None
StackLeniency: 0.7
Mode: 0
LetterboxInBreaks: 1
WidescreenStoryboard: 1

[Editor]
Bookmarks: 3582,22266
DistanceSpacing: 1
BeatDivisor: 1
GridSize: 4
TimelineZoom: 1

[Metadata]
Title:Goodbye Forever
TitleUnicode:Goodbye Forever
Artist:Hawawa
ArtistUnicode:Hawawa
Creator:Musty
Version:Light Insane
Source:
Tags:
BeatmapID:807675
BeatmapSetID:349925

[Difficulty]
HPDrainRate:4
CircleSize:3
OverallDifficulty:6
ApproachRate:8
SliderMultiplier:1.2
SliderTickRate:1

[Events]
//Background and Video events
0,0,"hawawabg.png",0,0
//Break Periods
//Storyboard Layer 0 (Background)
//Storyboard Layer 1 (Fail)
//Storyboard Layer 2 (Pass)
//Storyboard Layer 3 (Foreground)
//Storyboard Sound Samples

[TimingPoints]
30,263.157894736842,4,1,0,50,1,0
8451,-66.6666666666667,4,1,0,80,0,0
29503,-66.6666666666667,4,1,0,80,0,1
37398,-66.6666666666667,4,1,0,80,0,0

[HitObjects]
72,264,30,6,0,P|152:304|200:304,2,120,0|8|0,0:0|0:0|0:0,0:0:0:0:
20,184,819,1,8,0:0:0:0:
40,140,951,1,0,0:0:0:0:
64,96,1082,2,0,L|148:84,1,60
172,100,1345,2,0,L|256:88,1,60,8|0,0:0|0:0,0:0:0:0:
280,96,1608,2,0,P|360:72|384:24,1,120,0|8,0:0|0:0,0:0:0:0:
440,120,2135,6,0,L|416:264,1,120,4|8,0:0|0:0,0:0:0:0:
412,284,2529,1,0,0:0:0:0:
404,332,2661,2,0,P|344:352|320:348,1,60
304,336,2924,2,0,P|244:316|220:320,1,60,8|0,0:0|0:0,0:0:0:0:
200,340,3187,2,0,L|80:328,1,120,0|8,0:0|0:0,0:0:0:0:
56,236,3714,2,0,L|176:248,1,120,0|8,0:0|0:0,0:0:0:0:
248,188,4240,5,0,0:0:0:0:
220,148,4372,1,0,0:0:0:0:
192,112,4503,2,0,P|216:56|280:56,1,120,8|0,0:0|0:0,0:0:0:0:
304,88,4898,2,0,P|360:112|380:112,1,60,0|8,0:0|0:0,0:0:0:0:
396,84,5161,2,0,P|472:72|536:100,1,120
512,132,5556,1,8,0:0:0:0:
428,196,5819,2,0,L|356:184,1,60
328,212,6082,2,0,L|256:200,1,60,8|0,0:0|0:0,0:0:0:0:
228,224,6345,1,4,0:0:0:0:
256,192,6608,12,0,8187,0:0:0:0:
208,312,8451,6,0,L|324:316,2,90.0000034332277
136,280,8845,1,0,0:0:0:0:
68,240,8977,2,0,L|56:52,1,180.000006866455
128,24,9372,1,0,0:0:0:0:
184,80,9503,2,0,P|272:84|348:24,1,180.000006866455
400,92,9898,1,0,0:0:0:0:
468,48,10029,2,0,P|480:112|456:152,1,90.0000034332277
400,172,10293,2,0,P|368:260|372:272,1,90.0000034332277
388,328,10556,6,0,P|324:368|216:304,1,180.000006866455
212,256,10951,1,0,0:0:0:0:
156,312,11082,2,0,L|56:304,1,90.0000034332277
48,228,11345,2,0,L|148:220,1,90.0000034332277
196,164,11608,1,0,0:0:0:0:
120,140,11740,1,0,0:0:0:0:
180,84,11872,2,0,L|188:32,2,45.0000017166138
260,92,12135,2,0,L|268:40,2,45.0000017166138
340,100,12398,2,0,L|348:48,2,45.0000017166138
324,180,12661,6,0,P|364:284|440:300,1,180.000006866455
504,312,13056,1,0,0:0:0:0:
476,236,13187,2,0,L|492:116,1,90.0000034332277
408,136,13451,2,0,L|424:16,1,90.0000034332277
340,56,13714,6,0,P|220:72|152:36,1,180.000006866455
88,60,14108,1,0,0:0:0:0:
92,140,14240,2,0,L|-8:156,1,90.0000034332277
28,232,14503,2,0,L|128:248,1,90.0000034332277
164,312,14766,6,0,P|224:300|320:360,1,180.000006866455
400,376,15161,1,0,0:0:0:0:
468,332,15293,2,0,L|472:232,1,90.0000034332277
392,232,15556,2,0,L|396:132,1,90.0000034332277
316,120,15819,6,0,P|344:72|456:84,2,180.000006866455
264,180,16477,1,0,0:0:0:0:
236,104,16608,2,0,L|224:48,2,45.0000017166138
256,192,16872,12,0,18714,0:0:0:0:
20,208,18977,6,0,P|64:280|172:256,1,180.000006866455
104,208,19372,1,0,0:0:0:0:
68,136,19503,2,0,L|84:44,1,90.0000034332277
164,44,19766,2,0,L|148:136,1,90.0000034332277
192,200,20029,2,0,P|308:216|348:176,1,180.000006866455
428,180,20424,1,0,0:0:0:0:
388,108,20556,2,0,L|376:4,1,90.0000034332277
296,8,20819,2,0,L|308:112,1,90.0000034332277
244,148,21082,5,0,0:0:0:0:
168,180,21214,1,0,0:0:0:0:
88,164,21345,1,0,0:0:0:0:
44,96,21477,2,0,P|72:40|112:12,2,90.0000034332277
40,176,21872,1,0,0:0:0:0:
76,248,22003,1,0,0:0:0:0:
124,316,22135,2,0,P|60:336|20:320,1,90.0000034332277
200,352,22398,2,0,P|264:332|304:348,1,90.0000034332277
364,356,22661,5,0,0:0:0:0:
444,332,22793,2,0,L|508:340,2,45.0000017166138
384,280,23056,1,0,0:0:0:0:
448,232,23187,2,0,L|464:120,1,90.0000034332277
384,112,23451,2,0,L|368:224,1,90.0000034332277
296,172,23714,2,0,P|180:136|168:80,1,180.000006866455
88,76,24108,1,0,0:0:0:0:
92,156,24240,2,0,L|0:172,1,90.0000034332277
16,252,24503,2,0,L|108:268,1,90.0000034332277
172,316,24766,5,0,0:0:0:0:
248,292,24898,1,0,0:0:0:0:
324,324,25029,2,0,L|420:312,1,90.0000034332277
416,232,25293,2,0,L|320:244,1,90.0000034332277
256,204,25556,1,0,0:0:0:0:
224,128,25687,2,0,P|288:128|316:148,2,90.0000034332277
172,192,26082,1,0,0:0:0:0:
116,248,26214,1,0,0:0:0:0:
48,204,26345,2,0,L|40:96,3,90.0000034332277
112,72,26872,6,0,P|228:92|296:56,1,180.000006866455
348,20,27266,1,0,0:0:0:0:
388,92,27398,2,0,P|548:124|452:256,1,360.000013732911
416,304,28056,2,0,L|304:288,1,90.0000034332277
252,324,28319,2,0,L|140:308,1,90.0000034332277
128,236,28582,2,0,L|217:223,1,90.0000034332277
268,160,28845,2,0,L|357:147,2,90.0000034332277
200,120,29240,1,0,0:0:0:0:
200,120,29372,1,0,0:0:0:0:
220,40,29503,6,0,P|148:56|128:164,1,180.000006866455
160,220,29898,1,0,0:0:0:0:
116,288,30029,2,0,L|8:292,1,90.0000034332277
192,336,30293,2,0,L|300:340,1,90.0000034332277
336,276,30556,5,0,0:0:0:0:
412,300,30687,1,0,0:0:0:0:
392,220,30819,1,0,0:0:0:0:
316,196,30951,1,0,0:0:0:0:
372,136,31082,1,0,0:0:0:0:
448,160,31214,1,0,0:0:0:0:
432,80,31345,2,0,L|440:16,2,45.0000017166138
348,44,31608,6,0,P|268:16|180:72,1,180.000006866455
120,116,32003,1,0,0:0:0:0:
184,180,32135,2,0,P|132:212|88:204,1,90.0000034332277
132,296,32398,2,0,P|176:298|210:326,1,90.0000034332277
292,360,32661,5,0,0:0:0:0:
380,348,32793,1,0,0:0:0:0:
424,268,32924,1,0,0:0:0:0:
336,256,33056,1,0,0:0:0:0:
364,172,33187,1,0,0:0:0:0:
276,184,33319,1,0,0:0:0:0:
188,196,33451,2,0,L|164:84,1,90.0000034332277
168,16,33714,6,0,P|85:35|75:119,1,180.000006866455
52,204,34108,1,0,0:0:0:0:
104,276,34240,2,0,L|84:363,1,90.0000034332277
176,352,34503,2,0,L|194:263,1,90.0000034332277
272,312,34766,2,0,P|353:341|426:293,1,180.000006866455
344,256,35161,1,0,0:0:0:0:
420,208,35293,2,0,L|540:204,1,90.0000034332277
340,164,35556,2,0,L|250:161,1,90.0000034332277
416,112,35819,6,0,P|351:52|263:52,1,180.000006866455
192,108,36214,1,0,0:0:0:0:
112,152,36345,2,0,P|40:172|0:156,1,90.0000034332277
120,248,36608,2,0,P|172:252|212:268,1,90.0000034332277
296,252,36872,5,0,0:0:0:0:
356,320,37003,1,0,0:0:0:0:
444,308,37135,1,0,0:0:0:0:
384,228,37266,1,0,0:0:0:0:
148,336,37661,5,4,0:0:0:0:
