osu file format v14

[General]
AudioFilename: Goodbye Forever.mp3
AudioLeadIn: 0
PreviewTime: 29503
Countdown: 1
SampleSet: Normal
StackLeniency: 0.7
Mode: 0
LetterboxInBreaks: 1
WidescreenStoryboard: 1

[Editor]
Bookmarks: 3582,22266
DistanceSpacing: 1
BeatDivisor: 1
GridSize: 4
TimelineZoom: 1

[Metadata]
Title:Goodbye Forever
TitleUnicode:Goodbye Forever
Artist:Hawawa
ArtistUnicode:Hawawa
Creator:Musty
Version:Insane
Source:
Tags:
BeatmapID:771579
BeatmapSetID:349925

[Difficulty]
HPDrainRate:5
CircleSize:3.5
OverallDifficulty:7
ApproachRate:8.8
SliderMultiplier:1.4
SliderTickRate:1

[Events]
//Background and Video events
0,0,"hawawabg.png",0,0
//Break Periods
//Storyboard Layer 0 (Background)
//Storyboard Layer 1 (Fail)
//Storyboard Layer 2 (Pass)
//Storyboard Layer 3 (Foreground)
//Storyboard Sound Samples

[TimingPoints]
30,263.157894736842,4,1,0,50,1,0
8451,-66.6666666666667,4,1,0,80,0,0
29503,-66.6666666666667,4,1,0,80,0,1
37398,-66.6666666666667,4,1,0,80,0,0

[HitObjects]
76,300,30,5,4,0:0:0:0:
104,220,161,1,0,0:0:0:0:
128,140,293,2,8,L|116:60,1,70,8|0,0:0|0:0,0:0:0:0:
117,70,490,1,0,0:0:0:0:
117,70,556,1,0,0:0:0:0:
192,204,687,5,0,0:0:0:0:
276,192,819,1,8,0:0:0:0:
360,176,951,2,0,L|372:88,1,70
448,140,1214,2,0,L|436:228,1,70,0|8,0:0|0:0,0:0:0:0:
364,280,1477,1,0,0:0:0:0:
408,368,1608,2,0,P|328:376|280:324,1,140,0|8,0:0|0:0,0:0:0:0:
244,256,2003,1,0,0:0:0:0:
176,336,2135,6,0,L|88:328,1,70
32,264,2398,1,8,0:0:0:0:
116,208,2529,1,0,0:0:0:0:
116,208,2595,1,0,0:0:0:0:
116,208,2661,2,0,L|108:108,1,70
208,32,2924,2,0,L|216:132,1,70,8|0,0:0|0:0,0:0:0:0:
208,204,3187,1,0,0:0:0:0:
308,152,3319,6,0,P|364:180|444:148,1,140
384,24,3714,2,0,L|376:108,1,70
456,248,3977,2,0,L|448:332,1,70,8|0,0:0|0:0,0:0:0:0:
360,344,4240,5,0,0:0:0:0:
288,276,4372,1,0,0:0:0:0:
216,352,4503,2,0,L|148:340,1,70,8|0,0:0|0:0,0:0:0:0:
147,339,4701,1,0,0:0:0:0:
147,339,4766,1,0,0:0:0:0:
16,360,4898,1,0,0:0:0:0:
64,248,5029,1,8,0:0:0:0:
136,152,5161,6,0,P|140:72|96:40,2,140
284,180,5819,2,0,L|204:200,1,70
320,76,6082,2,0,L|400:96,1,70,8|0,0:0|0:0,0:0:0:0:
388,224,6345,1,4,0:0:0:0:
256,192,6477,12,0,8187,0:0:0:0:
408,296,8451,6,0,L|304:288,1,105.000004005432
184,328,8714,2,0,L|80:320,1,105.000004005432,8|0,0:0|0:0,0:0:0:0:
16,212,8977,2,0,P|96:196|132:224,1,105.000004005432
112,204,9174,1,0,0:0:0:0:
112,204,9240,1,8,0:0:0:0:
228,252,9372,1,0,0:0:0:0:
208,128,9503,2,0,L|188:24,1,105.000004005432
300,84,9766,2,0,L|320:188,1,105.000004005432,8|0,0:0|0:0,0:0:0:0:
412,104,10029,2,0,L|392:0,1,105.000004005432
504,60,10293,5,8,0:0:0:0:
468,180,10424,1,0,0:0:0:0:
508,300,10556,2,0,P|448:308|404:288,1,105.000004005432
312,208,10819,2,0,P|252:200|208:220,1,105.000004005432,8|0,0:0|0:0,0:0:0:0:
212,216,11016,1,0,0:0:0:0:
212,216,11082,1,0,0:0:0:0:
156,332,11214,1,0,0:0:0:0:
80,232,11345,2,0,L|104:120,1,105.000004005432,8|0,0:0|0:0,0:0:0:0:
228,108,11608,2,0,L|252:-4,1,105.000004005432
344,92,11872,5,8,0:0:0:0:
460,44,12003,1,0,0:0:0:0:
428,168,12135,1,0,0:0:0:0:
424,200,12201,1,0,0:0:0:0:
420,232,12266,1,0,0:0:0:0:
416,264,12332,1,0,0:0:0:0:
412,296,12398,2,0,L|424:356,4,52.5000020027161,8|0|0|0|0,0:0|0:0|0:0|0:0|0:0,0:0:0:0:
296,348,12793,5,0,0:0:0:0:
300,224,12924,2,0,P|204:208|176:224,1,105.000004005432,8|0,0:0|0:0,0:0:0:0:
124,308,13187,1,0,0:0:0:0:
20,240,13319,1,0,0:0:0:0:
92,136,13451,2,0,L|76:24,1,105.000004005432,8|0,0:0|0:0,0:0:0:0:
204,16,13714,2,0,L|220:128,1,105.000004005432
336,164,13977,5,8,0:0:0:0:
424,72,14108,1,0,0:0:0:0:
460,192,14240,1,0,0:0:0:0:
368,280,14372,1,0,0:0:0:0:
368,280,14437,1,0,0:0:0:0:
368,280,14503,2,0,P|288:308|236:288,1,105.000004005432,8|0,0:0|0:0,0:0:0:0:
148,332,14766,6,0,L|24:364,1,105.000004005432
72,236,15029,2,0,L|196:204,1,105.000004005432,8|0,0:0|0:0,0:0:0:0:
173,209,15227,1,0,0:0:0:0:
173,209,15293,1,0,0:0:0:0:
100,108,15424,1,0,0:0:0:0:
228,104,15556,1,8,0:0:0:0:
288,212,15687,1,0,0:0:0:0:
344,100,15819,6,0,L|448:108,1,105.000004005432
512,212,16082,2,0,L|408:220,1,105.000004005432,8|0,0:0|0:0,0:0:0:0:
428,344,16345,2,0,L|324:336,1,105.000004005432
204,296,16608,2,0,L|100:304,1,105.000004005432,8|0,0:0|0:0,0:0:0:0:
52,184,16872,6,0,P|164:88|232:128,1,210.000008010865
152,188,17266,5,0,0:0:0:0:
152,188,17398,1,0,0:0:0:0:
232,284,17529,1,0,0:0:0:0:
360,288,17661,1,0,0:0:0:0:
436,216,17793,1,0,0:0:0:0:
372,132,17925,6,0,P|381:80|367:30,1,105.000004005432
251,123,18188,2,0,P|247:175|263:224,1,105.000004005432
180,332,18451,1,8,0:0:0:0:
60,296,18582,1,0,0:0:0:0:
48,172,18714,1,8,0:0:0:0:
140,88,18845,1,0,0:0:0:0:
160,212,18977,6,0,L|288:228,1,105.000004005432,4|0,0:0|0:0,0:0:0:0:
384,264,19240,2,0,L|512:280,1,105.000004005432,8|0,0:0|0:0,0:0:0:0:
488,277,19437,1,0,0:0:0:0:
488,277,19503,1,0,0:0:0:0:
444,160,19635,1,0,0:0:0:0:
320,156,19766,2,0,P|320:56|336:36,1,105.000004005432,8|0,0:0|0:0,0:0:0:0:
288,244,20029,2,0,L|260:372,1,105.000004005432
128,368,20293,2,0,L|156:240,1,105.000004005432,8|0,0:0|0:0,0:0:0:0:
40,184,20556,1,0,0:0:0:0:
168,144,20687,1,0,0:0:0:0:
48,80,20819,1,8,0:0:0:0:
180,40,20951,1,0,0:0:0:0:
304,92,21082,6,0,P|444:108|500:52,1,210.000008010865,4|8,0:0|0:0,0:0:0:0:
392,8,21477,1,0,0:0:0:0:
392,8,21543,1,0,0:0:0:0:
392,8,21608,1,0,0:0:0:0:
256,20,21740,1,0,0:0:0:0:
192,140,21872,1,8,0:0:0:0:
268,252,22003,1,0,0:0:0:0:
404,276,22135,6,0,L|528:240,1,105.000004005432
424,136,22398,2,0,L|300:172,1,105.000004005432,8|0,0:0|0:0,0:0:0:0:
256,284,22661,1,0,0:0:0:0:
224,276,22727,1,0,0:0:0:0:
192,268,22793,1,0,0:0:0:0:
164,260,22858,1,0,0:0:0:0:
132,252,22924,2,0,L|112:200,4,52.5000020027161,8|0|0|0|0,0:0|0:0|0:0|0:0|0:0,0:0:0:0:
48,348,23319,5,0,0:0:0:0:
24,224,23451,1,8,0:0:0:0:
96,120,23582,1,0,0:0:0:0:
224,112,23714,2,0,L|376:128,1,105.000004005432
424,40,23977,2,0,L|272:24,1,105.000004005432,8|0,0:0|0:0,0:0:0:0:
432,132,24240,5,0,0:0:0:0:
348,228,24372,1,0,0:0:0:0:
336,352,24503,2,0,P|428:328|448:296,1,105.000004005432,8|0,0:0|0:0,0:0:0:0:
348,228,24766,2,0,P|256:252|236:284,1,105.000004005432
172,352,25029,2,0,L|36:328,1,105.000004005432,8|0,0:0|0:0,0:0:0:0:
68,333,25227,1,0,0:0:0:0:
68,333,25293,5,0,0:0:0:0:
144,232,25424,1,0,0:0:0:0:
48,152,25556,2,0,L|28:40,1,105.000004005432,8|0,0:0|0:0,0:0:0:0:
29,48,25753,1,0,0:0:0:0:
29,48,25819,1,0,0:0:0:0:
144,104,25951,1,0,0:0:0:0:
268,88,26082,1,8,0:0:0:0:
268,88,26148,1,0,0:0:0:0:
268,88,26214,1,0,0:0:0:0:
220,204,26345,6,0,L|104:220,1,105.000004005432
188,320,26608,2,0,L|304:336,1,105.000004005432,8|0,0:0|0:0,0:0:0:0:
336,216,26872,1,0,0:0:0:0:
336,216,26937,1,0,0:0:0:0:
336,216,27003,1,0,0:0:0:0:
412,316,27135,1,8,0:0:0:0:
412,316,27201,1,0,0:0:0:0:
412,316,27266,1,0,0:0:0:0:
256,192,27398,12,0,29240,0:0:0:0:
112,268,29503,6,0,P|204:296|236:288,1,105.000004005432,4|0,0:0|0:0,0:0:0:0:
248,176,29766,2,0,P|156:148|124:156,1,105.000004005432,8|0,0:0|0:0,0:0:0:0:
32,192,30029,1,0,0:0:0:0:
32,192,30095,1,0,0:0:0:0:
32,192,30161,1,0,0:0:0:0:
28,320,30293,1,8,0:0:0:0:
144,372,30424,2,0,L|368:352,1,210.000008010865
476,376,30819,1,8,0:0:0:0:
428,260,30951,2,0,L|440:152,1,105.000004005432
312,156,31214,2,0,L|324:48,2,105.000004005432,0|8|0,0:0|0:0|0:0,0:0:0:0:
228,252,31608,6,0,P|100:264|56:188,1,210.000008010865,4|8,0:0|0:0,0:0:0:0:
176,160,32003,1,0,0:0:0:0:
108,52,32135,2,0,P|-12:60|-32:76,1,105.000004005432
228,68,32398,2,0,P|348:60|368:44,1,105.000004005432,8|0,0:0|0:0,0:0:0:0:
448,24,32661,1,0,0:0:0:0:
396,140,32793,1,0,0:0:0:0:
412,264,32924,1,8,0:0:0:0:
484,368,33056,2,0,P|372:364|352:360,1,105.000004005432
284,280,33319,1,0,0:0:0:0:
184,356,33451,2,0,L|104:248,1,105.000004005432,8|0,0:0|0:0,0:0:0:0:
56,164,33714,5,4,0:0:0:0:
180,180,33845,1,0,0:0:0:0:
104,80,33977,2,0,P|4:72|-20:84,1,105.000004005432,8|0,0:0|0:0,0:0:0:0:
200,56,34240,2,0,P|300:64|324:52,1,105.000004005432
336,184,34503,2,0,P|400:152|440:160,1,105.000004005432,8|0,0:0|0:0,0:0:0:0:
472,276,34766,2,0,P|408:308|368:300,1,105.000004005432
256,268,35029,2,0,L|120:232,1,105.000004005432,8|0,0:0|0:0,0:0:0:0:
100,128,35293,2,0,L|236:164,1,105.000004005432
48,240,35556,1,8,0:0:0:0:
0,124,35687,1,0,0:0:0:0:
88,36,35819,6,0,P|196:32|276:104,1,210.000008010865,4|8,0:0|0:0,0:0:0:0:
284,220,36214,1,0,0:0:0:0:
388,152,36345,6,0,P|400:280|396:292,1,105.000004005432
320,344,36608,1,8,0:0:0:0:
204,292,36740,2,0,L|60:272,1,105.000004005432,0|8,0:0|0:0,0:0:0:0:
144,160,37003,2,0,L|0:140,1,105.000004005432,0|8,0:0|0:0,0:0:0:0:
104,36,37266,1,0,0:0:0:0:
104,36,37661,5,4,0:0:0:0:
