osu file format v14

[General]
AudioFilename: audio.mp3
AudioLeadIn: 0
PreviewTime: -1
Countdown: 1
SampleSet: Normal
StackLeniency: 0.7
Mode: 0
LetterboxInBreaks: 0
WidescreenStoryboard: 0

[Editor]
Bookmarks: 104011,119440,128582,137725
DistanceSpacing: 0.1
BeatDivisor: 4
GridSize: 4
TimelineZoom: 0.6

[Metadata]
Title:Triangle Song
TitleUnicode:Triangle Song
Artist:Have Fun Teaching
ArtistUnicode:Have Fun Teaching
Creator:Herbayse
Version:triangle
Source:
Tags:illuminati 3 angels 3 corners 3 straight lines
BeatmapID:984354
BeatmapSetID:459480

[Difficulty]
HPDrainRate:7
CircleSize:4
OverallDifficulty:8
ApproachRate:9
SliderMultiplier:3
SliderTickRate:1

[Events]
//Background and Video events
0,0,"Triangle(shape).jpg",0,0
//Break Periods
//Storyboard Layer 0 (Background)
//Storyboard Layer 1 (Fail)
//Storyboard Layer 2 (Pass)
//Storyboard Layer 3 (Foreground)
//Storyboard Sound Samples

[TimingPoints]
583,571.428571428571,4,1,0,100,1,0
25725,-68.9655172413793,4,1,0,100,0,0
26297,-89.2857142857143,4,1,0,100,0,0
26868,-68.9655172413793,4,1,0,100,0,0
28011,-100,4,1,0,100,0,0
34868,-68.9655172413793,4,1,0,100,0,0
35440,-89.2857142857143,4,1,0,100,0,0
36011,-68.9655172413793,4,1,0,100,0,0
46297,-100,4,1,0,100,0,0
64582,-50,4,1,0,100,0,1
82868,-100,4,1,0,100,0,0
89725,-68.9655172413793,4,1,0,100,0,0
90297,-89.2857142857143,4,1,0,100,0,0
90868,-68.9655172413793,4,1,0,100,0,0
92011,-100,4,1,0,100,0,0
98868,-68.9655172413793,4,1,0,100,0,0
99440,-89.2857142857143,4,1,0,100,0,0
100011,-68.9655172413793,4,1,0,100,0,0
101154,-200,4,1,0,100,0,0
119440,-100,4,1,0,100,0,0
126297,-68.9655172413793,4,1,0,100,0,0
126868,-89.2857142857143,4,1,0,100,0,0
127440,-68.9655172413793,4,1,0,100,0,0
128582,-100,4,1,0,100,0,0
135440,-68.9655172413793,4,1,0,100,0,0
136011,-89.2857142857143,4,1,0,100,0,0
136582,-68.9655172413793,4,1,0,100,0,0
137725,-76.9230769230769,4,1,0,100,0,0

[HitObjects]
256,96,583,5,0,0:0:0:0:
396,328,868,1,0,0:0:0:0:
116,328,1154,1,0,0:0:0:0:
256,96,1440,1,0,0:0:0:0:
396,328,1725,1,0,0:0:0:0:
116,328,2011,1,0,0:0:0:0:
256,96,2297,1,0,0:0:0:0:
396,328,2582,1,0,0:0:0:0:
116,56,2868,5,0,0:0:0:0:
256,288,3153,1,0,0:0:0:0:
396,56,3439,1,0,0:0:0:0:
116,56,3725,1,0,0:0:0:0:
256,288,4010,1,0,0:0:0:0:
396,56,4296,1,0,0:0:0:0:
116,56,4582,1,0,0:0:0:0:
256,288,4867,1,0,0:0:0:0:
256,96,5154,5,0,0:0:0:0:
396,328,5439,1,0,0:0:0:0:
116,328,5725,1,0,0:0:0:0:
256,96,6011,1,0,0:0:0:0:
396,328,6296,1,0,0:0:0:0:
116,328,6582,1,0,0:0:0:0:
256,96,6868,1,0,0:0:0:0:
396,328,7153,1,0,0:0:0:0:
116,56,7439,5,0,0:0:0:0:
256,288,7724,1,0,0:0:0:0:
396,56,8010,1,0,0:0:0:0:
116,56,8296,1,0,0:0:0:0:
256,288,8581,1,0,0:0:0:0:
396,56,8867,1,0,0:0:0:0:
116,56,9153,1,0,0:0:0:0:
256,288,9438,1,0,0:0:0:0:
256,96,9725,5,0,0:0:0:0:
396,328,10010,1,0,0:0:0:0:
116,328,10296,1,0,0:0:0:0:
256,96,10582,1,0,0:0:0:0:
396,328,10867,1,0,0:0:0:0:
116,328,11153,1,0,0:0:0:0:
256,96,11439,1,0,0:0:0:0:
396,328,11724,1,0,0:0:0:0:
116,56,12010,5,0,0:0:0:0:
256,288,12295,1,0,0:0:0:0:
396,56,12581,1,0,0:0:0:0:
116,56,12867,1,0,0:0:0:0:
256,288,13152,1,0,0:0:0:0:
396,56,13438,1,0,0:0:0:0:
116,56,13724,1,0,0:0:0:0:
256,288,14009,1,0,0:0:0:0:
256,96,14297,5,0,0:0:0:0:
396,328,14582,1,0,0:0:0:0:
116,328,14868,1,0,0:0:0:0:
256,96,15154,1,0,0:0:0:0:
396,328,15439,1,0,0:0:0:0:
116,328,15725,1,0,0:0:0:0:
256,96,16011,1,0,0:0:0:0:
396,328,16296,1,0,0:0:0:0:
116,56,16582,5,0,0:0:0:0:
256,288,16867,1,0,0:0:0:0:
396,56,17153,1,0,0:0:0:0:
116,56,17439,1,0,0:0:0:0:
256,288,17724,1,0,0:0:0:0:
396,56,18010,1,0,0:0:0:0:
116,56,18296,1,0,0:0:0:0:
256,288,18581,1,0,0:0:0:0:
252,224,18868,6,0,B|172:24|172:24|344:24|344:24|252:224,1,600
252,160,21154,6,0,B|172:360|172:360|344:360|344:360|252:160,1,600
236,192,23440,2,0,B|252:160|252:160|276:212,1,75
324,320,23868,2,0,B|344:360|344:360|300:360,1,75
203,360,24296,2,0,B|172:360|172:360|188:320,1,75
252,160,24582,1,0,0:0:0:0:
172,360,24868,1,0,0:0:0:0:
344,360,25154,1,0,0:0:0:0:
252,160,25440,1,0,0:0:0:0:
172,360,25725,6,0,L|256:152,1,217.500006637574
344,360,26297,6,0,L|168:360,1,168.000002050781
258,158,26868,6,0,L|340:360,1,217.500006637574
252,160,28011,6,0,B|172:360|172:360|344:360|344:360|255:166,1,600
252,224,30297,6,0,B|172:24|172:24|344:24|344:24|255:217,1,600
236,192,32583,2,0,B|252:224|252:224|268:188,1,75
324,64,33011,2,0,B|344:24|344:24|313:24,1,75
203,24,33439,2,0,B|172:24|172:24|188:64,1,75
252,224,33725,1,0,0:0:0:0:
172,24,34011,1,0,0:0:0:0:
344,24,34297,1,0,0:0:0:0:
252,224,34583,1,0,0:0:0:0:
172,24,34868,6,0,L|253:225,1,217.500006637574
344,24,35440,6,0,L|176:24,1,168.000002050781
258,225,36011,6,0,L|340:24,1,217.500006637574
256,44,37154,6,0,L|332:44,1,75
384,265,37582,2,0,L|346:331,1,75
127,266,38011,2,0,L|89:200,1,75
384,118,38297,6,0,L|422:183,1,75
256,340,38725,2,0,L|180:340,1,75
127,118,39154,2,0,L|165:52,1,75
384,266,39440,6,0,L|346:331,1,75
127,266,39868,2,0,L|89:200,1,75
255,44,40297,2,0,L|332:44,1,75
256,340,40582,6,0,L|180:340,1,75
127,118,41010,2,0,L|165:52,1,75
384,117,41440,2,0,L|422:183,1,75
127,266,41725,6,0,L|89:200,1,75
255,44,42154,2,0,L|332:44,1,75
384,266,42582,2,0,L|346:331,1,75
127,118,42868,6,0,L|165:52,1,75
384,118,43297,2,0,L|422:183,1,75
256,340,43725,2,0,L|180:340,1,75
256,44,44011,6,0,L|332:44,1,75
384,265,44439,2,0,L|346:331,1,75
127,266,44868,2,0,L|89:200,1,75
384,118,45154,6,0,L|422:183,1,75
256,340,45582,2,0,L|180:340,1,75
127,118,46011,2,0,L|165:52,1,75
180,264,46297,6,0,B|256:136|256:136|332:264|332:264|172:264,1,450.000017166138
180,120,48582,6,0,B|256:248|256:248|332:120|332:120|172:120,1,450.000017166138
328,116,50868,6,0,B|200:192|200:192|328:268|328:268|328:108,1,450.000017166138
184,116,53153,6,0,B|312:192|312:192|184:268|184:268|184:108,1,450.000017166138
180,264,55440,6,0,B|256:136|256:136|332:264|332:264|172:264,1,450.000017166138
180,120,57725,6,0,B|256:248|256:248|332:120|332:120|172:120,1,450.000017166138
328,116,60011,6,0,B|200:192|200:192|328:268|328:268|328:108,1,450.000017166138
184,116,62296,6,0,B|312:192|312:192|184:268|184:268|184:108,1,450.000017166138
113,308,64582,6,0,L|263:44,1,300
413,305,65154,6,0,L|109:307,1,300
261,47,65725,6,0,L|415:309,1,300
113,308,66297,6,0,L|263:44,1,300
413,305,66869,6,0,L|109:307,1,300
261,47,67440,6,0,L|415:309,1,300
113,307,68011,1,0,0:0:0:0:
261,47,68297,1,0,0:0:0:0:
413,305,68582,1,0,0:0:0:0:
113,307,68868,1,0,0:0:0:0:
113,75,69154,6,0,L|263:339,1,300
413,78,69726,6,0,L|109:76,1,300
261,336,70297,6,0,L|415:74,1,300
113,75,70869,6,0,L|263:339,1,300
413,78,71441,6,0,L|109:76,1,300
261,336,72012,6,0,L|415:74,1,300
113,77,72583,1,0,0:0:0:0:
261,337,72869,1,0,0:0:0:0:
413,79,73154,1,0,0:0:0:0:
113,77,73440,1,0,0:0:0:0:
113,308,73725,6,0,L|263:44,1,300
413,305,74297,6,0,L|109:307,1,300
261,47,74868,6,0,L|415:309,1,300
113,308,75440,6,0,L|263:44,1,300
413,305,76012,6,0,L|109:307,1,300
261,47,76583,6,0,L|415:309,1,300
113,307,77154,1,0,0:0:0:0:
261,47,77440,1,0,0:0:0:0:
413,305,77725,1,0,0:0:0:0:
113,307,78011,1,0,0:0:0:0:
113,75,78297,6,0,L|263:339,1,300
413,78,78869,6,0,L|109:76,1,300
261,336,79440,6,0,L|415:74,1,300
113,75,80012,6,0,L|263:339,1,300
413,78,80584,6,0,L|109:76,1,300
261,336,81155,6,0,L|415:74,1,300
113,77,81726,1,0,0:0:0:0:
261,337,82012,1,0,0:0:0:0:
413,79,82297,1,0,0:0:0:0:
113,77,82583,1,0,0:0:0:0:
252,224,82868,6,0,B|172:24|172:24|344:24|344:24|252:224,1,600
252,160,85154,6,0,B|172:360|172:360|344:360|344:360|252:160,1,600
236,192,87440,2,0,B|252:160|252:160|276:212,1,75
324,320,87868,2,0,B|344:360|344:360|300:360,1,75
203,360,88296,2,0,B|172:360|172:360|188:320,1,75
252,160,88582,1,0,0:0:0:0:
172,360,88868,1,0,0:0:0:0:
344,360,89154,1,0,0:0:0:0:
252,160,89440,1,0,0:0:0:0:
172,360,89725,6,0,L|256:152,1,217.500006637574
344,360,90297,6,0,L|168:360,1,168.000002050781
258,158,90868,6,0,L|340:360,1,217.500006637574
252,160,92011,6,0,B|172:360|172:360|344:360|344:360|255:166,1,600
252,224,94297,6,0,B|172:24|172:24|344:24|344:24|255:217,1,600
236,192,96583,2,0,B|252:224|252:224|268:188,1,75
324,64,97011,2,0,B|344:24|344:24|313:24,1,75
203,24,97439,2,0,B|172:24|172:24|188:64,1,75
252,224,97725,1,0,0:0:0:0:
172,24,98011,1,0,0:0:0:0:
344,24,98297,1,0,0:0:0:0:
252,224,98583,1,0,0:0:0:0:
172,24,98868,6,0,L|253:225,1,217.500006637574
344,24,99440,6,0,L|176:24,1,168.000002050781
258,225,100011,6,0,L|340:24,1,217.500006637574
180,268,101154,6,0,B|256:136|256:136|332:268|332:268|180:268|180:268|256:136|256:136|332:268,1,750
332,116,105725,6,0,B|256:248|256:248|180:116|180:116|332:116|332:116|256:248|256:248|180:116,1,750
180,116,110297,6,0,B|312:192|312:192|180:268|180:268|180:116|180:116|312:192|312:192|180:268,1,750
332,116,114868,6,0,B|200:192|200:192|332:268|332:268|332:116|332:116|200:192|200:192|332:268,1,750
252,224,119440,6,0,B|172:24|172:24|344:24|344:24|252:224,1,600
252,160,121726,6,0,B|172:360|172:360|344:360|344:360|252:160,1,600
236,192,124012,2,0,B|252:160|252:160|276:212,1,75
324,320,124440,2,0,B|344:360|344:360|300:360,1,75
203,360,124868,2,0,B|172:360|172:360|188:320,1,75
252,160,125154,1,0,0:0:0:0:
172,360,125440,1,0,0:0:0:0:
344,360,125726,1,0,0:0:0:0:
252,160,126012,1,0,0:0:0:0:
172,360,126297,6,0,L|256:152,1,217.500006637574
344,360,126869,6,0,L|168:360,1,168.000002050781
258,158,127440,6,0,L|340:360,1,217.500006637574
252,160,128583,6,0,B|172:360|172:360|344:360|344:360|255:166,1,600
252,224,130869,6,0,B|172:24|172:24|344:24|344:24|255:217,1,600
236,192,133155,2,0,B|252:224|252:224|268:188,1,75
324,64,133583,2,0,B|344:24|344:24|313:24,1,75
203,24,134011,2,0,B|172:24|172:24|188:64,1,75
252,224,134297,1,0,0:0:0:0:
172,24,134583,1,0,0:0:0:0:
344,24,134869,1,0,0:0:0:0:
252,224,135155,1,0,0:0:0:0:
172,24,135440,6,0,L|253:225,1,217.500006637574
344,24,136012,6,0,L|176:24,1,168.000002050781
258,225,136583,6,0,L|340:24,1,217.500006637574
176,280,137726,6,0,B|256:136|256:136|336:280|336:280|176:280|176:280|256:136|256:136|336:280,1,779.999964294435
