osu file format v14

[General]
AudioFilename: audio.mp3
AudioLeadIn: 0
PreviewTime: -1
Countdown: 1
SampleSet: None
StackLeniency: 0.7
Mode: 3
LetterboxInBreaks: 0
SpecialStyle: 0
WidescreenStoryboard: 0

[Editor]
Bookmarks: 15487,30847,46207,61567,76927
DistanceSpacing: 2
BeatDivisor: 4
GridSize: 16
TimelineZoom: 1

[Metadata]
Title:Jumping Jacks
TitleUnicode:Jumping Jacks
Artist:Have Fun Teaching
ArtistUnicode:Have Fun Teaching
Creator:Tantei B
Version:stage 1 : Rebound
Source:
Tags:sv
BeatmapID:2039696
BeatmapSetID:974445

[Difficulty]
HPDrainRate:8
CircleSize:4
OverallDifficulty:8
ApproachRate:5
SliderMultiplier:1.4
SliderTickRate:1

[Events]
//Background and Video events
0,0,"jumpingjack.png",0,0
//Break Periods
//Storyboard Layer 0 (Background)
//Storyboard Layer 1 (Fail)
//Storyboard Layer 2 (Pass)
//Storyboard Layer 3 (Foreground)
//Storyboard Sound Samples

[TimingPoints]
127,480,4,2,0,21,1,0
607,-50,4,2,0,21,0,0
667,-166.666666666667,4,2,0,21,0,0
787,-111.111111111111,4,2,0,21,0,0
847,-50,4,2,0,21,0,0
907,-166.666666666667,4,2,0,21,0,0
1027,-111.111111111111,4,2,0,21,0,0
1087,-50,4,2,0,21,0,0
1147,-58.8235294117647,4,2,0,21,0,0
1207,-71.4285714285714,4,2,0,21,0,0
1267,-90.9090909090909,4,2,0,21,0,0
1327,-125,4,2,0,21,0,0
1387,-200,4,2,0,21,0,0
1447,-500,4,2,0,21,0,0
2167,-333.333333333333,4,2,0,21,0,0
2287,-222.222222222222,4,2,0,21,0,0
2407,-166.666666666667,4,2,0,21,0,0
2467,-111.111111111111,4,2,0,21,0,0
2527,-50,4,2,0,21,0,0
2587,-166.666666666667,4,2,0,21,0,0
2707,-111.111111111111,4,2,0,21,0,0
2767,-50,4,2,0,21,0,0
2827,-166.666666666667,4,2,0,21,0,0
2947,-111.111111111111,4,2,0,21,0,0
3007,-50,4,2,0,21,0,0
3067,-58.8235294117647,4,2,0,21,0,0
3127,-71.4285714285714,4,2,0,21,0,0
3187,-90.9090909090909,4,2,0,21,0,0
3247,-125,4,2,0,21,0,0
3307,-200,4,2,0,21,0,0
3367,-500,4,2,0,21,0,0
4087,-333.333333333333,4,2,0,21,0,0
4207,-222.222222222222,4,2,0,21,0,0
4327,-166.666666666667,4,2,0,21,0,0
4387,-111.111111111111,4,2,0,21,0,0
4447,-50,4,2,0,21,0,0
4507,-166.666666666667,4,2,0,21,0,0
4627,-111.111111111111,4,2,0,21,0,0
4687,-50,4,2,0,21,0,0
4747,-166.666666666667,4,2,0,21,0,0
4867,-111.111111111111,4,2,0,21,0,0
4927,-50,4,2,0,21,0,0
4987,-58.8235294117647,4,2,0,21,0,0
5047,-71.4285714285714,4,2,0,21,0,0
5107,-90.9090909090909,4,2,0,21,0,0
5167,-125,4,2,0,21,0,0
5227,-200,4,2,0,21,0,0
5287,-500,4,2,0,21,0,0
6007,-333.333333333333,4,2,0,21,0,0
6127,-222.222222222222,4,2,0,21,0,0
6247,-166.666666666667,4,2,0,21,0,0
6307,-111.111111111111,4,2,0,21,0,0
6367,-50,4,2,0,21,0,0
6427,-166.666666666667,4,2,0,21,0,0
6547,-111.111111111111,4,2,0,21,0,0
6607,-50,4,2,0,21,0,0
6667,-166.666666666667,4,2,0,21,0,0
6787,-111.111111111111,4,2,0,21,0,0
6847,-50,4,2,0,21,0,0
6907,-58.8235294117647,4,2,0,21,0,0
6967,-71.4285714285714,4,2,0,21,0,0
7027,-90.9090909090909,4,2,0,21,0,0
7087,-125,4,2,0,21,0,0
7147,-200,4,2,0,21,0,0
7207,-500,4,2,0,21,0,0
7927,-333.333333333333,4,2,0,21,0,0
8047,-222.222222222222,4,2,0,21,0,0
8167,-166.666666666667,4,2,0,21,0,0
8227,-111.111111111111,4,2,0,21,0,0
8287,-50,4,2,0,21,0,0
8347,-166.666666666667,4,2,0,21,0,0
8467,-111.111111111111,4,2,0,21,0,0
8527,-50,4,2,0,21,0,0
8587,-166.666666666667,4,2,0,21,0,0
8707,-111.111111111111,4,2,0,21,0,0
8767,-50,4,2,0,21,0,0
8827,-58.8235294117647,4,2,0,21,0,0
8887,-71.4285714285714,4,2,0,21,0,0
8947,-90.9090909090909,4,2,0,21,0,0
9007,-125,4,2,0,21,0,0
9067,-200,4,2,0,21,0,0
9127,-500,4,2,0,21,0,0
9847,-333.333333333333,4,2,0,21,0,0
9967,-222.222222222222,4,2,0,21,0,0
10087,-166.666666666667,4,2,0,21,0,0
10147,-111.111111111111,4,2,0,21,0,0
10207,-50,4,2,0,21,0,0
10267,-166.666666666667,4,2,0,21,0,0
10387,-111.111111111111,4,2,0,21,0,0
10447,-50,4,2,0,21,0,0
10507,-166.666666666667,4,2,0,21,0,0
10627,-111.111111111111,4,2,0,21,0,0
10687,-50,4,2,0,21,0,0
10747,-58.8235294117647,4,2,0,21,0,0
10807,-71.4285714285714,4,2,0,21,0,0
10867,-90.9090909090909,4,2,0,21,0,0
10927,-125,4,2,0,21,0,0
10987,-200,4,2,0,21,0,0
11047,-500,4,2,0,21,0,0
11767,-333.333333333333,4,2,0,21,0,0
11887,-222.222222222222,4,2,0,21,0,0
12007,-166.666666666667,4,2,0,21,0,0
12067,-111.111111111111,4,2,0,21,0,0
12127,-50,4,2,0,21,0,0
12187,-166.666666666667,4,2,0,21,0,0
12307,-111.111111111111,4,2,0,21,0,0
12367,-50,4,2,0,21,0,0
12427,-166.666666666667,4,2,0,21,0,0
12547,-111.111111111111,4,2,0,21,0,0
12607,-50,4,2,0,21,0,0
12667,-58.8235294117647,4,2,0,21,0,0
12727,-71.4285714285714,4,2,0,21,0,0
12787,-90.9090909090909,4,2,0,21,0,0
12847,-125,4,2,0,21,0,0
12907,-200,4,2,0,21,0,0
12967,-500,4,2,0,21,0,0
13687,-333.333333333333,4,2,0,21,0,0
13807,-222.222222222222,4,2,0,21,0,0
13927,-166.666666666667,4,2,0,21,0,0
13987,-111.111111111111,4,2,0,21,0,0
14047,-50,4,2,0,21,0,0
14107,-166.666666666667,4,2,0,21,0,0
14227,-111.111111111111,4,2,0,21,0,0
14287,-50,4,2,0,21,0,0
14347,-166.666666666667,4,2,0,21,0,0
14467,-111.111111111111,4,2,0,21,0,0
14527,-50,4,2,0,21,0,0
14587,-58.8235294117647,4,2,0,21,0,0
14647,-71.4285714285714,4,2,0,21,0,0
14707,-90.9090909090909,4,2,0,21,0,0
14767,-125,4,2,0,21,0,0
14827,-200,4,2,0,21,0,0
14887,-500,4,2,0,21,0,0
15007,-333.333333333333,4,2,0,21,0,0
15087,-250,4,2,0,21,0,0
15167,-200,4,2,0,21,0,0
15247,-166.666666666667,4,2,0,21,0,0
15327,-142.857142857143,4,2,0,21,0,0
15407,-125,4,2,0,21,0,0
15487,-111.111111111111,4,2,0,21,0,0
15567,-100,4,2,0,21,0,0
15967,-71.4285714285714,4,2,0,21,0,0
16027,-114.942528735632,4,2,0,21,0,0
16087,-156.25,4,2,0,21,0,0
16147,-232.558139534884,4,2,0,21,0,0
16207,-50,4,2,0,21,0,0
16267,-166.666666666667,4,2,0,21,0,0
16387,-111.111111111111,4,2,0,21,0,0
16447,-50,4,2,0,21,0,0
16507,-166.666666666667,4,2,0,21,0,0
16687,-64.5161290322581,4,2,0,21,0,0
16767,-76.9230769230769,4,2,0,21,0,0
16847,-95.2380952380952,4,2,0,21,0,0
16927,-125,4,2,0,21,0,0
17047,-166.666666666667,4,2,0,21,0,0
17167,-250,4,2,0,21,0,0
17287,-500,4,2,0,21,0,0
17527,-333.333333333333,4,2,0,21,0,0
17647,-222.222222222222,4,2,0,21,0,0
17767,-166.666666666667,4,2,0,21,0,0
17887,-71.4285714285714,4,2,0,21,0,0
17947,-114.942528735632,4,2,0,21,0,0
18007,-156.25,4,2,0,21,0,0
18067,-232.558139534884,4,2,0,21,0,0
18127,-50,4,2,0,21,0,0
18187,-166.666666666667,4,2,0,21,0,0
18307,-111.111111111111,4,2,0,21,0,0
18367,-50,4,2,0,21,0,0
18427,-166.666666666667,4,2,0,21,0,0
18607,-64.5161290322581,4,2,0,21,0,0
18687,-76.9230769230769,4,2,0,21,0,0
18767,-95.2380952380952,4,2,0,21,0,0
18847,-125,4,2,0,21,0,0
18967,-166.666666666667,4,2,0,21,0,0
19087,-250,4,2,0,21,0,0
19207,-500,4,2,0,21,0,0
19447,-333.333333333333,4,2,0,21,0,0
19567,-222.222222222222,4,2,0,21,0,0
19687,-166.666666666667,4,2,0,21,0,0
19807,-71.4285714285714,4,2,0,21,0,0
19867,-114.942528735632,4,2,0,21,0,0
19927,-156.25,4,2,0,21,0,0
19987,-232.558139534884,4,2,0,21,0,0
20047,-50,4,2,0,21,0,0
20107,-166.666666666667,4,2,0,21,0,0
20227,-111.111111111111,4,2,0,21,0,0
20287,-50,4,2,0,21,0,0
20347,-166.666666666667,4,2,0,21,0,0
20527,-64.5161290322581,4,2,0,21,0,0
20607,-76.9230769230769,4,2,0,21,0,0
20687,-95.2380952380952,4,2,0,21,0,0
20767,-125,4,2,0,21,0,0
20887,-166.666666666667,4,2,0,21,0,0
21007,-250,4,2,0,21,0,0
21127,-500,4,2,0,21,0,0
21367,-333.333333333333,4,2,0,21,0,0
21487,-222.222222222222,4,2,0,21,0,0
21607,-166.666666666667,4,2,0,21,0,0
21727,-71.4285714285714,4,2,0,21,0,0
21787,-114.942528735632,4,2,0,21,0,0
21847,-156.25,4,2,0,21,0,0
21907,-232.558139534884,4,2,0,21,0,0
21967,-50,4,2,0,21,0,0
22027,-166.666666666667,4,2,0,21,0,0
22147,-111.111111111111,4,2,0,21,0,0
22207,-50,4,2,0,21,0,0
22267,-166.666666666667,4,2,0,21,0,0
22447,-64.5161290322581,4,2,0,21,0,0
22527,-76.9230769230769,4,2,0,21,0,0
22607,-95.2380952380952,4,2,0,21,0,0
22687,-125,4,2,0,21,0,0
22807,-166.666666666667,4,2,0,21,0,0
22927,-250,4,2,0,21,0,0
23047,-500,4,2,0,21,0,0
23287,-333.333333333333,4,2,0,21,0,0
23407,-222.222222222222,4,2,0,21,0,0
23527,-166.666666666667,4,2,0,21,0,0
23647,-71.4285714285714,4,2,0,21,0,0
23707,-114.942528735632,4,2,0,21,0,0
23767,-156.25,4,2,0,21,0,0
23827,-232.558139534884,4,2,0,21,0,0
23887,-50,4,2,0,21,0,0
23947,-166.666666666667,4,2,0,21,0,0
24067,-111.111111111111,4,2,0,21,0,0
24127,-50,4,2,0,21,0,0
24187,-166.666666666667,4,2,0,21,0,0
24367,-64.5161290322581,4,2,0,21,0,0
24447,-76.9230769230769,4,2,0,21,0,0
24527,-95.2380952380952,4,2,0,21,0,0
24607,-125,4,2,0,21,0,0
24727,-166.666666666667,4,2,0,21,0,0
24847,-250,4,2,0,21,0,0
24967,-500,4,2,0,21,0,0
25207,-333.333333333333,4,2,0,21,0,0
25327,-222.222222222222,4,2,0,21,0,0
25447,-166.666666666667,4,2,0,21,0,0
25567,-71.4285714285714,4,2,0,21,0,0
25627,-114.942528735632,4,2,0,21,0,0
25687,-156.25,4,2,0,21,0,0
25747,-232.558139534884,4,2,0,21,0,0
25807,-50,4,2,0,21,0,0
25867,-166.666666666667,4,2,0,21,0,0
25987,-111.111111111111,4,2,0,21,0,0
26047,-50,4,2,0,21,0,0
26107,-166.666666666667,4,2,0,21,0,0
26287,-64.5161290322581,4,2,0,21,0,0
26367,-76.9230769230769,4,2,0,21,0,0
26447,-95.2380952380952,4,2,0,21,0,0
26527,-125,4,2,0,21,0,0
26647,-166.666666666667,4,2,0,21,0,0
26767,-250,4,2,0,21,0,0
26887,-500,4,2,0,21,0,0
27127,-333.333333333333,4,2,0,21,0,0
27247,-222.222222222222,4,2,0,21,0,0
27367,-166.666666666667,4,2,0,21,0,0
27487,-71.4285714285714,4,2,0,21,0,0
27547,-114.942528735632,4,2,0,21,0,0
27607,-156.25,4,2,0,21,0,0
27667,-232.558139534884,4,2,0,21,0,0
27727,-50,4,2,0,21,0,0
27787,-166.666666666667,4,2,0,21,0,0
27907,-111.111111111111,4,2,0,21,0,0
27967,-50,4,2,0,21,0,0
28027,-166.666666666667,4,2,0,21,0,0
28207,-64.5161290322581,4,2,0,21,0,0
28287,-76.9230769230769,4,2,0,21,0,0
28367,-95.2380952380952,4,2,0,21,0,0
28447,-125,4,2,0,21,0,0
28567,-166.666666666667,4,2,0,21,0,0
28687,-250,4,2,0,21,0,0
28807,-500,4,2,0,21,0,0
29047,-333.333333333333,4,2,0,21,0,0
29167,-222.222222222222,4,2,0,21,0,0
29287,-166.666666666667,4,2,0,21,0,0
29407,-71.4285714285714,4,2,0,21,0,0
29467,-114.942528735632,4,2,0,21,0,0
29527,-156.25,4,2,0,21,0,0
29587,-232.558139534884,4,2,0,21,0,0
29647,-50,4,2,0,21,0,0
29707,-166.666666666667,4,2,0,21,0,0
29827,-111.111111111111,4,2,0,21,0,0
29887,-50,4,2,0,21,0,0
29947,-166.666666666667,4,2,0,21,0,0
30127,-64.5161290322581,4,2,0,21,0,0
30207,-76.9230769230769,4,2,0,21,0,0
30287,-95.2380952380952,4,2,0,21,0,0
30367,-125,4,2,0,21,0,0
30487,-166.666666666667,4,2,0,21,0,0
30607,-250,4,2,0,21,0,0
30727,-208.333333333333,4,2,0,21,0,0
30847,-178.571428571429,4,2,0,21,0,0
30967,-156.25,4,2,0,21,0,0
31087,-138.888888888889,4,2,0,21,0,0
31207,-125,4,2,0,21,0,0
31327,-83.3333333333333,4,2,0,21,0,0
31447,-100,4,2,0,21,0,0
31567,-125,4,2,0,21,0,0
31807,-111.111111111111,4,2,0,21,0,0
31927,-95.2380952380952,4,2,0,21,0,0
32047,-86.9565217391304,4,2,0,21,0,0
32167,-105.263157894737,4,2,0,21,0,0
32287,-133.333333333333,4,2,0,21,0,0
32407,-181.818181818182,4,2,0,21,0,0
32527,-285.714285714286,4,2,0,21,0,0
32647,-666.666666666667,4,2,0,21,0,0
32887,-333.333333333333,4,2,0,21,0,0
33007,-222.222222222222,4,2,0,21,0,0
33127,-166.666666666667,4,2,0,21,0,0
33247,-83.3333333333333,4,2,0,21,0,0
33367,-100,4,2,0,21,0,0
33487,-125,4,2,0,21,0,0
33727,-111.111111111111,4,2,0,21,0,0
33847,-95.2380952380952,4,2,0,21,0,0
33967,-86.9565217391304,4,2,0,21,0,0
34087,-105.263157894737,4,2,0,21,0,0
34207,-133.333333333333,4,2,0,21,0,0
34327,-181.818181818182,4,2,0,21,0,0
34447,-285.714285714286,4,2,0,21,0,0
34567,-666.666666666667,4,2,0,21,0,0
34807,-333.333333333333,4,2,0,21,0,0
34927,-222.222222222222,4,2,0,21,0,0
35047,-166.666666666667,4,2,0,21,0,0
35167,-83.3333333333333,4,2,0,21,0,0
35287,-100,4,2,0,21,0,0
35407,-125,4,2,0,21,0,0
35647,-111.111111111111,4,2,0,21,0,0
35767,-95.2380952380952,4,2,0,21,0,0
35887,-86.9565217391304,4,2,0,21,0,0
36007,-105.263157894737,4,2,0,21,0,0
36127,-133.333333333333,4,2,0,21,0,0
36247,-181.818181818182,4,2,0,21,0,0
36367,-285.714285714286,4,2,0,21,0,0
36487,-666.666666666667,4,2,0,21,0,0
36727,-333.333333333333,4,2,0,21,0,0
36847,-222.222222222222,4,2,0,21,0,0
36967,-166.666666666667,4,2,0,21,0,0
37087,-83.3333333333333,4,2,0,21,0,0
37207,-100,4,2,0,21,0,0
37327,-125,4,2,0,21,0,0
37567,-111.111111111111,4,2,0,21,0,0
37687,-95.2380952380952,4,2,0,21,0,0
37807,-86.9565217391304,4,2,0,21,0,0
37927,-105.263157894737,4,2,0,21,0,0
38047,-133.333333333333,4,2,0,21,0,0
38167,-181.818181818182,4,2,0,21,0,0
38287,-133.333333333333,4,2,0,21,0,0
38407,-105.263157894737,4,2,0,21,0,0
38887,-166.666666666667,4,2,0,21,0,0
39007,-83.3333333333333,4,2,0,21,0,0
39127,-100,4,2,0,21,0,0
39247,-125,4,2,0,21,0,0
39487,-111.111111111111,4,2,0,21,0,0
39607,-95.2380952380952,4,2,0,21,0,0
39727,-86.9565217391304,4,2,0,21,0,0
39847,-105.263157894737,4,2,0,21,0,0
39967,-133.333333333333,4,2,0,21,0,0
40087,-181.818181818182,4,2,0,21,0,0
40207,-285.714285714286,4,2,0,21,0,0
40327,-666.666666666667,4,2,0,21,0,0
40567,-333.333333333333,4,2,0,21,0,0
40687,-222.222222222222,4,2,0,21,0,0
40807,-166.666666666667,4,2,0,21,0,0
40927,-83.3333333333333,4,2,0,21,0,0
41047,-100,4,2,0,21,0,0
41167,-125,4,2,0,21,0,0
41407,-111.111111111111,4,2,0,21,0,0
41527,-95.2380952380952,4,2,0,21,0,0
41647,-86.9565217391304,4,2,0,21,0,0
41767,-105.263157894737,4,2,0,21,0,0
41887,-133.333333333333,4,2,0,21,0,0
42007,-181.818181818182,4,2,0,21,0,0
42127,-285.714285714286,4,2,0,21,0,0
42247,-666.666666666667,4,2,0,21,0,0
42487,-333.333333333333,4,2,0,21,0,0
42607,-222.222222222222,4,2,0,21,0,0
42727,-166.666666666667,4,2,0,21,0,0
42847,-83.3333333333333,4,2,0,21,0,0
42967,-100,4,2,0,21,0,0
43087,-125,4,2,0,21,0,0
43327,-111.111111111111,4,2,0,21,0,0
43447,-95.2380952380952,4,2,0,21,0,0
43567,-86.9565217391304,4,2,0,21,0,0
43687,-105.263157894737,4,2,0,21,0,0
43807,-133.333333333333,4,2,0,21,0,0
43927,-181.818181818182,4,2,0,21,0,0
44047,-285.714285714286,4,2,0,21,0,0
44167,-666.666666666667,4,2,0,21,0,0
44407,-333.333333333333,4,2,0,21,0,0
44527,-222.222222222222,4,2,0,21,0,0
44647,-166.666666666667,4,2,0,21,0,0
44767,-83.3333333333333,4,2,0,21,0,0
44887,-100,4,2,0,21,0,0
45007,-125,4,2,0,21,0,0
45247,-111.111111111111,4,2,0,21,0,0
45367,-95.2380952380952,4,2,0,21,0,0
45487,-86.9565217391304,4,2,0,21,0,0
45607,-105.263157894737,4,2,0,21,0,0
45727,-133.333333333333,4,2,0,21,0,0
45847,-181.818181818182,4,2,0,21,0,0
45967,-133.333333333333,4,2,0,21,0,0
46087,-105.263157894737,4,2,0,21,0,0
46567,-166.666666666667,4,2,0,21,0,0
46687,-50,4,2,0,21,0,0
46747,-125,4,2,0,21,0,0
46807,-250,4,2,0,21,0,0
46927,-50,4,2,0,21,0,0
46987,-125,4,2,0,21,0,0
47047,-250,4,2,0,21,0,0
47167,-10,4,2,0,21,0,0
47227,-71.4285714285714,4,2,0,21,0,0
47287,-100,4,2,0,21,0,0
47347,-125,4,2,0,21,0,0
47407,-166.666666666667,4,2,0,21,0,0
47467,-250,4,2,0,21,0,0
47527,-500,4,2,0,21,0,0
47647,-10,4,2,0,21,0,0
47707,-71.4285714285714,4,2,0,21,0,0
47767,-100,4,2,0,21,0,0
47827,-125,4,2,0,21,0,0
47887,-166.666666666667,4,2,0,21,0,0
47947,-250,4,2,0,21,0,0
48007,-500,4,2,0,21,0,0
48127,-10,4,2,0,21,0,0
48187,-71.4285714285714,4,2,0,21,0,0
48247,-100,4,2,0,21,0,0
48307,-125,4,2,0,21,0,0
48367,-166.666666666667,4,2,0,21,0,0
48427,-250,4,2,0,21,0,0
48487,-500,4,2,0,21,0,0
48607,-125,4,2,0,21,0,0
48667,-250,4,2,0,21,0,0
48727,-500,4,2,0,21,0,0
48847,-125,4,2,0,21,0,0
48907,-250,4,2,0,21,0,0
48967,-500,4,2,0,21,0,0
49087,-125,4,2,0,21,0,0
49147,-250,4,2,0,21,0,0
49207,-500,4,2,0,21,0,0
49327,-71.4285714285714,4,2,0,21,0,0
49407,-79.3650793650794,4,2,0,21,0,0
49487,-89.2857142857143,4,2,0,21,0,0
49567,-102.040816326531,4,2,0,21,0,0
49647,-119.047619047619,4,2,0,21,0,0
49727,-142.857142857143,4,2,0,21,0,0
49807,-178.571428571429,4,2,0,21,0,0
49887,-238.095238095238,4,2,0,21,0,0
50047,-50,4,2,0,21,0,0
50107,-125,4,2,0,21,0,0
50167,-250,4,2,0,21,0,0
50287,-50,4,2,0,21,0,0
50347,-125,4,2,0,21,0,0
50407,-250,4,2,0,21,0,0
50527,-50,4,2,0,21,0,0
50587,-125,4,2,0,21,0,0
50647,-250,4,2,0,21,0,0
50767,-50,4,2,0,21,0,0
50827,-125,4,2,0,21,0,0
50887,-250,4,2,0,21,0,0
51007,-10,4,2,0,21,0,0
51067,-71.4285714285714,4,2,0,21,0,0
51127,-100,4,2,0,21,0,0
51187,-125,4,2,0,21,0,0
51247,-166.666666666667,4,2,0,21,0,0
51307,-250,4,2,0,21,0,0
51367,-500,4,2,0,21,0,0
51487,-10,4,2,0,21,0,0
51547,-71.4285714285714,4,2,0,21,0,0
51607,-100,4,2,0,21,0,0
51667,-125,4,2,0,21,0,0
51727,-166.666666666667,4,2,0,21,0,0
51787,-250,4,2,0,21,0,0
51847,-500,4,2,0,21,0,0
51967,-10,4,2,0,21,0,0
52027,-71.4285714285714,4,2,0,21,0,0
52087,-100,4,2,0,21,0,0
52147,-125,4,2,0,21,0,0
52207,-166.666666666667,4,2,0,21,0,0
52267,-250,4,2,0,21,0,0
52327,-500,4,2,0,21,0,0
52447,-125,4,2,0,21,0,0
52507,-250,4,2,0,21,0,0
52567,-500,4,2,0,21,0,0
52687,-125,4,2,0,21,0,0
52747,-250,4,2,0,21,0,0
52807,-500,4,2,0,21,0,0
52927,-125,4,2,0,21,0,0
52987,-250,4,2,0,21,0,0
53047,-500,4,2,0,21,0,0
53167,-71.4285714285714,4,2,0,21,0,0
53247,-79.3650793650794,4,2,0,21,0,0
53327,-89.2857142857143,4,2,0,21,0,0
53407,-102.040816326531,4,2,0,21,0,0
53487,-119.047619047619,4,2,0,21,0,0
53567,-142.857142857143,4,2,0,21,0,0
53647,-178.571428571429,4,2,0,21,0,0
53727,-238.095238095238,4,2,0,21,0,0
53887,-50,4,2,0,21,0,0
53947,-125,4,2,0,21,0,0
54007,-250,4,2,0,21,0,0
54127,-50,4,2,0,21,0,0
54187,-125,4,2,0,21,0,0
54247,-250,4,2,0,21,0,0
54367,-50,4,2,0,21,0,0
54427,-125,4,2,0,21,0,0
54487,-250,4,2,0,21,0,0
54607,-50,4,2,0,21,0,0
54667,-125,4,2,0,21,0,0
54727,-250,4,2,0,21,0,0
54847,-10,4,2,0,21,0,0
54907,-71.4285714285714,4,2,0,21,0,0
54967,-100,4,2,0,21,0,0
55027,-125,4,2,0,21,0,0
55087,-166.666666666667,4,2,0,21,0,0
55147,-250,4,2,0,21,0,0
55207,-500,4,2,0,21,0,0
55327,-10,4,2,0,21,0,0
55387,-71.4285714285714,4,2,0,21,0,0
55447,-100,4,2,0,21,0,0
55507,-125,4,2,0,21,0,0
55567,-166.666666666667,4,2,0,21,0,0
55627,-250,4,2,0,21,0,0
55687,-500,4,2,0,21,0,0
55807,-10,4,2,0,21,0,0
55867,-71.4285714285714,4,2,0,21,0,0
55927,-100,4,2,0,21,0,0
55987,-125,4,2,0,21,0,0
56047,-166.666666666667,4,2,0,21,0,0
56107,-250,4,2,0,21,0,0
56167,-500,4,2,0,21,0,0
56287,-125,4,2,0,21,0,0
56347,-250,4,2,0,21,0,0
56407,-500,4,2,0,21,0,0
56527,-125,4,2,0,21,0,0
56587,-250,4,2,0,21,0,0
56647,-500,4,2,0,21,0,0
56767,-125,4,2,0,21,0,0
56827,-250,4,2,0,21,0,0
56887,-500,4,2,0,21,0,0
57007,-71.4285714285714,4,2,0,21,0,0
57087,-79.3650793650794,4,2,0,21,0,0
57167,-89.2857142857143,4,2,0,21,0,0
57247,-102.040816326531,4,2,0,21,0,0
57327,-119.047619047619,4,2,0,21,0,0
57407,-142.857142857143,4,2,0,21,0,0
57487,-178.571428571429,4,2,0,21,0,0
57567,-238.095238095238,4,2,0,21,0,0
57727,-50,4,2,0,21,0,0
57787,-125,4,2,0,21,0,0
57847,-250,4,2,0,21,0,0
57967,-50,4,2,0,21,0,0
58027,-125,4,2,0,21,0,0
58087,-250,4,2,0,21,0,0
58207,-50,4,2,0,21,0,0
58267,-125,4,2,0,21,0,0
58327,-250,4,2,0,21,0,0
58447,-50,4,2,0,21,0,0
58507,-125,4,2,0,21,0,0
58567,-250,4,2,0,21,0,0
58687,-10,4,2,0,21,0,0
58747,-71.4285714285714,4,2,0,21,0,0
58807,-100,4,2,0,21,0,0
58867,-125,4,2,0,21,0,0
58927,-166.666666666667,4,2,0,21,0,0
58987,-250,4,2,0,21,0,0
59047,-500,4,2,0,21,0,0
59167,-10,4,2,0,21,0,0
59227,-71.4285714285714,4,2,0,21,0,0
59287,-100,4,2,0,21,0,0
59347,-125,4,2,0,21,0,0
59407,-166.666666666667,4,2,0,21,0,0
59467,-250,4,2,0,21,0,0
59527,-500,4,2,0,21,0,0
59647,-10,4,2,0,21,0,0
59707,-71.4285714285714,4,2,0,21,0,0
59767,-100,4,2,0,21,0,0
59827,-125,4,2,0,21,0,0
59887,-166.666666666667,4,2,0,21,0,0
59947,-250,4,2,0,21,0,0
60007,-500,4,2,0,21,0,0
60127,-125,4,2,0,21,0,0
60187,-250,4,2,0,21,0,0
60247,-500,4,2,0,21,0,0
60367,-125,4,2,0,21,0,0
60427,-250,4,2,0,21,0,0
60487,-500,4,2,0,21,0,0
60607,-125,4,2,0,21,0,0
60667,-250,4,2,0,21,0,0
60727,-500,4,2,0,21,0,0
60847,-71.4285714285714,4,2,0,21,0,0
60927,-79.3650793650794,4,2,0,21,0,0
61007,-89.2857142857143,4,2,0,21,0,0
61087,-102.040816326531,4,2,0,21,0,0
61167,-119.047619047619,4,2,0,21,0,0
61247,-142.857142857143,4,2,0,21,0,0
61327,-178.571428571429,4,2,0,21,0,0
61407,-238.095238095238,4,2,0,21,0,0
61487,-200,4,2,0,21,0,0
61567,-172.413793103448,4,2,0,21,0,0
61647,-151.515151515152,4,2,0,21,0,0
61727,-135.135135135135,4,2,0,21,0,0
61807,-121.951219512195,4,2,0,21,0,0
61887,-111.111111111111,4,2,0,21,0,0
61967,-102.040816326531,4,2,0,21,0,0
65407,6,4,2,0,21,1,0
69247,480,4,2,0,21,1,0
73087,6,4,2,0,21,1,0
76927,480,4,2,0,21,1,0
77407,-50,4,2,0,21,0,0
77467,-166.666666666667,4,2,0,21,0,0
77587,-111.111111111111,4,2,0,21,0,0
77647,-50,4,2,0,21,0,0
77707,-166.666666666667,4,2,0,21,0,0
77827,-111.111111111111,4,2,0,21,0,0
77887,-50,4,2,0,21,0,0
77947,-58.8235294117647,4,2,0,21,0,0
78007,-71.4285714285714,4,2,0,21,0,0
78067,-90.9090909090909,4,2,0,21,0,0
78127,-125,4,2,0,21,0,0
78187,-200,4,2,0,21,0,0
78247,-500,4,2,0,21,0,0
78967,-333.333333333333,4,2,0,21,0,0
79087,-222.222222222222,4,2,0,21,0,0
79207,-166.666666666667,4,2,0,21,0,0
79267,-111.111111111111,4,2,0,21,0,0
79327,-50,4,2,0,21,0,0
79387,-166.666666666667,4,2,0,21,0,0
79507,-111.111111111111,4,2,0,21,0,0
79567,-50,4,2,0,21,0,0
79627,-166.666666666667,4,2,0,21,0,0
79747,-111.111111111111,4,2,0,21,0,0
79807,-50,4,2,0,21,0,0
79867,-58.8235294117647,4,2,0,21,0,0
79927,-71.4285714285714,4,2,0,21,0,0
79987,-90.9090909090909,4,2,0,21,0,0
80047,-125,4,2,0,21,0,0
80107,-200,4,2,0,21,0,0
80167,-500,4,2,0,21,0,0
80887,-333.333333333333,4,2,0,21,0,0
81007,-222.222222222222,4,2,0,21,0,0
81127,-166.666666666667,4,2,0,21,0,0
81187,-111.111111111111,4,2,0,21,0,0
81247,-50,4,2,0,21,0,0
81307,-166.666666666667,4,2,0,21,0,0
81427,-111.111111111111,4,2,0,21,0,0
81487,-50,4,2,0,21,0,0
81547,-166.666666666667,4,2,0,21,0,0
81667,-111.111111111111,4,2,0,21,0,0
81727,-50,4,2,0,21,0,0
81787,-58.8235294117647,4,2,0,21,0,0
81847,-71.4285714285714,4,2,0,21,0,0
81907,-90.9090909090909,4,2,0,21,0,0
81967,-125,4,2,0,21,0,0
82027,-200,4,2,0,21,0,0
82087,-500,4,2,0,21,0,0
82807,-333.333333333333,4,2,0,21,0,0
82927,-222.222222222222,4,2,0,21,0,0
83047,-166.666666666667,4,2,0,21,0,0
83107,-111.111111111111,4,2,0,21,0,0
83167,-50,4,2,0,21,0,0
83227,-166.666666666667,4,2,0,21,0,0
83347,-111.111111111111,4,2,0,21,0,0
83407,-50,4,2,0,21,0,0
83467,-166.666666666667,4,2,0,21,0,0
83587,-111.111111111111,4,2,0,21,0,0
83647,-50,4,2,0,21,0,0
83707,-58.8235294117647,4,2,0,21,0,0
83767,-71.4285714285714,4,2,0,21,0,0
83827,-90.9090909090909,4,2,0,21,0,0
83887,-125,4,2,0,21,0,0
83947,-200,4,2,0,21,0,0
84007,-500,4,2,0,21,0,0
84727,-333.333333333333,4,2,0,21,0,0
84847,-222.222222222222,4,2,0,21,0,0
84967,-166.666666666667,4,2,0,21,0,0
85027,-111.111111111111,4,2,0,21,0,0
85087,-50,4,2,0,21,0,0
85147,-166.666666666667,4,2,0,21,0,0
85267,-111.111111111111,4,2,0,21,0,0
85327,-50,4,2,0,21,0,0
85387,-166.666666666667,4,2,0,21,0,0
85507,-111.111111111111,4,2,0,21,0,0
85567,-50,4,2,0,21,0,0
85627,-58.8235294117647,4,2,0,21,0,0
85687,-71.4285714285714,4,2,0,21,0,0
85747,-90.9090909090909,4,2,0,21,0,0
85807,-125,4,2,0,21,0,0
85867,-200,4,2,0,21,0,0
85927,-500,4,2,0,21,0,0
86647,-333.333333333333,4,2,0,21,0,0
86767,-222.222222222222,4,2,0,21,0,0
86887,-166.666666666667,4,2,0,21,0,0
86947,-111.111111111111,4,2,0,21,0,0
87007,-50,4,2,0,21,0,0
87067,-166.666666666667,4,2,0,21,0,0
87187,-111.111111111111,4,2,0,21,0,0
87247,-50,4,2,0,21,0,0
87307,-166.666666666667,4,2,0,21,0,0
87427,-111.111111111111,4,2,0,21,0,0
87487,-50,4,2,0,21,0,0
87547,-58.8235294117647,4,2,0,21,0,0
87607,-71.4285714285714,4,2,0,21,0,0
87667,-90.9090909090909,4,2,0,21,0,0
87727,-125,4,2,0,21,0,0
87787,-200,4,2,0,21,0,0
87847,-500,4,2,0,21,0,0
88567,-333.333333333333,4,2,0,21,0,0
88687,-222.222222222222,4,2,0,21,0,0
88807,-166.666666666667,4,2,0,21,0,0
88867,-111.111111111111,4,2,0,21,0,0
88927,-50,4,2,0,21,0,0
88987,-166.666666666667,4,2,0,21,0,0
89107,-111.111111111111,4,2,0,21,0,0
89167,-50,4,2,0,21,0,0
89227,-166.666666666667,4,2,0,21,0,0
89347,-111.111111111111,4,2,0,21,0,0
89407,-50,4,2,0,21,0,0
89467,-58.8235294117647,4,2,0,21,0,0
89527,-71.4285714285714,4,2,0,21,0,0
89587,-90.9090909090909,4,2,0,21,0,0
89647,-125,4,2,0,21,0,0
89707,-200,4,2,0,21,0,0
89767,-500,4,2,0,21,0,0
90487,-333.333333333333,4,2,0,21,0,0
90607,-222.222222222222,4,2,0,21,0,0
90727,-166.666666666667,4,2,0,21,0,0
90787,-111.111111111111,4,2,0,21,0,0
90847,-50,4,2,0,21,0,0
90907,-166.666666666667,4,2,0,21,0,0
91027,-111.111111111111,4,2,0,21,0,0
91087,-50,4,2,0,21,0,0
91147,-166.666666666667,4,2,0,21,0,0
91267,-111.111111111111,4,2,0,21,0,0
91807,-71.4285714285714,4,2,0,21,0,0
91927,-83.3333333333333,4,2,0,21,0,0
92047,-100,4,2,0,21,0,0
92287,-111.111111111111,4,2,0,21,0,0
92347,-125,4,2,0,21,0,0
92407,-142.857142857143,4,2,0,21,0,0
92467,-166.666666666667,4,2,0,21,0,0
92527,-200,4,2,0,21,0,0
92587,-250,4,2,0,21,0,0
92647,-333.333333333333,4,2,0,21,0,0
92707,-500,4,2,0,21,0,0

[HitObjects]
320,192,607,5,0,0:0:0:0:
448,192,607,1,0,0:0:0:0:
64,192,847,1,0,0:0:0:0:
192,192,847,1,0,0:0:0:0:
64,192,1087,1,0,0:0:0:0:
192,192,1087,1,0,0:0:0:0:
448,192,1087,1,0,0:0:0:0:
192,192,2047,1,0,0:0:0:0:
320,192,2047,1,0,0:0:0:0:
64,192,2527,1,0,0:0:0:0:
192,192,2527,1,0,0:0:0:0:
448,192,2767,1,0,0:0:0:0:
320,192,2767,1,0,0:0:0:0:
64,192,3007,1,0,0:0:0:0:
320,192,3007,1,0,0:0:0:0:
448,192,3007,1,0,0:0:0:0:
64,192,3967,1,0,0:0:0:0:
320,192,3967,1,0,0:0:0:0:
320,192,4447,1,0,0:0:0:0:
448,192,4447,1,0,0:0:0:0:
64,192,4687,1,0,0:0:0:0:
192,192,4687,1,0,0:0:0:0:
64,192,4927,1,0,0:0:0:0:
192,192,4927,1,0,0:0:0:0:
448,192,4927,1,0,0:0:0:0:
64,192,5887,1,0,0:0:0:0:
320,192,5887,1,0,0:0:0:0:
448,192,5887,1,0,0:0:0:0:
192,192,6367,1,0,0:0:0:0:
448,192,6367,1,0,0:0:0:0:
320,192,6607,1,0,0:0:0:0:
448,192,6607,1,0,0:0:0:0:
64,192,6847,1,0,0:0:0:0:
320,192,6847,1,0,0:0:0:0:
192,192,6847,1,0,0:0:0:0:
192,192,7807,1,0,0:0:0:0:
448,192,7807,1,0,0:0:0:0:
64,192,8287,1,0,0:0:0:0:
320,192,8287,1,0,0:0:0:0:
192,192,8527,1,0,0:0:0:0:
448,192,8527,1,0,0:0:0:0:
64,192,8767,1,0,0:0:0:0:
192,192,8767,1,0,0:0:0:0:
448,192,8767,1,0,0:0:0:0:
320,192,9727,1,0,0:0:0:0:
448,192,9727,1,0,0:0:0:0:
64,192,10207,1,0,0:0:0:0:
192,192,10207,1,0,0:0:0:0:
320,192,10447,1,0,0:0:0:0:
448,192,10447,1,0,0:0:0:0:
64,192,10687,1,0,0:0:0:0:
192,192,10687,1,0,0:0:0:0:
320,192,10687,1,0,0:0:0:0:
64,192,11647,1,0,0:0:0:0:
192,192,11647,1,0,0:0:0:0:
320,192,12127,1,0,0:0:0:0:
448,192,12127,1,0,0:0:0:0:
64,192,12367,1,0,0:0:0:0:
192,192,12367,1,0,0:0:0:0:
64,192,12607,1,0,0:0:0:0:
320,192,12607,1,0,0:0:0:0:
448,192,12607,1,0,0:0:0:0:
64,192,13567,1,0,0:0:0:0:
320,192,13567,1,0,0:0:0:0:
448,192,13567,1,0,0:0:0:0:
192,192,14047,1,0,0:0:0:0:
320,192,14047,1,0,0:0:0:0:
64,192,14287,1,0,0:0:0:0:
448,192,14287,1,0,0:0:0:0:
448,192,14527,1,0,0:0:0:0:
320,192,14527,1,0,0:0:0:0:
192,192,14527,1,0,0:0:0:0:
64,192,15007,128,0,15487:0:0:0:0:
192,192,15487,128,0,15967:0:0:0:0:
320,192,15487,1,0,0:0:0:0:
64,192,15967,1,0,0:0:0:0:
448,192,15967,128,0,16207:0:0:0:0:
320,192,16207,1,0,0:0:0:0:
192,192,16207,1,0,0:0:0:0:
64,192,16447,1,0,0:0:0:0:
320,192,16447,1,0,0:0:0:0:
192,192,16687,128,0,16927:0:0:0:0:
320,192,17407,1,0,0:0:0:0:
448,192,17407,1,0,0:0:0:0:
192,192,17887,128,0,18127:0:0:0:0:
64,192,17887,1,0,0:0:0:0:
320,192,18127,1,0,0:0:0:0:
448,192,18127,1,0,0:0:0:0:
64,192,18367,1,0,0:0:0:0:
448,192,18367,1,0,0:0:0:0:
192,192,18367,1,0,0:0:0:0:
320,192,18607,128,0,18847:0:0:0:0:
192,192,19327,1,0,0:0:0:0:
448,192,19327,1,0,0:0:0:0:
64,192,19807,1,0,0:0:0:0:
320,192,19807,128,0,20047:0:0:0:0:
448,192,20047,1,0,0:0:0:0:
192,192,20047,1,0,0:0:0:0:
64,192,20287,1,0,0:0:0:0:
448,192,20287,1,0,0:0:0:0:
192,192,20527,128,0,20767:0:0:0:0:
64,192,21247,1,0,0:0:0:0:
192,192,21247,1,0,0:0:0:0:
448,192,21727,1,0,0:0:0:0:
64,192,21727,128,0,21967:0:0:0:0:
192,192,21967,1,0,0:0:0:0:
320,192,21967,1,0,0:0:0:0:
64,192,22207,1,0,0:0:0:0:
192,192,22207,1,0,0:0:0:0:
448,192,22207,1,0,0:0:0:0:
320,192,22447,128,0,22687:0:0:0:0:
64,192,23167,1,0,0:0:0:0:
192,192,23167,1,0,0:0:0:0:
448,192,23647,1,0,0:0:0:0:
320,192,23647,128,0,23887:0:0:0:0:
64,192,23887,1,0,0:0:0:0:
192,192,23887,1,0,0:0:0:0:
64,192,24127,1,0,0:0:0:0:
320,192,24127,1,0,0:0:0:0:
448,192,24127,1,0,0:0:0:0:
192,192,24367,128,0,24607:0:0:0:0:
64,192,25087,1,0,0:0:0:0:
448,192,25087,1,0,0:0:0:0:
192,192,25567,128,0,25807:0:0:0:0:
448,192,25567,1,0,0:0:0:0:
64,192,25807,1,0,0:0:0:0:
320,192,25807,1,0,0:0:0:0:
192,192,26047,1,0,0:0:0:0:
448,192,26047,1,0,0:0:0:0:
64,192,26047,1,0,0:0:0:0:
320,192,26287,128,0,26527:0:0:0:0:
64,192,27007,1,0,0:0:0:0:
192,192,27007,1,0,0:0:0:0:
448,192,27487,128,0,27727:0:0:0:0:
64,192,27487,1,0,0:0:0:0:
320,192,27727,1,0,0:0:0:0:
192,192,27727,1,0,0:0:0:0:
320,192,27967,1,0,0:0:0:0:
448,192,27967,1,0,0:0:0:0:
64,192,27967,1,0,0:0:0:0:
192,192,28207,128,0,28447:0:0:0:0:
64,192,28927,1,0,0:0:0:0:
192,192,28927,1,0,0:0:0:0:
448,192,29407,1,0,0:0:0:0:
64,192,29407,128,0,29647:0:0:0:0:
192,192,29647,1,0,0:0:0:0:
448,192,29647,1,0,0:0:0:0:
192,192,29887,1,0,0:0:0:0:
64,192,29887,1,0,0:0:0:0:
320,192,29887,1,0,0:0:0:0:
448,192,30127,128,0,30367:0:0:0:0:
192,192,30847,1,0,0:0:0:0:
320,192,30847,1,0,0:0:0:0:
64,192,31327,128,0,31567:0:0:0:0:
448,192,31327,1,0,0:0:0:0:
192,192,31567,128,0,31807:0:0:0:0:
320,192,31807,1,0,0:0:0:0:
448,192,31807,1,0,0:0:0:0:
448,192,32047,128,0,32287:0:0:0:0:
64,192,32767,1,0,0:0:0:0:
320,192,32767,1,0,0:0:0:0:
320,192,33247,128,0,33487:0:0:0:0:
448,192,33247,1,0,0:0:0:0:
192,192,33487,128,0,33727:0:0:0:0:
448,192,33727,1,0,0:0:0:0:
64,192,33727,1,0,0:0:0:0:
64,192,33967,128,0,34207:0:0:0:0:
320,192,34687,1,0,0:0:0:0:
448,192,34687,1,0,0:0:0:0:
448,192,35167,128,0,35407:0:0:0:0:
64,192,35167,1,0,0:0:0:0:
320,192,35407,128,0,35647:0:0:0:0:
192,192,35647,1,0,0:0:0:0:
64,192,35647,1,0,0:0:0:0:
192,192,35887,128,0,36127:0:0:0:0:
320,192,36607,1,0,0:0:0:0:
448,192,36607,1,0,0:0:0:0:
320,192,37087,128,0,37327:0:0:0:0:
64,192,37087,1,0,0:0:0:0:
192,192,37327,128,0,37567:0:0:0:0:
64,192,37567,1,0,0:0:0:0:
448,192,37567,1,0,0:0:0:0:
64,192,37807,128,0,38047:0:0:0:0:
192,192,38287,128,0,38527:0:0:0:0:
320,192,38527,128,0,38767:0:0:0:0:
448,192,38767,128,0,39007:0:0:0:0:
192,192,39007,128,0,39247:0:0:0:0:
64,192,39007,1,0,0:0:0:0:
320,192,39247,128,0,39487:0:0:0:0:
64,192,39487,1,0,0:0:0:0:
448,192,39487,1,0,0:0:0:0:
448,192,39727,128,0,39967:0:0:0:0:
64,192,40447,1,0,0:0:0:0:
192,192,40447,1,0,0:0:0:0:
320,192,40927,128,0,41167:0:0:0:0:
448,192,40927,1,0,0:0:0:0:
192,192,41167,128,0,41407:0:0:0:0:
64,192,41407,1,0,0:0:0:0:
448,192,41407,1,0,0:0:0:0:
64,192,41647,128,0,41887:0:0:0:0:
448,192,42367,1,0,0:0:0:0:
320,192,42367,1,0,0:0:0:0:
448,192,42847,128,0,43087:0:0:0:0:
64,192,42847,1,0,0:0:0:0:
320,192,43087,128,0,43327:0:0:0:0:
192,192,43327,1,0,0:0:0:0:
448,192,43327,1,0,0:0:0:0:
192,192,43567,128,0,43807:0:0:0:0:
320,192,44287,1,0,0:0:0:0:
448,192,44287,1,0,0:0:0:0:
320,192,44767,128,0,45007:0:0:0:0:
448,192,44767,1,0,0:0:0:0:
192,192,45007,128,0,45247:0:0:0:0:
64,192,45247,1,0,0:0:0:0:
320,192,45247,1,0,0:0:0:0:
64,192,45487,128,0,45727:0:0:0:0:
192,192,45967,128,0,46207:0:0:0:0:
320,192,46207,128,0,46447:0:0:0:0:
448,192,46447,128,0,46687:0:0:0:0:
64,192,46687,1,0,0:0:0:0:
192,192,46687,1,0,0:0:0:0:
64,192,46927,1,0,0:0:0:0:
320,192,46927,1,0,0:0:0:0:
320,192,47167,1,0,0:0:0:0:
448,192,47167,1,0,0:0:0:0:
64,192,47647,1,0,0:0:0:0:
320,192,47647,1,0,0:0:0:0:
192,192,48127,1,0,0:0:0:0:
320,192,48127,1,0,0:0:0:0:
448,192,48607,1,0,0:0:0:0:
64,192,48607,1,0,0:0:0:0:
320,192,48847,1,0,0:0:0:0:
192,192,49087,1,0,0:0:0:0:
64,192,49087,1,0,0:0:0:0:
448,192,49327,1,0,0:0:0:0:
64,192,50047,1,0,0:0:0:0:
192,192,50047,1,0,0:0:0:0:
320,192,50287,1,0,0:0:0:0:
448,192,50527,1,0,0:0:0:0:
64,192,50527,1,0,0:0:0:0:
64,192,50767,1,0,0:0:0:0:
320,192,50767,1,0,0:0:0:0:
192,192,51007,1,0,0:0:0:0:
320,192,51007,1,0,0:0:0:0:
448,192,51007,1,0,0:0:0:0:
64,192,51487,1,0,0:0:0:0:
320,192,51967,1,0,0:0:0:0:
448,192,51967,1,0,0:0:0:0:
192,192,52447,1,0,0:0:0:0:
320,192,52447,1,0,0:0:0:0:
64,192,52687,1,0,0:0:0:0:
320,192,52687,1,0,0:0:0:0:
64,192,52927,1,0,0:0:0:0:
192,192,52927,1,0,0:0:0:0:
448,192,52927,1,0,0:0:0:0:
320,192,53167,1,0,0:0:0:0:
64,192,53887,1,0,0:0:0:0:
448,192,53887,1,0,0:0:0:0:
192,192,54127,1,0,0:0:0:0:
320,192,54367,1,0,0:0:0:0:
448,192,54367,1,0,0:0:0:0:
192,192,54607,1,0,0:0:0:0:
64,192,54607,1,0,0:0:0:0:
320,192,54847,1,0,0:0:0:0:
448,192,54847,1,0,0:0:0:0:
64,192,54847,1,0,0:0:0:0:
192,192,55327,1,0,0:0:0:0:
64,192,55807,1,0,0:0:0:0:
320,192,55807,1,0,0:0:0:0:
320,192,56287,1,0,0:0:0:0:
448,192,56287,1,0,0:0:0:0:
192,192,56527,1,0,0:0:0:0:
320,192,56527,1,0,0:0:0:0:
64,192,56767,1,0,0:0:0:0:
448,192,56767,1,0,0:0:0:0:
192,192,56767,1,0,0:0:0:0:
320,192,57007,1,0,0:0:0:0:
64,192,57727,1,0,0:0:0:0:
448,192,57727,1,0,0:0:0:0:
320,192,57967,1,0,0:0:0:0:
192,192,58207,1,0,0:0:0:0:
64,192,58207,1,0,0:0:0:0:
64,192,58447,1,0,0:0:0:0:
448,192,58447,1,0,0:0:0:0:
320,192,58687,1,0,0:0:0:0:
192,192,58687,1,0,0:0:0:0:
448,192,58687,1,0,0:0:0:0:
64,192,59167,1,0,0:0:0:0:
320,192,59647,1,0,0:0:0:0:
448,192,59647,1,0,0:0:0:0:
192,192,60127,1,0,0:0:0:0:
448,192,60127,1,0,0:0:0:0:
64,192,60367,1,0,0:0:0:0:
448,192,60367,1,0,0:0:0:0:
320,192,60607,1,0,0:0:0:0:
192,192,60607,1,0,0:0:0:0:
64,192,60607,1,0,0:0:0:0:
448,192,60847,1,0,0:0:0:0:
320,192,61567,1,0,0:0:0:0:
448,192,61567,1,0,0:0:0:0:
64,192,62047,1,0,0:0:0:0:
192,192,62047,1,0,0:0:0:0:
320,192,62527,1,0,0:0:0:0:
192,192,62767,1,0,0:0:0:0:
64,192,63007,1,0,0:0:0:0:
64,192,63487,1,0,0:0:0:0:
320,192,63487,1,0,0:0:0:0:
448,192,63487,1,0,0:0:0:0:
192,192,63487,1,0,0:0:0:0:
320,192,63967,1,0,0:0:0:0:
448,192,63967,1,0,0:0:0:0:
192,192,64447,1,0,0:0:0:0:
320,192,64687,1,0,0:0:0:0:
448,192,64927,1,0,0:0:0:0:
64,192,65407,1,0,0:0:0:0:
192,192,65407,1,0,0:0:0:0:
320,192,65407,1,0,0:0:0:0:
448,192,65407,1,0,0:0:0:0:
64,192,65887,1,0,0:0:0:0:
192,192,65887,1,0,0:0:0:0:
320,192,66367,1,0,0:0:0:0:
192,192,66607,1,0,0:0:0:0:
64,192,66847,1,0,0:0:0:0:
64,192,67327,1,0,0:0:0:0:
192,192,67327,1,0,0:0:0:0:
320,192,67327,1,0,0:0:0:0:
448,192,67327,1,0,0:0:0:0:
320,192,67807,1,0,0:0:0:0:
448,192,67807,1,0,0:0:0:0:
192,192,68287,1,0,0:0:0:0:
320,192,68527,1,0,0:0:0:0:
448,192,68767,1,0,0:0:0:0:
64,192,69247,1,0,0:0:0:0:
192,192,69247,1,0,0:0:0:0:
320,192,69247,1,0,0:0:0:0:
448,192,69247,1,0,0:0:0:0:
64,192,69727,1,0,0:0:0:0:
192,192,69727,1,0,0:0:0:0:
192,192,69967,1,0,0:0:0:0:
64,192,69967,1,0,0:0:0:0:
320,192,70207,1,0,0:0:0:0:
192,192,70447,1,0,0:0:0:0:
64,192,70687,1,0,0:0:0:0:
64,192,71167,1,0,0:0:0:0:
192,192,71167,1,0,0:0:0:0:
320,192,71167,1,0,0:0:0:0:
448,192,71167,1,0,0:0:0:0:
320,192,71647,1,0,0:0:0:0:
448,192,71647,1,0,0:0:0:0:
320,192,71887,1,0,0:0:0:0:
448,192,71887,1,0,0:0:0:0:
192,192,72127,1,0,0:0:0:0:
320,192,72367,1,0,0:0:0:0:
448,192,72607,1,0,0:0:0:0:
64,192,73087,1,0,0:0:0:0:
192,192,73087,1,0,0:0:0:0:
320,192,73087,1,0,0:0:0:0:
448,192,73087,1,0,0:0:0:0:
64,192,73567,1,0,0:0:0:0:
192,192,73567,1,0,0:0:0:0:
192,192,73807,1,0,0:0:0:0:
64,192,73807,1,0,0:0:0:0:
320,192,74047,1,0,0:0:0:0:
192,192,74287,1,0,0:0:0:0:
64,192,74527,1,0,0:0:0:0:
64,192,75007,1,0,0:0:0:0:
192,192,75007,1,0,0:0:0:0:
320,192,75007,1,0,0:0:0:0:
448,192,75007,1,0,0:0:0:0:
320,192,75487,1,0,0:0:0:0:
448,192,75487,1,0,0:0:0:0:
320,192,75727,1,0,0:0:0:0:
448,192,75727,1,0,0:0:0:0:
192,192,75967,1,0,0:0:0:0:
320,192,76207,1,0,0:0:0:0:
448,192,76447,1,0,0:0:0:0:
64,192,76927,1,0,0:0:0:0:
192,192,76927,1,0,0:0:0:0:
320,192,76927,1,0,0:0:0:0:
448,192,76927,1,0,0:0:0:0:
320,192,77407,5,0,0:0:0:0:
448,192,77407,1,0,0:0:0:0:
64,192,77647,1,0,0:0:0:0:
192,192,77647,1,0,0:0:0:0:
64,192,77887,1,0,0:0:0:0:
192,192,77887,1,0,0:0:0:0:
448,192,77887,1,0,0:0:0:0:
192,192,78847,1,0,0:0:0:0:
320,192,78847,1,0,0:0:0:0:
64,192,79327,1,0,0:0:0:0:
192,192,79327,1,0,0:0:0:0:
448,192,79567,1,0,0:0:0:0:
320,192,79567,1,0,0:0:0:0:
64,192,79807,1,0,0:0:0:0:
320,192,79807,1,0,0:0:0:0:
448,192,79807,1,0,0:0:0:0:
64,192,80767,1,0,0:0:0:0:
320,192,80767,1,0,0:0:0:0:
448,192,80767,1,0,0:0:0:0:
320,192,81247,1,0,0:0:0:0:
448,192,81247,1,0,0:0:0:0:
64,192,81487,1,0,0:0:0:0:
192,192,81487,1,0,0:0:0:0:
64,192,81727,1,0,0:0:0:0:
192,192,81727,1,0,0:0:0:0:
448,192,81727,1,0,0:0:0:0:
64,192,82687,1,0,0:0:0:0:
320,192,82687,1,0,0:0:0:0:
448,192,82687,1,0,0:0:0:0:
192,192,83167,1,0,0:0:0:0:
448,192,83167,1,0,0:0:0:0:
320,192,83407,1,0,0:0:0:0:
448,192,83407,1,0,0:0:0:0:
64,192,83647,1,0,0:0:0:0:
320,192,83647,1,0,0:0:0:0:
192,192,83647,1,0,0:0:0:0:
192,192,84607,1,0,0:0:0:0:
448,192,84607,1,0,0:0:0:0:
64,192,85087,1,0,0:0:0:0:
320,192,85087,1,0,0:0:0:0:
192,192,85327,1,0,0:0:0:0:
448,192,85327,1,0,0:0:0:0:
64,192,85567,1,0,0:0:0:0:
192,192,85567,1,0,0:0:0:0:
448,192,85567,1,0,0:0:0:0:
320,192,86527,1,0,0:0:0:0:
448,192,86527,1,0,0:0:0:0:
64,192,87007,1,0,0:0:0:0:
192,192,87007,1,0,0:0:0:0:
320,192,87247,1,0,0:0:0:0:
448,192,87247,1,0,0:0:0:0:
64,192,87487,1,0,0:0:0:0:
192,192,87487,1,0,0:0:0:0:
320,192,87487,1,0,0:0:0:0:
64,192,88447,1,0,0:0:0:0:
192,192,88447,1,0,0:0:0:0:
192,192,88927,1,0,0:0:0:0:
320,192,88927,1,0,0:0:0:0:
192,192,89167,1,0,0:0:0:0:
448,192,89167,1,0,0:0:0:0:
320,192,89407,1,0,0:0:0:0:
448,192,89407,1,0,0:0:0:0:
64,192,89407,1,0,0:0:0:0:
192,192,90367,1,0,0:0:0:0:
64,192,90367,1,0,0:0:0:0:
320,192,90847,1,0,0:0:0:0:
448,192,90847,1,0,0:0:0:0:
64,192,91087,1,0,0:0:0:0:
448,192,91087,1,0,0:0:0:0:
64,192,91327,1,0,0:0:0:0:
192,192,91327,1,0,0:0:0:0:
320,192,91327,1,0,0:0:0:0:
320,192,91807,128,0,92047:0:0:0:0:
64,192,92287,1,0,0:0:0:0:
192,192,92287,128,0,92767:0:0:0:0:
320,192,92767,1,0,0:0:0:0:
448,192,92767,1,0,0:0:0:0:
