osu file format v14

[General]
AudioFilename: audio.mp3
AudioLeadIn: 0
PreviewTime: 13619
Countdown: 1
SampleSet: Normal
StackLeniency: 0.7
Mode: 0
LetterboxInBreaks: 0
EpilepsyWarning: 1
WidescreenStoryboard: 1

[Editor]
DistanceSpacing: 0.95
BeatDivisor: 8
GridSize: 16
TimelineZoom: 4.799998

[Metadata]
Title:Senbonzakura (CLAWZ nightcore mix - short)
TitleUnicode:Senbonzakura (CLAWZ nightcore mix - short)
Artist:Hatsune Miku, CLAWZ
ArtistUnicode:Hatsune Miku, CLAWZ
Creator:VADSIG
Version:Hard
Source:
Tags:Hatsune Miku Senbonzakura CLAWZ nightcore
BeatmapID:1925450
BeatmapSetID:922026

[Difficulty]
HPDrainRate:6
CircleSize:4.5
OverallDifficulty:7
ApproachRate:7
SliderMultiplier:1.4
SliderTickRate:1

[Events]
//Background and Video events
0,0,"bgbanner.jpg",0,0
//Break Periods
2,63029,67194
//Storyboard Layer 0 (Background)
//Storyboard Layer 1 (Fail)
//Storyboard Layer 2 (Pass)
//Storyboard Layer 3 (Foreground)
//Storyboard Layer 4 (Overlay)
//Storyboard Sound Samples

[TimingPoints]
1690,372.802423865755,4,1,1,80,1,0

[Colours]
Combo1 : 230,243,131
Combo2 : 241,163,235
Combo3 : 225,15,147
Combo4 : 210,210,210

[HitObjects]
256,192,7654,12,4,13619,0:0:0:0:
256,192,15110,5,4,0:0:0:0:
256,192,16602,5,4,0:0:0:0:
256,192,18093,37,6,0:0:0:0:
384,225,18465,1,2,0:0:0:0:
315,110,18838,1,2,0:0:0:0:
185,78,19211,1,6,0:0:0:0:
54,105,19584,6,2,P|60:155|86:204,1,105
85,204,19957,1,0,0:0:0:0:
164,279,20236,1,0,0:0:0:0:
164,279,20329,2,8,P|188:301|230:314,1,70
288,325,20702,2,8,P|321:323|359:302,1,70
408,268,21075,6,2,P|391:221|354:176,1,105
270,128,21634,1,8,0:0:0:0:
234,71,21821,1,8,0:0:0:0:
264,11,22007,1,8,0:0:0:0:
330,17,22193,1,8,0:0:0:0:
376,64,22380,1,8,0:0:0:0:
433,30,22566,6,2,P|430:73|458:127,1,105
478,153,22939,2,2,P|495:186|495:219,1,70,2|2,0:0|0:0,0:0:0:0:
485,284,23312,2,8,P|478:315|441:351,1,70,8|8,0:0|0:0,0:0:0:0:
388,356,23685,2,8,P|350:344|324:317,1,70
290,268,24058,2,2,B|266:230|266:230|227:176|180:230|180:230|127:304|90:238|90:238|46:240|46:240|4:183|47:126,1,420
95,19,25549,5,8,0:0:0:0:
156,136,25921,1,8,0:0:0:0:
245,37,26294,1,8,0:0:0:0:
305,155,26667,1,8,0:0:0:0:
416,82,27040,1,0,0:0:0:0:
433,146,27226,1,0,0:0:0:0:
433,146,27319,1,0,0:0:0:0:
433,146,27413,1,0,0:0:0:0:
438,212,27599,1,0,0:0:0:0:
442,278,27785,2,2,P|394:323|322:354,1,140
191,351,28531,6,0,B|136:355|100:342|82:313|80:279,1,140
64,157,29277,2,0,B|65:123|65:123|65:97|103:85|103:85|155:71,1,140
280,44,30022,2,0,B|333:44|333:44|358:44|358:73|358:73|358:117,1,140
360,182,30582,1,0,0:0:0:0:
359,248,30768,2,2,B|327:248|327:248|295:248|276:230|276:230|228:186,1,140
153,90,31514,38,0,B|127:64|127:64|103:41|94:61|94:61|69:126,1,140
29,245,32259,2,0,B|30:287|30:287|30:322|55:322|55:322|112:320,1,140
237,312,33005,2,0,L|322:300,1,70
306,302,33285,1,0,0:0:0:0:
306,302,33378,2,2,L|391:290,1,70
441,286,33751,1,2,0:0:0:0:
256,192,34496,5,4,0:0:0:0:
469,28,35987,38,2,P|478:63|470:100,1,70
407,101,36360,2,2,P|381:130|370:163,1,70
434,178,36733,2,2,P|416:213|389:235,1,70
328,249,37106,1,6,0:0:0:0:
196,270,37479,6,0,P|201:230|223:195,1,70
235,141,37851,2,0,P|230:101|208:66,1,70
159,40,38224,1,8,0:0:0:0:
111,86,38411,1,8,0:0:0:0:
150,139,38597,1,8,0:0:0:0:
107,189,38783,1,8,0:0:0:0:
148,240,38970,6,0,P|156:279|181:312,1,70
239,305,39343,2,0,P|259:270|263:229,1,70
274,209,39622,1,8,0:0:0:0:
274,209,39715,1,8,0:0:0:0:
307,151,39902,1,8,0:0:0:0:
275,92,40088,1,8,0:0:0:0:
318,41,40275,1,8,0:0:0:0:
380,29,40461,22,0,P|410:42|428:74,1,70
445,137,40834,2,0,P|447:170|427:201,1,70
379,246,41207,2,2,P|354:257|314:262,1,61.25
246,259,41579,2,2,P|218:254|182:238,1,61.25
127,197,41952,2,2,B|82:147|61:82|61:82|128:138|201:85|201:85|179:144|125:200,1,420
201,306,43443,6,0,P|244:282|269:235,1,105
270,235,43816,1,0,0:0:0:0:
267,142,44096,1,8,0:0:0:0:
267,142,44189,2,8,P|273:102|306:77,1,70
359,84,44562,2,8,P|388:118|396:156,1,70
457,165,44935,6,0,P|450:215|421:265,1,105
403,288,45307,1,0,0:0:0:0:
347,325,45494,1,8,0:0:0:0:
282,306,45680,1,8,0:0:0:0:
231,262,45867,1,8,0:0:0:0:
213,198,46053,1,8,0:0:0:0:
243,138,46239,1,8,0:0:0:0:
193,93,46426,22,0,P|243:66|294:87,1,105
311,101,46799,2,0,P|334:127|339:176,1,70
341,227,47171,2,0,P|333:260|296:293,1,70
260,331,47544,1,2,0:0:0:0:
207,289,47731,1,2,0:0:0:0:
158,334,47917,2,2,B|90:333|58:289|58:225|58:225|59:175|96:119|96:119|112:119|112:119|120:135|120:135|128:119|128:119|138:134|138:134|145:118|145:118|156:133|156:133|162:118|162:118|169:133,1,420
258,34,49408,6,0,P|289:85|300:165,1,140
263,291,50154,1,8,0:0:0:0:
199,273,50340,1,8,0:0:0:0:
189,338,50527,1,8,0:0:0:0:
133,302,50713,1,8,0:0:0:0:
92,354,50899,6,0,P|54:292|72:221,1,140
118,143,51552,1,8,0:0:0:0:
118,143,51645,1,8,0:0:0:0:
165,188,51831,1,8,0:0:0:0:
214,143,52018,1,8,0:0:0:0:
259,191,52204,1,8,0:0:0:0:
307,145,52391,22,0,P|317:173|316:224,1,70
368,211,52717,2,0,P|367:176|356:143,1,70
441,154,53136,2,0,L|438:221,1,52.5
429,272,53462,2,2,L|370:316,1,70
307,262,53882,2,2,B|382:219|364:146|364:146|342:154|285:165|252:164|228:159|228:159|267:171|299:210|271:248|232:260,1,420
106,285,55373,6,0,L|147:184,1,105
159,156,55746,1,0,0:0:0:0:
198,64,56025,1,8,0:0:0:0:
198,64,56119,1,8,0:0:0:0:
132,51,56305,1,8,0:0:0:0:
69,72,56491,1,8,0:0:0:0:
31,127,56678,1,8,0:0:0:0:
31,193,56864,6,0,P|34:236|57:296,1,105
55,293,57237,1,0,0:0:0:0:
93,347,57423,1,8,0:0:0:0:
143,299,57610,1,8,0:0:0:0:
188,350,57796,1,8,0:0:0:0:
235,300,57983,1,8,0:0:0:0:
280,350,58169,1,8,0:0:0:0:
326,302,58355,22,0,P|350:262|366:205,1,105
365,206,58728,2,0,P|369:166|362:122,1,70
399,79,59101,2,0,P|360:72|321:85,1,70
306,17,59474,1,2,0:0:0:0:
244,41,59660,1,2,0:0:0:0:
188,76,59846,2,2,P|144:120|106:194,1,140
79,314,60592,2,2,P|139:325|222:321,1,140
350,309,61338,5,8,0:0:0:0:
350,309,61478,1,8,0:0:0:0:
350,309,61594,1,8,0:0:0:0:
350,309,61688,1,12,0:0:0:0:
256,192,62456,5,8,0:0:0:0:
256,192,62643,1,8,0:0:0:0:
256,192,62829,1,4,0:0:0:0:
256,192,68607,37,8,0:0:0:0:
256,192,68794,1,8,0:0:0:0:
256,192,70285,1,8,0:0:0:0:
167,121,71403,1,8,0:0:0:0:
114,79,71590,1,8,0:0:0:0:
70,128,71776,1,8,0:0:0:0:
368,288,73268,1,8,0:0:0:0:
256,192,74013,22,0,L|191:142,1,70
141,99,74386,1,0,0:0:0:0:
141,99,74479,1,0,0:0:0:0:
141,99,74572,1,0,0:0:0:0:
78,53,74759,2,8,B|17:126|19:271|136:269,1,280
209,274,75691,37,0,0:0:0:0:
209,274,75784,1,0,0:0:0:0:
209,274,75877,1,8,0:0:0:0:
262,329,76063,1,8,0:0:0:0:
335,304,76250,2,8,P|367:288|396:255,1,70
422,193,76623,2,0,B|377:144|377:144|301:145,1,140
226,148,77182,5,8,0:0:0:0:
226,148,77275,1,8,0:0:0:0:
226,148,77368,1,8,0:0:0:0:
169,94,77555,1,8,0:0:0:0:
118,151,77741,2,0,P|99:219|137:274,1,140
198,317,78300,37,0,0:0:0:0:
274,304,78487,2,8,P|311:288|343:264,1,70
335,270,78766,1,8,0:0:0:0:
335,270,78860,2,8,P|354:234|367:196,1,70
366,129,79232,2,8,P|352:90|329:57,1,70
265,34,79605,6,0,B|195:44|195:44|175:114|175:114|112:143|112:143|116:160|116:160|100:165|100:165|113:195|113:195|91:265|91:265,1,350
156,307,80724,38,8,P|185:296|208:264,1,70
226,191,81096,2,8,P|228:158|253:127,1,70
315,87,81469,5,0,0:0:0:0:
378,130,81656,1,0,0:0:0:0:
378,130,81749,1,0,0:0:0:0:
378,130,81842,1,0,0:0:0:0:
440,84,82028,2,8,P|463:41|488:19,2,70
452,160,82588,6,2,P|427:186|390:203,1,70
330,161,82961,2,2,P|300:185|263:195,1,70
315,257,83334,2,2,P|293:285|254:302,1,70
215,239,83706,2,2,P|179:232|145:210,1,70
123,287,84079,2,2,B|90:269|68:246|68:246|63:218|90:180|90:180|106:148|82:99,1,210
148,37,84871,2,2,P|153:71|171:101,1,70
204,148,85197,2,2,B|223:174|223:174|215:210,1,70
376,45,85943,37,2,0:0:0:0:
343,114,86129,1,2,0:0:0:0:
292,171,86315,1,2,0:0:0:0:
292,171,86409,1,2,0:0:0:0:
292,171,86502,1,2,0:0:0:0:
256,192,86688,12,4,88925,0:0:0:0:
255,43,89671,22,8,P|240:74|238:123,1,70
146,89,90044,2,8,P|146:123|165:168,1,70
223,219,90416,1,8,0:0:0:0:
309,190,90603,1,0,0:0:0:0:
309,190,90697,1,0,0:0:0:0:
309,190,90789,1,0,0:0:0:0:
300,99,90976,1,8,0:0:0:0:
366,37,91162,2,8,P|370:71|396:106,1,70
463,153,91535,2,0,P|476:117|479:81,2,70
433,239,92094,1,8,0:0:0:0:
433,239,92187,1,8,0:0:0:0:
433,239,92280,2,8,P|420:271|386:306,1,70
316,254,92653,2,8,P|307:288|315:336,1,70
133,280,93212,6,0,P|98:293|68:328,2,70
133,280,93678,1,8,0:0:0:0:
133,280,93772,2,8,P|161:260|185:234,1,70
219,149,94145,2,8,P|238:120|264:96,1,70
178,68,94517,21,0,0:0:0:0:
263,35,94704,1,0,0:0:0:0:
346,70,94890,2,0,P|372:93|392:136,1,70
388,123,95170,1,8,0:0:0:0:
388,123,95263,2,8,P|390:158|412:201,1,70
470,252,95636,6,8,P|450:281|410:308,1,70
345,350,96009,2,0,B|319:346|319:346|296:353|296:353|266:349,1,70
185,346,96381,1,8,0:0:0:0:
94,334,96568,1,8,0:0:0:0:
94,334,96661,1,8,0:0:0:0:
94,334,96754,2,8,L|132:259,1,70
53,217,97127,1,8,0:0:0:0:
102,43,97500,38,2,P|110:80|138:115,1,70
226,101,97873,2,2,P|249:130|258:174,1,70
182,223,98245,2,2,P|204:253|245:273,1,70
324,236,98618,2,2,P|338:270|335:315,1,70
435,311,98991,2,2,P|435:276|449:244,1,70
450,146,99364,2,2,P|420:174|382:190,1,70
312,248,99737,2,2,P|289:214|278:173,1,70
290,89,100109,2,2,P|319:116|358:131,1,70
420,64,100482,1,2,0:0:0:0:
240,35,100855,22,0,P|276:30|320:35,2,70
240,35,101321,1,0,0:0:0:0:
240,35,101414,1,0,0:0:0:0:
200,117,101601,38,8,P|199:153|219:194,1,70
301,196,101973,2,8,P|318:228|320:274,1,70
238,297,102346,1,8,0:0:0:0:
323,328,102533,1,0,0:0:0:0:
323,328,102626,1,0,0:0:0:0:
323,328,102719,1,0,0:0:0:0:
407,294,102905,1,0,0:0:0:0:
436,207,103092,6,8,L|424:129,1,70
411,46,103465,2,0,P|442:35|486:35,2,70
310,77,104024,1,8,0:0:0:0:
310,77,104117,1,8,0:0:0:0:
310,77,104210,2,8,P|276:84|242:80,1,70
160,37,104583,2,8,P|149:70|152:105,1,70
241,79,104956,1,0,0:0:0:0:
323,41,105142,22,0,P|331:77|317:121,1,70
387,43,105515,1,8,0:0:0:0:
387,43,105608,1,8,0:0:0:0:
387,43,105701,2,8,P|378:78|389:122,1,70
394,201,106074,2,8,P|359:191|315:202,1,70
310,286,106447,22,0,P|338:300|368:334,2,70
218,284,107006,1,0,0:0:0:0:
218,284,107099,1,0,0:0:0:0:
218,284,107193,2,0,P|187:266|166:239,1,70
116,163,107565,38,8,P|102:196|108:241,1,70
148,150,107938,2,8,P|182:161|212:195,1,70
207,275,108311,1,0,0:0:0:0:
292,306,108497,1,8,0:0:0:0:
292,306,108591,1,8,0:0:0:0:
292,306,108684,2,8,P|295:268|279:226,1,70
255,151,109057,2,8,P|241:118|239:84,1,70
328,100,109429,38,2,P|352:74|365:42,1,70
456,46,109802,2,2,P|442:80|450:125,1,70
454,203,110175,2,2,P|424:184|403:156,1,70
312,161,110548,2,2,P|289:187|281:221,1,70
333,295,110921,1,2,0:0:0:0:
381,218,111107,1,2,0:0:0:0:
380,127,111293,2,2,P|356:103|323:91,1,70
257,154,111666,2,2,P|282:129|295:97,1,70
204,107,112039,2,2,P|229:83|262:72,1,70
328,9,112412,1,0,0:0:0:0:
150,49,112785,22,0,P|174:75|186:113,1,70
210,194,113157,1,8,0:0:0:0:
210,194,113251,1,8,0:0:0:0:
210,194,113344,1,8,0:0:0:0:
244,109,113530,38,8,P|255:76|279:50,1,70
369,52,113903,2,0,P|390:79|400:112,1,70
365,197,114276,1,0,0:0:0:0:
290,142,114462,1,8,0:0:0:0:
290,142,114555,1,8,0:0:0:0:
290,142,114649,1,8,0:0:0:0:
225,206,114835,2,8,P|228:237|261:269,1,70
133,127,115394,6,0,P|103:108|90:76,2,70
223,134,115953,1,8,0:0:0:0:
223,134,116047,1,8,0:0:0:0:
223,134,116140,2,8,P|186:119|166:86,1,70
110,25,116513,2,8,P|137:46|154:76,1,70
235,35,116885,1,0,0:0:0:0:
326,35,117072,22,8,P|321:68|329:102,1,70
241,126,117445,1,8,0:0:0:0:
241,126,117538,1,8,0:0:0:0:
241,126,117631,1,8,0:0:0:0:
331,136,117817,2,8,P|326:170|310:200,1,70
148,288,118377,22,0,P|118:310|95:338,2,70
239,283,118936,1,8,0:0:0:0:
239,283,119029,1,8,0:0:0:0:
239,283,119122,2,8,P|272:275|301:252,1,70
316,163,119495,38,0,P|321:129|340:100,1,70
420,56,119868,2,0,P|425:90|443:120,1,70
435,211,120241,1,8,0:0:0:0:
373,158,120427,1,8,0:0:0:0:
373,158,120520,1,8,0:0:0:0:
373,157,120613,2,8,P|358:115|327:93,1,70
261,51,120986,2,8,P|228:38|193:40,1,70
120,104,121359,38,2,P|152:116|178:140,1,70
272,165,121732,2,2,P|239:177|213:201,1,70
119,221,122105,2,2,P|151:233|177:257,1,70
267,290,122477,2,2,P|234:302|208:326,1,70
114,346,122850,1,2,0:0:0:0:
136,250,123037,1,2,0:0:0:0:
202,178,123223,2,2,P|234:163|268:163,1,70
363,185,123596,2,2,P|392:201|416:227,1,70
438,323,123969,2,2,P|406:307|383:281,1,70
358,194,124341,1,0,0:0:0:0:
423,24,124714,37,8,0:0:0:0:
474,100,124901,1,8,0:0:0:0:
468,191,125087,1,8,0:0:0:0:
468,191,125180,1,8,0:0:0:0:
468,191,125274,1,8,0:0:0:0:
419,266,125460,2,2,B|390:315|355:340|306:350|256:343|210:316|169:256|90:138,1,437.5
31,35,126951,21,2,0:0:0:0:
195,141,127324,1,2,0:0:0:0:
352,23,127697,1,2,0:0:0:0:
487,163,128069,1,2,0:0:0:0:
299,221,128442,1,2,0:0:0:0:
423,372,128815,1,2,0:0:0:0:
383,179,129188,1,2,0:0:0:0:
188,157,129561,1,2,0:0:0:0:
123,341,129933,1,2,0:0:0:0:
319,334,130306,1,2,0:0:0:0:
123,341,130679,1,2,0:0:0:0:
319,334,131052,1,2,0:0:0:0:
492,243,131425,1,2,0:0:0:0:
328,135,131797,1,2,0:0:0:0:
320,332,132170,1,2,0:0:0:0:
433,171,132543,1,2,0:0:0:0:
301,44,132916,22,0,P|293:93|236:135,1,105
253,129,133289,1,0,0:0:0:0:
144,166,133568,1,8,0:0:0:0:
144,166,133661,1,8,0:0:0:0:
147,243,133848,1,8,0:0:0:0:
195,302,134034,1,8,0:0:0:0:
267,328,134221,1,8,0:0:0:0:
342,313,134407,38,0,P|379:267|388:208,1,105
388,223,134780,1,0,0:0:0:0:
386,146,134966,1,8,0:0:0:0:
335,87,135153,1,8,0:0:0:0:
286,146,135339,1,8,0:0:0:0:
235,88,135525,1,8,0:0:0:0:
185,147,135712,1,8,0:0:0:0:
134,88,135898,6,0,P|102:129|89:180,1,105
89,179,136271,1,0,0:0:0:0:
102,254,136457,1,8,0:0:0:0:
170,290,136644,1,8,0:0:0:0:
196,218,136830,1,8,0:0:0:0:
269,243,137017,1,8,0:0:0:0:
295,170,137203,1,12,0:0:0:0:
369,188,137389,1,12,0:0:0:0:
356,34,137762,38,0,B|283:33|271:43|271:43|257:42|257:42|254:57|254:57|238:51|238:51|212:80,1,157.5
134,172,138508,1,4,0:0:0:0:
108,323,138881,38,0,P|135:259|188:214,1,140
314,164,139533,1,8,0:0:0:0:
314,164,139626,1,8,0:0:0:0:
399,132,139813,2,8,P|378:104|378:69,2,70
460,199,140372,1,0,0:0:0:0:
462,302,140558,37,0,0:0:0:0:
462,302,140652,1,0,0:0:0:0:
462,302,140745,1,0,0:0:0:0:
350,223,141024,1,8,0:0:0:0:
350,223,141118,2,8,P|337:259|303:286,1,70
233,321,141490,2,8,P|196:332|159:330,1,70
75,313,141863,6,0,P|42:291|34:253,1,70
29,172,142236,1,0,0:0:0:0:
48,36,142516,1,8,0:0:0:0:
48,36,142609,2,8,P|63:70|100:98,1,70
177,83,142982,2,8,P|190:115|194:164,1,70
173,237,143354,38,0,P|243:203|281:142,1,140
368,148,143914,1,0,0:0:0:0:
368,148,144007,1,0,0:0:0:0:
368,148,144100,2,0,B|379:83|365:33|306:36,1,140
135,43,144846,6,0,P|98:82|120:168,1,140
60,287,145498,1,8,0:0:0:0:
60,287,145591,1,8,0:0:0:0:
136,336,145778,2,8,P|173:328|202:296,1,70
183,216,146150,2,8,P|198:180|235:159,1,70
357,138,146616,37,0,0:0:0:0:
357,138,146710,1,0,0:0:0:0:
439,100,146896,2,8,P|460:127|465:161,1,70
379,193,147269,2,8,P|358:225|360:268,1,70
425,316,147642,2,8,P|402:341|369:352,1,70
265,201,148201,37,0,0:0:0:0:
258,64,148480,1,8,0:0:0:0:
258,64,148573,2,8,P|247:98|223:131,1,70
142,158,148946,2,8,P|152:192|176:225,1,70
251,263,149319,1,8,0:0:0:0:
75,310,149692,38,0,B|47:262|41:250|41:250|31:240|31:240|40:227|40:227|25:219|25:219|29:180,1,140
99,27,150438,1,8,0:0:0:0:
86,194,150810,38,4,B|95:157|95:157|111:64|332:314|296:0|381:32|381:32|418:54,1,420
465,87,152115,1,2,0:0:0:0:
469,157,152302,2,4,B|463:186|463:186|433:272|218:39|262:369|181:320|181:320|147:303,1,420
87,269,153606,1,2,0:0:0:0:
88,196,153793,2,4,B|93:160|93:160|111:67|324:306|296:2|376:33|376:33|418:57,1,420
384,124,155097,37,0,0:0:0:0:
328,177,155284,1,0,0:0:0:0:
401,199,155470,1,0,0:0:0:0:
384,124,155657,1,0,0:0:0:0:
331,67,155843,1,0,0:0:0:0:
257,43,156030,1,4,0:0:0:0:
116,92,156403,37,0,0:0:0:0:
78,158,156589,1,0,0:0:0:0:
113,226,156775,2,8,P|163:245|213:226,1,105
303,161,157335,1,0,0:0:0:0:
266,228,157521,2,8,P|338:258|394:219,1,140
454,266,158080,5,2,0:0:0:0:
473,191,158267,1,2,0:0:0:0:
457,115,158453,1,2,0:0:0:0:
399,63,158639,1,2,0:0:0:0:
343,116,158826,1,2,0:0:0:0:
297,54,159012,1,2,0:0:0:0:
346,158,159292,22,0,P|338:195|317:228,1,70
338,336,159758,2,8,B|288:349|267:341|221:279,3,140
248,129,161249,21,2,0:0:0:0:
198,70,161435,1,2,0:0:0:0:
143,124,161622,1,2,0:0:0:0:
192,183,161808,1,2,0:0:0:0:
248,129,161995,1,2,0:0:0:0:
400,111,162367,38,0,P|419:143|428:189,1,70
431,251,162740,2,8,P|420:301|386:345,2,105
427,174,163486,2,8,B|419:138|405:99|366:88|331:81,1,140
347,158,164045,5,2,0:0:0:0:
274,181,164231,1,2,0:0:0:0:
329,235,164418,1,2,0:0:0:0:
255,255,164604,1,2,0:0:0:0:
180,276,164791,1,2,0:0:0:0:
235,329,164977,1,2,0:0:0:0:
274,181,165350,22,0,P|314:161|350:160,1,70
357,234,165723,2,8,B|321:240|282:254|270:293|263:328,1,140
341,333,166282,1,8,0:0:0:0:
415,312,166468,1,8,0:0:0:0:
266,138,167027,21,2,0:0:0:0:
301,206,167214,1,2,0:0:0:0:
339,139,167400,1,2,0:0:0:0:
378,205,167586,1,2,0:0:0:0:
311,165,167773,1,2,0:0:0:0:
387,160,167959,1,2,0:0:0:0:
482,39,168332,38,0,P|459:65|422:76,1,70
358,39,168705,2,8,P|344:70|272:111,1,105
203,28,169264,1,8,0:0:0:0:
139,72,169451,2,8,P|92:113|81:193,1,140
110,257,170010,5,2,0:0:0:0:
168,208,170196,1,2,0:0:0:0:
229,254,170383,1,2,0:0:0:0:
287,203,170569,1,2,0:0:0:0:
349,248,170755,1,2,0:0:0:0:
390,198,170942,1,2,0:0:0:0:
256,192,171687,12,4,174670,0:0:0:0:
