osu file format v14

[General]
AudioFilename: audio.mp3
AudioLeadIn: 0
PreviewTime: 60501
Countdown: 0
SampleSet: Soft
StackLeniency: 0.7
Mode: 0
LetterboxInBreaks: 0
WidescreenStoryboard: 1

[Editor]
Bookmarks: 102651
DistanceSpacing: 1.1
BeatDivisor: 4
GridSize: 16
TimelineZoom: 2.5

[Metadata]
Title:Shiroi Yuki No Princess Wa
TitleUnicode:白い雪のプリンセスは
Artist:Hatsune Miku vs. Mitani Nana
ArtistUnicode:初音ミク vs. 実谷なな
Creator:Hokichi
Version:noz's Hard
Source:初音ミク Project DIVA Arcade Future Tone
Tags:yamicchi yami lanturn chocola [-chocola-] bara zerss hikan cassu cassu2 the snow white princess is SOUND VOLTEX II -infinite infection- 初音ミク Project DIVA Future Tone DX BeatStream jubeat prop
BeatmapID:1160514
BeatmapSetID:547883

[Difficulty]
HPDrainRate:5
CircleSize:3.2
OverallDifficulty:5
ApproachRate:8
SliderMultiplier:1.6
SliderTickRate:1

[Events]
//Background and Video events
0,0,"cute-hatsune-miku-wallpaper-wallpaper-3.jpg",0,0
//Break Periods
2,83501,97101
2,121851,137901
//Storyboard Layer 0 (Background)
//Storyboard Layer 1 (Fail)
//Storyboard Layer 2 (Pass)
//Storyboard Layer 3 (Foreground)
Sprite,Foreground,Centre,"cre\hoki.png",124,416 S,0,1701,,0.3 P,0,1701,,A F,0,1701,1851,0,1 F,0,189651,190251,1,0
//Storyboard Sound Samples

[TimingPoints]
651,300,4,2,1,40,1,0
1701,-133.333333333333,4,2,1,40,0,0
2151,-133.333333333333,4,2,1,40,0,0
6501,-100,4,2,1,60,0,0
20976,-100,4,2,1,5,0,0
21051,-100,4,2,1,60,0,0
61851,-100,4,2,1,60,0,1
80901,-100,4,2,1,60,0,0
102651,-133.333333333333,4,2,1,60,0,0
111051,-100,4,2,1,60,0,0
138651,-111.111111111111,4,2,1,60,0,0
142251,-111.111111111111,4,3,1,60,0,0
143451,-100,4,2,1,75,0,1
162501,-100,4,2,1,60,0,0
176901,-100,4,2,1,80,0,1
181701,-90.9090909090909,4,2,1,90,0,1
184251,-90.9090909090909,4,2,1,60,0,0

[Colours]
Combo1 : 255,55,105
Combo2 : 100,226,253
Combo3 : 113,255,223
Combo4 : 255,74,165

[HitObjects]
196,208,1701,6,0,P|221:185|328:193,1,120.000004577637
361,246,2151,2,0,P|419:249|468:216,2,120.000004577637
393,162,2901,6,0,B|410:122|410:122|377:50,1,120.000004577637
295,90,3351,2,0,B|312:126|312:126|272:203,2,120.000004577637
211,125,4101,6,0,B|172:197|172:197|110:203,1,120.000004577637
54,243,4551,2,0,P|43:189|86:123,2,120.000004577637
130,291,5301,6,0,B|165:274|208:307|247:291,1,120.000004577637
320,236,5751,2,0,P|337:291|310:354,2,120.000004577637
243,115,6501,6,0,B|348:149|348:149|403:125,1,160
311,42,6951,2,0,L|210:9,1,80
160,72,7251,2,0,L|83:47,2,80
233,225,7701,6,0,P|235:281|131:348,1,160
70,266,8151,2,0,P|107:251|146:255,1,80
161,165,8451,2,0,P|121:158|89:135,2,80
301,112,8901,6,0,B|266:71|266:71|159:71,1,160
250,185,9351,2,0,P|267:221|260:268,1,80
188,313,9651,2,0,P|171:277|178:230,2,80
351,278,10101,6,0,B|408:264|408:264|444:136,1,160
461,78,10551,1,0,0:0:0:0:
307,50,10701,2,0,P|292:127|338:188,1,160
382,107,11151,1,0,0:0:0:0:
263,242,11301,6,0,P|215:179|139:172,1,160
84,246,11751,2,0,B|110:202|110:202|111:75,1,160
20,76,12201,2,0,L|20:171,1,80
21,312,12501,6,0,P|77:282|184:343,1,160
246,353,12951,2,0,B|266:307|266:307|242:274|230:224|273:174,1,160
335,245,13401,2,0,P|361:252|436:226,1,80
403,90,13701,6,0,B|350:90|328:150|328:150|303:116|263:113,1,160
192,130,14151,2,0,B|162:127|138:136|138:136|142:202|76:243,1,160
146,305,14601,2,0,P|182:290|247:304,1,80
340,361,14901,6,0,B|340:247|340:247|298:198,1,160
241,151,15351,1,0,0:0:0:0:
152,179,15501,2,0,B|126:198|96:194|96:194|67:152|84:81,1,160
147,34,15951,1,0,0:0:0:0:
234,59,16101,6,0,L|411:103,1,160
280,165,16551,2,0,B|371:187|371:187|427:240,1,160
291,262,17001,6,0,B|327:272|327:272|397:337,2,120
201,237,17601,1,0,0:0:0:0:
177,146,17751,1,0,0:0:0:0:
243,79,17901,1,0,0:0:0:0:
333,103,18051,2,0,P|371:112|430:92,1,80
445,73,18276,1,0,0:0:0:0:
445,73,18351,2,0,L|499:173,1,80
438,248,18651,5,0,0:0:0:0:
438,248,18801,1,0,0:0:0:0:
438,248,19701,6,0,B|389:278|334:217|284:247,1,160
213,307,20151,1,0,0:0:0:0:
213,307,20301,1,0,0:0:0:0:
192,217,20451,1,0,0:0:0:0:
192,217,20601,1,0,0:0:0:0:
261,156,20751,2,0,P|298:152|355:116,1,80
416,247,21051,6,0,P|407:285|436:352,2,80
474,171,21501,1,0,0:0:0:0:
422,94,21651,2,0,P|431:56|402:-11,2,80
336,133,22101,1,0,0:0:0:0:
250,94,22251,6,0,P|240:55|249:16,2,80
260,185,22701,2,0,B|223:159|185:162|185:162|146:189|92:170,1,160
42,110,23151,1,0,0:0:0:0:
42,110,23301,6,0,P|18:185|64:257,1,160
147,256,23751,2,0,L|197:348,1,80
277,321,24051,2,0,L|238:250,1,80
330,243,24351,1,0,0:0:0:0:
227,65,24651,5,0,0:0:0:0:
227,65,24801,2,0,P|282:89|327:76,1,80
389,62,25101,1,0,0:0:0:0:
414,55,25401,1,0,0:0:0:0:
439,49,25701,6,0,B|421:98|421:98|448:136|467:196,1,160
377,219,26151,2,0,B|366:178|348:161|348:161|286:142|241:175,1,160
195,235,26601,1,0,0:0:0:0:
195,235,26901,6,0,B|230:177|162:140|196:80,1,160
270,26,27351,2,0,P|204:52|96:17,1,160
39,80,27801,1,0,0:0:0:0:
39,80,28101,6,0,B|64:121|131:136|131:136|90:166,1,160
115,254,28551,2,0,L|194:203,1,80
214,296,28851,2,0,L|146:339,1,80
55,325,29151,2,0,P|30:292|31:224,1,80
70,174,29451,6,0,B|168:113|168:113|125:84,1,160
194,21,29901,2,0,B|241:53|241:53|275:38|313:33|368:82,1,160
286,135,30351,1,0,0:0:0:0:
377,143,30501,1,0,0:0:0:0:
377,143,30576,1,0,0:0:0:0:
377,143,30651,6,0,P|415:133|464:153,2,80
325,219,31101,1,0,0:0:0:0:
273,295,31251,2,0,P|234:304|186:285,2,80
235,210,31701,1,0,0:0:0:0:
197,125,31851,6,0,P|235:115|284:135,2,80
141,199,32301,2,0,B|108:180|100:130|100:130|65:84|11:100,1,160
24,187,32751,1,0,0:0:0:0:
24,187,32901,6,0,B|28:211|52:240|52:240|13:283|38:347,1,160
120,302,33351,2,0,P|136:296|216:313,1,80
279,343,33651,2,0,B|270:300|245:275|245:275|239:225|273:190,1,160
454,104,34251,6,0,P|472:69|469:21,2,80
368,137,34701,1,0,0:0:0:0:
352,142,35001,1,0,0:0:0:0:
338,145,35301,6,0,P|303:117|191:148,1,160
189,230,35751,2,0,B|232:229|266:198|266:198|292:230|338:235,1,160
262,297,36201,1,0,0:0:0:0:
262,297,36501,6,0,P|355:323|419:259,1,160
457,217,36951,2,0,B|421:167|497:121|458:62,1,160
373,97,37401,2,0,P|326:111|287:89,1,80
212,66,37701,1,0,0:0:0:0:
212,66,37851,6,0,B|197:102|197:102|224:178|224:178|196:232,1,160
130,267,38301,2,0,B|104:214|104:214|123:173|123:173|93:92,1,160
131,33,38751,1,0,0:0:0:0:
322,136,39051,6,0,P|281:202|204:212,1,160
231,124,39501,2,0,P|271:58|348:47,1,160
411,114,39951,1,0,0:0:0:0:
256,276,40251,6,0,B|219:171|219:171|230:124,1,160
312,164,40701,2,0,B|354:281|354:281|422:289,1,160
481,296,41151,1,0,0:0:0:0:
386,112,41451,6,0,P|360:85|297:78,1,80
198,192,41751,2,0,P|236:202|275:192,1,80
312,164,41976,1,0,0:0:0:0:
312,164,42051,2,0,L|352:268,1,80
449,270,42351,2,0,L|420:195,1,80
368,67,42651,6,0,P|316:79|224:29,1,160
195,118,43101,2,0,P|130:73|52:82,1,160
9,163,43551,1,0,0:0:0:0:
170,293,43851,6,0,B|207:317|249:308|249:308|280:269|347:269,1,160
265,193,44301,2,0,B|300:195|331:156|331:156|373:147|410:171,1,160
482,226,44751,1,0,0:0:0:0:
482,226,45051,6,0,P|499:154|442:85,1,160
371,40,45501,2,0,B|333:75|255:5|216:40,1,160
139,87,45951,1,0,0:0:0:0:
139,87,46251,6,0,B|166:133|166:133|128:238,1,160
89,316,46701,2,0,B|129:327|129:327|205:306|205:306|261:327,2,160
67,215,47451,6,0,B|130:233|130:233|220:205,1,160
298,253,47901,2,0,B|320:212|311:175|293:148|293:148|303:119|351:102,1,160
397,170,48351,1,0,0:0:0:0:
247,349,48651,6,0,B|201:263|201:263|220:204,1,160
226,112,49101,2,0,B|208:168|208:168|143:193|89:154,1,160
68,84,49551,1,0,0:0:0:0:
286,42,49851,6,0,B|344:56|344:56|381:36|422:39|460:77,1,160
389,137,50301,2,0,B|359:189|421:237|391:292,1,160
304,258,50751,2,0,P|267:246|217:257,1,80
106,215,51051,6,0,P|144:206|181:172,1,80
148,59,51351,2,0,P|119:85|103:133,1,80
267,166,51651,2,0,P|279:128|268:78,1,80
363,73,51951,2,0,P|371:111|405:148,1,80
349,242,52251,6,0,B|328:275|328:275|246:284|246:284|221:325,1,160
141,355,52701,2,0,B|136:297|136:297|188:200,1,160
230,127,53151,1,0,0:0:0:0:
230,127,53451,6,0,P|289:156|390:108,1,160
419,47,53901,2,0,B|385:81|460:153|422:198,1,160
339,240,54351,1,0,0:0:0:0:
339,240,54651,6,0,P|286:285|351:335,1,160
342,144,55251,2,0,B|262:132|262:132|195:154,2,120
383,61,55851,6,0,L|194:28,1,160
156,94,56301,2,0,B|91:77|91:77|3:106,1,160
4,198,56751,1,0,0:0:0:0:
144,320,57051,6,0,B|242:286|242:286|323:306,1,160
386,322,57501,2,0,P|384:272|290:210,1,160
209,203,57951,1,0,0:0:0:0:
209,203,58101,6,0,B|109:240|109:240|57:219,1,160
110,143,58551,1,0,0:0:0:0:
86,52,58701,1,0,0:0:0:0:
175,71,58851,2,0,P|206:74|261:55,1,80
333,105,59151,2,0,P|370:92|410:94,1,80
487,144,59451,6,0,B|471:182|491:229|491:229|483:274|401:268,1,160
346,245,59901,1,0,0:0:0:0:
346,245,60051,2,0,B|299:248|261:283|261:283|221:278|186:289,1,160
104,278,60501,1,0,0:0:0:0:
104,278,60651,5,0,0:0:0:0:
256,195,61851,6,0,P|276:121|224:50,1,160
187,135,62301,1,0,0:0:0:0:
187,135,62451,2,0,P|166:208|219:280,1,160
301,274,62901,1,0,0:0:0:0:
301,274,63051,6,0,P|344:249|408:266,1,80
438,185,63351,2,0,P|395:159|377:96,1,80
292,110,63651,2,0,P|291:159|245:206,1,80
212,251,63951,2,0,P|194:286|196:325,1,80
109,303,64251,6,0,P|87:270|51:252,1,80
115,187,64551,2,0,P|154:184|187:162,1,80
124,95,64851,2,0,P|88:77|66:44,1,80
152,9,65151,2,0,P|187:26|209:59,1,80
271,127,65451,6,0,B|309:177|368:136|411:191,1,160
423,283,65901,1,0,0:0:0:0:
337,249,66051,1,0,0:0:0:0:
326,246,66351,1,0,0:0:0:0:
316,243,66651,6,0,B|277:292|209:277|209:277|171:338,1,160
178,62,67251,2,0,P|240:109|243:186,1,160
157,153,67701,1,0,0:0:0:0:
157,153,67851,6,0,B|135:136|105:139|105:139|67:169|64:239,1,160
111,311,68301,2,0,B|156:288|209:319|209:319|238:302|279:308,1,160
350,337,68751,2,0,P|391:338|431:311,1,80
366,246,69051,6,0,B|323:212|323:212|296:92,1,160
227,53,69501,1,0,0:0:0:0:
227,53,69801,2,0,P|208:90|157:110,1,80
82,107,70101,6,0,P|137:131|161:226,1,160
132,308,70551,2,0,P|173:330|236:329,1,80
255,306,70776,1,0,0:0:0:0:
255,306,70851,2,0,P|302:320|346:308,1,80
360,279,71076,1,0,0:0:0:0:
360,279,71151,2,0,P|340:260|325:200,1,80
378,136,71451,6,0,P|318:119|231:207,1,160
247,261,71901,1,0,0:0:0:0:
247,260,72051,2,0,P|186:308|110:294,1,160
67,212,72501,1,0,0:0:0:0:
67,212,72651,6,0,P|83:171|74:127,1,80
128,58,72951,2,0,P|155:92|198:106,1,80
230,187,73251,2,0,P|186:193|152:223,1,80
110,294,73551,2,0,P|153:300|187:330,1,80
273,322,73851,6,0,P|304:298|344:293,1,80
301,215,74151,2,0,P|257:208|223:178,1,80
298,125,74451,2,0,L|366:61,1,80
281,15,74751,1,0,0:0:0:0:
281,15,74901,6,0,L|157:134,1,160
107,197,75351,2,0,P|150:203|184:233,1,80
194,316,75651,2,0,P|225:339|265:344,1,80
356,334,75951,2,0,P|392:318|416:286,1,80
425,240,76176,1,0,0:0:0:0:
425,240,76251,6,0,B|451:228|476:233|476:233|449:153|486:110,1,160
279,52,76851,2,0,P|282:95|255:145,1,80
220,207,77151,2,0,P|257:220|296:217,1,80
359,149,77451,5,0,0:0:0:0:
188,78,77751,1,0,0:0:0:0:
188,78,77901,2,0,B|136:53|88:64|88:64|56:93|66:136,1,160
118,188,78351,2,0,P|123:227|101:278,1,80
173,332,78651,6,0,B|208:299|274:297|274:297|340:343,1,160
393,276,79101,2,0,B|307:212|307:212|300:189|302:160,1,160
393,163,79551,2,0,L|463:218,1,80
494,128,79851,6,0,L|431:78,1,80
394,49,80076,1,0,0:0:0:0:
394,49,80151,2,0,P|357:58|299:38,1,80
235,92,80451,2,0,P|196:83|157:93,1,80
198,176,80751,1,0,0:0:0:0:
198,176,80901,5,0,0:0:0:0:
256,192,80976,12,0,83301,0:0:0:0:
256,192,97851,12,0,101451,0:0:0:0:
256,191,102651,6,0,B|290:157|286:78|286:78|227:127|179:128|179:128|129:182|172:261,1,360.000013732911
370,218,103851,6,0,B|367:139|403:107|403:107|450:127|479:198|479:198|440:252|447:323,1,360.000013732911
254,302,105051,6,0,P|182:305|132:269,1,120.000004577637
178,109,105651,2,0,P|250:106|300:142,1,120.000004577637
437,225,106251,6,0,P|406:165|407:86,1,120.000004577637
303,219,106851,2,0,P|334:279|333:358,1,120.000004577637
103,254,107451,6,0,B|17:233|6:195|22:162|22:162|39:128|88:115|121:153|175:179|240:137,1,360.000013732911
317,45,108651,2,0,B|305:130|357:179|357:179|381:199|420:276|293:341|245:235,1,360.000013732911
84,118,109851,6,0,B|63:154|63:154|81:249,1,120.000004577637
197,316,110451,2,0,B|218:280|218:280|200:185,1,120.000004577637
183,89,111051,6,0,B|212:111|256:120|256:120|294:114|343:78,1,160
372,13,111501,2,0,B|352:44|380:89|380:89|430:102|441:161,1,160
349,175,111951,1,0,0:0:0:0:
349,175,112251,6,0,P|287:213|200:185,2,160
272,124,113001,1,0,0:0:0:0:
355,85,113151,1,0,0:0:0:0:
355,85,113451,6,0,B|348:174|348:174|386:194|402:240,2,160
437,43,114201,1,0,0:0:0:0:
441,134,114351,1,0,0:0:0:0:
441,134,114651,6,0,P|482:187|455:306,1,160
285,253,115251,2,0,B|328:255|353:221|353:221|394:224,2,120
192,251,115851,6,0,B|136:235|112:189|112:189|116:146|152:116,1,160
223,144,116301,2,0,P|266:146|317:117,2,80
184,59,116751,1,0,0:0:0:0:
184,59,117051,6,0,P|101:50|36:131,2,160
275,64,117801,1,0,0:0:0:0:
275,64,117951,2,0,P|311:54|361:69,1,80
419,126,118251,6,0,P|436:157|426:223,1,80
374,269,118551,1,0,0:0:0:0:
283,250,118701,1,0,0:0:0:0:
271,158,118851,2,0,L|222:161,3,40
195,130,119151,2,0,L|146:133,3,40
114,110,119451,6,0,B|151:167|73:203|113:261,1,160
191,311,119901,1,0,0:0:0:0:
191,311,120051,2,0,B|237:297|237:297|295:332|371:303,1,160
409,245,120501,1,0,0:0:0:0:
409,245,120651,5,0,0:0:0:0:
255,192,138651,6,0,B|191:158|153:184|153:184|117:209|136:297,1,215.999993408203
226,279,139251,1,0,0:0:0:0:
98,110,139551,1,0,0:0:0:0:
308,83,139851,5,0,0:0:0:0:
106,236,140151,1,0,0:0:0:0:
188,39,140451,1,0,0:0:0:0:
316,208,140751,1,0,0:0:0:0:
126,148,141051,6,0,P|26:195|19:248,1,143.999995605469
86,322,141501,2,0,P|186:275|193:222,1,143.999995605469
107,236,141951,1,0,0:0:0:0:
191,199,143451,6,0,B|236:164|302:233|343:199,1,160
402,127,143901,1,0,0:0:0:0:
402,127,144051,2,0,P|368:207|413:286,1,160
454,340,144501,1,0,0:0:0:0:
454,340,144651,6,0,P|409:362|347:346,1,80
305,305,144951,2,0,P|265:306|231:326,1,80
139,327,145251,2,0,P|157:292|157:252,1,80
202,172,145551,2,0,P|223:205|257:225,1,80
321,158,145851,6,0,P|299:124|265:104,1,80
340,51,146151,2,0,P|383:46|417:26,1,80
423,120,146451,2,0,P|405:159|404:199,1,80
474,254,146751,2,0,P|471:293|454:329,1,80
362,337,147051,6,0,B|336:307|291:306|291:306|250:335|180:320,1,160
128,292,147501,1,0,0:0:0:0:
125,200,147651,1,0,0:0:0:0:
139,193,147951,1,0,0:0:0:0:
156,185,148251,6,0,B|206:202|206:202|259:183|259:183|307:201,1,160
497,143,148851,2,0,B|443:159|443:159|346:121,1,160
260,89,149301,1,0,0:0:0:0:
260,89,149451,6,0,B|290:108|298:134|298:134|292:191|215:212,1,160
147,231,149901,2,0,B|167:283|222:294|222:294|249:325|237:381,1,160
150,366,150351,2,0,P|118:346|87:310,1,80
68,175,150651,6,0,B|105:148|106:106|106:106|129:68|196:64,1,160
260,89,151101,1,0,0:0:0:0:
260,89,151401,2,0,P|310:102|361:69,1,80
412,41,151701,6,0,B|435:82|421:120|421:120|409:156|434:196,1,160
477,275,152151,2,0,P|434:269|384:295,1,80
358,302,152376,1,0,0:0:0:0:
358,302,152451,2,0,P|320:289|281:295,1,80
243,321,152676,1,0,0:0:0:0:
243,321,152751,2,0,P|206:306|174:255,1,80
220,191,153051,6,0,B|230:164|216:128|216:128|161:99|107:132,1,160
47,173,153501,1,0,0:0:0:0:
47,173,153651,2,0,P|37:96|110:32,1,160
179,50,154101,1,0,0:0:0:0:
179,50,154251,6,0,P|211:68|279:48,1,80
344,49,154551,2,0,P|383:45|418:64,1,80
364,139,154851,2,0,P|330:159|313:195,1,80
221,188,155151,2,0,P|222:227|244:259,1,80
157,291,155451,6,0,L|66:278,1,80
137,192,155751,2,0,L|46:179,1,80
117,93,156051,2,0,L|26:80,1,80
212,126,156351,1,0,0:0:0:0:
212,126,156501,6,0,B|256:82|256:82|388:66,1,160
379,158,156951,2,0,L|263:173,1,80
405,245,157251,2,0,L|326:256,1,80
432,333,157551,2,0,L|353:344,1,80
306,346,157776,1,0,0:0:0:0:
306,346,157851,6,0,B|256:317|256:317|133:330,1,160
128,134,158451,2,0,L|232:123,1,80
271,214,158751,2,0,L|167:226,1,80
99,223,159051,6,0,P|42:169|61:66,1,160
119,40,159501,2,0,B|172:76|219:8|272:43,1,160
346,97,159951,1,0,0:0:0:0:
195,338,160251,6,0,B|164:286|185:230|185:230|246:216,1,160
263,121,160701,2,0,B|151:145|151:145|95:119,1,160
86,214,161151,2,0,L|14:178,1,80
1,134,161376,1,0,0:0:0:0:
1,134,161451,6,0,P|-6:88|9:36,1,80
90,36,161751,2,0,P|129:42|168:35,1,80
235,98,162051,2,0,P|274:90|313:97,1,80
354,120,162276,1,0,0:0:0:0:
354,120,162351,1,0,0:0:0:0:
405,196,162501,6,0,B|422:234|422:234|393:307|393:307|410:345,1,160
318,360,162951,2,0,B|297:307|297:307|323:240|323:240|309:203,1,160
163,84,163551,1,0,0:0:0:0:
163,84,163701,6,0,L|235:261,1,160
164,329,164151,2,0,B|123:227|123:227|44:213,1,160
289,139,164751,1,0,0:0:0:0:
289,139,164901,6,0,B|346:146|346:146|381:102|363:37,1,160
274,51,165351,2,0,P|263:129|201:185,1,160
361,260,165951,1,0,0:0:0:0:
361,260,166101,6,0,B|411:282|411:282|412:222|482:170,1,160
429,102,166551,2,0,B|391:134|335:122|335:122|314:144|309:181,1,160
270,259,167001,2,0,L|173:219,1,80
173,130,167301,6,0,B|224:145|224:145|241:70|302:32,1,160
185,29,167751,2,0,B|161:52|126:57|126:57|82:45|82:45|48:35|17:52,1,160
146,227,168351,1,0,0:0:0:0:
146,227,168501,6,0,B|205:247|205:247|261:213|320:238,1,160
373,284,168951,2,0,P|391:221|332:144,1,160
114,85,169551,1,0,0:0:0:0:
114,85,169701,6,0,B|152:143|80:180|116:237,1,160
208,240,170151,2,0,B|244:183|172:146|210:88,1,160
407,217,170751,1,0,0:0:0:0:
407,217,170901,6,0,P|395:188|311:237,1,160
315,320,171351,2,0,P|268:343|211:327,1,80
200,319,171576,1,0,0:0:0:0:
200,319,171651,2,0,P|153:342|96:326,2,80
138,250,172101,6,0,B|107:205|107:205|125:86,1,160
219,63,172551,2,0,B|202:181|202:181|240:239,1,160
427,226,173151,1,0,0:0:0:0:
427,226,173301,6,0,B|393:177|393:177|328:193|287:146,1,160
358,86,173751,2,0,B|386:50|386:50|334:0|256:21,1,160
106,116,174351,1,0,0:0:0:0:
106,116,174501,6,0,P|162:85|184:157,1,160
108,208,174951,2,0,B|158:201|226:213|226:213|271:259,1,160
423,316,175551,1,0,0:0:0:0:
423,316,175701,6,0,B|390:280|390:280|379:212|423:160,1,160
477,108,176151,1,0,0:0:0:0:
435,25,176301,1,0,0:0:0:0:
343,17,176451,1,0,0:0:0:0:
285,88,176601,2,0,P|244:99|182:81,1,80
131,40,176901,6,0,B|156:110|115:160|115:160|146:215,1,160
211,233,177351,2,0,P|233:275|289:293,1,80
334,344,177651,2,0,B|282:337|282:337|226:356|226:356|166:343,1,160
92,306,178101,6,0,P|71:234|131:188,1,160
211,142,178551,2,0,P|211:113|247:68,1,80
326,30,178851,2,0,P|361:94|303:139,1,160
266,224,179301,6,0,B|331:237|382:208|382:208|414:212|439:251,1,160
378,308,179751,2,0,P|328:304|279:347,1,80
211,302,180051,2,0,B|246:263|173:192|212:151,1,160
303,138,180501,6,0,P|252:69|156:81,1,160
122,133,180951,2,0,L|20:115,1,80
71,206,181251,1,0,0:0:0:0:
10,275,181401,1,0,0:0:0:0:
10,275,181476,1,0,0:0:0:0:
10,275,181551,1,0,0:0:0:0:
123,322,181701,6,0,B|178:329|178:329|238:305|238:305|294:313,1,176.000005371094
354,231,182151,2,0,L|247:215,1,88.000002685547
326,135,182451,2,0,L|219:119,1,88.000002685547
177,194,182751,1,0,0:0:0:0:
146,76,182901,6,0,B|192:86|192:86|257:42|257:42|311:51,1,176.000005371094
398,72,183351,1,0,0:0:0:0:
439,156,183501,1,0,0:0:0:0:
439,156,183576,1,0,0:0:0:0:
439,156,183651,2,0,P|452:195|431:258,1,88.000002685547
405,275,183876,1,0,0:0:0:0:
405,275,183951,2,0,L|337:273,3,44.0000013427735
326,236,184251,6,0,B|207:228|207:228|221:195|263:172,1,176.000005371094
194,100,184701,2,0,B|145:130|116:185|116:185|34:182,1,176.000005371094
128,281,185151,1,0,0:0:0:0:
256,192,185226,12,0,190551,0:0:0:0:
