osu file format v14

[General]
AudioFilename: audio.mp3
AudioLeadIn: 0
PreviewTime: 60501
Countdown: 0
SampleSet: Soft
StackLeniency: 0.3
Mode: 0
LetterboxInBreaks: 0
WidescreenStoryboard: 1

[Editor]
Bookmarks: 21051,42651,66351,87201
DistanceSpacing: 1.7
BeatDivisor: 4
GridSize: 32
TimelineZoom: 2.5

[Metadata]
Title:Shiroi Yuki No Princess Wa
TitleUnicode:白い雪のプリンセスは
Artist:Hatsune Miku vs. Mitani Nana
ArtistUnicode:初音ミク vs. 実谷なな
Creator:Hokichi
Version:_Epreus' Extra
Source:初音ミク Project DIVA Arcade Future Tone
Tags:yamicchi yami lanturn chocola [-chocola-] bara zerss hikan cassu cassu2 the snow white princess is SOUND VOLTEX II -infinite infection- 初音ミク Project DIVA Future Tone DX BeatStream jubeat prop
BeatmapID:1161262
BeatmapSetID:547883

[Difficulty]
HPDrainRate:5
CircleSize:4.8
OverallDifficulty:8.6
ApproachRate:9.2
SliderMultiplier:1.6
SliderTickRate:1

[Events]
//Background and Video events
0,0,"cute-hatsune-miku-wallpaper-wallpaper-3.jpg",0,0
//Break Periods
2,122051,138081
//Storyboard Layer 0 (Background)
//Storyboard Layer 1 (Fail)
//Storyboard Layer 2 (Pass)
//Storyboard Layer 3 (Foreground)
Sprite,Foreground,Centre,"cre\hikan.png",320,240 M,0,1701,,516,416 S,0,1701,,0.3 P,0,1701,,A F,0,1701,1851,0,0.5 F,0,21051,21201,0.5,0 F,0,42651,42801,0,0.5 F,0,189651,190251,0.5,0
Sprite,Foreground,Centre,"cre\yami.png",320,240 M,0,21051,,124,416 S,0,21051,,0.3 P,0,21051,,A F,0,21051,21201,0,1 F,0,42651,42801,1,0
//Storyboard Sound Samples

[TimingPoints]
651,300,4,2,4,40,1,0
651,-181.818181818181,4,2,4,40,0,0
6501,-90.9090909090909,4,2,4,75,0,0
10101,-90.9090909090909,4,2,4,75,0,0
11301,-90.9090909090909,4,2,4,75,0,0
19701,-100,4,2,4,75,0,0
20751,-100,4,2,4,75,0,0
20976,-100,4,2,4,5,0,0
21051,-100,4,2,4,75,0,0
23526,-100,4,2,4,5,0,0
23601,-100,4,2,4,75,0,0
25326,-100,4,2,4,5,0,0
25401,-100,4,2,4,75,0,0
30576,-100,4,2,4,5,0,0
30651,-100,4,2,4,75,0,0
32526,-100,4,2,4,5,0,0
32601,-100,4,2,4,75,0,0
34776,-100,4,2,4,5,0,0
35001,-100,4,2,4,75,0,0
35076,-100,4,2,4,5,0,0
35151,-100,4,2,4,75,0,0
35526,-100,4,2,4,5,0,0
35601,-100,4,2,4,75,0,0
36726,-100,4,2,4,5,0,0
36801,-100,4,2,4,75,0,0
39051,-100,4,2,4,75,0,0
41451,-100,4,2,4,75,0,0
41751,-100,4,2,4,75,0,0
42051,-100,4,2,4,75,0,0
42351,-100,4,2,4,75,0,0
42651,-100,4,2,33,75,0,0
42876,-100,4,2,4,5,0,0
42951,-100,4,2,4,75,0,0
43476,-100,4,2,4,5,0,0
43551,-100,4,2,4,75,0,0
43626,-100,4,2,4,5,0,0
43701,-100,4,2,4,75,0,0
43776,-100,4,2,4,5,0,0
43851,-100,4,2,33,75,0,0
43926,-100,4,2,4,75,0,0
44976,-100,4,2,4,5,0,0
45051,-100,4,2,34,75,0,0
45126,-100,4,2,4,75,0,0
45576,-100,4,2,4,5,0,0
45651,-100,4,2,4,75,0,0
45801,-100,4,2,4,75,0,0
45951,-100,4,2,4,75,0,0
46026,-100,4,2,4,5,0,0
46101,-100,4,2,4,75,0,0
46176,-100,4,2,4,5,0,0
46251,-100,4,2,35,75,0,0
46326,-100,4,2,4,75,0,0
47451,-100,4,2,4,75,0,0
47676,-100,4,2,4,5,0,0
47751,-100,4,2,4,75,0,0
48576,-100,4,2,4,5,0,0
48651,-100,4,2,33,75,0,0
48726,-100,4,2,4,75,0,0
49851,-100,4,2,34,75,0,0
49926,-100,4,2,4,75,0,0
50751,-100,4,2,4,75,0,0
51051,-100,4,2,35,75,0,0
51276,-100,4,2,4,5,0,0
51351,-100,4,2,4,75,0,0
51576,-100,4,2,4,5,0,0
51651,-100,4,2,4,75,0,0
51876,-100,4,2,4,5,0,0
51951,-100,4,2,4,75,0,0
52176,-100,4,2,4,5,0,0
52251,-100,4,2,4,75,0,0
52251,-100,4,2,4,75,0,0
57051,-100,4,2,4,75,0,0
58251,-100,4,2,4,75,0,0
58551,-100,4,2,4,40,0,0
58701,-100,4,2,4,45,0,0
58851,-100,4,2,4,50,0,0
59451,-100,4,2,4,75,0,0
59826,-100,4,2,4,5,0,0
59901,-100,4,2,4,50,0,0
60051,-100,4,2,4,60,0,0
60201,-100,4,2,4,70,0,0
60351,-100,4,2,4,75,0,0
60651,-100,4,2,4,60,0,0
60876,-100,4,2,4,5,0,0
60951,-100,4,2,4,60,0,0
61176,-100,4,2,4,5,0,0
61251,-100,4,2,4,60,0,0
61476,-100,4,2,4,5,0,0
61551,-100,4,2,4,60,0,0
61776,-100,4,2,4,5,0,0
61851,-76.9230769230769,4,2,4,70,0,1
65976,-76.9230769230769,4,2,4,5,0,1
66051,-76.9230769230769,4,2,4,70,0,1
69051,-51.0204081632653,4,2,4,70,0,1
69276,-51.0204081632653,4,2,4,5,0,1
69351,-51.0204081632653,4,2,4,70,0,1
69726,-51.0204081632653,4,2,4,5,0,1
69801,-51.0204081632653,4,2,4,70,0,1
70026,-51.0204081632653,4,2,4,5,0,1
70101,-76.9230769230769,4,2,4,70,0,1
76476,-76.9230769230769,4,2,4,5,0,1
76551,-76.9230769230769,4,2,4,70,0,1
78651,-76.9230769230769,4,2,4,70,0,1
78876,-76.9230769230769,4,2,4,5,0,1
78951,-76.9230769230769,4,2,4,70,0,1
79101,-71.4285714285714,4,2,4,70,0,1
79326,-71.4285714285714,4,2,4,5,0,1
79401,-71.4285714285714,4,2,4,70,0,1
79551,-62.5,4,2,4,70,0,1
79776,-62.5,4,2,4,5,0,1
79851,-76.9230769230769,4,2,4,70,0,1
80901,-83.3333333333333,4,2,4,70,0,0
81126,-83.3333333333333,4,2,4,5,0,0
81201,-83.3333333333333,4,2,4,70,0,0
81276,-83.3333333333333,4,2,4,5,0,0
81351,-83.3333333333333,4,2,4,70,0,0
87126,-83.3333333333333,4,2,4,5,0,0
87201,-83.3333333333333,4,2,4,70,0,0
89826,-83.3333333333333,4,2,4,5,0,0
89901,-83.3333333333333,4,2,4,70,0,0
89976,-83.3333333333333,4,2,4,5,0,0
90051,-83.3333333333333,4,2,4,70,0,0
93126,-83.3333333333333,4,2,4,5,0,0
93201,-83.3333333333333,4,2,4,70,0,0
95301,-71.4285714285714,4,2,4,70,0,0
96501,-62.5,4,2,4,70,0,0
97251,-83.3333333333333,4,2,4,70,0,0
102576,-83.3333333333333,4,2,4,5,0,0
102651,-133.333333333333,4,2,33,70,0,0
102726,-133.333333333333,4,2,4,70,0,0
103851,-133.333333333333,4,2,33,70,0,0
103926,-133.333333333333,4,2,4,70,0,0
105051,-133.333333333333,4,2,34,70,0,0
105126,-133.333333333333,4,2,4,70,0,0
106251,-133.333333333333,4,2,35,70,0,0
106326,-133.333333333333,4,2,4,70,0,0
108651,-133.333333333333,4,2,33,70,0,0
108726,-133.333333333333,4,2,4,70,0,0
109851,-133.333333333333,4,2,34,70,0,0
109926,-133.333333333333,4,2,4,70,0,0
110976,-133.333333333333,4,2,4,5,0,0
111051,-100,4,2,4,70,0,0
112251,-83.3333333333333,4,2,5,70,0,0
118476,-83.3333333333333,4,2,5,5,0,0
118551,-83.3333333333333,4,2,5,70,0,0
120651,-83.3333333333333,4,2,4,50,0,0
130776,-83.3333333333333,4,2,4,5,0,0
130851,-83.3333333333333,4,2,4,50,0,0
135276,-83.3333333333333,4,2,4,5,0,0
135351,-83.3333333333333,4,2,4,50,0,0
138651,-83.3333333333333,4,2,4,60,0,0
139251,-125,4,2,4,60,0,0
139476,-125,4,2,4,5,0,0
139551,-125,4,2,4,60,0,0
139776,-125,4,2,4,5,0,0
139851,-125,4,2,4,60,0,0
140076,-125,4,2,4,5,0,0
140151,-125,4,2,4,60,0,0
140376,-125,4,2,4,5,0,0
140451,-125,4,2,4,60,0,0
140676,-125,4,2,4,5,0,0
140751,-125,4,2,4,60,0,0
140976,-125,4,2,4,5,0,0
141051,-66.6666666666667,4,2,4,60,0,0
143451,-66.6666666666667,4,2,4,70,0,1
145476,-66.6666666666667,4,2,4,5,0,1
145551,-66.6666666666667,4,2,4,70,0,1
147276,-66.6666666666667,4,2,4,5,0,1
147351,-66.6666666666667,4,2,4,70,0,1
147876,-66.6666666666667,4,2,4,5,0,1
147951,-66.6666666666667,4,2,4,70,0,1
148176,-66.6666666666667,4,2,4,5,0,1
148251,-66.6666666666667,4,2,4,70,0,1
150651,-38.4615384615385,4,2,4,70,0,1
150876,-38.4615384615385,4,2,4,5,0,1
150951,-38.4615384615385,4,2,4,70,0,1
151101,-38.4615384615385,4,2,4,70,0,1
151326,-38.4615384615385,4,2,4,5,0,1
151401,-38.4615384615385,4,2,4,70,0,1
151626,-38.4615384615385,4,2,4,5,0,1
151701,-66.6666666666667,4,2,4,70,0,1
158076,-66.6666666666667,4,2,4,5,0,1
158151,-66.6666666666667,4,2,4,70,0,1
159276,-66.6666666666667,4,2,4,5,0,1
159351,-66.6666666666667,4,2,4,70,0,1
160251,-66.6666666666667,4,2,4,70,0,1
160476,-66.6666666666667,4,2,4,5,0,1
160551,-66.6666666666667,4,2,4,70,0,1
160701,-62.5,4,2,4,70,0,1
160926,-62.5,4,2,4,5,0,1
161001,-62.5,4,2,4,70,0,1
161151,-55.5555555555556,4,2,4,70,0,1
161376,-55.5555555555556,4,2,4,5,0,1
161451,-66.6666666666667,4,2,4,70,0,1
162501,-66.6666666666667,4,2,4,70,0,0
162726,-66.6666666666667,4,2,4,5,0,0
162801,-66.6666666666667,4,2,4,70,0,0
163476,-66.6666666666667,4,2,4,5,0,0
163551,-66.6666666666667,4,2,4,70,0,0
176826,-66.6666666666667,4,2,4,5,0,0
176901,-62.5,4,2,4,70,0,0
179301,-55.5555555555556,4,2,4,70,0,0
179526,-55.5555555555556,4,2,4,5,0,0
179601,-55.5555555555556,4,2,4,70,0,0
180276,-55.5555555555556,4,2,4,5,0,0
180351,-55.5555555555556,4,2,4,70,0,0
180501,-47.6190476190476,4,2,4,70,0,0
181701,-41.6666666666667,4,2,4,70,0,1
182901,-37.037037037037,4,2,4,70,0,1
184251,-58.8235294117647,4,2,4,70,0,0
184401,-58.8235294117647,4,2,4,30,0,0
184476,-58.8235294117647,4,2,4,5,0,0
184551,-58.8235294117647,4,2,4,30,0,0
184701,-58.8235294117647,4,2,4,70,0,0
184851,-58.8235294117647,4,2,4,30,0,0
184926,-58.8235294117647,4,2,4,5,0,0
185001,-58.8235294117647,4,2,4,30,0,0
185151,-58.8235294117647,4,2,4,70,0,0
185226,-58.8235294117647,4,2,4,5,0,0

[Colours]
Combo1 : 0,225,225
Combo2 : 255,255,128
Combo3 : 255,255,0
Combo4 : 255,128,255
Combo5 : 255,0,255
Combo6 : 0,255,128
Combo7 : 0,255,0
Combo8 : 128,255,255

[HitObjects]
91,121,1701,6,0,P|114:158|123:219,1,88.000002685547,6|0,0:0|0:0,0:0:0:0:
260,153,2151,2,0,P|216:154|159:131,2,88.000002685547,2|2|0,0:0|0:0|0:0,0:0:0:0:
320,99,2901,6,0,P|363:98|405:111,1,88.000002685547,2|0,0:0|0:0,0:0:0:0:
439,206,3351,2,0,P|395:207|338:184,2,88.000002685547,2|2|0,0:0|0:0|0:0,0:0:0:0:
310,258,4101,102,0,P|333:295|342:356,1,88.000002685547,2|0,0:0|0:0,0:0:0:0:
237,371,4551,2,0,P|214:334|205:273,2,88.000002685547,2|2|0,0:0|0:0|0:0,0:0:0:0:
187,197,5301,6,0,P|166:235|118:273,1,88.000002685547,2|0,0:0|0:0,0:0:0:0:
0,316,5751,2,0,P|43:314|100:337,2,88.000002685547,2|0|0,0:0|0:0|0:0,0:0:0:0:
80,180,6501,6,0,B|128:154|178:178|149:202|204:221|261:197,1,176.000005371094,12|8,0:0|0:0,0:0:0:0:
224,37,6951,2,0,L|214:125,1,88.000002685547,0|0,1:0|0:0,0:0:0:0:
316,236,7251,2,0,P|325:193|266:123,1,132.00000402832,8|0,0:0|0:0,0:0:0:0:
214,125,7551,1,0,1:0:0:0:
204,302,7701,6,0,B|268:289|268:289|310:309|310:309|396:291,1,176.000005371094,8|0,0:0|0:0,0:0:0:0:
295,150,8151,2,0,L|316:236,1,88.000002685547,0|0,1:0|0:0,0:0:0:0:
444,356,8451,1,8,0:0:0:0:
484,184,8601,1,8,0:0:0:0:
372,295,8751,1,0,1:0:0:0:
412,123,8901,102,0,B|435:22|435:22|422:46|392:68,1,132.00000402832,8|0,0:0|0:0,0:0:0:0:
340,47,9201,1,8,0:0:0:0:
277,196,9351,2,0,P|316:179|380:187,1,88.000002685547,0|0,1:0|0:0,0:0:0:0:
259,328,9651,2,0,B|247:266|247:266|213:236|213:236|201:169,1,176.000005371094,8|0,0:0|1:0,0:0:0:0:
186,308,10101,6,0,P|126:323|53:227,1,176.000005371094,12|8,0:0|0:0,0:0:0:0:
201,169,10551,1,0,1:0:0:0:
134,240,10701,102,0,P|103:185|154:85,1,176.000005371094,12|8,0:0|0:0,0:0:0:0:
268,214,11151,1,0,1:0:0:0:
201,169,11301,6,0,P|251:134|345:195,1,176.000005371094,12|8,0:0|0:0,0:0:0:0:
402,323,11751,2,0,L|431:136,1,176.000005371094,0|8,1:0|0:0,0:0:0:0:
323,73,12201,2,0,L|337:160,1,88.000002685547,8|0,0:0|1:0,0:0:0:0:
239,304,12501,102,0,B|277:266|277:266|252:127,1,176.000005371094,8|8,0:0|0:0,0:0:0:0:
115,255,12951,2,0,L|202:242,1,88.000002685547,0|0,1:0|0:0,0:0:0:0:
385,124,13251,1,8,0:0:0:0:
255,145,13401,1,8,0:0:0:0:
338,248,13551,1,0,1:0:0:0:
303,22,13701,6,0,B|352:2|388:28|388:28|431:63|487:27,1,176.000005371094,12|8,0:0|0:0,0:0:0:0:
360,182,14151,2,0,L|343:96,1,88.000002685547,0|0,1:0|0:0,0:0:0:0:
471,262,14451,2,0,B|408:250|408:250|367:269|367:269|271:243,1,176.000005371094,8|0,0:0|1:0,0:0:0:0:
192,82,14901,102,0,P|209:168|222:260,1,176.000005371094,12|8,0:0|0:0,0:0:0:0:
288,113,15351,1,0,1:0:0:0:
117,210,15501,6,0,P|180:270|243:338,1,176.000005371094,12|8,0:0|0:0,0:0:0:0:
213,180,15951,1,0,1:0:0:0:
325,375,16101,102,0,B|315:320|315:320|337:280|337:280|321:184,1,176.000005371094,12|8,0:0|0:0,0:0:0:0:
212,11,16551,6,0,B|222:66|222:66|200:106|200:106|213:180,1,176.000005371094,0|8,1:0|0:0,0:0:0:0:
422,182,17001,2,0,P|359:123|274:123,1,176.000005371094,0|8,1:0|3:0,0:0:0:0:
318,222,17451,101,4,3:0:0:0:
439,71,17601,1,8,3:0:0:0:
422,182,17751,1,8,3:0:0:0:
230,151,17901,5,8,3:0:0:0:
301,334,18051,1,4,3:0:0:0:
318,222,18201,1,4,3:0:0:0:
213,264,18351,2,0,L|120:302,1,88.000002685547,4|8,3:0|3:0,0:0:0:0:
422,182,18651,101,4,0:0:0:0:
230,151,18801,1,4,0:0:0:0:
231,135,19701,6,0,P|240:175|150:253,1,160,4|0,0:0|0:0,0:0:0:0:
72,114,20151,2,0,L|160:126,1,80,8|0,0:0|0:0,0:0:0:0:
231,135,20451,2,0,L|310:145,1,80,8|0,0:0|0:0,0:0:0:0:
441,50,20751,102,0,L|297:69,1,120,4|0,1:2|0:0,0:0:0:0:
282,71,21051,21,8,0:0:0:0:
343,161,21201,1,0,0:0:0:0:
295,258,21351,1,0,1:0:0:0:
234,168,21501,1,0,0:0:0:0:
296,71,21651,5,8,0:0:0:0:
342,169,21801,1,8,0:0:0:0:
280,257,21951,1,0,1:0:0:0:
234,159,22101,1,0,0:0:0:0:
311,73,22251,101,8,0:0:0:0:
341,178,22401,1,0,0:0:0:0:
265,255,22551,1,0,1:0:0:0:
235,150,22701,6,0,P|211:95|101:91,1,160,0|8,0:0|0:0,0:0:0:0:
119,79,23151,1,0,1:0:0:0:
136,303,23301,102,0,B|167:268|167:268|158:176,1,120,8|0,0:0|0:0,0:0:0:0:
154,155,23601,1,8,0:0:0:0:
15,337,23751,6,0,B|92:317|76:391|163:372,2,160,0|8|0,1:0|0:0|1:0,0:0:0:0:
136,303,24501,1,0,0:0:0:0:
33,184,24651,102,0,P|53:235|57:281,1,80,8|0,0:0|0:0,0:0:0:0:
136,303,24951,1,0,1:0:0:0:
136,303,25101,6,0,P|170:260|208:233,1,80,8|0,0:0|0:0,0:0:0:0:
353,295,25401,102,0,P|298:286|256:267,1,80,8|0,0:0|1:0,0:0:0:0:
238,112,25701,6,0,B|263:161|261:188|261:188|291:137|359:151,1,160,8|8,0:0|0:0,0:0:0:0:
406,232,26151,2,0,P|368:241|330:231,1,80,0|0,1:0|0:0,0:0:0:0:
333,70,26451,1,8,0:0:0:0:
333,70,26601,2,0,P|371:60|409:71,1,80,8|0,0:0|1:0,0:0:0:0:
238,112,26901,102,0,L|75:93,1,160,8|8,0:0|0:0,0:0:0:0:
27,217,27351,2,0,L|106:207,1,80,0|0,1:0|0:0,0:0:0:0:
238,112,27651,1,0,0:0:0:0:
238,112,27801,2,0,L|247:191,1,80,8|0,0:0|1:0,0:0:0:0:
200,345,28101,6,0,B|240:315|240:315|361:331,1,160,8|8,0:0|0:0,0:0:0:0:
503,384,28551,2,0,L|512:304,1,80,0|0,1:0|0:0,0:0:0:0:
412,166,28851,1,8,0:0:0:0:
422,264,29001,1,8,0:0:0:0:
262,378,29151,1,0,1:0:0:0:
252,280,29301,1,0,0:0:0:0:
412,166,29451,102,0,L|431:335,1,160,8|0,0:0|1:0,0:0:0:0:
331,169,29901,2,0,P|362:102|470:109,1,160,8|8,0:0|0:0,0:0:0:0:
341,240,30351,2,0,P|275:213|260:163,1,120,0|0,1:0|0:0,0:0:0:0:
267,132,30651,21,14,0:0:0:0:
161,173,30801,1,0,0:0:0:0:
250,245,30951,1,0,1:0:0:0:
143,285,31101,1,0,0:0:0:0:
278,143,31251,5,10,0:0:0:0:
167,166,31401,1,8,0:0:0:0:
243,251,31551,1,0,1:0:0:0:
131,274,31701,1,0,0:0:0:0:
287,155,31851,101,10,0:0:0:0:
174,161,32001,1,0,0:0:0:0:
236,257,32151,1,0,1:0:0:0:
122,262,32301,6,0,L|-26:267,1,120
21,231,32601,2,0,L|116:227,1,80,8|0,0:0|1:0,0:0:0:0:
245,358,32901,102,0,P|253:304|345:273,1,160,8|8,0:0|0:0,0:0:0:0:
491,314,33351,2,0,P|456:332|416:329,1,80,0|0,1:0|0:0,0:0:0:0:
416,133,33651,1,10,0:0:0:0:
439,251,33801,1,8,0:0:0:0:
321,273,33951,2,0,L|223:291,1,80,0|0,1:0|0:0,0:0:0:0:
337,147,34251,5,10,0:0:0:0:
337,147,34401,2,0,L|416:133,1,80,0|0,0:0|1:0,0:0:0:0:
259,207,34701,2,0,L|276:41,1,160,8|0,0:0|1:0,0:0:0:0:
184,171,35151,1,0,1:0:0:0:
91,21,35301,102,0,P|132:14|186:108,1,160,8|8,0:0|0:0,0:0:0:0:
102,236,35751,2,0,B|81:145|145:192|120:75,1,160,0|10,1:0|0:0,0:0:0:0:
167,208,36201,1,8,0:0:0:0:
44,119,36351,1,0,1:0:0:0:
167,208,36501,6,0,P|235:188|329:190,1,160,8|8,0:0|0:0,0:0:0:0:
445,117,36951,2,0,P|411:127|363:129,1,80,0|0,1:0|0:0,0:0:0:0:
276,253,37251,1,2,0:0:0:0:
276,253,37401,2,0,P|337:261|366:349,1,160,8|0,0:0|0:0,0:0:0:0:
214,293,37851,102,0,P|209:222|232:196,1,80,14|0,0:0|0:0,0:0:0:0:
433,202,38151,2,0,L|272:179,1,160,0|2,1:0|0:0,0:0:0:0:
211,217,38601,1,8,0:0:0:0:
285,99,38751,2,0,L|274:179,1,80,0|0,1:0|0:0,0:0:0:0:
188,58,39051,6,0,L|199:137,1,80,10|0,0:0|0:0,0:0:0:0:
88,240,39351,2,0,P|67:201|132:120,1,160,0|2,1:0|0:0,0:0:0:0:
199,137,39801,1,8,0:0:0:0:
51,101,39951,2,0,L|129:120,1,80,0|0,1:0|0:0,0:0:0:0:
237,229,40251,102,0,P|271:184|378:181,1,160,10|0,0:0|1:0,0:0:0:0:
394,276,40701,2,0,L|416:102,1,160,8|8,0:0|0:0,0:0:0:0:
244,84,41151,2,0,L|254:163,1,80,0|0,1:0|0:0,0:0:0:0:
310,325,41451,6,0,L|320:245,1,80,10|8,0:0|0:0,0:0:0:0:
160,138,41751,101,0,1:0:0:0:
195,317,41901,1,8,0:0:0:0:
97,211,42051,5,0,1:0:0:0:
157,333,42201,1,8,0:0:0:0:
65,276,42351,101,0,1:0:0:0:
132,352,42501,1,8,0:0:0:0:
212,242,42651,22,0,P|261:225|347:240,1,120,12|0,0:0|0:0,0:0:0:0:
372,284,42951,2,0,P|392:248|386:197,1,80,0|0,1:0|0:0,0:0:0:0:
253,88,43251,2,0,L|272:220,1,120
372,284,43551,2,0,P|341:276|313:278,1,40,0|0,1:0|0:0,0:0:0:0:
218,296,43701,2,0,P|246:301|275:298,1,40
368,304,43851,6,0,B|283:273|301:343|206:314,1,160,12|0,0:0|1:0,0:0:0:0:
331,366,44301,1,0,0:0:0:0:
242,226,44451,2,0,L|273:124,1,80,0|8,0:0|0:0,0:0:0:0:
391,65,44751,2,0,P|393:115|416:206,1,120,0|0,1:0|0:0,0:0:0:0:
407,251,45051,102,0,P|449:237|470:204,1,80,12|0,0:0|0:0,0:0:0:0:
310,181,45351,2,0,P|329:227|346:319,1,120,0|0,1:0|0:0,0:0:0:0:
374,356,45651,2,0,P|330:361|297:340,1,80,0|8,0:0|0:0,0:0:0:0:
221,184,45951,2,0,L|226:240,1,40,0|0,1:0|0:0,0:0:0:0:
212,339,46101,2,0,L|208:299,1,40
241,193,46251,6,0,B|246:254|246:254|226:289|226:289|234:378,1,160,12|0,0:0|1:0,0:0:0:0:
157,221,46701,2,0,P|151:175|251:102,1,160,0|8,0:0|0:0,0:0:0:0:
133,299,47151,2,0,P|96:277|76:233,1,80,0|0,1:0|0:0,0:0:0:0:
226,101,47451,102,0,L|373:117,1,120,12|0,0:0|0:0,0:0:0:0:
390,165,47751,2,0,P|409:130|407:91,1,80,0|0,1:0|0:0,0:0:0:0:
315,191,48051,2,0,P|335:224|370:242,1,80,0|8,0:0|0:0,0:0:0:0:
497,144,48351,2,0,P|485:212|485:287,1,120,0|0,1:0|0:0,0:0:0:0:
483,332,48651,6,0,P|440:313|417:273,1,80,12|0,0:0|0:0,0:0:0:0:
315,191,48951,2,0,P|325:284|278:364,1,160,0|0,1:0|0:0,0:0:0:0:
213,272,49401,1,8,0:0:0:0:
298,342,49551,2,0,L|391:332,1,80,0|0,1:0|0:0,0:0:0:0:
222,198,49851,102,0,P|164:219|166:330,2,160,12|0|0,0:0|1:0|0:0,0:0:0:0:
204,346,50601,1,8,0:0:0:0:
222,198,50751,2,0,L|233:118,1,80,0|0,1:0|0:0,0:0:0:0:
328,252,51051,6,0,P|381:253|423:174,1,120,4|0,1:2|0:0,0:0:0:0:
391,146,51351,2,0,P|338:145|296:224,1,120,0|0,1:0|0:0,0:0:0:0:
328,252,51651,2,0,B|370:333|370:333|317:325,1,120,0|0,1:0|0:0,0:0:0:0:
271,349,51951,2,0,B|229:268|229:268|282:276,1,120,0|0,1:0|0:0,0:0:0:0:
218,384,52251,38,0,L|127:208,1,160,8|0,0:0|1:0,0:0:0:0:
118,355,52701,1,0,0:0:0:0:
144,241,52851,2,0,L|167:142,1,80,0|8,0:0|0:0,0:0:0:0:
0,80,53151,2,0,L|18:157,1,80,0|0,1:0|0:0,0:0:0:0:
2,261,53451,6,0,P|16:209|115:182,1,160,8|0,0:0|1:0,0:0:0:0:
146,275,53901,1,0,0:0:0:0:
266,211,54051,2,0,L|180:194,1,80,0|8,0:0|0:0,0:0:0:0:
234,359,54351,2,0,L|320:342,1,80,0|0,1:0|0:0,0:0:0:0:
470,263,54651,102,0,P|441:232|326:248,1,160,8|0,0:0|1:0,0:0:0:0:
391,313,55101,1,0,0:0:0:0:
332,241,55251,6,0,P|341:184|364:118,2,120
270,152,55851,2,0,P|235:127|135:182,1,160,8|0,0:0|1:0,0:0:0:0:
160,324,56301,2,0,P|220:277|210:202,1,160,0|8,0:0|0:0,0:0:0:0:
72,218,56751,2,0,L|147:248,1,80,4|0,1:2|0:0,0:0:0:0:
270,152,57051,102,0,B|306:127|361:137|343:177|398:183|448:148,1,160,12|0,0:0|1:0,0:0:0:0:
403,18,57501,1,0,0:0:0:0:
403,18,57651,2,0,P|393:57|392:97,1,80,0|8,0:0|0:0,0:0:0:0:
370,233,57951,1,0,1:0:0:0:
499,184,58101,1,0,0:0:0:0:
370,233,58251,6,0,P|296:212|194:202,1,160,12|0,0:0|1:0,0:0:0:0:
146,279,58701,1,0,1:0:0:0:
199,123,58851,102,0,L|213:202,1,80,4|8,3:0|3:0,0:0:0:0:
146,279,59151,2,0,L|132:200,1,80,8|8,3:0|3:0,0:0:0:0:
42,150,59451,5,4,1:2:0:0:
199,123,59751,102,0,L|104:111,1,80,8|0,3:0|0:0,0:0:0:0:
42,150,60051,1,0,1:0:0:0:
278,133,60351,6,0,L|199:123,1,80,8|0,3:0|0:0,0:0:0:0:
42,150,60651,2,0,P|77:191|79:271,1,120,6|0,0:0|0:0,0:0:0:0:
85,320,60951,2,0,P|103:269|171:227,1,120,2|0,0:0|0:0,0:0:0:0:
211,198,61251,2,0,P|157:207|87:169,1,120,2|0,0:0|0:0,0:0:0:0:
42,150,61551,2,0,P|77:190|78:270,1,120,2|0,0:0|0:0,0:0:0:0:
85,320,61851,70,0,B|135:286|195:312|163:343|232:367|290:320,1,207.999990478516,12|0,0:0|1:0,0:0:0:0:
395,211,62301,1,0,0:0:0:0:
193,165,62451,2,0,P|218:211|230:262,1,103.999995239258,8|8,0:0|0:0,0:0:0:0:
345,350,62751,1,0,1:0:0:0:
395,211,62901,1,0,0:0:0:0:
193,165,63051,6,0,B|133:155|89:204|132:218|79:269|7:251,2,207.999990478516,8|0|8,0:0|1:0|0:0,0:0:0:0:
35,173,63801,1,8,0:0:0:0:
183,246,63951,2,0,P|226:234|287:228,1,103.999995239258,0|0,1:0|0:0,0:0:0:0:
324,122,64251,2,0,P|272:117|222:104,1,103.999995239258,8|0,0:0|0:0,0:0:0:0:
424,54,64551,102,0,B|405:129|405:129|428:175|428:175|409:257,2,207.999990478516,0|8|0,1:0|0:0|1:0,0:0:0:0:
341,186,65301,1,0,0:0:0:0:
509,117,65451,6,0,L|398:128,1,103.999995239258,12|0,0:0|0:0,0:0:0:0:
291,263,65751,2,0,B|325:232|325:232|308:87,1,155.999992858887,0|0,1:0|0:0,0:0:0:0:
306,71,66051,101,0,1:0:0:0:
160,96,66201,1,0,0:0:0:0:
255,196,66351,5,0,1:0:0:0:
230,50,66501,1,0,0:0:0:0:
146,226,66651,102,0,P|213:223|277:347,1,207.999990478516,12|0,0:0|1:0,0:0:0:0:
107,362,67101,1,0,0:0:0:0:
280,331,67251,2,0,L|417:307,1,103.999995239258,0|8,0:0|0:0,0:0:0:0:
255,196,67551,1,0,1:0:0:0:
187,315,67701,1,0,0:0:0:0:
154,109,67851,6,0,L|170:211,1,103.999995239258,8|0,0:0|0:0,0:0:0:0:
280,331,68151,1,0,1:0:0:0:
280,331,68301,2,0,P|307:255|449:258,1,207.999990478516,8|8,0:0|0:0,0:0:0:0:
453,378,68751,2,0,P|404:361|375:320,1,103.999995239258,0|0,1:0|0:0,0:0:0:0:
349,123,69051,38,0,B|367:104|394:91|435:102|444:137|443:211|400:192|343:184|350:268,1,235.19999784668,12|0,0:0|0:0,0:0:0:0:
374,319,69351,1,0,1:0:0:0:
174,118,69501,6,0,B|151:107|121:104|87:129|91:165|118:234|152:200|202:173|225:254,1,235.19999784668,4|0,1:2|0:0,0:0:0:0:
174,118,69801,2,0,B|185:94|206:72|248:69|268:98|293:168|246:165|193:193|226:258,1,235.19999784668,4|0,1:2|0:0,0:0:0:0:
150,310,70101,102,0,P|205:263|349:262,1,207.999990478516,4|8,1:2|0:0,0:0:0:0:
218,233,70551,1,0,1:0:0:0:
428,273,70701,53,8,3:0:0:0:
378,282,70776,1,8,3:0:0:0:
335,256,70851,1,4,3:0:0:0:
461,234,71001,5,4,3:0:0:0:
428,273,71076,1,4,3:0:0:0:
378,282,71151,1,0,3:0:0:0:
425,146,71301,101,0,3:0:0:0:
459,183,71376,1,0,3:0:0:0:
461,234,71451,6,0,P|348:208|242:202,1,207.999990478516,12|0,0:0|1:0,0:0:0:0:
378,282,71901,1,0,0:0:0:0:
211,263,72051,2,0,P|182:215|194:161,2,103.999995239258,8|8|0,0:0|0:0|1:0,0:0:0:0:
324,127,72501,1,0,0:0:0:0:
173,63,72651,102,0,B|227:94|286:67|252:40|315:8|388:54,1,207.999990478516,8|0,0:0|1:0,0:0:0:0:
217,5,73101,1,0,0:0:0:0:
315,229,73251,2,0,P|312:177|324:127,1,103.999995239258,8|8,0:0|0:0,0:0:0:0:
126,204,73551,2,0,P|172:227|210:262,1,103.999995239258,0|0,1:0|0:0,0:0:0:0:
89,367,73851,6,0,P|126:327|273:321,1,207.999990478516,12|0,0:0|1:0,0:0:0:0:
126,204,74301,1,8,3:0:0:0:
129,178,74376,1,8,3:0:0:0:
132,152,74451,1,4,3:0:0:0:
270,319,74601,2,0,L|278:254,1,51.999997619629,8|0,3:0|3:0,0:0:0:0:
288,163,74751,1,0,1:0:0:0:
364,363,74901,102,0,P|426:341|419:199,1,207.999990478516,12|8,0:0|0:0,0:0:0:0:
136,200,75351,5,0,1:0:0:0:
362,272,75501,1,8,0:0:0:0:
249,236,75651,101,0,1:0:0:0:
408,61,75801,1,8,0:0:0:0:
362,272,75951,5,0,1:0:0:0:
287,43,76101,2,8,B|296:62|296:71|296:81|294:92|291:99|271:119,1,51.999997619629,8|8,3:0|3:0,3:0:0:0:
249,236,76251,102,0,P|178:204|101:212,1,155.999992858887,12|0,0:0|0:0,0:0:0:0:
55,266,76551,2,0,P|33:210|56:157,1,103.999995239258,0|0,1:0|0:0,0:0:0:0:
226,300,76851,2,0,B|165:284|115:325|155:342|103:389|20:364,1,207.999990478516,0|0,0:0|1:0,0:0:0:0:
203,380,77301,1,0,0:0:0:0:
55,266,77451,6,0,P|33:210|64:157,1,103.999995239258,8|0,0:0|0:0,0:0:0:0:
293,167,77751,1,0,1:0:0:0:
293,167,77901,2,0,B|207:176|207:176|186:207|186:207|103:215,1,207.999990478516,8|8,0:0|0:0,0:0:0:0:
137,37,78351,2,0,L|145:141,1,103.999995239258,0|0,1:0|0:0,0:0:0:0:
156,296,78651,70,0,B|216:287|216:287|249:306|249:306|311:297,1,155.999992858887,12|0,0:0|0:0,0:0:0:0:
351,291,78951,1,0,1:0:0:0:
154,230,79101,70,0,B|226:218|226:218|263:239|263:239|348:224,1,167.999994873047,4|0,1:2|0:0,0:0:0:0:
368,218,79401,1,8,0:0:0:0:
167,160,79551,38,0,B|239:148|239:148|276:169|276:169|361:154,1,192,4|0,1:2|0:0,0:0:0:0:
368,218,79851,1,12,0:0:0:0:
437,73,80001,69,0,1:0:0:0:
441,98,80076,1,0,1:0:0:0:
446,124,80151,1,0,1:0:0:0:
351,26,80301,1,0,1:0:0:0:
368,218,80451,1,8,0:0:0:0:
199,33,80601,1,0,1:0:0:0:
266,214,80751,1,8,3:0:0:0:
53,79,80901,6,0,P|114:113|137:179,1,143.999995605469,4|0,1:2|0:0,0:0:0:0:
105,244,81201,2,0,P|82:224|69:188,1,47.9999985351563,8|0,0:0|0:0,0:0:0:0:
265,122,81351,2,0,P|278:168|266:214,1,95.9999970703126,0|0,1:0|0:0,0:0:0:0:
153,313,81651,1,8,0:0:0:0:
194,167,81801,1,0,0:0:0:0:
234,372,81951,1,0,1:0:0:0:
266,213,82101,6,0,B|320:181|379:208|345:235|407:267|481:221,1,191.999994140625,8|8,0:0|0:0,0:0:0:0:
309,284,82551,1,0,1:0:0:0:
417,160,82701,1,0,0:0:0:0:
309,284,82851,2,0,P|331:348|366:373,1,95.9999970703126,8|0,0:0|0:0,0:0:0:0:
417,160,83151,1,0,1:0:0:0:
392,294,83301,102,0,P|350:213|236:247,1,191.999994140625,8|8,0:0|0:0,0:0:0:0:
122,331,83751,2,0,L|220:306,1,95.9999970703126,0|0,1:0|0:0,0:0:0:0:
143,198,84051,1,8,0:0:0:0:
148,221,84126,1,0,0:0:0:0:
154,244,84201,1,0,0:0:0:0:
211,130,84351,1,0,1:0:0:0:
215,307,84501,1,8,0:0:0:0:
143,198,84651,6,0,L|115:80,1,95.9999970703126,0|8,0:0|0:0,0:0:0:0:
327,96,84951,1,0,1:0:0:0:
299,213,85101,1,0,1:0:0:0:
386,295,85251,2,0,B|426:261|426:261|445:183,1,95.9999970703126,8|8,0:0|0:0,0:0:0:0:
299,213,85551,1,0,1:0:0:0:
503,145,85701,102,0,B|450:102|450:102|327:96,1,191.999994140625,12|8,0:0|0:0,0:0:0:0:
207,257,86151,2,0,L|200:161,1,95.9999970703126,0|0,1:0|0:0,0:0:0:0:
268,313,86451,2,0,B|224:357|160:347|185:312|117:297|58:360,1,191.999994140625,8|0,0:0|1:0,0:0:0:0:
315,369,86901,6,0,P|342:317|284:240,1,143.999995605469,8|0,0:0|0:0,0:0:0:0:
257,238,87201,2,0,L|239:142,1,95.9999970703126,8|0,0:0|1:0,0:0:0:0:
268,313,87501,1,0,0:0:0:0:
392,209,87651,2,0,L|409:303,1,95.9999970703126,8|0,0:0|0:0,0:0:0:0:
257,238,87951,1,0,1:0:0:0:
473,193,88101,102,0,P|431:136|314:185,1,191.999994140625,8|8,0:0|0:0,0:0:0:0:
243,328,88551,2,0,P|262:285|257:238,1,95.9999970703126,0|0,1:0|0:0,0:0:0:0:
152,84,88851,2,0,P|180:121|224:140,1,95.9999970703126,8|0,0:0|0:0,0:0:0:0:
380,68,89151,1,0,1:0:0:0:
224,140,89301,6,0,P|168:133|108:250,1,191.999994140625,12|8,0:0|0:0,0:0:0:0:
339,272,89751,2,0,P|311:266|261:272,1,47.9999985351563,8|0,3:0|0:0,0:0:0:0:
159,301,89901,2,0,P|187:307|237:301,1,47.9999985351563,4|0,3:0|0:0,0:0:0:0:
349,285,90051,2,0,B|250:254|274:342|167:314,1,191.999994140625,8|0,0:0|1:0,0:0:0:0:
55,161,90501,102,0,P|146:150|199:226,1,191.999994140625,12|8,0:0|0:0,0:0:0:0:
39,288,90951,1,0,1:0:0:0:
108,235,91101,1,0,0:0:0:0:
120,322,91251,1,8,0:0:0:0:
55,161,91401,1,0,0:0:0:0:
289,237,91551,1,0,1:0:0:0:
108,235,91701,6,0,B|130:165|130:165|113:121|113:121|136:48,1,191.999994140625,8|8,0:0|0:0,0:0:0:0:
55,161,92151,1,0,1:0:0:0:
289,236,92301,2,0,P|288:146|203:115,1,191.999994140625
55,161,92751,1,0,1:0:0:0:
225,278,92901,102,0,L|381:256,1,143.999995605469,8|0,0:0|0:0,0:0:0:0:
425,300,93201,2,0,P|434:273|435:247,1,47.9999985351563,8|0,0:0|0:0,0:0:0:0:
373,129,93351,1,0,1:0:0:0:
373,140,93426,1,0,0:0:0:0:
375,152,93501,1,0,0:0:0:0:
378,164,93576,1,0,0:0:0:0:
383,175,93651,5,8,0:0:0:0:
408,160,93726,1,0,0:0:0:0:
421,134,93801,1,0,0:0:0:0:
417,104,93876,1,0,0:0:0:0:
396,83,93951,1,0,1:0:0:0:
367,77,94026,1,0,0:0:0:0:
340,89,94101,1,8,0:0:0:0:
325,114,94176,1,0,0:0:0:0:
326,143,94251,101,0,0:0:0:0:
327,172,94326,1,0,0:0:0:0:
312,197,94401,1,8,0:0:0:0:
285,209,94476,1,0,0:0:0:0:
256,203,94551,1,0,1:0:0:0:
235,182,94626,1,0,0:0:0:0:
231,152,94701,1,0,1:0:0:0:
244,126,94776,1,0,0:0:0:0:
270,112,94851,5,8,0:0:0:0:
461,91,95001,2,0,L|367:77,1,95.9999970703126,8|0,0:0|1:0,0:0:0:0:
114,167,95301,38,0,B|288:142|288:142|327:172,1,223.999993164063,12|8,0:0|0:0,0:0:0:0:
295,384,95751,1,0,1:0:0:0:
265,229,95901,1,8,0:0:0:0:
154,374,96051,1,0,1:0:0:0:
192,220,96201,1,8,0:0:0:0:
30,305,96351,1,0,1:0:0:0:
129,181,96501,6,0,P|146:107|-1:108,1,256,12|8,0:0|0:0,0:0:0:0:
30,305,96951,1,0,1:0:0:0:
265,229,97101,1,8,0:0:0:0:
129,181,97251,2,0,L|163:287,1,95.9999970703126,0|8,1:0|3:0,0:0:0:0:
294,320,97551,2,0,L|265:229,1,95.9999970703126,4|0,3:0|3:0,0:0:0:0:
284,106,97851,37,12,0:0:0:0:
306,87,97926,1,0,0:0:0:0:
335,79,98001,1,0,0:0:0:0:
364,84,98076,1,0,0:0:0:0:
389,101,98151,1,0,1:0:0:0:
404,127,98226,1,0,0:0:0:0:
406,157,98301,1,0,0:0:0:0:
396,185,98376,1,0,0:0:0:0:
375,206,98451,1,0,0:0:0:0:
353,227,98526,1,0,0:0:0:0:
343,255,98601,1,8,0:0:0:0:
346,284,98676,1,0,0:0:0:0:
361,310,98751,1,0,1:0:0:0:
385,327,98826,1,0,0:0:0:0:
415,332,98901,1,0,0:0:0:0:
443,325,98976,1,0,0:0:0:0:
466,306,99051,6,0,L|471:252,3,47.9999985351563,8|0|0|0,0:0|0:0|0:0|0:0,0:0:0:0:
361,310,99351,2,0,L|356:357,3,47.9999985351563,0|0|0|0,1:0|0:0|0:0|0:0,0:0:0:0:
259,288,99651,2,0,L|263:233,3,47.9999985351563,0|0|8|0,0:0|0:0|0:0|0:0,0:0:0:0:
154,292,99951,2,0,L|149:339,3,47.9999985351563,0|0|0|0,1:0|0:0|0:0|0:0,0:0:0:0:
67,228,100251,101,8,0:0:0:0:
43,201,100326,1,0,0:0:0:0:
34,167,100401,1,0,0:0:0:0:
42,132,100476,1,0,0:0:0:0:
65,105,100551,53,0,1:0:0:0:
110,89,100626,1,0,0:0:0:0:
155,101,100701,1,8,0:0:0:0:
185,138,100776,1,0,0:0:0:0:
188,185,100851,1,0,1:0:0:0:
163,225,100926,1,0,0:0:0:0:
138,265,101001,1,8,0:0:0:0:
141,312,101076,1,0,0:0:0:0:
170,348,101151,1,0,1:0:0:0:
216,361,101226,1,0,0:0:0:0:
260,344,101301,1,8,0:0:0:0:
304,327,101376,1,0,0:0:0:0:
349,340,101451,5,4,3:0:0:0:
359,356,101526,1,0,3:0:0:0:
478,159,102651,6,0,L|235:130,1,240.000009155274,12|0,0:0|0:0,0:0:0:0:
239,130,103551,1,8,0:0:0:0:
478,239,103851,6,0,L|235:210,1,240.000009155274,4|0,0:0|0:0,0:0:0:0:
239,210,104751,1,8,0:0:0:0:
478,319,105051,102,0,L|235:290,1,240.000009155274,12|8,0:0|0:0,0:0:0:0:
239,290,105951,5,0,0:0:0:0:
331,158,106251,2,0,L|316:277,1,120.000004577637,4|0,0:0|0:0,0:0:0:0:
189,229,106851,2,0,L|203:109,1,120.000004577637
246,360,107451,102,0,B|165:347|165:347|101:378|101:378|10:356,1,240.000009155274,12|0,0:0|0:0,0:0:0:0:
17,358,108351,1,0,0:0:0:0:
239,290,108651,6,0,B|158:277|158:277|94:308|94:308|3:286,1,240.000009155274,4|0,0:0|0:0,0:0:0:0:
10,288,109551,1,8,0:0:0:0:
232,220,109851,102,0,B|151:207|151:207|87:238|87:238|-4:216,1,240.000009155274,12|0,0:0|1:0,0:0:0:0:
3,218,110751,6,0,P|37:191|45:136,1,90.0000034332277,8|0,0:0|0:0,0:0:0:0:
41,65,111051,5,4,1:2:0:0:
156,219,111201,1,4,3:0:0:0:
232,43,111351,1,8,3:0:0:0:
54,175,111501,5,0,1:0:0:0:
130,0,111651,1,4,3:0:0:0:
244,153,111801,1,8,3:0:0:0:
130,0,111951,2,0,L|139:79,1,80,0|0,1:2|0:0,0:0:0:0:
156,219,112251,6,0,B|234:215|234:215|267:239|267:239|350:236,1,191.999994140625,12|2,0:0|1:2,0:0:0:0:
208,301,112701,1,0,0:0:0:0:
398,278,112851,2,0,P|413:229|378:179,1,95.9999970703126,2|8,0:0|0:0,0:0:0:0:
277,88,113151,2,0,P|311:125|372:120,1,95.9999970703126,2|0,1:2|0:0,0:0:0:0:
502,78,113451,6,0,P|452:89|481:203,1,191.999994140625,8|2,0:0|1:2,0:0:0:0:
354,128,113901,1,0,0:0:0:0:
447,292,114051,2,0,P|455:245|471:200,1,95.9999970703126,2|8,0:0|0:0,0:0:0:0:
300,89,114351,2,0,P|315:134|323:181,1,95.9999970703126,2|0,1:2|0:0,0:0:0:0:
206,361,114651,102,0,B|240:312|220:248|185:287|162:228|193:171,1,191.999994140625,8|2,0:0|1:2,0:0:0:0:
148,316,115101,1,0,0:0:0:0:
262,214,115251,2,0,P|333:210|398:180,2,143.999995605469,2|0|0,0:0|0:0|0:0,0:0:0:0:
356,112,115851,6,0,P|419:100|464:223,1,191.999994140625,8|2,0:0|1:2,0:0:0:0:
397,353,116301,2,0,B|360:308|360:308|398:180,1,191.999994140625,0|8,0:0|0:0,0:0:0:0:
512,284,116751,2,0,L|483:389,1,95.9999970703126,6|0,1:2|0:0,0:0:0:0:
361,231,117051,102,0,B|313:205|259:222|291:255|230:278|181:247,1,191.999994140625,12|2,0:0|1:2,0:0:0:0:
324,303,117501,1,0,0:0:0:0:
202,97,117651,2,0,P|218:142|222:190,1,95.9999970703126,2|8,0:0|0:0,0:0:0:0:
403,148,117951,1,2,1:2:0:0:
324,303,118101,1,0,0:0:0:0:
222,190,118251,6,0,P|149:170|53:162,1,143.999995605469,8|0,0:0|0:0,0:0:0:0:
21,200,118551,2,0,P|11:143|37:107,1,95.9999970703126,2|0,1:2|0:0,0:0:0:0:
131,227,118851,37,4,3:0:0:0:
133,250,118951,1,0,0:0:0:0:
135,274,119051,1,8,3:0:0:0:
166,285,119151,5,4,3:0:0:0:
164,308,119251,1,4,3:0:0:0:
162,332,119351,1,4,3:0:0:0:
132,343,119451,101,4,1:2:0:0:
260,300,119751,6,0,L|159:284,1,95.9999970703126,8|0,3:0|0:0,0:0:0:0:
132,343,120051,1,0,1:0:0:0:
354,315,120351,102,0,L|260:300,1,95.9999970703126,8|0,3:0|0:0,0:0:0:0:
132,343,120651,1,4,1:2:0:0:
256,192,120726,12,4,121851,0:0:0:0:
144,214,138651,21,12,0:0:0:0:
144,214,139251,6,0,P|172:255|155:313,1,96,8|0,0:0|0:0,0:0:0:0:
144,321,139551,2,0,P|90:332|50:304,1,96,8|0,0:0|0:0,0:0:0:0:
42,284,139851,2,0,P|45:243|90:202,1,96,8|0,0:0|0:0,0:0:0:0:
144,214,140151,102,0,P|181:181|180:121,1,96,8|0,0:0|0:0,0:0:0:0:
171,110,140451,2,0,P|122:85|76:102,1,96,8|0,0:0|0:0,0:0:0:0:
63,119,140751,2,0,P|55:159|88:210,1,96,8|0,0:0|0:0,0:0:0:0:
144,214,141051,5,0,1:0:0:0:
301,148,141201,1,8,3:0:0:0:
279,316,141351,1,8,3:0:0:0:
203,135,141501,101,0,1:0:0:0:
338,238,141651,1,8,3:0:0:0:
182,303,141801,1,8,3:0:0:0:
301,148,141951,5,4,1:2:0:0:
67,170,143451,38,0,B|144:156|144:156|207:190|207:190|301:172,1,240.000009155274,12|0,0:0|1:0,0:0:0:0:
221,93,143901,1,0,0:0:0:0:
130,243,144051,2,0,P|170:280|241:282,2,120.000004577637,8|8|0,0:0|0:0|1:0,0:0:0:0:
295,173,144501,1,0,0:0:0:0:
105,109,144651,6,0,B|90:196|90:196|130:242|130:242|114:340,1,240.000009155274,8|0,0:0|1:0,0:0:0:0:
179,168,145101,1,0,0:0:0:0:
213,372,145251,2,0,P|287:323|375:316,1,180.000006866455,8|0,0:0|0:0,0:0:0:0:
428,365,145551,2,0,P|447:320|405:252,1,120.000004577637,0|0,1:0|0:0,0:0:0:0:
179,168,145851,102,0,P|217:211|275:211,1,120.000004577637,12|0,0:0|0:0,0:0:0:0:
311,37,146151,2,0,B|276:101|312:172|345:125|385:198|336:278,1,240.000009155274,0|8,1:0|0:0,0:0:0:0:
380,85,146601,1,8,0:0:0:0:
275,211,146751,2,0,P|217:211|179:168,1,120.000004577637,0|0,1:0|0:0,0:0:0:0:
380,85,147051,6,0,B|425:143|425:143|395:291,1,180.000006866455,12|0,0:0|0:0,0:0:0:0:
390,313,147351,1,0,1:0:0:0:
290,101,147501,1,8,0:0:0:0:
229,343,147651,102,0,P|157:349|102:244,1,180.000006866455,4|0,1:2|0:0,0:0:0:0:
199,172,147951,2,0,B|253:155|253:155|190:262,1,180.000006866455,4|0,1:2|0:0,0:0:0:0:
99,268,148251,6,0,B|113:178|113:178|73:132|73:132|88:45,1,240.000009155274,12|0,0:0|1:0,0:0:0:0:
25,203,148701,1,0,0:0:0:0:
279,130,148851,2,0,L|162:109,1,120.000004577637,0|8,0:0|0:0,0:0:0:0:
314,218,149151,1,0,1:0:0:0:
314,218,149301,102,0,B|394:176|363:87|363:87|382:126|442:134,1,240.000009155274
345,6,149751,2,0,P|293:41|299:127,1,120.000004577637,0|8,1:0|0:0,0:0:0:0:
382,217,150051,1,0,0:0:0:0:
443,38,150201,1,8,0:0:0:0:
481,274,150351,2,0,L|461:155,1,120.000004577637,0|0,1:0|0:0,0:0:0:0:
391,345,150651,54,0,P|338:303|91:296,1,311.999985717774,12|0,0:0|0:0,0:0:0:0:
52,335,150951,1,0,1:0:0:0:
86,105,151101,6,0,B|107:68|105:45|105:45|114:80|136:100|136:100|170:111|198:102|198:102|164:128|156:153|156:153|143:177|182:218,1,311.999985717774,4|0,1:2|0:0,0:0:0:0:
86,105,151401,2,0,B|58:123|21:115|21:115|57:130|72:153|72:153|79:185|65:214|65:214|91:192|118:182|118:182|159:186|190:224,1,311.999985717774,4|0,1:2|0:0,0:0:0:0:
268,305,151701,102,0,B|225:239|225:239|277:61,1,240.000009155274,4|8,1:2|0:0,0:0:0:0:
348,366,152151,1,0,1:0:0:0:
396,146,152301,53,8,3:0:0:0:
454,157,152376,1,8,3:0:0:0:
494,200,152451,1,4,3:0:0:0:
320,226,152601,5,4,3:0:0:0:
344,174,152676,1,4,3:0:0:0:
396,146,152751,1,0,3:0:0:0:
379,322,152901,101,0,0:0:0:0:
333,285,152976,1,0,0:0:0:0:
320,226,153051,6,0,P|326:153|175:165,1,240.000009155274,12|0,0:0|1:0,0:0:0:0:
196,301,153501,1,0,0:0:0:0:
74,158,153651,2,0,P|134:151|191:132,1,120.000004577637,8|8,0:0|0:0,0:0:0:0:
78,276,153951,1,0,1:0:0:0:
253,182,154101,1,0,0:0:0:0:
24,104,154251,2,0,P|44:236|48:343,2,240.000009155274,8|0|8,0:0|1:0|0:0,0:0:0:0:
78,276,155001,1,8,0:0:0:0:
207,126,155151,2,0,P|151:102|88:101,1,120.000004577637,0|0,1:0|0:0,0:0:0:0:
319,36,155451,102,0,P|258:44|197:29,1,120.000004577637,12|0,0:0|0:0,0:0:0:0:
423,6,155751,1,0,1:0:0:0:
477,200,155901,1,8,0:0:0:0:
319,36,156051,1,0,1:0:0:0:
338,236,156201,1,8,0:0:0:0:
211,47,156351,1,0,1:0:0:0:
195,247,156501,6,0,B|29:221|29:221|79:238|96:292,1,240.000009155274,12|8,0:0|0:0,0:0:0:0:
0,384,156951,1,0,1:0:0:0:
61,157,157101,1,8,0:0:0:0:
133,377,157251,1,0,1:0:0:0:
133,141,157401,1,8,0:0:0:0:
259,335,157551,1,0,1:0:0:0:
198,107,157701,2,0,L|213:164,1,60.0000022888184,4|0,3:0|3:0,0:0:0:0:
259,334,157851,102,0,P|316:268|403:258,1,180.000006866455,12|0,0:0|0:0,0:0:0:0:
451,311,158151,2,0,P|472:271|442:196,1,120.000004577637,0|0,1:0|0:0,0:0:0:0:
198,107,158451,1,0,0:0:0:0:
240,261,158601,1,8,0:0:0:0:
371,74,158751,2,0,L|246:52,1,120.000004577637,0|0,1:0|0:0,0:0:0:0:
70,218,159051,6,0,P|143:225|156:351,1,180.000006866455,12|0,0:0|0:0,0:0:0:0:
127,370,159351,1,0,1:0:0:0:
2,265,159501,2,0,B|-33:201|3:130|36:177|76:104|27:24,1,240.000009155274,8|8,0:0|0:0,0:0:0:0:
70,218,159951,1,0,1:0:0:0:
37,45,160101,1,0,0:0:0:0:
179,135,160251,70,0,P|246:173|224:289,1,180.000006866455,4|0,1:2|0:0,0:0:0:0:
214,293,160551,1,8,0:0:0:0:
212,71,160701,70,0,P|283:109|327:217,1,192,4|0,1:2|0:0,0:0:0:0:
317,270,161001,1,8,0:0:0:0:
243,10,161151,38,0,P|331:61|389:169,1,215.999993408203,4|0,1:2|0:0,0:0:0:0:
396,220,161451,70,0,P|407:168|468:123,1,120.000004577637,4|0,1:2|0:0,0:0:0:0:
317,270,161751,1,8,3:0:0:0:
259,128,161901,1,8,3:0:0:0:
178,239,162051,1,4,3:0:0:0:
320,180,162201,1,4,3:0:0:0:
239,291,162351,1,0,3:0:0:0:
181,149,162501,38,0,P|193:80|311:65,1,180.000006866455,12|0,0:0|0:0,0:0:0:0:
336,97,162801,1,8,0:0:0:0:
178,239,162951,2,0,P|116:208|93:151,1,120.000004577637,0|0,1:0|0:0,0:0:0:0:
320,180,163251,2,0,B|301:307|301:307|293:271|258:255,1,180.000006866455,8|0,0:0|0:0,0:0:0:0:
233,322,163551,1,0,1:0:0:0:
435,329,163701,6,0,B|473:266|445:200|404:240|365:169|421:85,1,240.000009155274,8|8,0:0|0:0,0:0:0:0:
368,281,164151,1,0,1:0:0:0:
476,158,164301,1,0,0:0:0:0:
368,281,164451,2,0,L|241:254,1,120.000004577637,8|0,0:0|0:0,0:0:0:0:
149,103,164751,1,0,1:0:0:0:
149,103,164901,102,0,B|190:156|190:156|153:332,1,240.000009155274,8|8,0:0|0:0,0:0:0:0:
1,214,165351,2,0,P|54:187|113:174,1,120.000004577637,0|0,1:0|0:0,0:0:0:0:
0,0,165651,2,0,P|55:22|114:30,1,120.000004577637,8|0,0:0|0:0,0:0:0:0:
287,2,165951,1,0,1:0:0:0:
185,163,166101,6,0,P|244:143|351:296,1,240.000009155274,8|8,0:0|0:0,0:0:0:0:
195,356,166551,2,0,L|250:250,1,120.000004577637,0|0,1:0|0:0,0:0:0:0:
317,67,166851,1,8,0:0:0:0:
185,163,167001,2,0,P|126:143|52:140,1,120.000004577637,8|0,0:0|1:0,0:0:0:0:
250,249,167301,102,0,B|410:229|410:229|358:254|347:282,1,240.000009155274,12|8,0:0|0:0,0:0:0:0:
512,384,167751,2,0,P|497:322|491:243,1,120.000004577637,0|0,1:0|0:0,0:0:0:0:
369,159,168051,2,0,P|363:218|349:277,1,120.000004577637,8|0,0:0|0:0,0:0:0:0:
190,133,168351,1,0,1:0:0:0:
190,133,168501,6,0,B|259:157|326:106|270:87|337:38|420:75,1,240.000009155274,8|8,0:0|0:0,0:0:0:0:
167,202,168951,2,0,P|122:148|134:86,1,120.000004577637,0|0,1:0|0:0,0:0:0:0:
369,159,169251,1,8,0:0:0:0:
195,279,169401,2,0,P|124:272|89:220,1,120.000004577637,0|0,0:0|1:0,0:0:0:0:
275,226,169701,102,0,B|305:284|290:338|231:368|231:368|279:347|346:373,1,240.000009155274,8|8,0:0|0:0,0:0:0:0:
512,384,170151,2,0,P|491:333|483:248,1,120.000004577637,0|0,1:0|0:0,0:0:0:0:
296,109,170451,2,0,P|293:168|275:226,1,120.000004577637,8|0,0:0|0:0,0:0:0:0:
206,47,170751,1,0,1:0:0:0:
130,207,170901,6,0,P|209:215|226:368,1,240.000009155274,12|8,0:0|0:0,0:0:0:0:
0,271,171351,1,0,1:0:0:0:
162,298,171501,1,8,3:0:0:0:
132,303,171576,1,8,3:0:0:0:
103,309,171651,1,0,1:0:0:0:
201,237,171801,2,0,P|232:291|210:354,1,120.000004577637,8|0,0:0|1:0,0:0:0:0:
131,144,172101,102,0,B|217:130|217:130|273:161|273:161|375:146,1,240.000009155274,12|8,0:0|0:0,0:0:0:0:
201,237,172551,1,0,1:0:0:0:
289,63,172701,1,0,0:0:0:0:
364,264,172851,2,0,B|376:236|376:236|360:148,1,120.000004577637,8|0,0:0|0:0,0:0:0:0:
201,237,173151,1,0,1:0:0:0:
446,372,173301,6,0,P|382:307|202:325,1,240.000009155274,8|8,0:0|0:0,0:0:0:0:
64,358,173751,2,0,P|121:379|180:356,1,120.000004577637,0|0,1:0|0:0,0:0:0:0:
33,174,174051,2,0,B|116:200|121:296|121:296|143:240|209:235,1,240.000009155274,8|0,0:0|1:0,0:0:0:0:
323,382,174501,102,0,B|289:315|322:240|362:301|398:222|351:144,1,240.000009155274,8|8,0:0|0:0,0:0:0:0:
392,334,174951,1,0,1:0:0:0:
290,208,175101,1,0,0:0:0:0:
479,186,175251,2,0,L|362:164,1,120.000004577637,8|0,0:0|0:0,0:0:0:0:
511,283,175551,1,0,1:0:0:0:
207,227,175701,6,0,P|256:129|361:164,1,240.000009155274,8|8,0:0|0:0,0:0:0:0:
212,323,176151,1,0,1:0:0:0:
116,102,176301,1,4,3:0:0:0:
100,377,176451,1,8,3:0:0:0:
195,155,176601,102,0,P|266:112|358:158,1,180.000006866455,12|0,0:0|0:0,0:0:0:0:
376,51,176901,86,0,B|349:147|349:147|389:199|389:199|359:315,1,256,4|8,1:2|0:0,0:0:0:0:
439,128,177351,1,0,1:0:0:0:
481,333,177501,1,8,0:0:0:0:
302,215,177651,2,0,P|241:199|177:201,1,128,8|0,0:0|0:0,0:0:0:0:
366,286,177951,1,0,1:0:0:0:
119,357,178101,6,0,B|141:269|141:269|101:217|101:217|128:121,1,256,4|8,1:2|0:0,0:0:0:0:
302,215,178551,2,0,P|241:199|177:201,1,128,0|8,1:0|0:0,0:0:0:0:
366,286,178851,2,0,P|393:193|254:132,1,256,8|0,0:0|1:0,0:0:0:0:
98,357,179301,102,0,B|178:347|178:347|218:305|218:305|345:288,1,215.999993408203,4|0,1:2|0:0,0:0:0:0:
366,286,179601,1,8,0:0:0:0:
166,138,179751,2,0,P|129:199|139:269,1,143.999995605469,0|8,1:0|0:0,0:0:0:0:
329,101,180051,2,0,B|269:130|216:101|248:67|179:26|108:76,1,215.999993408203,8|0,0:0|0:0,0:0:0:0:
80,101,180351,1,0,1:0:0:0:
343,366,180501,6,0,L|373:26,1,335.999989746094,4|8,1:2|0:0,0:0:0:0:
79,248,180951,101,0,1:0:0:0:
338,196,181101,1,8,0:0:0:0:
321,192,181251,5,0,1:0:0:0:
62,140,181401,2,0,L|149:161,1,83.9999974365235,8|4,3:0|3:0,0:0:0:0:
224,178,181551,1,8,0:0:0:0:
461,341,181701,38,0,B|318:310|318:310|246:360|246:360|64:315,1,383.99998828125,4|8,1:2|0:0,0:0:0:0:
139,41,182151,5,0,1:0:0:0:
233,271,182301,1,8,0:0:0:0:
245,243,182451,101,0,1:0:0:0:
339,13,182601,1,8,0:0:0:0:
351,41,182751,5,0,1:0:0:0:
444,270,182901,102,0,P|322:168|163:147,1,324.000001235962,4|0,1:2|0:0,0:0:0:0:
101,199,183201,2,0,P|94:104|210:85,1,216.000000823975,8|0,0:0|1:0,0:0:0:0:
233,271,183501,1,8,0:0:0:0:
245,243,183651,5,0,1:0:0:0:
108,28,183801,1,8,0:0:0:0:
33,263,183951,101,8,3:0:0:0:
41,238,184026,5,8,3:0:0:0:
49,212,184101,101,4,3:0:0:0:
57,186,184176,5,4,3:0:0:0:
66,161,184251,70,0,B|142:144|142:144|199:169|199:169|271:154,1,204.000003890991,12|0,0:0|0:0,0:0:0:0:
327,141,184551,1,0,0:0:0:0:
77,93,184701,70,0,B|153:76|153:76|210:101|210:101|282:86,1,204.000003890991,0|0,1:0|0:0,0:0:0:0:
338,73,185001,1,0,0:0:0:0:
88,25,185151,53,4,1:2:0:0:
256,192,185226,12,0,190551,0:0:0:0:
