osu file format v14

[General]
AudioFilename: audio.mp3
AudioLeadIn: 0
PreviewTime: 60501
Countdown: 0
SampleSet: Soft
StackLeniency: 0.7
Mode: 0
LetterboxInBreaks: 0
WidescreenStoryboard: 1

[Editor]
Bookmarks: 102651
DistanceSpacing: 1
BeatDivisor: 4
GridSize: 16
TimelineZoom: 2.6

[Metadata]
Title:Shiroi Yuki No Princess Wa
TitleUnicode:白い雪のプリンセスは
Artist:Hatsune Miku vs. Mitani Nana
ArtistUnicode:初音ミク vs. 実谷なな
Creator:Hokichi
Version:Zerkichi's Insane
Source:初音ミク Project DIVA Arcade Future Tone
Tags:yamicchi yami lanturn chocola [-chocola-] bara zerss hikan cassu cassu2 the snow white princess is SOUND VOLTEX II -infinite infection- 初音ミク Project DIVA Future Tone DX BeatStream jubeat prop
BeatmapID:1647423
BeatmapSetID:547883

[Difficulty]
HPDrainRate:6
CircleSize:4
OverallDifficulty:7
ApproachRate:9
SliderMultiplier:1.6
SliderTickRate:1

[Events]
//Background and Video events
0,0,"cute-hatsune-miku-wallpaper-wallpaper-3.jpg",0,0
//Break Periods
2,122051,138051
//Storyboard Layer 0 (Background)
//Storyboard Layer 1 (Fail)
//Storyboard Layer 2 (Pass)
//Storyboard Layer 3 (Foreground)
Sprite,Foreground,Centre,"cre\hoki.png",320,240 M,0,1701,,516,416 S,0,1701,,0.3 P,0,1701,,A F,0,1701,1851,0,0.5 F,0,102651,102801,0.5,0
Sprite,Foreground,Centre,"cre\zerss.png",320,240 M,0,102651,,124,416 S,0,102651,,0.3 P,0,102651,,A F,0,102651,102801,0,1 F,0,189651,190251,1,0
//Storyboard Sound Samples

[TimingPoints]
651,300,4,2,1,60,1,0
1701,-133.333333333333,4,2,1,60,0,0
2151,-133.333333333333,4,2,1,60,0,0
6501,-100,4,2,1,60,0,0
18651,-125,4,2,1,60,0,0
20976,-100,4,2,1,60,0,0
21051,-125,4,2,1,60,0,0
25326,-125,4,2,1,60,0,0
25401,-125,4,2,1,60,0,0
25626,-125,4,2,1,60,0,0
25701,-125,4,2,1,60,0,0
34926,-125,4,2,1,60,0,0
35001,-125,4,2,1,60,0,0
35226,-125,4,2,1,60,0,0
35301,-125,4,2,1,60,0,0
42651,-111.111111111111,4,2,1,60,0,0
51276,-111.111111111111,4,2,1,60,0,0
51351,-111.111111111111,4,2,1,60,0,0
51576,-111.111111111111,4,2,1,60,0,0
51651,-111.111111111111,4,2,1,60,0,0
51876,-111.111111111111,4,2,1,60,0,0
51951,-111.111111111111,4,2,1,60,0,0
52176,-111.111111111111,4,2,1,60,0,0
52251,-111.111111111111,4,2,1,60,0,0
58551,-125,4,2,1,60,0,0
59451,-125,4,2,1,60,0,0
59751,-125,4,2,1,60,0,0
60651,-142.857142857143,4,2,1,60,0,0
61551,-200,4,2,1,60,0,0
61851,-100,4,2,1,60,0,1
70101,-100,4,2,1,60,0,0
71451,-100,4,2,1,60,0,1
80901,-100,4,2,1,50,0,0
101451,-200,4,2,1,60,0,0
102651,-133.333333333333,4,3,1,60,0,0
111051,-100,4,3,1,75,0,0
112251,-100,4,2,1,75,0,0
119451,-133.333333333333,4,2,1,75,0,0
120051,-100,4,2,1,75,0,0
138651,-200,4,3,1,75,0,0
139176,-200,4,3,1,5,0,0
139251,-200,4,3,1,75,0,0
139851,-151.515151515152,4,3,1,75,0,0
140451,-130.548302872063,4,3,1,75,0,0
141051,-100,4,3,1,75,0,0
143376,-100,4,3,1,5,0,0
143451,-90.9090909090909,4,2,1,75,0,1
152001,-90.9090909090909,4,3,1,60,0,1
153013,-90.9090909090909,4,3,1,60,0,0
153051,-90.9090909090909,4,2,1,75,0,1
162613,-90.9090909090909,4,2,1,75,0,0
162651,-100,4,2,1,75,0,1
162688,-100,4,2,1,75,0,0

[Colours]
Combo1 : 255,55,105
Combo2 : 100,226,253
Combo3 : 113,255,223
Combo4 : 255,74,165

[HitObjects]
98,159,1701,6,0,P|87:95|125:32,1,120.000004577637,2|0,0:0|0:0,0:0:0:0:
238,105,2151,2,0,L|157:114,1,60.0000022888184,0|0,0:0|0:0,0:0:0:0:
250,189,2451,2,0,L|392:205,1,120.000004577637,0|0,0:0|0:0,0:0:0:0:
206,340,2901,6,0,P|155:347|84:291,1,120.000004577637,2|0,0:0|0:0,0:0:0:0:
168,210,3351,2,0,P|174:248|170:278,1,60.0000022888184,0|0,0:0|0:0,0:0:0:0:
81,176,3651,2,0,L|79:33,1,120.000004577637,0|0,0:0|0:0,0:0:0:0:
168,210,4101,6,0,L|166:353,1,120.000004577637,2|0,0:0|0:0,0:0:0:0:
247,163,4551,2,0,P|224:129|203:117,1,60.0000022888184,0|0,0:0|0:0,0:0:0:0:
58,227,4851,2,0,P|118:237|173:203,1,120.000004577637,0|0,0:0|0:0,0:0:0:0:
100,32,5301,6,0,L|103:159,1,120.000004577637,2|0,0:0|0:0,0:0:0:0:
167,209,5751,2,0,L|163:276,1,60.0000022888184,0|0,0:0|0:0,0:0:0:0:
248,161,6051,2,0,P|255:100|237:28,1,120.000004577637,0|0,0:0|0:0,0:0:0:0:
167,209,6501,6,0,B|149:281|149:281|169:370,1,160,4|0,0:0|0:0,0:0:0:0:
322,290,6951,2,0,L|227:284,1,80,8|0,0:0|0:0,0:0:0:0:
167,209,7251,1,0,0:0:0:0:
163,306,7401,1,0,0:0:0:0:
268,184,7551,1,8,0:0:0:0:
80,149,7701,6,0,P|120:229|168:206,1,160,2|0,0:0|0:0,0:0:0:0:
190,93,8151,2,0,L|180:5,1,80,8|0,0:0|0:0,0:0:0:0:
273,140,8451,1,0,0:0:0:0:
264,235,8601,1,0,0:0:0:0:
255,331,8751,1,8,0:0:0:0:
352,193,8901,6,0,P|417:179|510:187,1,160,2|0,0:0|0:0,0:0:0:0:
432,297,9351,2,0,L|347:291,1,80,8|0,0:0|0:0,0:0:0:0:
264,235,9651,1,0,0:0:0:0:
255,331,9801,1,0,0:0:0:0:
352,193,9951,1,8,0:0:0:0:
314,90,10101,6,0,P|355:65|418:64,1,80,4|0,0:0|0:0,0:0:0:0:
237,154,10401,2,0,L|192:153,1,40,0|0,0:0|0:0,0:0:0:0:
118,140,10551,1,8,0:0:0:0:
288,236,10701,1,4,0:0:0:0:
288,236,11001,2,0,L|243:235,1,40,0|0,0:0|0:0,0:0:0:0:
169,222,11151,1,8,0:0:0:0:
324,323,11301,6,0,P|389:341|465:273,1,160,4|0,0:0|0:0,0:0:0:0:
322,168,11751,2,0,P|293:202|295:263,1,80,8|0,0:0|0:0,0:0:0:0:
421,181,12051,1,0,0:0:0:0:
366,82,12201,1,0,0:0:0:0:
253,96,12351,1,8,0:0:0:0:
128,231,12501,6,0,L|319:236,1,160,2|0,0:0|0:0,0:0:0:0:
467,232,12951,2,0,P|442:191|396:169,1,80,8|0,0:0|0:0,0:0:0:0:
223,300,13251,1,0,0:0:0:0:
328,361,13401,1,0,0:0:0:0:
385,254,13551,1,8,0:0:0:0:
189,157,13701,6,0,P|176:218|244:312,1,160,4|0,0:0|0:0,0:0:0:0:
279,128,14151,2,0,P|248:82|215:65,1,80,8|0,0:0|0:0,0:0:0:0:
280,213,14451,1,0,0:0:0:0:
383,210,14601,1,0,0:0:0:0:
430,118,14751,1,8,0:0:0:0:
333,298,14901,6,0,P|297:343|222:281,1,160,4|0,0:0|0:0,0:0:0:0:
204,133,15351,1,8,0:0:0:0:
374,49,15501,2,0,P|312:58|266:44,1,80,4|0,0:0|0:0,0:0:0:0:
125,139,15801,2,0,P|187:130|233:144,1,80,0|8,0:0|3:0,0:0:0:0:
209,297,16101,6,0,B|156:321|156:321|182:251|172:189,1,160,4|0,0:0|0:0,0:0:0:0:
320,73,16551,2,0,B|373:49|373:49|347:119|357:181,1,160,8|0,0:0|0:0,0:0:0:0:
279,275,17001,1,0,0:0:0:0:
191,149,17151,2,0,L|185:97,1,40,0|0,0:0|3:0,0:0:0:0:
178,22,17301,1,0,0:0:0:0:
79,226,17451,5,0,3:2:0:0:
27,89,17601,2,0,P|24:46|27:18,2,40,0|0|8,3:2|0:0|3:2,0:0:0:0:
79,226,17901,1,0,3:2:0:0:
215,106,18051,2,0,P|246:100|266:101,1,40,0|0,3:2|0:0,0:0:0:0:
325,187,18201,2,0,P|356:193|376:192,2,40,0|0|8,0:0|0:0|3:2,0:0:0:0:
215,106,18501,1,0,0:0:0:0:
279,299,18651,5,4,0:0:0:0:
114,178,18801,1,4,0:0:0:0:
179,242,18951,2,0,P|188:296|170:372,2,128,0|0|0,0:0|0:0|0:0,0:0:0:0:
311,82,19701,6,0,L|454:75,1,128,4|0,0:0|0:0,0:0:0:0:
388,297,20151,1,0,3:2:0:0:
333,164,20301,1,0,3:2:0:0:
276,298,20451,1,0,3:2:0:0:
314,168,20601,1,0,3:2:0:0:
202,221,20751,2,0,P|149:209|80:213,1,96,4|0,0:0|0:0,0:0:0:0:
29,264,21051,6,0,L|20:344,1,64,6|0,0:0|0:0,0:0:0:0:
107,208,21351,2,0,L|98:128,1,64,8|0,0:0|0:0,0:0:0:0:
220,56,21651,2,0,P|150:64|134:58,1,64,0|0,0:0|0:0,0:0:0:0:
273,145,21951,2,0,P|304:144|335:154,1,64,8|0,0:0|0:0,0:0:0:0:
406,249,22251,5,0,0:0:0:0:
337,306,22401,1,0,0:0:0:0:
260,256,22551,1,8,0:0:0:0:
325,122,22701,2,0,P|349:120|389:130,1,64,0|0,0:0|0:0,0:0:0:0:
406,249,23001,1,0,0:0:0:0:
337,306,23151,1,8,0:0:0:0:
325,122,23301,6,0,L|178:114,1,128,2|0,0:0|0:0,0:0:0:0:
94,174,23751,2,0,P|79:220|81:242,1,64,8|0,0:0|0:0,0:0:0:0:
232,185,24051,2,0,P|230:153|217:124,1,64,0|0,0:0|0:0,0:0:0:0:
168,257,24351,2,0,L|168:348,1,64,8|0,0:0|0:0,0:0:0:0:
263,351,24651,5,2,0:0:0:0:
304,262,24801,1,0,0:0:0:0:
168,321,24951,1,8,0:0:0:0:
232,185,25101,2,0,L|355:170,1,96,0|0,0:0|0:0,0:0:0:0:
379,95,25401,2,0,L|455:80,1,64,0|8,0:0|0:0,0:0:0:0:
376,280,25701,6,0,B|341:258|341:258|326:170,1,128,2|0,0:0|0:0,0:0:0:0:
379,95,26151,2,0,L|445:91,1,64,8|0,0:0|0:0,0:0:0:0:
512,151,26451,1,0,0:0:0:0:
435,202,26601,2,0,P|400:211|354:194,1,64,0|8,0:0|0:0,0:0:0:0:
259,96,26901,6,0,P|325:76|397:112,1,128,2|0,0:0|0:0,0:0:0:0:
262,159,27351,2,0,L|257:77,1,64,8|0,0:0|0:0,0:0:0:0:
179,35,27651,1,0,0:0:0:0:
112,100,27801,2,0,P|103:156|106:186,1,64,0|8,0:0|0:0,0:0:0:0:
180,229,28101,6,0,P|113:204|42:234,1,128,2|0,0:0|0:0,0:0:0:0:
117,356,28551,2,0,L|113:288,1,64,8|0,0:0|0:0,0:0:0:0:
180,229,28851,2,0,L|184:161,1,64,0|0,0:0|0:0,0:0:0:0:
154,61,29151,1,8,0:0:0:0:
255,108,29301,1,0,0:0:0:0:
99,144,29451,6,0,P|48:157|-10:97,1,128,2|8,0:0|0:0,0:0:0:0:
154,61,29901,2,0,L|283:58,1,128,0|0,0:0|0:0,0:0:0:0:
404,115,30351,1,8,0:0:0:0:
285,191,30501,1,0,0:0:0:0:
292,205,30576,1,0,0:0:0:0:
299,220,30651,6,0,L|368:205,1,64,6|0,0:0|0:0,0:0:0:0:
219,288,30951,2,0,L|150:273,1,64,8|0,0:0|0:0,0:0:0:0:
96,140,31251,2,0,P|112:192|100:224,1,64,0|0,0:0|0:0,0:0:0:0:
224,104,31551,2,0,P|224:72|238:44,1,64,8|0,0:0|0:0,0:0:0:0:
351,160,31851,6,0,P|323:175|291:177,1,64,2|0,0:0|0:0,0:0:0:0:
345,52,32151,1,8,0:0:0:0:
447,108,32301,1,0,0:0:0:0:
450,226,32451,2,0,L|444:298,1,64,0|0,0:0|0:0,0:0:0:0:
370,346,32751,1,8,0:0:0:0:
243,216,32901,6,0,P|320:193|384:221,1,128,2|0,0:0|0:0,0:0:0:0:
252,279,33351,2,0,L|240:196,1,64,8|0,0:0|0:0,0:0:0:0:
345,64,33651,2,0,P|310:66|271:53,1,64,0|0,0:0|0:0,0:0:0:0:
121,125,33951,2,0,B|151:117|151:117|183:119,1,64,8|0,0:0|0:0,0:0:0:0:
309,224,34251,5,2,0:0:0:0:
258,124,34401,1,0,0:0:0:0:
199,213,34551,1,8,0:0:0:0:
370,131,34701,2,0,P|414:124|483:133,1,96,0|0,0:0|0:0,0:0:0:0:
456,223,35001,2,0,P|421:228|367:221,1,64,0|8,0:0|0:0,0:0:0:0:
199,213,35301,6,0,L|352:202,1,128,2|0,0:0|0:0,0:0:0:0:
370,131,35751,2,0,L|375:55,1,64,8|0,0:0|0:0,0:0:0:0:
326,203,36051,1,0,0:0:0:0:
366,276,36201,2,0,L|449:264,1,64,0|8,0:0|0:0,0:0:0:0:
290,339,36501,6,0,P|202:338|167:295,1,128,2|0,0:0|0:0,0:0:0:0:
165,170,36951,2,0,L|162:244,1,64,8|0,0:0|0:0,0:0:0:0:
176,313,37251,1,0,0:0:0:0:
251,265,37401,1,0,0:0:0:0:
165,170,37551,2,0,L|93:163,1,64,8|0,0:0|0:0,0:0:0:0:
234,100,37851,6,0,P|294:85|371:113,1,128,6|8,0:0|0:0,0:0:0:0:
406,182,38301,1,2,0:0:0:0:
303,237,38451,2,0,P|293:189|298:162,1,64,0|0,0:0|0:0,0:0:0:0:
406,182,38751,2,0,P|406:213|397:244,1,64,8|0,0:0|0:0,0:0:0:0:
184,226,39051,6,0,P|251:212|320:256,1,128,2|8,0:0|0:0,0:0:0:0:
236,303,39501,1,2,0:0:0:0:
124,291,39651,2,0,P|97:249|96:212,1,64,0|0,0:0|0:0,0:0:0:0:
213,170,39951,2,0,P|203:200|183:225,1,64,8|0,0:0|0:0,0:0:0:0:
186,86,40251,6,0,L|314:75,1,128,2|8,0:0|0:0,0:0:0:0:
406,135,40701,1,2,0:0:0:0:
338,190,40851,2,0,P|334:241|344:263,1,64,0|0,0:0|0:0,0:0:0:0:
406,135,41151,2,0,P|363:106|339:103,1,64,8|0,0:0|0:0,0:0:0:0:
417,217,41451,6,0,L|491:203,1,64,2|0,0:0|0:0,0:0:0:0:
338,252,41751,2,0,L|264:238,1,64,10|0,0:0|0:0,0:0:0:0:
208,188,41976,1,0,0:0:0:0:
208,188,42051,2,0,P|206:146|216:117,1,64,2|0,0:0|0:0,0:0:0:0:
338,252,42351,2,0,P|340:294|330:323,1,64,10|0,0:0|0:0,0:0:0:0:
112,280,42651,6,0,L|257:275,1,143.999995605469,6|8,0:0|0:0,0:0:0:0:
381,166,43101,2,0,P|334:158|294:168,1,71.9999978027344,2|0,0:0|0:0,0:0:0:0:
425,241,43401,2,0,P|472:249|512:239,2,71.9999978027344,0|10|0,0:0|0:0|0:0,0:0:0:0:
310,161,43851,6,0,B|285:116|285:116|312:11,1,143.999995605469,2|8,0:0|0:0,0:0:0:0:
393,108,44301,1,2,0:0:0:0:
266,69,44451,2,0,L|174:59,1,71.9999978027344,0|0,0:0|0:0,0:0:0:0:
238,168,44751,2,0,L|330:158,1,71.9999978027344,10|0,0:0|0:0,0:0:0:0:
166,232,45051,6,0,P|142:183|168:102,1,143.999995605469,2|8,0:0|0:0,0:0:0:0:
266,69,45501,1,2,0:0:0:0:
395,128,45651,2,0,P|356:135|314:126,1,71.9999978027344,0|0,0:0|0:0,0:0:0:0:
408,219,45951,2,0,P|447:212|489:221,1,71.9999978027344,10|0,0:0|0:0,0:0:0:0:
324,278,46251,6,0,P|303:244|300:200,1,71.9999978027344,2|0,0:0|0:0,0:0:0:0:
324,129,46551,1,8,0:0:0:0:
222,180,46701,2,0,L|122:191,1,71.9999978027344,0|0,0:0|0:0,0:0:0:0:
299,212,47001,2,0,L|399:223,1,71.9999978027344,2|10,0:0|0:0,0:0:0:0:
234,264,47301,1,0,0:0:0:0:
295,124,47451,6,0,P|299:75|221:19,1,143.999995605469,6|8,0:0|0:0,0:0:0:0:
117,30,47901,1,2,0:0:0:0:
156,120,48051,2,0,L|233:92,1,71.9999978027344,0|0,0:0|0:0,0:0:0:0:
362,148,48351,2,0,L|285:120,1,71.9999978027344,10|0,0:0|0:0,0:0:0:0:
414,212,48651,6,0,P|438:177|409:81,1,143.999995605469,2|8,0:0|0:0,0:0:0:0:
362,148,49101,1,2,0:0:0:0:
369,283,49251,2,0,P|417:297|455:285,1,71.9999978027344,0|0,0:0|0:0,0:0:0:0:
260,228,49551,2,0,L|199:222,2,47.9999985351563,10|0|0,0:0|0:0|0:0,0:0:0:0:
290,212,49851,6,0,L|287:41,1,143.999995605469,2|8,0:0|0:0,0:0:0:0:
186,15,50301,1,2,0:0:0:0:
93,84,50451,2,0,P|74:130|83:169,1,71.9999978027344,0|0,0:0|0:0,0:0:0:0:
102,260,50751,2,0,L|204:270,1,71.9999978027344,10|0,0:0|0:0,0:0:0:0:
265,180,51051,6,0,B|228:133|265:67,1,107.999996704102,2|0,0:0|0:0,0:0:0:0:
361,85,51351,2,0,P|300:96|247:66,1,107.999996704102,10|0,0:0|0:0,0:0:0:0:
170,35,51651,2,0,P|96:34|59:56,1,107.999996704102,2|0,0:0|0:0,0:0:0:0:
94,161,51951,2,0,B|128:180|128:180|132:92,1,107.999996704102,10|0,0:0|0:0,0:0:0:0:
21,111,52251,6,0,P|5:170|53:242,1,143.999995605469,6|8,0:0|0:0,0:0:0:0:
157,299,52701,1,2,0:0:0:0:
277,215,52851,2,0,P|239:201|184:202,1,71.9999978027344,0|0,0:0|0:0,0:0:0:0:
311,305,53151,2,0,P|346:301|380:288,1,71.9999978027344,10|0,0:0|0:0,0:0:0:0:
365,88,53451,6,0,P|356:153|403:213,1,143.999995605469,2|8,0:0|0:0,0:0:0:0:
439,133,53901,1,2,0:0:0:0:
365,88,54051,2,0,L|271:83,1,71.9999978027344,0|0,0:0|0:0,0:0:0:0:
198,200,54351,2,0,P|212:151|205:110,1,71.9999978027344,10|0,0:0|0:0,0:0:0:0:
104,204,54651,6,0,L|103:359,1,143.999995605469,2|8,0:0|0:0,0:0:0:0:
240,352,55101,1,0,0:0:0:0:
299,231,55251,2,0,P|303:190|295:115,1,107.999996704102,0|0,0:0|0:0,0:0:0:0:
212,79,55551,2,0,L|139:69,1,71.9999978027344,8|0,0:0|0:0,0:0:0:0:
296,123,55851,6,0,L|395:115,1,71.9999978027344,2|0,0:0|0:0,0:0:0:0:
475,167,56151,1,8,0:0:0:0:
397,280,56301,2,0,P|392:229|401:185,1,71.9999978027344,2|0,0:0|0:0,0:0:0:0:
475,167,56601,1,0,0:0:0:0:
319,162,56751,2,0,L|197:151,1,107.999996704102,8|0,0:0|0:0,0:0:0:0:
128,86,57051,6,0,P|191:53|288:73,2,143.999995605469,4|8|0,0:0|0:0|0:0,0:0:0:0:
220,181,57801,1,0,0:0:0:0:
230,288,57951,2,0,P|194:285|163:269,1,71.9999978027344,8|0,0:0|0:0,0:0:0:0:
306,228,58251,6,0,P|354:208|467:230,1,143.999995605469,0|0,0:0|0:2,0:0:0:0:
384,313,58701,1,0,0:2:0:0:
306,228,58851,2,0,L|293:137,1,64,0|0,0:2|0:2,0:0:0:0:
381,62,59151,2,0,L|368:153,1,64,0|0,0:2|0:2,0:0:0:0:
306,228,59451,6,0,L|171:229,1,128,4|0,0:2|0:0,0:0:0:0:
83,165,59901,1,0,0:0:0:0:
22,239,60051,2,0,P|14:277|22:312,1,64,0|0,0:2|0:0,0:0:0:0:
178,228,60351,2,0,P|181:196|173:165,1,64,0|0,0:2|0:2,0:0:0:0:
153,331,60651,6,0,P|197:342|253:331,1,83.9999974365235,2|0,0:0|0:0,0:0:0:0:
307,278,60951,2,0,P|337:265|411:275,1,83.9999974365235,2|0,0:0|0:0,0:0:0:0:
465,315,61251,2,0,L|457:212,1,83.9999974365235,2|0,0:0|0:0,0:0:0:0:
392,173,61551,2,0,L|397:95,1,60,2|0,0:0|0:0,0:0:0:0:
458,231,61851,6,0,P|387:260|308:208,1,160,4|8,0:0|0:0,0:0:0:0:
395,113,62301,1,0,0:0:0:0:
390,260,62451,2,0,L|398:350,1,80
317,223,62751,1,8,0:0:0:0:
395,113,62901,1,0,0:0:0:0:
236,137,63051,6,0,L|123:131,1,80,0|0,0:0|0:0,0:0:0:0:
27,229,63351,2,0,L|140:223,1,80,8|0,0:0|0:0,0:0:0:0:
208,324,63651,2,0,P|183:281|182:238,1,80,0|0,0:0|0:0,0:0:0:0:
236,137,63951,2,0,L|372:124,1,120,8|0,0:0|0:0,0:0:0:0:
441,179,64251,6,0,P|443:231|428:269,1,80,0|0,0:0|0:0,0:0:0:0:
355,125,64551,2,0,P|344:86|348:46,1,80,8|0,0:0|0:0,0:0:0:0:
272,217,64851,2,0,L|384:201,1,80,0|0,0:0|0:0,0:0:0:0:
511,92,65151,2,0,L|399:76,1,80,8|0,0:0|0:0,0:0:0:0:
291,64,65451,6,0,P|365:40|440:97,1,160,4|8,0:0|0:0,0:0:0:0:
437,253,65901,1,0,0:0:0:0:
262,243,66051,2,0,P|253:301|269:334,1,80,4|0,0:0|0:0,0:0:0:0:
351,205,66351,2,0,P|360:147|344:114,1,80,12|0,0:0|0:0,0:0:0:0:
120,168,66651,6,0,L|283:165,1,160,4|8,0:0|0:0,0:0:0:0:
353,128,67101,1,0,0:0:0:0:
288,236,67251,2,0,P|280:276|288:320,1,80,0|0,0:0|0:0,0:0:0:0:
411,269,67551,1,8,0:0:0:0:
265,148,67701,6,0,L|96:146,1,160,0|0,0:0|0:0,0:0:0:0:
50,71,68151,1,8,0:0:0:0:
17,194,68301,2,0,P|8:238|17:286,1,80,0|0,0:0|0:0,0:0:0:0:
108,343,68601,1,0,0:0:0:0:
207,267,68751,2,0,P|211:227|202:188,1,80,8|0,0:0|0:0,0:0:0:0:
50,71,69051,5,4,0:0:0:0:
50,71,69351,1,8,0:0:0:0:
116,267,69501,1,4,0:0:0:0:
116,267,69801,2,0,L|127:171,1,80,4|8,0:0|0:0,0:0:0:0:
223,52,70101,6,0,P|249:165|200:195,1,160,4|0,0:0|3:0,0:0:0:0:
187,120,70476,1,0,0:0:0:0:
187,120,70551,1,8,3:2:0:0:
358,93,70701,5,0,3:2:0:0:
358,93,70776,1,0,3:2:0:0:
358,93,70851,1,0,3:2:0:0:
300,254,71001,5,0,3:2:0:0:
300,254,71076,1,0,3:2:0:0:
300,254,71151,1,8,3:2:0:0:
187,120,71301,5,0,3:2:0:0:
187,120,71376,1,0,3:2:0:0:
187,120,71451,6,0,B|142:149|87:122|87:122|125:141|139:182,1,160,4|8,0:0|0:0,0:0:0:0:
127,262,71901,1,0,0:0:0:0:
243,212,72051,2,0,P|306:199|339:203,1,80,0|0,0:0|0:0,0:0:0:0:
442,306,72351,1,8,0:0:0:0:
310,303,72501,1,0,0:0:0:0:
388,151,72651,6,0,L|383:39,1,80,0|0,0:0|0:0,0:0:0:0:
313,223,72951,2,0,L|308:335,1,80,8|0,0:0|0:0,0:0:0:0:
236,145,73251,2,0,P|194:140|132:146,1,80,0|0,0:0|0:0,0:0:0:0:
313,223,73551,2,0,P|355:228|444:222,1,120,8|0,0:0|0:0,0:0:0:0:
480,137,73851,6,0,P|474:82|485:49,1,80,4|0,0:0|0:0,0:0:0:0:
380,184,74151,2,0,P|335:216|301:223,1,80,8|0,0:0|0:0,0:0:0:0:
218,178,74376,1,0,0:0:0:0:
218,178,74451,2,0,L|127:170,1,80,0|0,0:0|0:0,0:0:0:0:
68,80,74751,1,8,0:0:0:0:
35,218,74901,6,0,P|35:290|109:342,1,160,4|0,0:0|0:0,0:0:0:0:
208,317,75351,1,8,0:0:0:0:
165,243,75501,1,0,0:0:0:0:
294,169,75651,1,0,0:0:0:0:
251,243,75801,1,0,3:2:0:0:
124,169,75951,1,8,3:2:0:0:
294,169,76101,1,0,3:2:0:0:
294,169,76176,1,0,3:2:0:0:
294,169,76251,6,0,L|475:153,1,160,4|8,3:2|0:0,0:0:0:0:
512,235,76701,1,0,0:0:0:0:
453,154,76851,2,0,P|437:106|447:48,1,80,0|0,0:0|0:0,0:0:0:0:
348,235,77151,2,0,P|348:275|333:311,1,80,8|0,0:0|0:0,0:0:0:0:
118,287,77451,6,0,P|173:245|285:273,1,160,0|8,0:0|0:0,0:0:0:0:
204,348,77901,1,0,0:0:0:0:
62,352,78051,2,0,P|34:310|38:255,1,80,0|0,0:0|0:0,0:0:0:0:
149,216,78351,2,0,P|142:255|118:286,1,80,8|0,0:0|0:0,0:0:0:0:
55,213,78576,1,0,0:0:0:0:
55,213,78651,6,0,L|48:36,1,160,4|0,0:0|0:0,0:0:0:0:
161,136,79101,2,0,P|69:106|49:30,1,160,12|0,0:0|0:0,0:0:0:0:
245,73,79551,2,0,B|290:66|290:66|354:75,1,80,4|0,0:0|0:0,0:0:0:0:
379,157,79776,1,0,0:0:0:0:
379,157,79851,6,0,L|374:243,1,80,4|0,0:0|0:0,0:0:0:0:
309,288,80076,1,0,0:0:0:0:
294,303,80151,2,0,L|289:217,1,80,8|0,0:0|0:0,0:0:0:0:
330,75,80451,1,0,0:0:0:0:
235,153,80601,1,0,0:0:0:0:
379,157,80751,2,0,L|430:150,1,40,8|0,0:0|0:0,0:0:0:0:
330,75,80901,6,0,P|254:33|178:45,1,160,4|0,0:0|0:0,0:0:0:0:
90,107,81351,2,0,L|7:97,1,80,8|0,0:0|0:0,0:0:0:0:
126,234,81651,2,0,L|206:226,1,80,0|0,0:0|0:0,0:0:0:0:
317,215,81951,1,8,0:0:0:0:
310,326,82101,6,0,P|256:311|205:221,1,160,0|0,0:0|0:0,0:0:0:0:
204,132,82551,1,8,0:0:0:0:
317,215,82701,2,0,L|494:204,1,160,0|0,0:0|0:0,0:0:0:0:
449,311,83151,1,8,0:0:0:0:
317,215,83301,6,0,P|310:151|381:79,1,160,0|0,0:0|0:0,0:0:0:0:
474,162,83751,2,0,L|383:170,1,80,8|0,0:0|0:0,0:0:0:0:
237,207,84051,2,0,L|328:215,1,80,0|0,0:0|0:0,0:0:0:0:
376,295,84351,1,8,0:0:0:0:
187,344,84501,6,0,P|115:348|42:275,1,160,0|0,0:0|0:0,0:0:0:0:
132,178,84951,2,0,L|141:263,1,80,8|0,0:0|0:0,0:0:0:0:
187,344,85251,1,0,0:0:0:0:
260,164,85401,1,0,0:0:0:0:
140,257,85551,1,8,0:0:0:0:
292,319,85701,6,0,P|354:333|437:275,1,160,4|0,0:0|0:0,0:0:0:0:
290,239,86151,2,0,L|292:334,1,80,8|0,0:0|0:0,0:0:0:0:
357,162,86451,2,0,P|274:142|202:182,1,160,0|8,0:0|0:0,0:0:0:0:
389,262,86901,6,0,P|440:224|441:102,1,160,0|0,0:0|0:0,0:0:0:0:
370,40,87351,1,8,0:0:0:0:
205,171,87501,2,0,B|229:161|261:177|261:177|293:161|293:161|325:177|357:161,1,160,0|0,0:0|0:0,0:0:0:0:
456,134,87951,1,8,0:0:0:0:
242,78,88101,6,0,P|177:76|110:139,1,160,4|0,0:0|0:0,0:0:0:0:
160,319,88551,2,0,P|168:267|156:227,1,80,8|0,0:0|0:0,0:0:0:0:
27,216,88851,2,0,P|85:262|171:230,1,160,0|8,0:0|0:0,0:0:0:0:
364,180,89301,6,0,L|204:170,1,160,4|0,0:0|0:0,0:0:0:0:
348,93,89751,2,0,L|408:90,3,40,0|0|0|0,3:2|0:0|3:2|0:0,0:0:0:0:
247,62,90051,2,0,L|187:59,3,40,0|0|0|0,3:2|0:0|3:2|0:0,0:0:0:0:
275,175,90351,1,0,3:2:0:0:
115,187,90501,6,0,L|301:172,1,160,4|0,0:0|0:0,0:0:0:0:
61,256,90951,2,0,P|27:184|32:161,1,80,8|0,0:0|0:0,0:0:0:0:
157,26,91251,2,0,L|160:122,1,80,0|0,0:0|0:0,0:0:0:0:
170,282,91551,1,8,0:0:0:0:
264,182,91701,6,0,B|224:166|224:166|177:208|112:186,1,160,0|0,0:0|0:0,0:0:0:0:
159,105,92151,1,8,0:0:0:0:
264,182,92301,2,0,L|349:174,1,80,0|0,0:0|0:0,0:0:0:0:
415,120,92601,1,0,0:0:0:0:
432,221,92751,1,8,0:0:0:0:
324,84,92901,6,0,P|364:42|475:49,1,160,0|0,0:0|0:0,0:0:0:0:
415,120,93276,1,0,0:0:0:0:
415,120,93351,2,0,L|362:143,3,40,8|0|0|0,0:0|0:0|0:0|0:0,0:0:0:0:
311,202,93651,2,0,L|258:179,3,40,0|0|0|0,0:0|0:0|0:0|0:0,0:0:0:0:
196,133,93951,1,8,0:0:0:0:
169,146,94026,1,0,0:0:0:0:
139,151,94101,1,0,0:0:0:0:
110,146,94176,1,0,0:0:0:0:
83,133,94251,6,0,P|75:75|78:66,3,40,0|0|0|0,0:0|0:0|0:0|0:0,0:0:0:0:
121,228,94551,2,0,P|118:247|110:266,3,40,8|0|0|0,0:0|0:0|0:0|0:0,0:0:0:0:
169,146,94851,2,0,P|163:91|271:29,1,160,0|8,0:0|0:0,0:0:0:0:
407,121,95301,6,0,L|218:106,1,160,4|0,0:0|0:0,0:0:0:0:
360,229,95751,2,0,P|411:240|442:235,1,80,8|0,0:0|0:0,0:0:0:0:
485,113,96051,2,0,P|445:109|406:120,1,80,0|0,0:0|0:0,0:0:0:0:
438,236,96351,1,8,0:0:0:0:
320,80,96501,6,0,B|288:96|256:80|256:80|224:96|224:96|192:80|144:96,1,160,4|0,0:0|0:0,0:0:0:0:
96,239,96951,1,8,0:0:0:0:
181,177,97101,1,0,0:0:0:0:
188,284,97251,1,0,0:0:0:0:
85,137,97401,1,0,0:0:0:0:
272,221,97551,1,8,0:0:0:0:
97,341,97701,1,0,0:0:0:0:
181,177,97851,6,0,P|195:135|195:124,3,40,4|0|0|0,0:0|0:0|0:0|0:0,0:0:0:0:
272,221,98151,2,0,P|276:240|285:258,3,40,8|0|0|0,0:0|0:0|0:0|0:0,0:0:0:0:
331,135,98451,2,0,L|388:128,3,40,0|0|0|0,0:0|0:0|0:0|0:0,0:0:0:0:
287,41,98751,2,0,L|230:34,3,40,8|0|0|0,0:0|0:0|0:0|0:0,0:0:0:0:
128,106,99051,6,0,P|161:105|183:99,3,40,0|0|0|0,0:0|0:0|0:0|0:0,0:0:0:0:
47,64,99351,2,0,P|44:44|44:24,3,40,8|0|0|0,0:0|0:0|0:0|0:0,0:0:0:0:
69,175,99651,2,0,P|71:194|71:214,3,40,0|0|0|0,0:0|0:0|0:0|0:0,0:0:0:0:
32,310,99951,1,8,0:0:0:0:
59,298,100026,1,0,0:0:0:0:
89,293,100101,1,0,0:0:0:0:
118,294,100176,1,0,0:0:0:0:
147,302,100251,6,0,L|157:247,3,40,0|0|0|0,0:0|0:0|0:0|0:0,0:0:0:0:
162,131,100551,2,0,L|172:170,3,40,8|0|0|0,0:0|0:0|0:0|0:0,0:0:0:0:
229,43,100851,2,0,L|190:31,3,40,8|0|0|0,0:0|0:0|0:0|0:0,0:0:0:0:
278,144,101151,2,0,L|307:116,3,40,8|0|0|0,0:0|0:0|0:0|0:0,0:0:0:0:
228,248,101451,5,4,0:0:0:0:
228,248,102651,22,0,L|368:272,1,120.000004577637,0|0,3:2|3:2,0:0:0:0:
195,147,103251,2,0,L|55:171,1,120.000004577637,2|0,3:2|3:2,0:0:0:0:
312,83,103851,5,0,3:2:0:0:
449,138,104151,1,0,3:2:0:0:
353,179,104451,1,2,3:2:0:0:
408,41,104751,1,0,3:2:0:0:
330,207,105051,38,0,P|343:262|350:340,1,120.000004577637,0|0,3:2|3:2,0:0:0:0:
435,153,105651,1,2,3:2:0:0:
304,224,105951,6,0,L|175:206,1,120.000004577637,0|0,3:2|3:2,0:0:0:0:
78,108,106551,2,0,L|207:90,1,120.000004577637,0|2,3:2|3:2,0:0:0:0:
53,217,107151,1,0,3:2:0:0:
268,27,107451,38,0,P|293:81|280:138,1,120.000004577637,4|0,3:2|3:2,0:0:0:0:
159,237,108051,1,2,3:2:0:0:
260,304,108351,1,0,3:2:0:0:
28,364,108651,6,0,L|172:350,1,120.000004577637,0|0,3:2|3:2,0:0:0:0:
272,255,109251,2,0,L|128:241,1,120.000004577637,2|0,3:2|3:2,0:0:0:0:
77,89,109851,37,0,3:2:0:0:
29,197,110151,1,0,3:2:0:0:
218,85,110451,2,0,B|248:88|278:75|278:75|293:95|342:110,1,120.000004577637,8|0,3:2|3:2,0:0:0:0:
475,25,111051,22,0,P|459:60|444:125,1,80,0|0,0:0|0:0,0:0:0:0:
476,192,111351,1,0,0:0:0:0:
367,314,111501,2,0,L|272:304,1,80,0|0,0:0|0:0,0:0:0:0:
204,356,111801,1,0,0:0:0:0:
345,212,111951,1,8,0:2:0:0:
333,196,112251,6,0,P|250:184|161:178,1,160,4|8,0:0|0:0,0:0:0:0:
80,168,112701,1,0,0:0:0:0:
159,80,112851,2,0,P|173:42|176:-15,1,80,0|0,0:0|0:0,0:0:0:0:
60,184,113151,2,0,P|64:223|78:261,1,80,8|0,0:0|0:0,0:0:0:0:
295,354,113451,6,0,B|248:327|191:335|191:335|219:329|237:301,1,160,0|8,0:0|0:0,0:0:0:0:
269,200,113901,1,0,0:0:0:0:
364,287,114051,2,0,L|476:275,1,80,0|0,0:0|0:0,0:0:0:0:
254,187,114351,2,0,L|142:175,1,80,8|0,0:0|0:0,0:0:0:0:
335,77,114651,6,0,P|367:148|448:171,1,160,0|8,0:0|0:0,0:0:0:0:
431,76,115101,1,0,0:0:0:0:
506,232,115251,2,0,B|497:276|497:276|508:356,2,106.666666666667,0|0|0,0:0|0:0|0:0,0:0:0:0:
409,63,115851,6,0,P|307:50|244:46,1,160,0|8,0:0|0:0,0:0:0:0:
132,143,116301,2,0,P|89:80|-8:83,1,160,0|0,0:0|0:0,0:0:0:0:
41,164,116751,1,8,0:0:0:0:
200,344,117051,6,0,P|348:323|375:321,1,160,4|8,0:0|0:0,0:0:0:0:
447,365,117501,1,0,0:0:0:0:
411,241,117651,2,0,L|423:137,1,80,0|0,0:0|0:0,0:0:0:0:
315,101,117951,2,0,L|324:180,1,80,8|0,0:0|0:0,0:0:0:0:
481,333,118251,38,0,L|507:149,1,160,0|8,0:0|0:0,0:0:0:0:
466,85,118701,1,0,0:0:0:0:
393,222,118851,2,8,P|365:206|316:199,2,53.3333333333333,8|8|8,3:0|3:0|3:0,0:0:0:0:
288,88,119151,2,8,P|260:104|211:111,2,53.3333333333333,8|8|8,3:0|3:0|3:0,0:0:0:0:
145,46,119451,22,0,L|165:177,1,120.000004577637,4|0,0:0|0:0,0:0:0:0:
365,107,120051,6,0,L|338:277,1,160,8|0,3:0|0:0,0:0:0:0:
256,192,120651,12,0,121851,0:0:0:0:
351,107,138651,6,0,L|338:264,1,150,4|0,0:2|0:0,0:0:0:0:
351,272,139251,6,0,P|391:263|432:260,1,80,0|0,0:0|0:0,0:0:0:0:
265,181,139851,6,0,P|301:162|370:141,1,105.599999677734,0|0,0:0|0:0,0:0:0:0:
154,120,140451,6,0,P|184:92|262:45,1,122.559993940821,0|0,0:0|0:0,0:0:0:0:
22,121,141051,22,0,P|44:86|76:47,1,80,4|0,0:2|0:0,0:0:0:0:
152,8,141351,1,0,0:0:0:0:
293,204,141501,2,0,L|178:194,1,80,4|0,0:2|0:0,0:0:0:0:
138,138,141801,1,0,0:0:0:0:
372,294,141951,1,4,0:2:0:0:
389,276,143451,38,0,P|402:197|517:185,1,176.000005371094,4|8,0:0|0:0,0:0:0:0:
475,324,143901,1,0,0:0:0:0:
301,212,144051,2,0,P|260:217|96:228,1,176.000005371094,0|8,0:0|0:0,0:0:0:0:
36,172,144501,1,0,0:0:0:0:
184,317,144651,6,0,P|224:315|300:304,1,88.000002685547,0|0,0:0|0:0,0:0:0:0:
409,197,144951,2,0,P|365:191|321:189,1,88.000002685547,8|0,0:0|0:0,0:0:0:0:
145,217,145251,2,0,L|133:104,1,88.000002685547,0|0,0:0|0:0,0:0:0:0:
294,296,145551,2,0,L|284:383,1,88.000002685547,8|0,0:0|0:0,0:0:0:0:
388,211,145851,6,0,P|377:168|370:110,1,88.000002685547,0|0,0:0|0:0,0:0:0:0:
512,17,146151,2,0,P|505:60|494:103,1,88.000002685547,8|0,0:0|0:0,0:0:0:0:
292,218,146451,2,0,L|401:235,1,88.000002685547,0|0,0:0|0:0,0:0:0:0:
238,102,146751,2,0,L|129:119,1,88.000002685547,8|0,0:0|0:0,0:0:0:0:
36,271,147051,6,0,P|117:286|137:378,1,176.000005371094,4|8,0:0|0:0,0:0:0:0:
61,350,147501,1,0,0:0:0:0:
134,100,147651,1,4,0:0:0:0:
308,273,147951,1,12,0:0:0:0:
15,281,148251,6,0,P|33:202|55:84,1,176.000005371094,4|8,0:0|0:0,0:0:0:0:
8,12,148701,1,0,0:0:0:0:
137,156,148851,2,0,L|253:147,1,88.000002685547,0|0,0:0|0:0,0:0:0:0:
320,103,149151,1,8,0:0:0:0:
230,257,149301,6,0,P|155:258|115:354,1,176.000005371094,0|0,0:0|0:0,0:0:0:0:
193,331,149751,1,8,0:0:0:0:
309,192,149901,2,0,P|320:104|334:17,1,176.000005371094,0|0,0:0|0:0,0:0:0:0:
449,202,150351,2,0,P|456:251|464:312,1,88.000002685547,8|0,0:0|0:0,0:0:0:0:
496,80,150651,5,4,0:0:0:0:
279,216,150951,1,8,0:0:0:0:
380,247,151101,1,4,0:0:0:0:
129,283,151401,1,0,0:0:0:0:
161,74,151701,2,0,P|233:82|344:92,1,176.000005371094,4|0,0:0|0:0,0:0:0:0:
361,83,152076,1,0,0:0:0:0:
361,83,152151,1,0,0:0:0:0:
287,223,152301,1,0,0:0:0:0:
287,223,152376,1,0,0:0:0:0:
287,223,152451,5,0,0:0:0:0:
98,146,152601,2,0,L|105:189,2,44.0000013427735,0|0|0,0:0|0:0|0:0,0:0:0:0:
212,297,152901,1,0,0:0:0:0:
212,297,152976,1,0,0:0:0:0:
212,297,153051,6,0,P|276:282|396:264,1,176.000005371094,4|8,0:0|0:0,0:0:0:0:
480,308,153501,1,0,0:0:0:0:
337,159,153651,2,0,P|292:176|224:64,1,176.000005371094,0|8,0:0|0:0,0:0:0:0:
264,0,154101,1,0,0:0:0:0:
126,152,154251,6,0,P|116:194|108:240,1,88.000002685547,0|0,0:0|0:0,0:0:0:0:
292,97,154551,2,0,P|284:53|274:10,1,88.000002685547,8|0,0:0|0:0,0:0:0:0:
226,263,154851,2,0,L|348:252,1,88.000002685547,0|0,0:0|0:0,0:0:0:0:
459,179,155151,2,0,L|337:168,1,88.000002685547,8|0,0:0|0:0,0:0:0:0:
437,288,155451,5,4,0:0:0:0:
406,35,155751,1,8,0:0:0:0:
203,189,156051,1,0,0:0:0:0:
448,308,156351,1,8,0:0:0:0:
361,201,156501,6,0,P|357:136|457:93,1,176.000005371094,4|0,0:0|0:0,0:0:0:0:
225,212,156951,2,0,P|194:205|114:187,1,88.000002685547,8|0,0:0|0:0,0:0:0:0:
13,109,157251,2,0,P|43:102|124:84,1,88.000002685547,0|0,0:0|0:0,0:0:0:0:
22,221,157551,1,8,0:0:0:0:
213,75,157701,1,0,3:0:0:0:
213,75,157776,1,0,3:0:0:0:
213,75,157851,6,0,P|258:83|424:96,1,176.000005371094,4|8,0:0|0:0,0:0:0:0:
476,36,158301,1,0,0:0:0:0:
415,211,158451,2,0,L|307:198,1,88.000002685547,0|0,0:0|0:0,0:0:0:0:
203,307,158751,2,0,L|290:296,1,88.000002685547,8|0,0:0|0:0,0:0:0:0:
130,139,159051,6,0,P|95:209|3:194,1,176.000005371094,4|8,0:0|0:0,0:0:0:0:
241,208,159501,2,0,P|277:205|431:196,1,176.000005371094,0|0,0:0|0:0,0:0:0:0:
484,280,159951,1,8,0:0:0:0:
484,280,160101,1,0,0:0:0:0:
331,358,160251,38,0,L|216:344,1,88.000002685547,4|0,0:0|0:0,0:0:0:0:
172,268,160551,1,8,0:0:0:0:
326,216,160701,2,0,P|338:178|349:117,1,88.000002685547,4|0,0:0|0:0,0:0:0:0:
303,34,161001,1,0,0:0:0:0:
435,206,161151,1,12,0:0:0:0:
204,135,161451,6,0,L|87:142,1,88.000002685547,4|0,0:0|3:2,0:0:0:0:
49,199,161676,1,0,0:0:0:0:
49,199,161751,2,0,P|57:243|63:294,1,88.000002685547,8|0,3:2|0:0,0:0:0:0:
197,361,162051,2,0,P|202:317|210:274,1,88.000002685547,0|0,0:0|0:0,0:0:0:0:
296,176,162351,1,8,0:0:0:0:
479,339,162501,6,0,L|304:328,1,176.000005371094,4|0,0:0|0:0,0:0:0:0:
139,273,162951,2,0,P|178:265|217:259,1,80,8|0,0:0|0:0,0:0:0:0:
388,175,163251,2,0,P|348:167|309:161,1,80,0|0,0:0|0:0,0:0:0:0:
475,254,163551,1,8,0:0:0:0:
354,60,163701,6,0,L|172:73,1,160,0|0,0:0|0:0,0:0:0:0:
25,139,164151,2,0,L|128:160,1,80,8|0,0:0|0:0,0:0:0:0:
242,241,164451,2,0,P|254:279|252:345,1,80,0|0,0:0|0:0,0:0:0:0:
297,147,164751,1,8,0:0:0:0:
159,300,164901,6,0,L|-13:285,1,160,0|0,0:0|0:0,0:0:0:0:
255,228,165351,2,0,P|293:224|369:216,1,80,8|0,0:0|0:0,0:0:0:0:
445,137,165651,2,0,P|456:99|468:36,1,80,0|0,0:0|0:0,0:0:0:0:
388,4,165951,1,8,0:0:0:0:
499,210,166101,6,0,L|484:384,1,160,0|0,0:0|0:0,0:0:0:0:
428,131,166551,1,8,0:0:0:0:
428,131,166701,1,0,0:0:0:0:
337,280,166851,2,0,P|297:271|232:262,1,80,0|0,0:0|0:0,0:0:0:0:
180,320,167151,1,8,0:0:0:0:
320,177,167301,6,0,L|308:8,1,160,4|0,0:0|0:0,0:0:0:0:
411,250,167751,2,0,P|397:284|385:353,1,80,8|0,0:0|0:0,0:0:0:0:
512,210,168051,1,0,0:0:0:0:
305,270,168201,1,0,0:0:0:0:
484,315,168351,1,8,0:0:0:0:
282,249,168501,6,0,P|209:254|108:260,1,160,0|0,0:0|0:0,0:0:0:0:
1,131,168951,2,0,P|41:136|96:154,1,80,8|0,0:0|0:0,0:0:0:0:
268,33,169251,2,0,P|229:43|189:49,1,80,0|0,0:0|0:0,0:0:0:0:
104,10,169551,1,8,0:0:0:0:
256,140,169701,6,0,L|240:314,1,160,0|0,0:0|0:0,0:0:0:0:
308,372,170151,1,8,0:0:0:0:
308,372,170301,1,0,0:0:0:0:
157,231,170451,2,0,P|118:220|42:213,1,80,0|0,0:0|0:0,0:0:0:0:
12,280,170751,1,8,0:0:0:0:
245,155,170901,6,0,P|332:167|429:176,1,160,4|0,0:0|0:0,0:0:0:0:
221,35,171351,2,0,P|141:43|108:49,1,80,8|0,0:0|3:0,0:0:0:0:
80,118,171576,1,0,3:0:0:0:
80,118,171651,2,0,L|92:218,1,80,0|0,3:0|0:0,0:0:0:0:
0,17,171951,1,8,0:0:0:0:
173,289,172101,6,0,P|210:228|310:236,1,160,4|0,0:0|0:0,0:0:0:0:
79,222,172551,2,0,P|41:213|-13:207,1,80,8|0,0:0|0:0,0:0:0:0:
182,128,172851,2,0,P|221:122|260:113,1,80,0|0,0:0|0:0,0:0:0:0:
328,48,173151,1,8,0:0:0:0:
102,40,173301,6,0,P|114:111|127:204,1,160,0|0,0:0|0:0,0:0:0:0:
92,288,173751,1,8,0:0:0:0:
92,288,173901,1,0,0:0:0:0:
236,122,174051,2,0,P|242:81|255:41,1,80,0|0,0:0|0:0,0:0:0:0:
280,216,174351,1,8,0:0:0:0:
112,50,174501,6,0,L|308:26,1,160,0|0,0:0|0:0,0:0:0:0:
449,129,174951,2,0,L|346:115,1,80,8|0,0:0|0:0,0:0:0:0:
222,149,175251,2,0,P|201:183|186:235,1,80,0|0,0:0|0:0,0:0:0:0:
191,40,175551,1,8,0:0:0:0:
287,254,175701,6,0,P|340:208|408:216,1,120,0|0,0:0|0:0,0:0:0:0:
428,236,176001,1,0,0:0:0:0:
254,373,176151,2,0,L|139:352,1,80,8|0,0:0|0:0,0:0:0:0:
176,359,176376,1,0,0:0:0:0:
176,359,176451,1,0,0:0:0:0:
367,293,176601,1,4,0:0:0:0:
346,269,176901,6,0,P|335:185|328:94,1,160,4|0,0:0|0:0,0:0:0:0:
372,24,177351,1,8,0:0:0:0:
372,24,177501,1,0,0:0:0:0:
214,148,177651,2,0,P|171:133|111:121,1,80,0|0,0:0|0:0,0:0:0:0:
52,172,177951,1,8,0:0:0:0:
242,292,178101,6,0,L|232:124,1,160,4|0,0:0|0:0,0:0:0:0:
176,52,178551,1,8,0:0:0:0:
176,52,178701,1,0,0:0:0:0:
357,9,178851,2,0,L|348:104,1,80,0|0,0:0|0:0,0:0:0:0:
396,172,179151,1,8,0:0:0:0:
192,69,179301,6,0,L|208:244,1,160,4|0,0:0|0:0,0:0:0:0:
160,312,179751,1,8,0:0:0:0:
160,312,179901,1,0,0:0:0:0:
298,143,180051,2,0,P|331:156|381:168,1,80,0|0,0:0|0:0,0:0:0:0:
461,131,180351,1,8,0:0:0:0:
225,243,180501,6,0,L|42:219,1,160,4|0,0:0|0:0,0:0:0:0:
297,325,180951,2,0,L|400:312,1,80,8|0,0:0|0:0,0:0:0:0:
204,160,181251,2,0,L|101:147,1,80,0|0,0:0|0:0,0:0:0:0:
125,150,181476,1,0,3:0:0:0:
125,150,181551,1,8,3:2:0:0:
313,239,181701,6,0,P|370:225|482:206,1,160,4|0,0:0|0:0,0:0:0:0:
246,329,182151,1,8,0:0:0:0:
246,329,182301,1,0,0:0:0:0:
317,138,182451,2,0,P|307:100|298:32,1,80,0|0,0:0|0:0,0:0:0:0:
391,221,182751,1,8,0:0:0:0:
206,85,182901,6,0,P|123:73|35:61,1,160,4|0,0:0|0:0,0:0:0:0:
322,37,183351,1,8,0:0:0:0:
180,230,183501,1,0,0:0:0:0:
312,180,183651,1,0,0:0:0:0:
206,85,183801,1,0,0:0:0:0:
283,326,183951,1,8,3:2:0:0:
302,328,184026,1,0,3:2:0:0:
322,330,184101,1,0,3:2:0:0:
342,332,184176,1,0,3:2:0:0:
362,335,184251,6,0,P|331:271|315:174,1,160,4|0,0:0|0:0,0:0:0:0:
480,71,184701,2,0,P|466:149|433:221,1,160,4|0,0:0|0:0,0:0:0:0:
368,3,185151,1,4,0:0:0:0:
256,192,185226,12,0,189876,0:0:0:0:
