osu file format v14

[General]
AudioFilename: audio.mp3
AudioLeadIn: 0
PreviewTime: 60501
Countdown: 0
SampleSet: None
StackLeniency: 0.5
Mode: 0
LetterboxInBreaks: 0
WidescreenStoryboard: 1

[Editor]
DistanceSpacing: 1.7
BeatDivisor: 4
GridSize: 4
TimelineZoom: 2.5

[Metadata]
Title:Shiroi Yuki No Princess Wa
TitleUnicode:白い雪のプリンセスは
Artist:Hatsune Miku vs. Mitani Nana
ArtistUnicode:初音ミク vs. 実谷なな
Creator:Hokichi
Version:MARE's Insane
Source:初音ミク Project DIVA Arcade Future Tone
Tags:yamicchi yami lanturn chocola [-chocola-] bara zerss hikan cassu cassu2 the snow white princess is SOUND VOLTEX II -infinite infection- 初音ミク Project DIVA Future Tone DX BeatStream jubeat prop
BeatmapID:1646684
BeatmapSetID:547883

[Difficulty]
HPDrainRate:7
CircleSize:4
OverallDifficulty:7
ApproachRate:9.2
SliderMultiplier:1.65
SliderTickRate:1

[Events]
//Background and Video events
0,0,"cute-hatsune-miku-wallpaper-wallpaper-3.jpg",0,0
//Break Periods
2,121851,138081
//Storyboard Layer 0 (Background)
//Storyboard Layer 1 (Fail)
//Storyboard Layer 2 (Pass)
//Storyboard Layer 3 (Foreground)
Sprite,Foreground,Centre,"cre\mare.png",124,416 S,0,1701,,0.3 P,0,1701,,A F,0,1701,1851,0,1 F,0,189651,190251,1,0
//Storyboard Sound Samples

[TimingPoints]
651,300,4,2,1,40,1,0
651,-133.333333333333,4,2,1,40,0,0
6501,-100,4,2,1,75,0,0
18651,-125,4,2,1,75,0,0
19701,-100,4,2,1,75,0,0
20976,-100,4,2,1,5,0,0
21051,-100,4,2,1,75,0,0
25101,-76.9230769230769,4,2,1,75,0,0
25251,-100,4,2,1,75,0,0
25326,-100,4,2,1,5,0,0
25401,-100,4,2,1,75,0,0
25626,-100,4,2,1,5,0,0
25701,-100,4,2,1,75,0,0
34701,-62.5,4,2,1,75,0,0
34851,-100,4,2,1,75,0,0
34926,-100,4,2,1,5,0,0
35001,-100,4,2,1,75,0,0
35226,-100,4,2,1,5,0,0
35301,-100,4,2,1,75,0,0
42651,-111.111111111111,4,2,1,75,0,0
51051,-90.9090909090908,4,2,1,75,0,0
51276,-90.9090909090908,4,2,1,5,0,0
51351,-111.111111111111,4,2,1,75,0,0
51576,-111.111111111111,4,2,1,5,0,0
51651,-142.857142857143,4,2,1,75,0,0
51876,-142.857142857143,4,2,1,5,0,0
51951,-200,4,2,1,75,0,0
52176,-200,4,2,1,5,0,0
52251,-111.111111111111,4,2,1,75,0,0
58551,-111.111111111111,4,3,1,75,0,0
59451,-125,4,3,1,75,0,0
60651,-200,4,2,1,60,0,0
61851,-83.3333333333333,4,2,1,60,0,1
66651,-100,4,2,1,60,0,1
71451,-83.3333333333333,4,2,1,60,0,1
76251,-100,4,2,1,60,0,1
80901,-100,4,2,1,60,0,0
89751,-125,4,2,1,60,0,0
90501,-100,4,2,1,60,0,0
101451,-200,4,2,1,60,0,0
102651,-166.666666666667,4,3,1,60,0,0
110751,-142.857142857143,4,3,1,60,0,0
110901,-76.9230769230769,4,3,1,5,0,0
111051,-90.9090909090909,4,3,1,75,0,0
111201,-90.9090909090909,4,3,1,5,0,0
111351,-111.111111111111,4,3,1,75,0,0
111501,-111.111111111111,4,3,1,5,0,0
111651,-142.857142857143,4,3,1,75,0,0
111801,-142.857142857143,4,3,1,5,0,0
111951,-200,4,3,1,75,0,0
112101,-200,4,3,1,5,0,0
112251,-100,4,2,1,75,0,0
119451,-125,4,2,1,75,0,0
120651,-200,4,2,1,75,0,0
138651,-200,4,3,1,75,0,0
141051,-111.111111111111,4,3,1,75,0,0
141951,-200,4,3,1,75,0,0
142251,-125,4,3,1,75,0,0
143451,-83.3333333333333,4,2,1,75,0,1
148251,-100,4,2,1,75,0,1
152001,-100,4,3,1,60,0,1
153051,-83.3333333333333,4,2,1,75,0,1
155451,-125,4,2,1,75,0,1
157851,-100,4,2,1,75,0,1
162501,-100,4,2,1,75,0,0
184251,-83.3333333333333,4,2,1,75,0,0
185151,-219.78021978022,4,2,1,75,0,0
189576,-219.78021978022,4,2,1,5,0,0

[Colours]
Combo1 : 255,108,182
Combo2 : 192,192,192
Combo3 : 89,172,255

[HitObjects]
112,136,1701,6,0,P|108:86|90:63,1,61.875002360344,2|0,0:0|0:0,0:0:0:0:
92,250,2001,1,0,0:0:0:0:
200,209,2151,2,0,L|345:199,1,123.750004720688,0|0,0:0|0:0,0:0:0:0:
152,102,2601,1,0,0:0:0:0:
152,102,2751,1,0,0:0:0:0:
168,315,2901,6,0,P|163:352|174:383,1,61.875002360344,2|0,0:0|0:0,0:0:0:0:
200,209,3201,1,0,0:0:0:0:
262,340,3351,2,0,L|409:328,1,123.750004720688
474,248,3801,1,0,0:0:0:0:
474,248,3951,1,0,0:0:0:0:
296,171,4101,6,0,L|357:179,1,61.875002360344,2|0,0:0|0:0,0:0:0:0:
343,16,4401,1,0,0:0:0:0:
216,110,4551,2,0,P|193:166|219:236,1,123.750004720688
296,348,5001,2,0,P|305:318|304:288,1,61.875002360344,0|0,0:0|0:0,0:0:0:0:
108,324,5301,6,0,P|167:336|221:308,1,123.750004720688,2|0,0:0|0:0,0:0:0:0:
384,158,5751,2,0,P|324:146|271:174,1,123.750004720688
400,328,6201,1,0,0:0:0:0:
400,328,6351,1,0,0:0:0:0:
283,189,6501,6,0,L|292:102,1,82.5,4|0,0:0|0:0,0:0:0:0:
233,327,6801,1,0,0:0:0:0:
171,148,6951,2,0,P|93:126|20:161,1,165,8|0,0:0|0:0,0:0:0:0:
194,30,7401,1,0,0:0:0:0:
194,30,7551,1,8,0:0:0:0:
254,258,7701,6,0,P|317:245|346:229,1,82.5,2|0,0:0|0:0,0:0:0:0:
151,248,8001,2,0,P|112:232|72:227,1,82.5,0|8,0:0|0:0,0:0:0:0:
262,141,8301,1,0,0:0:0:0:
262,141,8451,1,0,0:0:0:0:
239,371,8601,1,0,0:0:0:0:
239,371,8751,1,8,0:0:0:0:
72,227,8901,5,2,0:0:0:0:
236,365,9051,2,0,L|244:276,1,82.5,0|0,0:0|0:0,0:0:0:0:
150,88,9351,2,0,L|159:253,1,165,8|0,0:0|0:0,0:0:0:0:
42,88,9801,1,0,0:0:0:0:
270,27,9951,1,8,0:0:0:0:
183,290,10101,6,0,L|174:110,1,165,6|0,0:0|0:0,0:0:0:0:
306,304,10551,1,8,0:0:0:0:
336,44,10701,2,0,L|318:238,1,165,4|0,0:0|0:0,0:0:0:0:
223,47,11151,1,8,0:0:0:0:
435,171,11301,6,0,P|472:181|417:188,1,165,6|0,0:0|0:0,0:0:0:0:
194,106,11751,2,0,P|247:88|284:96,1,82.5,8|0,0:0|0:0,0:0:0:0:
86,25,12051,1,0,0:0:0:0:
124,214,12201,1,0,0:0:0:0:
272,91,12351,1,8,0:0:0:0:
47,134,12501,6,0,P|13:208|38:285,1,165,2|0,0:0|0:0,0:0:0:0:
226,251,12951,2,0,P|235:198|219:159,1,82.5,8|0,0:0|0:0,0:0:0:0:
160,374,13251,1,0,0:0:0:0:
160,374,13401,1,0,0:0:0:0:
38,285,13551,1,8,0:0:0:0:
226,251,13701,6,0,B|277:236|277:236|401:253,1,165,4|0,0:0|0:0,0:0:0:0:
135,278,14151,2,0,P|131:227|152:192,1,82.5,8|0,0:0|0:0,0:0:0:0:
61,353,14451,1,0,0:0:0:0:
226,251,14601,1,0,0:0:0:0:
56,160,14751,1,8,0:0:0:0:
320,290,14901,6,0,P|204:328|199:391,1,165,6|0,0:0|0:0,0:0:0:0:
327,132,15351,1,8,0:0:0:0:
180,191,15501,2,0,L|198:382,1,165,4|0,0:0|0:0,0:0:0:0:
233,109,15951,1,8,3:0:0:0:
387,55,16101,6,0,P|420:119|382:213,1,165,6|0,0:0|0:0,0:0:0:0:
262,317,16551,2,0,L|266:234,1,82.5,8|0,0:0|0:0,0:0:0:0:
129,16,16851,1,0,0:0:0:0:
134,133,17001,2,0,L|130:50,1,82.5,0|0,0:0|0:0,0:0:0:0:
44,245,17301,1,0,0:0:0:0:
44,245,17376,1,0,0:0:0:0:
44,245,17451,5,0,3:2:0:0:
274,131,17601,1,0,3:2:0:0:
274,131,17676,1,0,0:0:0:0:
274,131,17751,1,8,3:2:0:0:
169,333,17901,5,0,3:2:0:0:
134,133,18051,1,0,3:2:0:0:
249,271,18201,5,0,0:0:0:0:
229,175,18351,1,8,3:2:0:0:
327,208,18501,1,0,0:0:0:0:
327,208,18651,6,0,L|324:273,1,66,4|4,0:0|0:0,0:0:0:0:
252,343,18951,1,0,0:0:0:0:
252,343,19251,1,0,0:0:0:0:
252,343,19551,1,0,0:0:0:0:
252,343,19701,6,0,P|329:321|409:354,1,165,4|0,0:0|0:0,0:0:0:0:
386,178,20151,2,0,L|395:261,1,82.5,0|0,3:2|3:2,0:0:0:0:
484,54,20451,2,0,L|473:141,1,82.5,0|0,3:2|3:2,0:0:0:0:
280,210,20751,2,0,L|297:76,1,123.75,4|0,0:0|0:0,0:0:0:0:
304,60,21051,6,0,P|266:68|198:46,1,82.5,6|0,0:0|0:0,0:0:0:0:
75,170,21351,2,0,P|115:162|156:170,1,82.5,8|0,0:0|0:0,0:0:0:0:
71,78,21651,1,0,0:0:0:0:
71,78,21801,1,0,0:0:0:0:
119,264,21951,1,8,0:0:0:0:
119,264,22101,1,0,0:0:0:0:
182,149,22251,6,0,L|290:142,1,82.5,0|0,0:0|0:0,0:0:0:0:
71,78,22551,1,8,0:0:0:0:
191,311,22701,2,0,B|202:271|202:271|182:149,1,165,0|0,0:0|0:0,0:0:0:0:
119,264,23151,1,8,0:0:0:0:
273,181,23301,6,0,P|338:172|426:249,1,165,2|0,0:0|0:0,0:0:0:0:
232,356,23751,2,0,L|223:275,1,82.5,8|0,0:0|0:0,0:0:0:0:
337,382,24051,1,0,0:0:0:0:
337,382,24201,1,0,0:0:0:0:
138,337,24351,2,0,L|56:350,1,82.5,8|0,0:0|0:0,0:0:0:0:
267,198,24651,6,0,P|354:199|416:136,1,165,2|8,0:0|0:0,0:0:0:0:
171,2,25101,6,0,B|184:37|184:37|159:113,1,107.249995090485,8|0,0:0|0:0,0:0:0:0:
163,104,25401,6,0,L|50:98,1,82.5,8|0,0:0|0:0,0:0:0:0:
254,184,25701,6,0,P|289:93|244:24,1,165,2|0,0:0|0:0,0:0:0:0:
137,193,26151,2,0,L|147:306,1,82.5,8|0,0:0|0:0,0:0:0:0:
132,150,26451,1,0,0:0:0:0:
116,352,26601,2,0,P|154:337|227:352,1,82.5,0|8,0:0|0:0,0:0:0:0:
423,285,26901,6,0,P|341:289|266:256,1,165,2|0,0:0|0:0,0:0:0:0:
250,64,27351,2,0,L|241:154,1,82.5,8|0,0:0|0:0,0:0:0:0:
266,256,27651,2,0,L|277:338,1,82.5
379,143,27951,1,8,0:0:0:0:
98,185,28101,6,0,P|178:194|242:145,1,165,2|0,0:0|0:0,0:0:0:0:
146,67,28551,1,8,0:0:0:0:
146,67,28701,1,0,0:0:0:0:
109,266,28851,2,0,L|93:151,1,82.5,0|0,0:0|0:0,0:0:0:0:
21,12,29151,2,0,L|9:93,1,82.5,8|0,0:0|0:0,0:0:0:0:
50,360,29451,6,0,P|119:311|214:341,1,165,2|8,0:0|0:0,0:0:0:0:
170,172,29901,2,0,P|101:221|6:191,1,165,0|0,0:0|0:0,0:0:0:0:
165,34,30351,1,8,0:0:0:0:
165,34,30501,1,0,0:0:0:0:
266,99,30651,6,0,P|308:99|354:71,1,82.5,6|0,0:0|0:0,0:0:0:0:
170,172,30951,2,0,P|128:172|82:200,1,82.5,8|0,0:0|0:0,0:0:0:0:
253,331,31251,2,0,B|279:343|279:343|270:207,1,165,0|8,0:0|0:0,0:0:0:0:
140,288,31701,1,0,0:0:0:0:
335,325,31851,6,0,L|225:332,1,82.5,2|0,0:0|0:0,0:0:0:0:
381,219,32151,2,0,L|491:226,1,82.5,8|0,0:0|0:0,0:0:0:0:
291,142,32451,1,0,0:0:0:0:
335,325,32601,1,0,0:0:0:0:
427,108,32751,1,8,0:0:0:0:
237,255,32901,6,0,B|179:274|179:274|61:256,1,165,2|0,0:0|0:0,0:0:0:0:
209,136,33351,2,0,L|304:143,1,82.5,8|0,0:0|0:0,0:0:0:0:
116,48,33651,1,0,0:0:0:0:
116,48,33801,1,0,0:0:0:0:
165,249,33951,1,8,0:0:0:0:
165,249,34101,1,0,0:0:0:0:
280,106,34251,5,2,0:0:0:0:
49,223,34401,1,0,0:0:0:0:
287,280,34551,1,8,0:0:0:0:
69,344,34701,6,0,B|43:315|43:315|51:186,1,132,8|0,0:0|0:0,0:0:0:0:
48,222,35001,6,0,B|60:200|60:200|43:134,1,82.5,8|0,0:0|0:0,0:0:0:0:
205,95,35301,6,0,P|279:86|351:137,1,165,2|0,0:0|0:0,0:0:0:0:
315,6,35751,1,8,0:0:0:0:
315,6,35901,1,0,0:0:0:0:
256,195,36051,2,0,L|261:281,1,82.5,0|0,0:0|0:0,0:0:0:0:
261,179,36351,1,8,0:0:0:0:
52,72,36501,6,0,P|149:44|225:80,1,165,2|0,0:0|0:0,0:0:0:0:
340,177,36951,2,0,P|303:187|237:164,1,82.5,8|0,0:0|0:0,0:0:0:0:
467,168,37251,1,0,0:0:0:0:
467,168,37401,1,0,0:0:0:0:
329,282,37551,1,8,0:0:0:0:
295,76,37701,1,0,0:0:0:0:
195,219,37851,6,0,B|174:269|174:269|201:395,1,165,6|8,0:0|0:0,0:0:0:0:
300,190,38301,1,2,0:0:0:0:
156,81,38451,2,0,L|43:55,1,82.5,0|0,0:0|0:0,0:0:0:0:
73,246,38751,2,0,L|186:220,1,82.5,8|0,0:0|0:0,0:0:0:0:
0,160,39051,5,2,0:0:0:0:
0,160,39201,1,0,0:0:0:0:
136,350,39351,1,8,0:0:0:0:
136,350,39501,1,2,0:0:0:0:
169,118,39651,2,0,L|178:16,1,82.5,0|0,0:0|0:0,0:0:0:0:
262,245,39951,2,0,L|269:327,1,82.5,8|0,0:0|0:0,0:0:0:0:
320,90,40251,6,0,P|249:129|168:117,1,165,2|8,0:0|0:0,0:0:0:0:
229,21,40701,1,2,0:0:0:0:
352,199,40851,2,0,L|371:280,1,82.5,0|0,0:0|0:0,0:0:0:0:
441,116,41151,2,0,L|460:35,1,82.5,8|0,0:0|0:0,0:0:0:0:
511,206,41451,6,0,B|431:223|431:223|352:199,1,165,2|10,0:0|0:0,0:0:0:0:
336,75,41901,1,0,0:0:0:0:
257,250,42051,2,0,L|242:139,1,82.5,2|0,0:0|0:0,0:0:0:0:
161,33,42351,2,0,L|149:114,1,82.5,10|0,0:0|0:0,0:0:0:0:
88,248,42651,6,0,P|152:216|238:242,1,148.49999546814,6|8,0:0|0:0,0:0:0:0:
43,137,43101,1,2,0:0:0:0:
154,379,43251,2,0,L|166:305,1,74.2499977340699,0|0,0:0|0:0,0:0:0:0:
198,116,43551,1,10,0:0:0:0:
198,116,43701,1,0,0:0:0:0:
363,235,43851,6,0,P|292:255|223:231,1,148.49999546814,2|8,0:0|0:0,0:0:0:0:
301,43,44301,1,2,0:0:0:0:
295,157,44451,2,0,L|298:82,1,74.2499977340699,0|0,0:0|0:0,0:0:0:0:
223,231,44751,2,0,L|226:305,1,74.2499977340699,10|0,0:0|0:0,0:0:0:0:
433,162,45051,6,0,P|365:136|295:157,1,148.49999546814,2|8,0:0|0:0,0:0:0:0:
431,61,45501,1,2,0:0:0:0:
369,298,45651,2,0,L|362:225,1,74.2499977340699,0|0,0:0|0:0,0:0:0:0:
241,23,45951,2,0,L|233:96,1,74.2499977340699,10|0,0:0|0:0,0:0:0:0:
198,293,46251,6,0,P|261:262|350:284,1,148.49999546814,2|8,0:0|0:0,0:0:0:0:
146,183,46701,2,0,P|106:183|54:154,1,74.2499977340699,0|0,0:0|0:0,0:0:0:0:
271,224,47001,2,0,P|311:224|363:253,1,74.2499977340699,0|10,0:0|0:0,0:0:0:0:
249,91,47301,1,0,0:0:0:0:
139,327,47451,6,0,B|125:289|125:289|150:158,1,148.49999546814,6|8,0:0|0:0,0:0:0:0:
222,282,47901,1,2,0:0:0:0:
60,165,48051,1,0,0:0:0:0:
60,165,48201,1,0,0:0:0:0:
13,379,48351,1,10,0:0:0:0:
13,379,48501,1,0,0:0:0:0:
146,132,48651,6,0,B|146:170|146:170|131:233|131:233|131:278,1,148.49999546814,2|8,0:0|0:0,0:0:0:0:
131,278,49101,1,2,0:0:0:0:
45,149,49251,2,0,L|37:57,1,74.2499977340699,0|0,0:0|0:0,0:0:0:0:
233,261,49551,2,0,L|226:334,1,74.2499977340699,10|0,0:0|0:0,0:0:0:0:
305,137,49851,6,0,P|216:157|138:121,1,148.49999546814,2|8,0:0|0:0,0:0:0:0:
278,32,50301,2,0,P|324:29|410:121,1,148.49999546814,2|0,0:0|0:0,0:0:0:0:
302,211,50751,2,0,L|306:111,1,74.2499977340699,10|0,0:0|0:0,0:0:0:0:
414,292,51051,6,0,P|337:305|266:336,1,136.125004154205,10|0,0:0|0:0,0:0:0:0:
105,253,51351,6,0,P|190:253|220:260,1,111.374996601105,10|0,0:0|0:0,0:0:0:0:
364,172,51651,6,0,P|332:174|261:205,1,86.6249973564149,10|0,0:0|0:0,0:0:0:0:
152,121,51951,6,0,P|194:120|224:127,1,61.875,10|0,0:0|0:0,0:0:0:0:
206,143,52251,6,0,P|194:68|236:0,1,148.49999546814,6|8,0:0|0:0,0:0:0:0:
149,251,52701,1,2,0:0:0:0:
95,59,52851,2,0,L|13:46,1,74.2499977340699,0|0,0:0|0:0,0:0:0:0:
200,161,53151,2,0,L|282:148,1,74.2499977340699,10|0,0:0|0:0,0:0:0:0:
136,233,53451,6,0,P|105:163|141:81,1,148.49999546814,2|8,0:0|0:0,0:0:0:0:
59,314,53901,1,2,0:0:0:0:
289,184,54051,2,0,P|231:163|197:162,1,74.2499977340699,0|0,0:0|0:0,0:0:0:0:
76,65,54351,2,0,P|112:58|146:42,1,74.2499977340699,10|0,0:0|0:0,0:0:0:0:
381,30,54651,6,0,P|308:26|247:66,1,148.49999546814,2|8,0:0|0:0,0:0:0:0:
415,126,55101,1,2,0:0:0:0:
254,277,55251,2,0,P|327:265|386:289,1,111.374996601105,0|0,0:0|0:0,0:0:0:0:
352,289,55551,2,0,P|343:246|356:203,1,74.2499977340699,8|0,0:0|0:0,0:0:0:0:
242,25,55851,6,0,L|260:178,1,148.49999546814,2|8,0:0|0:0,0:0:0:0:
346,31,56301,1,2,0:0:0:0:
143,97,56451,2,0,L|59:71,1,74.2499977340699,0|0,0:0|0:0,0:0:0:0:
259,172,56751,2,0,L|344:162,1,83.5312474508286,8|0,0:0|0:0,0:0:0:0:
136,240,57051,6,0,B|121:291|121:291|150:395,1,148.49999546814,4|8,0:0|0:0,0:0:0:0:
156,115,57501,1,0,0:0:0:0:
291,209,57651,2,0,L|388:198,1,74.2499977340699
244,311,57951,1,8,0:0:0:0:
244,311,58101,1,0,0:0:0:0:
418,280,58251,6,0,P|448:204|412:131,1,148.49999546814,0|0,0:0|0:2,0:0:0:0:
298,74,58701,1,0,0:2:0:0:
291,209,58851,1,0,0:2:0:0:
425,144,59001,1,0,0:2:0:0:
288,52,59151,1,0,0:2:0:0:
279,230,59301,1,0,0:2:0:0:
122,135,59451,6,0,L|269:129,1,132,4|0,0:2|0:0,0:0:0:0:
436,117,59901,1,0,0:0:0:0:
158,218,60051,1,0,0:2:0:0:
158,218,60351,1,0,0:0:0:0:
397,216,60501,1,0,0:0:0:0:
397,216,60651,6,0,B|346:197|282:227|282:227|223:252|151:214,1,247.5
343,383,61851,6,0,P|360:337|351:290,1,98.9999969787599,4|0,0:0|0:0,0:0:0:0:
150,123,62151,2,0,P|140:170|157:216,1,98.9999969787599,8|0,0:0|0:0,0:0:0:0:
360,76,62451,1,0,0:0:0:0:
360,76,62601,1,0,0:0:0:0:
350,289,62751,2,0,L|479:283,1,98.9999969787599,8|0,0:0|0:0,0:0:0:0:
194,227,63051,6,0,P|167:185|182:94,1,98.9999969787599,0|0,0:0|0:0,0:0:0:0:
333,276,63351,2,0,P|329:324|302:365,1,98.9999969787599,8|0,0:0|0:0,0:0:0:0:
301,137,63651,1,0,0:0:0:0:
301,137,63801,1,0,0:0:0:0:
194,227,63951,1,8,0:0:0:0:
194,227,64101,1,0,0:0:0:0:
197,39,64251,6,0,P|143:26|92:-12,1,98.9999969787599,0|0,0:0|0:0,0:0:0:0:
301,137,64551,1,8,0:0:0:0:
301,137,64701,1,0,0:0:0:0:
132,293,64851,2,0,P|105:211|116:183,1,98.9999969787599,0|0,0:0|0:0,0:0:0:0:
252,162,65151,2,0,P|279:244|268:272,1,98.9999969787599,8|0,0:0|0:0,0:0:0:0:
190,32,65451,6,0,P|266:80|394:42,1,197.99999395752,4|8,0:0|0:0,0:0:0:0:
496,3,65901,1,0,0:0:0:0:
476,207,66051,2,0,L|484:109,1,98.9999969787599,4|0,0:0|0:0,0:0:0:0:
389,286,66351,2,0,L|366:189,1,98.9999969787599,12|0,0:0|0:0,0:0:0:0:
291,341,66651,6,0,P|230:331|140:388,1,165,4|8,0:0|0:0,0:0:0:0:
213,230,67101,1,0,0:0:0:0:
66,154,67251,2,0,L|91:251,1,82.5,0|0,0:0|0:0,0:0:0:0:
191,91,67551,1,8,0:0:0:0:
291,341,67701,6,0,B|210:362|210:362|118:338,1,165,0|0,0:0|0:0,0:0:0:0:
300,198,68151,1,8,0:0:0:0:
300,198,68301,1,0,0:0:0:0:
138,111,68451,2,0,L|152:211,1,82.5,0|0,0:0|0:0,0:0:0:0:
55,37,68751,1,8,0:0:0:0:
55,37,68901,1,0,0:0:0:0:
252,125,69051,5,4,0:0:0:0:
252,125,69201,1,0,0:0:0:0:
55,156,69351,1,8,0:0:0:0:
173,4,69501,1,4,0:0:0:0:
142,300,69801,5,4,0:0:0:0:
181,292,69876,1,0,0:0:0:0:
220,306,69951,1,0,0:0:0:0:
245,338,70026,1,0,0:0:0:0:
253,378,70101,6,0,P|231:303|270:216,1,165,4|0,0:0|3:0,0:0:0:0:
367,305,70551,1,8,3:2:0:0:
429,114,70701,1,0,3:2:0:0:
429,114,70776,1,0,3:2:0:0:
429,114,70851,1,0,3:2:0:0:
218,36,71001,5,0,3:2:0:0:
218,36,71076,1,0,3:2:0:0:
218,36,71151,1,8,3:2:0:0:
261,224,71301,1,0,3:2:0:0:
261,224,71376,1,0,3:2:0:0:
261,224,71451,6,0,P|171:197|82:268,1,197.99999395752,4|8,0:0|0:0,0:0:0:0:
176,110,71901,1,0,0:0:0:0:
183,383,72051,2,0,L|183:284,1,98.9999969787599,0|0,0:0|0:0,0:0:0:0:
55,22,72351,2,0,L|55:121,1,98.9999969787599,8|0,0:0|0:0,0:0:0:0:
279,194,72651,6,0,P|165:238|75:185,1,197.99999395752,0|8,0:0|0:0,0:0:0:0:
211,329,73101,1,0,0:0:0:0:
170,33,73251,2,0,L|183:132,1,98.9999969787599
88,309,73551,2,0,L|100:210,1,98.9999969787599,8|0,0:0|0:0,0:0:0:0:
246,359,73851,5,4,0:0:0:0:
246,359,74001,1,0,0:0:0:0:
347,122,74151,1,8,0:0:0:0:
429,305,74301,1,0,0:0:0:0:
429,305,74376,1,0,0:0:0:0:
429,305,74451,2,0,L|330:292,1,98.9999969787599,0|0,0:0|0:0,0:0:0:0:
466,186,74751,1,8,0:0:0:0:
246,359,74901,6,0,P|275:277|182:290,1,197.99999395752,4|0,0:0|0:0,0:0:0:0:
368,184,75351,2,0,P|431:179|478:146,1,98.9999969787599,8|0,0:0|0:0,0:0:0:0:
391,78,75651,1,0,0:0:0:0:
368,184,75801,1,0,3:2:0:0:
267,67,75951,1,8,3:2:0:0:
272,220,76101,1,0,3:2:0:0:
272,220,76176,1,0,3:2:0:0:
272,220,76251,6,0,P|197:184|110:232,1,165,4|8,3:2|0:0,0:0:0:0:
257,101,76701,1,0,0:0:0:0:
207,358,76851,2,0,L|195:276,1,82.5,0|0,0:0|0:0,0:0:0:0:
117,99,77151,2,0,L|105:180,1,82.5,8|0,0:0|0:0,0:0:0:0:
396,153,77451,6,0,P|307:151|252:90,1,165,0|8,0:0|0:0,0:0:0:0:
476,54,77901,1,0,0:0:0:0:
412,272,78051,2,0,L|423:365,1,82.5,0|0,0:0|0:0,0:0:0:0:
256,100,78351,2,0,L|246:181,1,82.5,8|0,0:0|0:0,0:0:0:0:
271,350,78651,6,0,P|349:323|421:353,1,165,4|0,0:0|0:0,0:0:0:0:
151,283,79101,2,0,P|73:310|1:280,1,165,12|0,0:0|0:0,0:0:0:0:
221,142,79551,1,4,0:0:0:0:
72,90,79701,1,0,0:0:0:0:
72,90,79776,1,0,0:0:0:0:
72,90,79851,6,0,L|77:186,1,82.5,4|0,0:0|0:0,0:0:0:0:
205,357,80151,2,0,L|209:274,1,82.5,8|0,0:0|0:0,0:0:0:0:
305,366,80451,1,0,0:0:0:0:
102,316,80601,1,0,0:0:0:0:
272,199,80751,1,8,0:0:0:0:
136,218,80901,6,0,B|117:168|117:168|146:38,1,165,4|0,0:0|0:0,0:0:0:0:
272,199,81351,2,0,L|265:311,1,82.5,8|0,0:0|0:0,0:0:0:0:
391,183,81651,1,0,0:0:0:0:
391,183,81801,1,0,0:0:0:0:
233,91,81951,1,8,0:0:0:0:
192,341,82101,6,0,P|276:314|372:362,1,165,0|0,0:0|0:0,0:0:0:0:
129,223,82551,1,8,0:0:0:0:
129,223,82701,1,0,0:0:0:0:
241,79,82851,2,0,L|235:169,1,82.5,0|0,0:0|0:0,0:0:0:0:
107,80,83151,1,8,0:0:0:0:
227,274,83301,6,0,B|285:251|285:251|399:273,1,165,0|0,0:0|0:0,0:0:0:0:
251,361,83751,2,0,L|154:353,1,82.5,8|0,0:0|0:0,0:0:0:0:
317,171,84051,2,0,L|407:189,1,82.5,0|0,0:0|0:0,0:0:0:0:
253,96,84351,1,8,0:0:0:0:
253,96,84501,1,0,0:0:0:0:
334,346,84651,6,0,P|344:291|336:250,1,82.5,0|0,0:0|0:0,0:0:0:0:
187,169,84951,2,0,L|205:289,1,82.5,8|0,0:0|0:0,0:0:0:0:
235,44,85251,1,0,0:0:0:0:
235,43,85401,1,0,0:0:0:0:
80,122,85551,1,8,0:0:0:0:
219,296,85701,6,0,L|226:105,1,165,4|0,0:0|0:0,0:0:0:0:
110,283,86151,2,0,L|131:386,1,82.5,8|0,0:0|0:0,0:0:0:0:
266,191,86451,2,0,L|282:110,1,82.5,0|0,0:0|0:0,0:0:0:0:
266,348,86751,1,8,0:0:0:0:
37,281,86901,6,0,P|114:283|156:199,1,165,0|0,0:0|0:0,0:0:0:0:
58,171,87351,1,8,0:0:0:0:
58,171,87501,1,0,0:0:0:0:
164,356,87651,2,0,L|254:347,1,82.5,0|0,0:0|0:0,0:0:0:0:
46,368,87951,1,8,0:0:0:0:
198,242,88101,6,0,P|227:164|179:76,1,165,4|0,0:0|0:0,0:0:0:0:
57,120,88551,2,0,P|48:172|61:211,1,82.5,8|0,0:0|0:0,0:0:0:0:
110,16,88851,1,0,0:0:0:0:
110,16,89001,1,0,0:0:0:0:
119,262,89151,1,8,0:0:0:0:
265,230,89301,6,0,P|185:216|118:261,1,165,4|0,0:0|0:0,0:0:0:0:
279,117,89751,1,0,3:2:0:0:
279,117,89901,1,0,3:2:0:0:
219,333,90051,1,0,3:2:0:0:
219,333,90201,1,0,3:2:0:0:
144,135,90351,1,0,3:2:0:0:
332,245,90501,6,0,L|497:232,1,165,4|0,0:0|0:0,0:0:0:0:
365,340,90951,2,0,L|270:334,1,82.5,8|0,0:0|0:0,0:0:0:0:
374,152,91251,2,0,L|468:144,1,82.5,0|0,0:0|0:0,0:0:0:0:
337,53,91551,1,8,0:0:0:0:
297,228,91701,6,0,P|233:234|176:319,1,165,0|0,0:0|0:0,0:0:0:0:
233,120,92151,2,0,P|240:74|208:9,1,82.5,8|0,0:0|0:0,0:0:0:0:
127,227,92451,1,0,0:0:0:0:
55,97,92601,2,0,P|96:97|134:81,1,82.5,0|8,0:0|0:0,0:0:0:0:
390,209,92901,6,0,P|310:195|236:228,1,165,0|0,0:0|0:0,0:0:0:0:
144,373,93351,2,0,P|212:364|245:332,1,82.5,8|0,0:0|0:0,0:0:0:0:
99,242,93651,1,0,0:0:0:0:
99,242,93801,1,0,0:0:0:0:
208,113,93951,2,0,L|116:108,1,82.5,8|0,0:0|0:0,0:0:0:0:
187,25,94251,6,0,L|244:15,3,41.25,0|0|0|0,0:0|0:0|0:0|0:0,0:0:0:0:
248,120,94551,2,0,L|191:110,3,41.25,8|0|0|0,0:0|0:0|0:0|0:0,0:0:0:0:
336,98,94851,6,0,P|337:147|300:194,1,82.5,0|0,0:0|0:0,0:0:0:0:
435,26,95151,1,8,0:0:0:0:
476,164,95301,2,0,P|396:146|320:175,1,165,4|0,0:0|0:0,0:0:0:0:
412,324,95751,2,0,P|416:283|403:245,1,82.5,8|0,0:0|0:0,0:0:0:0:
230,128,96051,2,0,P|216:166|220:207,1,82.5,0|0,0:0|0:0,0:0:0:0:
282,31,96351,1,8,0:0:0:0:
123,102,96501,6,0,P|58:104|102:36,1,165,4|0,0:0|0:0,0:0:0:0:
58,214,96951,2,0,L|42:321,1,82.5,8|0,0:0|0:0,0:0:0:0:
226,172,97251,2,0,L|213:90,1,82.5,0|0,0:0|0:0,0:0:0:0:
169,268,97551,1,8,0:0:0:0:
169,268,97701,1,0,0:0:0:0:
317,227,97851,6,0,P|383:215|431:235,1,82.5,4|0,0:0|0:0,0:0:0:0:
270,339,98151,2,0,P|204:327|156:347,1,82.5,8|0,0:0|0:0,0:0:0:0:
377,326,98451,1,0,0:0:0:0:
377,326,98601,1,0,0:0:0:0:
300,136,98751,2,0,P|292:90|310:42,1,82.5,8|0,0:0|0:0,0:0:0:0:
404,173,99051,6,0,L|393:353,1,165,0|8,0:0|0:0,0:0:0:0:
309,161,99501,1,0,0:0:0:0:
496,258,99651,1,0,0:0:0:0:
496,258,99801,1,0,0:0:0:0:
298,340,99951,2,0,L|196:332,1,82.5,8|0,0:0|0:0,0:0:0:0:
353,199,100251,6,0,L|439:194,1,82.5,0|0,0:0|0:0,0:0:0:0:
229,114,100551,1,8,0:0:0:0:
229,114,100701,1,0,0:0:0:0:
257,336,100851,2,0,P|278:268|271:230,1,82.5,8|0,0:0|0:0,0:0:0:0:
127,92,101151,2,0,P|130:132|147:170,1,82.5,8|0,0:0|0:0,0:0:0:0:
256,23,101451,6,0,B|229:68|167:65|167:65|153:72|153:72|112:63|83:104|83:104|134:89,1,247.5,4|0,0:0|0:0,0:0:0:0:
256,159,102651,6,0,P|281:90|255:22,1,148.49999546814,4|0,3:2|0:0,0:0:0:0:
228,260,103251,2,0,L|237:317,1,49.4999984893799,2|0,3:2|0:0,0:0:0:0:
128,215,103551,1,0,3:2:0:0:
128,215,103701,1,0,0:0:0:0:
192,365,103851,6,0,P|238:350|303:371,2,98.9999969787599,0|0|2,3:2|3:2|3:2,0:0:0:0:
243,263,104751,1,0,3:2:0:0:
243,263,104901,1,0,0:0:0:0:
175,200,105051,6,0,P|171:170|179:130,1,49.4999984893799,0|0,3:2|0:0,0:0:0:0:
240,93,105351,2,0,P|243:68|242:43,1,49.4999984893799,0|0,3:2|0:0,0:0:0:0:
305,162,105651,1,2,3:2:0:0:
305,162,105801,1,0,0:0:0:0:
369,99,105951,2,0,L|436:93,1,49.4999984893799,0|0,3:2|0:0,0:0:0:0:
318,256,106251,6,0,P|299:189|310:148,1,98.9999969787599,0|0,3:2|3:2,0:0:0:0:
391,324,106701,1,0,0:0:0:0:
305,365,106851,2,0,L|245:362,1,49.4999984893799,2|0,3:2|0:0,0:0:0:0:
131,317,107151,2,0,L|181:313,1,49.4999984893799,0|0,3:2|0:0,0:0:0:0:
56,377,107451,6,0,P|58:317|22:271,1,98.9999969787599,4|0,3:2|3:2,0:0:0:0:
95,207,107901,1,0,0:0:0:0:
26,140,108051,2,0,L|17:90,1,49.4999984893799,2|0,3:2|0:0,0:0:0:0:
114,12,108351,2,0,L|104:74,1,49.4999984893799,0|0,3:2|0:0,0:0:0:0:
212,177,108651,6,0,P|163:176|121:153,1,98.9999969787599,0|0,3:2|3:2,0:0:0:0:
188,93,109101,1,0,0:0:0:0:
173,264,109251,2,0,L|166:321,1,49.4999984893799,2|0,3:2|0:0,0:0:0:0:
86,240,109551,2,0,L|80:191,1,49.4999984893799,0|0,3:2|0:0,0:0:0:0:
131,374,109851,6,0,P|172:356|246:369,1,98.9999969787599,0|0,3:2|3:2,0:0:0:0:
299,302,110301,1,0,0:0:0:0:
240,173,110451,2,0,P|240:197|246:222,1,49.4999984893799,8|0,3:2|0:0,0:0:0:0:
302,99,110751,6,0,P|311:56|302:14,1,86.6249973564149
154,66,111051,6,0,P|134:130|150:195,1,136.125004154205,8|0,0:0|0:0,0:0:0:0:
205,340,111351,6,0,P|154:330|90:349,1,111.374996601105,8|0,0:0|0:0,0:0:0:0:
246,222,111651,6,0,P|288:212|331:217,1,86.6249973564149,8|0,0:0|0:0,0:0:0:0:
150,195,111951,6,0,P|132:220|129:251,1,61.875,8|0,0:0|0:0,0:0:0:0:
205,340,112251,6,0,L|383:334,1,165,4|8,0:0|0:0,0:0:0:0:
239,204,112701,1,0,0:0:0:0:
57,289,112851,2,0,P|46:249|55:209,1,82.5
242,125,113151,2,0,P|251:164|240:204,1,82.5,8|0,0:0|0:0,0:0:0:0:
144,88,113451,6,0,P|233:85|283:14,1,165,0|8,0:0|0:0,0:0:0:0:
240,204,113901,1,0,0:0:0:0:
61,137,114051,2,0,L|53:32,1,82.5,0|0,0:0|0:0,0:0:0:0:
117,258,114351,2,0,L|110:340,1,82.5,8|0,0:0|0:0,0:0:0:0:
240,204,114651,6,0,B|316:228|316:228|423:195,1,165,0|8,0:0|0:0,0:0:0:0:
389,308,115101,1,0,0:0:0:0:
408,38,115251,2,0,L|395:230,1,165,0|8,0:0|0:0,0:0:0:0:
301,116,115701,1,0,0:0:0:0:
388,219,115851,6,0,L|485:214,1,82.5
301,116,116151,2,0,L|218:111,1,82.5,8|0,0:0|0:0,0:0:0:0:
402,49,116451,1,0,0:0:0:0:
402,49,116601,1,0,0:0:0:0:
472,208,116751,2,0,L|457:325,1,82.5,8|0,0:0|0:0,0:0:0:0:
320,339,117051,6,0,L|306:156,1,165,4|8,0:0|0:0,0:0:0:0:
232,315,117501,1,0,0:0:0:0:
390,207,117651,2,0,P|431:202|482:211,1,82.5,0|0,0:0|0:0,0:0:0:0:
309,338,117951,2,0,P|267:332|217:304,1,82.5,8|0,0:0|0:0,0:0:0:0:
111,152,118251,6,0,L|101:341,1,165,0|8,0:0|0:0,0:0:0:0:
102,316,118701,1,0,0:0:0:0:
249,170,118851,1,0,3:0:0:0:
249,170,119001,1,0,0:0:0:0:
69,67,119151,1,0,3:0:0:0:
69,67,119301,1,0,0:0:0:0:
77,203,119451,6,0,L|79:350,1,132,4|8,0:0|0:0,0:0:0:0:
159,78,119901,1,0,0:0:0:0:
113,231,120051,6,0,L|115:363,1,132,8|8,3:0|0:0,0:0:0:0:
194,66,120501,1,0,0:0:0:0:
275,313,120651,5,0,0:0:0:0:
423,98,138651,6,0,B|348:67|348:67|258:99,1,165,4|0,0:2|0:0,0:0:0:0:
152,32,139551,1,0,0:0:0:0:
152,32,139851,1,0,0:0:0:0:
78,124,140151,2,0,L|83:172,1,41.25,0|0,0:0|0:0,0:0:0:0:
207,231,140451,2,0,L|211:174,1,41.25,0|0,0:0|0:0,0:0:0:0:
304,99,140751,1,0,0:0:0:0:
304,99,140901,1,0,0:0:0:0:
285,322,141051,6,0,L|211:330,1,74.2499977340699,4|0,0:2|0:0,0:0:0:0:
390,214,141351,1,0,0:0:0:0:
138,202,141501,6,0,L|212:207,1,74.2499977340699,4|0,0:2|0:0,0:0:0:0:
71,103,141801,1,0,0:0:0:0:
426,129,141951,6,0,P|352:57|468:98,1,330,4|0,0:2|0:0,0:0:0:0:
290,145,143451,6,0,P|270:69|274:28,1,98.9999969787599,4|0,0:0|0:0,0:0:0:0:
443,219,143751,2,0,P|441:275|390:330,1,98.9999969787599,8|0,0:0|0:0,0:0:0:0:
398,120,144051,1,0,0:0:0:0:
398,120,144201,1,0,0:0:0:0:
291,244,144351,2,0,L|272:349,1,98.9999969787599,8|0,0:0|0:0,0:0:0:0:
172,168,144651,6,0,L|63:155,1,98.9999969787599
269,70,144951,2,0,L|378:57,1,98.9999969787599,8|0,0:0|0:0,0:0:0:0:
118,35,145251,1,0,0:0:0:0:
118,35,145401,1,0,0:0:0:0:
165,267,145551,2,0,L|173:168,1,98.9999969787599,8|0,0:0|0:0,0:0:0:0:
61,249,145851,5,0,0:0:0:0:
61,249,146001,1,0,0:0:0:0:
265,195,146151,2,0,L|380:189,1,98.9999969787599,8|0,0:0|0:0,0:0:0:0:
126,68,146451,2,0,L|27:62,1,98.9999969787599
255,34,146751,1,8,0:0:0:0:
255,34,146901,1,0,0:0:0:0:
329,225,147051,6,0,P|309:182|324:100,1,98.9999969787599,4|0,0:0|0:0,0:0:0:0:
428,283,147351,2,0,P|429:332|409:376,1,98.9999969787599,8|0,0:0|0:0,0:0:0:0:
484,145,147651,1,4,0:0:0:0:
484,145,147801,1,0,0:0:0:0:
345,312,147951,1,12,0:0:0:0:
345,312,148101,1,0,0:0:0:0:
484,145,148251,6,0,P|488:71|475:27,1,82.5,4|0,0:0|0:0,0:0:0:0:
259,275,148551,2,0,P|255:316|261:356,1,82.5,8|0,0:0|0:0,0:0:0:0:
371,201,148851,2,0,P|384:161|300:62,1,165,0|8,0:0|0:0,0:0:0:0:
259,275,149301,1,0,0:0:0:0:
183,145,149451,6,0,P|102:123|84:123,1,82.5,0|0,0:0|0:0,0:0:0:0:
213,36,149751,2,0,P|294:14|312:14,1,82.5,8|0,0:0|0:0,0:0:0:0:
171,295,150051,2,0,P|149:243|207:127,1,165,0|8,0:0|0:0,0:0:0:0:
256,222,150501,1,0,0:0:0:0:
240,335,150651,6,0,P|201:322|170:294,1,82.5,4|0,0:0|0:0,0:0:0:0:
366,260,150951,1,8,0:0:0:0:
366,260,151101,1,4,0:0:0:0:
105,163,151401,1,0,0:0:0:0:
41,245,151551,1,0,0:0:0:0:
218,262,151701,6,0,B|241:215|241:215|241:74,1,165,4|0,0:0|0:0,0:0:0:0:
92,44,152151,2,0,L|106:140,1,82.5,0|0,0:0|0:0,0:0:0:0:
335,194,152451,1,0,0:0:0:0:
335,194,152526,1,0,0:0:0:0:
335,194,152601,1,0,0:0:0:0:
152,334,152751,1,0,0:0:0:0:
152,334,152826,1,0,0:0:0:0:
152,334,152901,1,0,0:0:0:0:
20,199,153051,6,0,B|106:161|106:161|233:200,1,197.99999395752,4|8,0:0|0:0,0:0:0:0:
102,81,153501,1,0,0:0:0:0:
116,349,153651,2,0,L|111:232,1,98.9999969787599,0|0,0:0|0:0,0:0:0:0:
229,87,153951,2,0,L|224:185,1,98.9999969787599,8|0,0:0|0:0,0:0:0:0:
22,138,154251,6,0,P|78:104|110:69,1,98.9999969787599,0|0,0:0|0:0,0:0:0:0:
190,307,154551,2,0,P|134:273|102:238,1,98.9999969787599,8|0,0:0|0:0,0:0:0:0:
46,367,154851,1,0,0:0:0:0:
46,367,155001,1,0,0:0:0:0:
204,194,155151,1,8,0:0:0:0:
204,194,155301,1,0,0:0:0:0:
22,253,155451,5,4,0:0:0:0:
177,331,155601,1,0,0:0:0:0:
28,267,155751,5,8,0:0:0:0:
217,216,155901,1,0,0:0:0:0:
38,284,156051,5,0,0:0:0:0:
283,304,156201,1,0,0:0:0:0:
47,299,156351,5,8,0:0:0:0:
228,84,156501,2,0,L|216:222,1,132,4|0,0:0|0:0,0:0:0:0:
89,130,156951,2,0,L|77:52,1,66,8|0,0:0|0:0,0:0:0:0:
79,274,157251,1,0,0:0:0:0:
79,274,157401,1,0,0:0:0:0:
216,215,157551,5,8,0:0:0:0:
240,204,157626,1,0,0:0:0:0:
266,202,157701,1,0,3:0:0:0:
292,207,157776,1,0,3:0:0:0:
315,218,157851,6,0,P|390:242|476:202,1,165,4|8,0:0|0:0,0:0:0:0:
386,135,158301,1,0,0:0:0:0:
266,286,158451,2,0,L|262:374,1,82.5,0|0,0:0|0:0,0:0:0:0:
386,135,158751,2,0,L|414:37,1,82.5,8|0,0:0|0:0,0:0:0:0:
409,291,159051,6,0,P|451:304|396:365,1,165,4|8,0:0|0:0,0:0:0:0:
320,205,159501,1,0,0:0:0:0:
233,349,159651,2,0,L|125:338,1,82.5,0|0,0:0|0:0,0:0:0:0:
308,224,159951,2,0,L|415:213,1,82.5,8|0,0:0|0:0,0:0:0:0:
115,155,160251,6,0,P|130:217|128:256,1,82.5,4|0,0:0|0:0,0:0:0:0:
100,48,160551,1,8,0:0:0:0:
239,138,160701,6,0,P|291:125|337:103,1,82.5,4|0,0:0|0:0,0:0:0:0:
127,262,161001,1,0,0:0:0:0:
23,99,161151,2,0,P|12:143|22:227,1,123.75,12|0,0:0|0:0,0:0:0:0:
39,235,161451,6,0,P|48:277|35:337,1,82.5,4|0,0:0|3:2,0:0:0:0:
148,145,161751,2,0,P|143:104|152:64,1,82.5,8|0,3:2|0:0,0:0:0:0:
149,269,162051,1,0,0:0:0:0:
233,110,162201,1,0,0:0:0:0:
52,67,162351,1,8,0:0:0:0:
76,233,162501,6,0,P|145:188|221:234,1,165,4|0,0:0|0:0,0:0:0:0:
410,145,162951,2,0,P|367:141|299:116,1,82.5,8|0,0:0|0:0,0:0:0:0:
176,58,163251,2,0,P|219:54|287:29,1,82.5,0|0,0:0|0:0,0:0:0:0:
245,212,163551,1,8,0:0:0:0:
150,162,163701,6,0,P|87:162|10:243,1,165,0|0,0:0|0:0,0:0:0:0:
117,341,164151,2,0,P|126:301|116:262,1,82.5,8|0,0:0|0:0,0:0:0:0:
151,82,164451,2,0,P|140:121|149:161,1,82.5,0|0,0:0|0:0,0:0:0:0:
8,70,164751,1,8,0:0:0:0:
42,217,164901,6,0,L|238:207,1,165,0|0,0:0|0:0,0:0:0:0:
338,60,165351,1,8,0:0:0:0:
338,60,165501,1,0,0:0:0:0:
297,243,165651,2,0,P|301:202|291:162,1,82.5,0|0,0:0|0:0,0:0:0:0:
222,297,165951,1,8,0:0:0:0:
310,367,166101,6,0,B|367:342|367:342|495:367,1,165,0|0,0:0|0:0,0:0:0:0:
315,258,166551,2,0,L|309:163,1,82.5,8|0,0:0|0:0,0:0:0:0:
310,367,166851,1,0,0:0:0:0:
440,200,167001,1,0,0:0:0:0:
467,361,167151,1,8,0:0:0:0:
315,258,167301,6,0,L|143:244,1,165,4|0,0:0|0:0,0:0:0:0:
197,152,167751,2,0,L|294:148,1,82.5,8|0,0:0|0:0,0:0:0:0:
108,79,168051,1,0,0:0:0:0:
108,79,168201,1,0,0:0:0:0:
150,244,168351,1,8,0:0:0:0:
150,244,168501,6,0,P|54:288|32:355,1,165,0|0,0:0|0:0,0:0:0:0:
230,291,168951,2,0,P|241:241|229:203,1,82.5,8|0,0:0|0:0,0:0:0:0:
82,79,169251,2,0,P|74:119|85:158,1,82.5,0|0,0:0|0:0,0:0:0:0:
170,21,169551,1,8,0:0:0:0:
325,115,169701,6,0,P|246:136|169:109,1,165,0|0,0:0|0:0,0:0:0:0:
239,250,170151,1,8,0:0:0:0:
239,250,170301,1,0,0:0:0:0:
292,37,170451,2,0,P|340:30|390:68,1,82.5
146,103,170751,1,8,0:0:0:0:
319,279,170901,6,0,L|325:90,1,165,4|0,0:0|0:0,0:0:0:0:
232,271,171351,1,8,0:0:0:0:
232,271,171501,1,0,3:0:0:0:
423,206,171651,2,0,P|477:218|507:240,1,82.5,0|0,3:0|0:0,0:0:0:0:
324,114,171951,1,8,0:0:0:0:
232,271,172101,6,0,L|236:72,1,165,4|0,0:0|0:0,0:0:0:0:
127,251,172551,2,0,L|141:341,1,82.5,8|0,0:0|0:0,0:0:0:0:
103,84,172851,1,0,0:0:0:0:
235,106,173001,2,0,L|334:92,1,82.5,0|8,0:0|0:0,0:0:0:0:
359,239,173301,6,0,L|175:218,1,165,0|0,0:0|0:0,0:0:0:0:
438,143,173751,1,8,0:0:0:0:
438,143,173901,1,0,0:0:0:0:
348,329,174051,2,0,P|339:275|367:228,1,82.5,0|0,0:0|0:0,0:0:0:0:
423,377,174351,1,8,0:0:0:0:
257,287,174501,6,0,P|171:271|92:320,1,165,0|0,0:0|0:0,0:0:0:0:
203,378,174951,2,0,P|208:355|173:372,1,82.5,8|0,0:0|0:0,0:0:0:0:
234,166,175251,1,0,0:0:0:0:
93,223,175401,2,0,L|106:321,1,82.5,0|8,0:0|0:0,0:0:0:0:
275,254,175701,6,0,L|284:66,1,165,0|0,0:0|0:0,0:0:0:0:
216,340,176151,1,8,0:0:0:0:
379,223,176301,1,0,0:0:0:0:
379,223,176376,1,0,0:0:0:0:
379,223,176451,1,0,0:0:0:0:
186,131,176601,1,4,0:0:0:0:
371,125,176901,6,0,L|173:131,1,165,4|0,0:0|0:0,0:0:0:0:
94,302,177351,2,0,P|70:226|76:192,1,82.5,8|0,0:0|0:0,0:0:0:0:
210,362,177651,1,0,0:0:0:0:
168,234,177801,2,0,P|225:227|270:236,1,82.5,0|8,0:0|0:0,0:0:0:0:
125,151,178101,6,0,P|44:137|4:54,1,165,4|0,0:0|0:0,0:0:0:0:
231,28,178551,2,0,L|215:140,1,82.5,8|0,0:0|0:0,0:0:0:0:
133,5,178851,1,0,0:0:0:0:
322,111,179001,1,0,0:0:0:0:
219,217,179151,1,8,0:0:0:0:
455,50,179301,6,0,B|381:67|381:67|273:38,1,165,4|0,0:0|0:0,0:0:0:0:
159,153,179751,2,0,P|235:132|266:139,1,82.5,8|0,0:0|0:0,0:0:0:0:
71,82,180051,1,0,0:0:0:0:
71,82,180201,1,0,0:0:0:0:
180,268,180351,1,8,0:0:0:0:
44,244,180501,6,0,L|72:70,1,165,4|0,0:0|0:0,0:0:0:0:
262,223,180951,2,0,P|275:275|266:309,1,82.5,8|0,0:0|0:0,0:0:0:0:
136,356,181251,1,0,0:0:0:0:
200,141,181401,1,0,0:0:0:0:
200,141,181476,1,0,0:0:0:0:
200,141,181551,1,8,3:2:0:0:
82,283,181701,6,0,P|191:284|227:341,1,165,4|0,0:0|0:0,0:0:0:0:
382,224,182151,2,0,P|322:222|283:203,1,82.5,8|0,0:0|0:0,0:0:0:0:
348,366,182451,1,0,0:0:0:0:
348,366,182601,1,0,0:0:0:0:
331,111,182751,1,8,0:0:0:0:
463,322,182901,6,0,L|475:128,1,165,4|0,0:0|0:0,0:0:0:0:
461,351,183351,1,8,0:0:0:0:
330,93,183501,2,0,L|340:257,1,165,4|0,0:0|0:0,0:0:0:0:
439,62,183951,1,8,3:2:0:0:
440,63,184026,1,0,3:2:0:0:
439,62,184101,1,0,3:2:0:0:
228,186,184251,6,0,P|164:166|120:147,1,98.9999969787599,4|0,0:0|0:0,0:0:0:0:
232,296,184551,1,0,0:0:0:0:
345,94,184701,6,0,P|409:74|453:55,1,98.9999969787599,4|0,0:0|0:0,0:0:0:0:
361,229,185001,1,0,0:0:0:0:
219,23,185151,5,4,0:0:0:0:
256,192,185226,12,0,189651,0:0:0:0:
