osu file format v14

[General]
AudioFilename: audio.mp3
AudioLeadIn: 0
PreviewTime: 60501
Countdown: 0
SampleSet: None
StackLeniency: 0.7
Mode: 0
LetterboxInBreaks: 0
WidescreenStoryboard: 1

[Editor]
Bookmarks: 6501,21051,42651,91551,101451
DistanceSpacing: 1.2
BeatDivisor: 2
GridSize: 4
TimelineZoom: 0.3000002

[Metadata]
Title:Shiroi Yuki No Princess Wa
TitleUnicode:白い雪のプリンセスは
Artist:Hatsune Miku vs. Mitani Nana
ArtistUnicode:初音ミク vs. 実谷なな
Creator:Hokichi
Version:Lanturn's Easy
Source:初音ミク Project DIVA Arcade Future Tone
Tags:yamicchi yami lanturn chocola [-chocola-] bara zerss hikan cassu cassu2 the snow white princess is SOUND VOLTEX II -infinite infection- 初音ミク Project DIVA Future Tone DX BeatStream jubeat prop
BeatmapID:1847411
BeatmapSetID:547883

[Difficulty]
HPDrainRate:2
CircleSize:3
OverallDifficulty:2
ApproachRate:3
SliderMultiplier:0.5
SliderTickRate:1

[Events]
//Background and Video events
0,0,"cute-hatsune-miku-wallpaper-wallpaper-3.jpg",0,0
//Break Periods
2,122051,137211
//Storyboard Layer 0 (Background)
//Storyboard Layer 1 (Fail)
//Storyboard Layer 2 (Pass)
//Storyboard Layer 3 (Foreground)
Sprite,Foreground,Centre,"cre\lanturn.png",124,416 S,0,1701,,0.3 P,0,1701,,A F,0,1701,1851,0,1 F,0,189651,190251,1,0
//Storyboard Sound Samples

[TimingPoints]
651,300,4,2,1,70,1,0
16251,-100,4,2,1,60,0,0
19701,-100,4,2,1,80,0,0
21051,-100,4,2,1,60,0,0
42651,-100,4,2,1,65,0,0
60051,-100,4,2,1,45,0,0
60651,-100,4,2,1,55,0,0
61851,-100,4,2,1,70,0,1
81051,-100,4,2,1,60,0,0
102651,-100,4,2,1,40,0,0
111051,-100,4,2,1,50,0,0
112251,-100,4,2,1,60,0,0
120651,-100,4,2,1,50,0,0
121851,-100,4,2,1,40,0,0
141951,-100,4,2,1,65,0,0
143451,-100,4,2,1,70,0,1
152151,-100,4,2,1,60,0,0
153051,-100,4,2,1,70,0,1
162651,-100,4,2,1,60,0,0
189651,-100,4,2,1,30,0,0

[Colours]
Combo1 : 255,55,105
Combo2 : 100,226,253
Combo3 : 113,255,223
Combo4 : 255,74,165

[HitObjects]
108,88,6501,6,0,L|232:88|240:88,1,125,4|0,0:0|0:0,0:0:0:0:
300,148,7701,2,0,L|424:148|432:148,1,125,4|0,0:0|0:0,0:0:0:0:
425,238,8901,2,0,L|301:238|293:238,1,125,4|0,0:0|0:0,0:0:0:0:
233,296,10101,2,0,B|232:296|180:328|120:296,1,100,4|4,0:0|0:0,0:0:0:0:
52,216,11301,6,0,L|52:84,1,125,4|0,0:0|0:0,0:0:0:0:
142,91,12501,2,0,L|142:223,1,125,4|0,0:0|0:0,0:0:0:0:
232,216,13701,2,0,L|232:84,1,125,4|0,0:0|0:0,0:0:0:0:
312,48,14901,2,0,P|368:36|416:48,2,100,4|4|4,0:0|0:0|0:0,0:0:0:0:
256,192,16251,12,4,19701,0:0:0:0:
344,264,21051,6,0,P|298:282|240:272,1,100,4|0,0:0|0:0,0:0:0:0:
136,236,22251,2,0,L|60:236,1,75,2|2,0:0|0:0,0:0:0:0:
24,124,23301,2,0,B|68:100|68:100|160:100,1,125,4|0,0:0|0:0,0:0:0:0:
240,172,24651,2,0,P|280:180|320:172,1,75,2|2,0:0|0:0,0:0:0:0:
420,116,25701,6,0,P|444:172|424:232,1,125,4|0,0:0|0:0,0:0:0:0:
360,292,26901,2,0,L|236:312,1,125,4|0,0:0|0:0,0:0:0:0:
152,276,28101,2,0,B|132:232|132:232|152:168,1,100,4|0,0:0|0:0,0:0:0:0:
104,40,29451,2,0,P|72:20|28:16,2,75,4|2|8,0:0|0:0|0:0,0:0:0:0:
148,80,30651,6,0,P|194:99|264:88,1,100,6|0,0:0|0:0,0:0:0:0:
352,48,31851,2,0,L|384:132,1,75,2|2,0:0|0:0,0:0:0:0:
376,240,32901,2,0,B|336:284|336:284|260:304,1,125,4|0,0:0|0:0,0:0:0:0:
200,204,34251,2,0,P|216:164|204:116,1,75,2|2,0:0|0:0,0:0:0:0:
112,68,35301,6,0,B|80:108|80:108|72:144|72:144|44:184,1,125,4|0,0:0|0:0,0:0:0:0:
44,264,36501,2,0,B|76:288|76:288|124:288|124:288|164:312,1,125,4|0,0:0|0:0,0:0:0:0:
276,304,37851,2,0,B|328:304|369:333|369:333|412:304|472:304,2,200,4|2|2,0:0|0:0|0:0,0:0:0:0:
64,192,41451,1,2,0:0:0:0:
284,96,42651,6,0,P|324:104|368:96,2,75,4|0|8,0:0|0:0|0:0,0:0:0:0:
241,138,43851,2,0,P|201:146|157:138,2,75,4|0|8,0:0|0:0|0:0,0:0:0:0:
283,180,45051,2,0,P|323:188|367:180,2,75,4|0|8,0:0|0:0|0:0,0:0:0:0:
240,222,46251,2,0,L|240:320,1,75,4|2,0:0|0:0,0:0:0:0:
388,320,47451,6,0,B|424:255|424:255|424:176,1,150,4|8,0:0|0:0,0:0:0:0:
381,136,48651,2,0,B|316:172|316:172|237:172,1,150,4|8,0:0|0:0,0:0:0:0:
197,129,49851,2,0,B|132:93|132:93|53:93,1,150,4|8,0:0|0:0,0:0:0:0:
24,144,51051,2,0,P|12:192|24:264,1,100,4|0,0:0|0:0,0:0:0:0:
124,296,52251,6,0,L|208:344,2,75,4|0|8,0:0|0:0|0:0,0:0:0:0:
168,252,53451,2,0,L|256:268,2,75,4|0|8,0:0|0:0|0:0,0:0:0:0:
180,192,54651,2,0,L|272:184,2,75,4|0|8,0:0|0:0|0:0,0:0:0:0:
128,160,55851,2,0,P|124:124|144:80,1,75,4|2,0:0|0:0,0:0:0:0:
284,60,57051,6,0,P|360:32|432:64,1,150,4|8,0:0|0:0,0:0:0:0:
464,97,58251,2,0,P|436:165|476:249,1,150,4|8,0:0|0:0,0:0:0:0:
417,276,59451,1,4,0:0:0:0:
312,216,60051,1,2,0:0:0:0:
208,276,60651,1,4,0:0:0:0:
208,276,61851,6,0,P|188:224|204:160,1,100,4|0,0:0|0:0,0:0:0:0:
278,96,63051,1,2,0:0:0:0:
388,144,63651,1,2,0:0:0:0:
464,236,64251,2,0,B|409:314|352:248|288:320,1,200,2|4,0:0|0:0,0:0:0:0:
172,296,66051,1,4,0:0:0:0:
88,208,66651,6,0,P|76:164|88:112,1,100,4|0,0:0|0:0,0:0:0:0:
208,111,67851,2,0,P|204:175|188:203,2,75,2|2|8,0:0|0:0|0:0,0:0:0:0:
244,63,69051,2,0,L|328:63,1,75,4|0,0:0|0:0,0:0:0:0:
403,147,70101,2,0,B|416:212|376:204|392:272,1,125,4|0,0:0|0:0,0:0:0:0:
306,353,71451,6,0,P|256:364|200:352,1,100,4|0,0:0|0:0,0:0:0:0:
123,270,72651,1,2,0:0:0:0:
207,185,73251,1,2,0:0:0:0:
132,92,73851,2,0,P|215:65|300:111,2,175,4|4|8,0:0|0:0|0:0,0:0:0:0:
89,134,76251,6,0,L|105:242,1,100,4|0,0:0|0:0,0:0:0:0:
196,308,77451,2,0,P|232:312|272:304,1,75,2|2,0:0|0:0,0:0:0:0:
376,196,78651,2,0,L|376:112,2,75,4|8|8,0:0|0:0|0:0,0:0:0:0:
333,238,79851,1,4,0:0:0:0:
248,153,80451,2,0,P|200:164|156:157,1,75,2|4,0:0|0:0,0:0:0:0:
256,192,81051,12,2,83301,0:0:0:0:
104,76,85701,6,0,B|128:152|195:156|256:196|256:196|316:156|384:152|408:76,1,400,4|2,0:0|0:0,0:0:0:0:
340,296,90501,6,0,B|440:192|272:92|368:80|248:312|116:164,1,400,4|2,0:0|0:0,0:0:0:0:
128,68,95301,6,0,B|180:124|120:168|176:208|230:221|230:221|188:272|204:328|256:356|300:352,1,375,4|0,0:0|0:0,0:0:0:0:
256,192,97851,12,4,101451,0:3:0:0:
376,72,102651,5,4,0:3:0:0:
376,312,103851,1,8,0:0:0:0:
136,312,105051,1,4,0:3:0:0:
136,72,106251,1,2,0:0:0:0:
256,72,106851,1,2,0:0:0:0:
357,135,107451,5,4,0:3:0:0:
256,353,108651,1,0,0:0:0:0:
38,251,109851,1,4,0:3:0:0:
140,34,111051,1,4,0:0:0:0:
256,72,111651,1,8,0:0:0:0:
372,34,112251,6,0,B|396:104|396:104|360:184,1,150,4|8,0:0|0:0,0:0:0:0:
320,212,113451,2,0,P|256:180|188:208,1,150,4|8,0:0|0:0,0:0:0:0:
144,248,114651,2,0,L|64:160,1,100,4|2,0:0|0:0,0:0:0:0:
76,53,115851,2,0,P|40:28|4:16,2,75,2|2|8,0:0|0:0|0:0,0:0:0:0:
118,95,117051,6,0,L|202:83,2,75,4|0|8,0:0|0:0|0:0,0:0:0:0:
75,137,118251,2,0,L|-9:125,2,75,4|0|8,0:0|0:0|0:0,0:0:0:0:
117,179,119451,1,4,0:0:0:0:
64,284,120051,1,2,0:0:0:0:
164,352,120651,5,4,0:0:0:0:
344,192,121851,1,4,0:0:0:0:
256,192,138651,12,4,141951,0:0:0:0:
428,292,143451,6,0,B|376:304|376:304|328:292,1,100,4|0,0:0|0:0,0:0:0:0:
245,207,144651,1,2,0:0:0:0:
160,291,145251,1,2,0:0:0:0:
57,228,145851,2,0,B|112:164|56:92|56:92|96:36,1,200,2|4,0:0|0:0,0:0:0:0:
204,28,147651,1,4,0:0:0:0:
312,80,148251,6,0,P|320:132|304:180,1,100,4|0,0:0|0:0,0:0:0:0:
212,252,149451,2,0,P|192:212|196:168,2,75,2|2|8,0:0|0:0|0:0,0:0:0:0:
256,296,150651,2,0,L|352:296,1,75,4|0,0:0|0:0,0:0:0:0:
412,208,151701,2,0,P|432:144|408:92,1,125,4|0,0:0|0:0,0:0:0:0:
296,52,153051,6,0,P|248:68|200:52,1,100,4|0,0:0|0:0,0:0:0:0:
92,104,154251,1,2,0:0:0:0:
152,208,154851,1,2,0:0:0:0:
220,308,155451,2,0,P|136:332|56:284,2,175,2|4|8,0:0|0:0|0:0,0:0:0:0:
262,265,157851,6,0,L|362:265,1,100,4|0,0:0|0:0,0:0:0:0:
468,208,159051,2,0,P|480:160|468:120,1,75,4|2,0:0|0:0,0:0:0:0:
340,72,160251,2,0,L|284:128,2,75,4|8|8,0:0|0:0|0:0,0:0:0:0:
288,40,161451,2,0,P|240:56|176:40,1,100,4|4,0:0|0:0,0:0:0:0:
108,80,162501,6,0,P|88:124|124:204,1,125,4|0,0:0|0:0,0:0:0:0:
175,257,163701,2,0,P|219:237|299:273,1,125,4|0,0:0|0:0,0:0:0:0:
352,196,164901,6,0,P|372:152|336:72,1,125,4|0,0:0|0:0,0:0:0:0:
268,40,166101,2,0,B|269:40|204:80|180:0|124:40,1,150,4|2,0:0|0:0,0:0:0:0:
81,82,167301,6,0,L|81:214,1,125,4|0,0:0|0:0,0:0:0:0:
144,270,168501,2,0,L|276:270,1,125,4|0,0:0|0:0,0:0:0:0:
332,206,169701,2,0,L|332:74,1,125,4|0,0:0|0:0,0:0:0:0:
252,36,170901,2,0,P|192:64|120:32,1,150,4|2,0:0|0:0,0:0:0:0:
68,60,172101,6,0,B|48:120|48:120|68:192,1,125,4|0,0:0|0:0,0:0:0:0:
128,243,173301,2,0,B|188:223|188:223|260:243,1,125,4|0,0:0|0:0,0:0:0:0:
311,175,174501,2,0,B|331:115|331:115|311:43,1,125,4|0,0:0|0:0,0:0:0:0:
244,112,175701,2,0,B|196:164|156:88|108:152,1,150,4|4,0:0|0:0,0:0:0:0:
80,200,176901,6,0,L|128:324,1,125,4|0,0:0|0:0,0:0:0:0:
212,288,178101,2,0,L|212:160,1,125,4|0,0:0|0:0,0:0:0:0:
302,163,179301,2,0,L|302:291,1,125,4|0,0:0|0:0,0:0:0:0:
388,316,180501,2,0,L|433:199,1,125,4|0,0:0|0:0,0:0:0:0:
416,112,181701,6,0,P|348:132|288:100,1,125,4|0,0:0|0:0,0:0:0:0:
210,112,182901,2,0,P|152:132|94:111,1,125,4|0,0:0|0:0,0:0:0:0:
52,224,184251,2,0,B|64:264|64:264|88:304,2,75,4|4|4,0:0|0:0|0:0,0:0:0:0:
256,192,185451,12,2,189651,0:0:0:0:
