osu file format v14

[General]
AudioFilename: audio.mp3
AudioLeadIn: 0
PreviewTime: 60501
Countdown: 0
SampleSet: Soft
StackLeniency: 0.7
Mode: 0
LetterboxInBreaks: 0
WidescreenStoryboard: 1

[Editor]
Bookmarks: 6501,21051,42651,91551,101451
DistanceSpacing: 1.2
BeatDivisor: 4
GridSize: 4
TimelineZoom: 2.5

[Metadata]
Title:Shiroi Yuki No Princess Wa
TitleUnicode:白い雪のプリンセスは
Artist:Hatsune Miku vs. Mitani Nana
ArtistUnicode:のぼる↑ ft. 初音ミク
Creator:Hokichi
Version:Chocola's Normal
Source:初音ミク Project DIVA Arcade Future Tone
Tags:yamicchi yami lanturn chocola [-chocola-] bara zerss hikan cassu cassu2 the snow white princess is SOUND VOLTEX II -infinite infection- 初音ミク Project DIVA Future Tone DX BeatStream jubeat prop
BeatmapID:1646704
BeatmapSetID:547883

[Difficulty]
HPDrainRate:6
CircleSize:3.5
OverallDifficulty:7
ApproachRate:8
SliderMultiplier:0.9
SliderTickRate:1

[Events]
//Background and Video events
0,0,"cute-hatsune-miku-wallpaper-wallpaper-3.jpg",0,0
//Break Periods
2,121851,137901
//Storyboard Layer 0 (Background)
//Storyboard Layer 1 (Fail)
//Storyboard Layer 2 (Pass)
//Storyboard Layer 3 (Foreground)
Sprite,Foreground,Centre,"cre\chocola.png",124,416 S,0,1701,,0.3 P,0,1701,,A F,0,1701,1851,0,1 F,0,189651,190251,1,0
//Storyboard Sound Samples

[TimingPoints]
651,300,4,2,1,60,1,0
1851,300,4,2,1,60,1,0
1951,-100,4,2,1,60,0,0
42951,-100,4,2,1,60,0,0
43101,-100,4,2,1,60,0,0
44151,-100,4,2,1,60,0,0
44301,-100,4,2,1,60,0,0
45351,-100,4,2,1,60,0,0
45501,-100,4,2,1,60,0,0
47751,-100,4,2,1,60,0,0
47901,-100,4,2,1,60,0,0
48951,-100,4,2,1,60,0,0
49101,-100,4,2,1,60,0,0
50151,-100,4,2,1,60,0,0
50301,-100,4,2,1,60,0,0
52551,-100,4,2,1,60,0,0
52701,-100,4,2,1,60,0,0
53751,-100,4,2,1,60,0,0
53901,-100,4,2,1,60,0,0
57351,-100,4,2,2,60,0,0
57501,-100,4,2,1,60,0,0
58551,-100,4,2,1,60,0,0
58701,-100,4,2,1,60,0,0
61851,-100,4,2,1,60,0,1
62151,-100,4,2,1,60,0,1
62301,-100,4,2,1,60,0,1
62751,-100,4,2,1,60,0,1
62901,-100,4,2,1,60,0,1
65751,-100,4,2,1,60,0,1
65901,-100,4,2,1,60,0,1
71751,-100,4,2,1,60,0,1
71901,-100,4,2,1,60,0,1
72351,-100,4,2,1,60,0,1
72501,-100,4,2,1,60,0,1
76551,-100,4,2,1,60,0,1
76701,-100,4,2,1,60,0,1
81051,-100,4,2,1,60,0,0
112551,-100,4,2,1,60,0,0
112701,-100,4,2,1,60,0,0
113751,-100,4,2,1,60,0,0
113901,-100,4,2,1,60,0,0
117351,-100,4,2,1,60,0,0
117501,-100,4,2,1,60,0,0
118551,-100,4,2,1,60,0,0
118701,-100,4,2,1,60,0,0
143451,-100,4,2,1,60,0,1
143751,-100,4,2,1,60,0,1
143901,-100,4,2,1,60,0,1
144351,-100,4,2,1,60,0,1
144501,-100,4,2,1,60,0,1
147351,-100,4,2,1,60,0,1
147501,-100,4,2,1,60,0,1
152151,-100,4,2,1,60,0,0
153051,-100,4,2,1,60,0,1
153351,-100,4,2,1,60,0,1
153501,-100,4,2,1,60,0,1
153951,-100,4,2,1,60,0,1
154101,-100,4,2,1,60,0,1
158151,-100,4,2,1,60,0,1
158301,-100,4,2,1,60,0,1
162651,-100,4,2,1,60,0,0

[Colours]
Combo1 : 255,55,105
Combo2 : 100,226,253
Combo3 : 113,255,223
Combo4 : 255,74,165

[HitObjects]
48,80,1701,6,0,P|112:68|184:108,1,135.000005149841,2|0,0:0|0:0,0:0:0:0:
212,196,2451,2,0,L|196:296,1,90.0000034332277,0|0,0:0|0:0,0:0:0:0:
160,324,2901,6,0,P|216:296|296:316,1,135.000005149841,2|0,0:0|0:0,0:0:0:0:
380,360,3651,2,0,L|388:256,1,90.0000034332277,0|0,0:0|0:0,0:0:0:0:
424,232,4101,6,0,L|408:92,1,135.000005149841,2|0,0:0|0:0,0:0:0:0:
308,56,4851,2,0,P|268:48|204:64,1,90.0000034332277,0|0,0:0|0:0,0:0:0:0:
196,104,5301,6,0,L|216:256,1,135.000005149841,2|0,0:0|0:0,0:0:0:0:
160,332,6051,2,0,P|116:360|68:364,1,90.0000034332277,0|0,0:0|0:0,0:0:0:0:
28,348,6501,6,0,P|16:256|16:196,1,135,4|8,0:0|0:0,0:0:0:0:
56,112,7251,2,0,P|104:112|148:128,1,90.0000034332277,0|8,0:0|0:0,0:0:0:0:
192,152,7701,6,0,P|236:172|328:164,1,135.000005149841,2|8,0:0|0:0,0:0:0:0:
396,92,8451,2,0,P|416:136|424:192,1,90.0000034332277,0|8,0:0|0:0,0:0:0:0:
460,216,8901,6,0,P|448:256|448:360,1,135.000005149841,2|8,0:0|0:0,0:0:0:0:
340,332,9651,2,0,P|348:280|348:232,1,90.0000034332277,0|8,0:0|0:0,0:0:0:0:
328,192,10101,6,0,P|312:128|312:40,1,135.000005149841,6|8,0:0|0:0,0:0:0:0:
348,20,10701,2,0,P|304:40|208:44,1,135.000005149841,4|8,0:0|0:0,0:0:0:0:
168,32,11301,6,0,P|136:28|68:36,1,90.0000034332277,6|0,0:0|0:0,0:0:0:0:
36,64,11751,1,8,0:0:0:0:
8,168,12051,2,0,P|12:200|28:256,1,90.0000034332277,0|8,0:0|0:0,0:0:0:0:
60,296,12501,6,0,P|104:300|200:280,1,135.000005149841,2|8,0:0|0:0,0:0:0:0:
288,236,13251,2,0,P|328:224|396:228,1,90.0000034332277,0|8,0:0|0:0,0:0:0:0:
420,252,13701,6,0,P|408:200|400:104,1,135.000005149841,4|8,0:0|0:0,0:0:0:0:
316,52,14451,2,0,P|268:52|216:64,1,90.0000034332277,0|8,0:0|0:0,0:0:0:0:
196,104,14901,6,0,P|144:108|56:80,1,135.000005149841,6|8,0:0|0:0,0:0:0:0:
32,56,15501,2,0,P|40:100|48:156,1,90.0000034332277,4|0,0:0|0:0,0:0:0:0:
52,188,15951,1,8,3:0:0:0:
256,192,16101,12,4,18801,0:0:0:0:
328,328,19701,6,0,P|360:288|364:236,1,90.0000034332277,4|0,0:0|0:0,0:0:0:0:
332,208,20151,2,0,L|272:216,1,45.0000017166138,0|0,3:2|3:2,0:0:0:0:
236,196,20451,2,0,L|184:188,2,45.0000017166138,0|0|4,3:2|3:2|0:0,0:0:0:0:
60,84,21051,6,0,P|61:128|69:173,1,90.0000034332277,6|8,0:0|0:0,0:0:0:0:
100,276,21651,2,0,P|108:320|108:376,1,90.0000034332277,0|8,0:0|0:0,0:0:0:0:
216,356,22251,6,0,P|208:300|212:260,1,90.0000034332277,0|8,0:0|0:0,0:0:0:0:
232,216,22701,2,0,P|252:160|244:80,1,135.000005149841,0|8,0:0|0:0,0:0:0:0:
208,48,23301,6,0,P|248:72|308:80,1,90.0000034332277,2|0,0:0|0:0,0:0:0:0:
344,80,23751,1,8,0:0:0:0:
448,52,24051,2,0,P|448:100|440:152,1,90.0000034332277,0|8,0:0|0:0,0:0:0:0:
416,188,24501,1,0,0:0:0:0:
416,188,24651,6,0,P|404:228|400:284,1,90.0000034332277,2|8,0:0|0:0,0:0:0:0:
420,328,25101,2,0,P|368:312|320:304,1,90.0000034332277,0|0,0:0|0:0,0:0:0:0:
232,268,25701,6,0,P|168:280|88:284,1,135.000005149841,2|8,0:0|0:0,0:0:0:0:
84,176,26451,2,0,P|112:168|180:160,1,90,0|8,0:0|0:0,0:0:0:0:
224,168,26901,6,0,P|288:180|372:172,1,135,2|8,0:0|0:0,0:0:0:0:
372,68,27651,2,0,P|328:56|272:52,1,90,0|8,0:0|0:0,0:0:0:0:
236,76,28101,6,0,P|176:84|84:84,1,135,2|8,0:0|0:0,0:0:0:0:
12,24,28851,1,0,0:0:0:0:
88,100,29151,1,8,0:0:0:0:
40,196,29451,6,0,P|36:228|44:288,1,90,2|8,0:0|0:0,0:0:0:0:
76,328,29901,2,0,L|224:320,1,135,0|8,0:0|0:0,0:0:0:0:
320,324,30651,6,0,P|328:280|328:216,1,90,6|8,0:0|0:0,0:0:0:0:
280,164,31251,2,0,P|264:128|260:68,1,90,0|8,0:0|0:0,0:0:0:0:
300,44,31701,1,0,0:0:0:0:
348,16,31851,2,0,P|388:28|428:56,1,90,2|8,0:0|0:0,0:0:0:0:
440,108,32301,2,0,L|428:256,1,135,0|8,0:0|0:0,0:0:0:0:
432,296,32901,6,0,P|392:280|336:272,1,90,2|0,0:0|0:0,0:0:0:0:
292,284,33351,1,8,0:0:0:0:
192,328,33651,1,0,0:0:0:0:
104,264,33951,1,8,0:0:0:0:
180,188,34251,6,0,P|192:144|184:88,1,90,2|8,0:0|0:0,0:0:0:0:
164,52,34701,1,0,0:0:0:0:
92,132,35001,1,0,0:0:0:0:
180,188,35301,6,0,L|320:180,1,135,2|8,0:0|0:0,0:0:0:0:
404,240,36051,2,0,P|408:288|400:344,1,90,0|8,0:0|0:0,0:0:0:0:
360,364,36501,6,0,L|216:352,1,135,2|8,0:0|0:0,0:0:0:0:
124,320,37251,2,0,P|108:272|108:216,1,90,0|8,0:0|0:0,0:0:0:0:
136,188,37701,6,0,P|152:136|148:48,1,135,0|8,0:0|0:0,0:0:0:0:
120,12,38301,2,0,P|152:36|216:48,1,90,2|0,0:0|0:0,0:0:0:0:
252,40,38751,1,8,0:0:0:0:
364,156,39051,6,0,P|320:140|256:140,1,90,2|8,0:0|0:0,0:0:0:0:
224,148,39501,2,0,P|176:180|152:224,1,90,2|0,0:0|0:0,0:0:0:0:
152,260,39951,1,8,0:0:0:0:
224,340,40251,6,0,L|328:332,1,90,2|8,0:0|0:0,0:0:0:0:
360,304,40701,2,0,L|456:308,1,90,2|0,0:0|0:0,0:0:0:0:
504,308,41151,1,8,0:0:0:0:
444,220,41451,1,2,0:0:0:0:
352,280,41751,1,10,0:0:0:0:
288,192,42051,1,2,0:0:0:0:
196,252,42351,1,10,0:0:0:0:
156,152,42651,6,0,P|152:104|168:44,1,90,6|8,0:0|0:0,0:0:0:0:
204,32,43101,2,0,P|256:36|308:48,1,90,2|0,0:0|0:0,0:0:0:0:
336,76,43551,1,10,0:0:0:0:
372,176,43851,6,0,P|376:224|376:276,1,90,2|8,0:0|0:0,0:0:0:0:
352,312,44301,2,0,P|308:348|264:368,1,90,2|0,0:0|0:0,0:0:0:0:
224,360,44751,1,10,0:0:0:0:
136,296,45051,6,0,L|128:196,1,90,2|8,0:0|0:0,0:0:0:0:
164,164,45501,2,0,L|168:64,1,90,2|0,0:0|0:0,0:0:0:0:
160,20,45951,1,10,0:0:0:0:
252,76,46251,2,0,L|348:68,1,90,2|8,0:0|0:0,0:0:0:0:
388,40,46701,2,0,P|396:80|392:136,1,90,0|2,0:0|0:0,0:0:0:0:
356,204,47301,1,0,0:0:0:0:
356,204,47451,6,0,P|352:260|356:308,1,90,6|8,0:0|0:0,0:0:0:0:
384,340,47901,2,0,P|332:328|280:328,1,90,2|0,0:0|0:0,0:0:0:0:
244,336,48351,1,10,0:0:0:0:
140,360,48651,6,0,L|144:260,1,90,2|8,0:0|0:0,0:0:0:0:
176,228,49101,2,0,L|172:132,1,90,2|0,0:0|0:0,0:0:0:0:
152,88,49551,1,10,0:0:0:0:
248,40,49851,6,0,P|288:40|344:64,1,90,2|8,0:0|0:0,0:0:0:0:
376,92,50301,2,0,P|396:140|400:192,1,90,2|0,0:0|0:0,0:0:0:0:
380,228,50751,1,10,0:0:0:0:
296,296,51051,5,2,0:0:0:0:
396,336,51351,1,10,0:0:0:0:
380,228,51651,1,2,0:0:0:0:
396,336,51951,1,10,0:0:0:0:
296,296,52251,6,0,P|240:296|152:304,2,135,6|2|10,0:0|0:0|0:0,0:0:0:0:
356,208,53451,6,0,P|412:208|500:216,2,135,2|2|10,0:0|0:0|0:0,0:0:0:0:
264,156,54651,6,0,P|200:172|120:172,1,135,2|0,0:0|0:0,0:0:0:0:
84,148,55251,2,0,P|72:112|68:56,1,90,0|8,0:0|0:0,0:0:0:0:
104,20,55701,1,0,0:0:0:0:
156,0,55851,2,0,P|200:0|252:12,1,90,2|8,0:0|0:0,0:0:0:0:
284,48,56301,2,0,P|352:48|420:36,1,135,2|8,0:0|0:0,0:0:0:0:
480,128,57051,6,0,P|480:180|472:232,1,90,4|8,0:0|0:0,0:0:0:0:
424,236,57501,2,0,P|423:280|428:325,1,90,0|0,0:0|0:0,0:0:0:0:
444,376,57951,1,8,0:0:0:0:
340,348,58251,6,0,P|288:332|244:332,1,90,0|0,0:0|0:2,0:0:0:0:
200,336,58701,2,0,P|164:344|96:344,1,90,0|0,0:2|0:2,0:0:0:0:
60,328,59151,1,0,0:2:0:0:
16,232,59451,2,0,B|28:200|96:164|156:216|156:216|132:180|144:136|144:136|176:148|212:136,1,315,4|0,0:2|0:2,0:0:0:0:
260,108,60651,6,0,P|296:100|368:100,2,90.0000034332277,2|2|2,0:0|0:0|0:0,0:0:0:0:
172,44,61551,2,0,P|140:32|112:28,1,45.0000017166138,2|0,0:0|0:0,0:0:0:0:
80,52,61851,6,0,P|72:100|76:160,1,90.0000034332277,4|8,0:0|0:0,0:0:0:0:
92,192,62301,1,0,0:0:0:0:
136,224,62451,2,0,P|180:231|225:226,1,90.0000034332277,0|8,0:0|0:0,0:0:0:0:
308,160,63051,5,0,0:0:0:0:
380,240,63351,1,8,0:0:0:0:
272,252,63651,1,0,0:0:0:0:
328,344,63951,1,8,0:0:0:0:
220,348,64251,6,0,P|160:348|112:340,1,90,0|8,0:0|0:0,0:0:0:0:
140,236,64851,2,0,P|200:236|248:244,1,90,0|8,0:0|0:0,0:0:0:0:
280,260,65301,1,0,0:0:0:0:
332,276,65451,2,0,P|392:276|440:268,1,90,4|8,0:0|0:0,0:0:0:0:
432,164,66051,1,4,0:0:0:0:
356,88,66351,1,12,0:0:0:0:
292,176,66651,2,0,P|240:180|144:168,1,135,4|0,0:0|0:0,0:0:0:0:
116,140,67251,1,0,0:0:0:0:
56,228,67551,1,8,0:0:0:0:
108,324,67851,2,0,P|156:316|208:316,1,90.0000034332277,0|8,0:0|0:0,0:0:0:0:
248,328,68301,2,0,P|276:336|340:340,1,90.0000034332277,0|0,0:0|0:0,0:0:0:0:
388,324,68751,2,0,P|408:296|412:272,1,45.0000017166138,8|0,0:0|0:0,0:0:0:0:
412,232,69051,1,4,0:0:0:0:
380,128,69351,1,8,0:0:0:0:
380,128,69501,6,0,P|416:116|480:116,2,90.0000034332277,4|4|4,0:0|0:0|0:0,0:0:0:0:
280,168,70401,1,0,3:0:0:0:
280,168,70551,2,0,P|235:170|188:160,2,90,8|0|8,3:2|3:2|3:2,0:0:0:0:
380,128,71451,6,0,P|396:164|408:228,1,90.0000034332277,4|8,0:0|0:0,0:0:0:0:
384,260,71901,1,0,0:0:0:0:
344,296,72051,2,0,P|308:304|244:300,1,90,0|8,0:0|0:0,0:0:0:0:
208,280,72501,1,0,0:0:0:0:
160,252,72651,6,0,P|112:248|56:260,2,90,0|8|0,0:0|0:0|0:0,0:0:0:0:
232,172,73551,1,8,0:0:0:0:
176,80,73851,6,0,P|128:80|72:96,1,90.0000034332277,4|8,0:0|0:0,0:0:0:0:
88,204,74451,2,0,P|120:212|180:216,1,90.0000034332277,0|8,0:0|0:0,0:0:0:0:
228,200,74901,2,0,P|280:196|336:208,1,90,4|0,0:0|0:0,0:0:0:0:
360,236,75351,2,0,P|380:272|392:332,2,90,8|0|8,0:0|0:0|3:2,0:0:0:0:
304,144,76251,6,0,P|303:99|312:55,1,90.0000034332277,4|8,3:2|0:0,0:0:0:0:
420,56,76851,2,0,P|428:100|427:144,1,90.0000034332277,0|8,0:0|0:0,0:0:0:0:
356,228,77451,2,0,P|312:244|252:244,1,90.0000034332277,0|8,0:0|0:0,0:0:0:0:
220,224,77901,2,0,P|177:208|133:203,1,90.0000034332277,0|0,0:0|0:0,0:0:0:0:
84,220,78351,2,0,P|74:240|67:261,1,45,8|0,0:0|0:0,0:0:0:0:
76,316,78651,2,0,P|136:344|216:352,2,135,4|12|4,0:0|0:0|0:0,0:0:0:0:
100,212,79851,6,0,P|136:216|164:224,1,45,4|0,0:0|0:0,0:0:0:0:
192,244,80151,2,0,P|236:240|248:236,1,45.0000017166138,8|0,0:0|0:0,0:0:0:0:
276,204,80451,2,0,P|276:252|296:288,1,90,0|8,0:0|0:0,0:0:0:0:
344,316,80901,6,0,B|417:334|393:282|473:298,1,135,4|8,0:0|0:0,0:0:0:0:
416,204,81651,2,0,P|424:159|419:115,1,90,0|8,0:0|0:0,0:0:0:0:
388,72,82101,2,0,L|284:84,1,90,0|0,0:0|0:0,0:0:0:0:
248,104,82551,1,8,0:0:0:0:
148,60,82851,1,0,0:0:0:0:
84,148,83151,1,8,0:0:0:0:
84,148,83301,6,0,P|96:192|100:292,1,135,0|8,0:0|0:0,0:0:0:0:
208,292,84051,2,0,P|204:256|216:200,1,90,0|8,0:0|0:0,0:0:0:0:
256,172,84501,2,0,P|259:127|249:83,1,90,0|0,0:0|0:0,0:0:0:0:
212,44,84951,2,0,P|180:40|152:40,1,45,8|0,0:0|0:0,0:0:0:0:
124,76,85251,2,0,P|101:74|79:71,2,45,0|0|8,0:0|0:0|0:0,0:0:0:0:
160,44,85701,6,0,L|304:60,1,135,4|8,0:0|0:0,0:0:0:0:
404,28,86451,2,0,P|404:80|380:124,1,90,0|8,0:0|0:0,0:0:0:0:
344,148,86901,6,0,P|324:208|340:288,1,135,0|8,0:0|0:0,0:0:0:0:
372,320,87501,2,0,P|300:308|220:304,1,135,0|8,0:0|0:0,0:0:0:0:
188,324,88101,6,0,P|108:332|44:328,1,135,4|8,0:0|0:0,0:0:0:0:
80,220,88851,2,0,L|172:216,1,90,0|8,0:0|0:0,0:0:0:0:
212,184,89301,2,0,P|212:132|200:84,1,90,4|0,0:0|0:0,0:0:0:0:
176,48,89751,2,0,P|140:36|120:32,1,45,0|0,3:2|3:2,0:0:0:0:
80,32,90051,2,0,P|40:36|24:40,2,45,0|0|0,3:2|3:2|3:2,0:0:0:0:
88,84,90501,6,0,P|88:144|80:224,1,135,4|8,0:0|0:0,0:0:0:0:
152,300,91251,2,0,P|152:328|148:364,2,45,0|0|8,0:0|0:0|0:0,0:0:0:0:
184,256,91701,6,0,B|276:236|232:292|328:276,1,135,0|8,0:0|0:0,0:0:0:0:
412,232,92451,2,0,P|424:272|424:296,2,45,0|0|8,0:0|0:0|0:0,0:0:0:0:
380,188,92901,6,0,P|360:152|356:96,1,90,0|0,0:0|0:0,0:0:0:0:
368,52,93351,2,0,P|336:92|288:112,1,90,8|0,0:0|0:0,0:0:0:0:
200,72,93951,1,8,0:0:0:0:
120,144,94251,1,0,0:0:0:0:
220,180,94551,1,8,0:0:0:0:
120,144,94851,1,0,0:0:0:0:
136,252,95151,1,8,0:0:0:0:
136,252,95301,6,0,P|176:280|276:280,1,135,4|8,0:0|0:0,0:0:0:0:
344,216,96051,1,0,0:0:0:0:
300,116,96351,1,8,0:0:0:0:
300,116,96501,6,0,L|164:120,1,135,4|8,0:0|0:0,0:0:0:0:
56,112,97251,2,0,P|60:156|85:193,1,90,0|8,0:0|0:0,0:0:0:0:
176,252,97851,6,0,P|176:308|168:360,1,90,4|8,0:0|0:0,0:0:0:0:
128,376,98301,2,0,P|176:360|232:364,1,90,0|0,0:0|0:0,0:0:0:0:
268,376,98751,1,8,0:0:0:0:
364,328,99051,6,0,P|372:284|376:224,1,90,0|8,0:0|0:0,0:0:0:0:
408,192,99501,2,0,P|360:200|312:196,1,90,0|0,0:0|0:0,0:0:0:0:
268,176,99951,1,8,0:0:0:0:
192,100,100251,5,0,0:0:0:0:
120,184,100551,1,8,0:0:0:0:
200,256,100851,1,8,0:0:0:0:
268,176,101151,1,8,0:0:0:0:
192,100,101451,6,0,P|184:56|188:8,2,90,4|0|0,0:0|0:0|0:0,0:0:0:0:
268,176,102351,1,0,0:0:0:0:
368,140,102651,6,0,L|360:332,1,180,0|2,3:2|3:2,0:0:0:0:
268,268,103551,1,0,3:2:0:0:
196,348,103851,2,0,B|104:308|112:392|12:352,1,180,0|2,3:2|3:2,0:0:0:0:
60,252,104751,1,0,3:2:0:0:
168,246,105051,2,0,L|148:58,1,180,0|2,3:2|3:2,0:0:0:0:
244,116,105951,1,0,3:2:0:0:
344,152,106251,2,0,P|396:152|444:136,1,90,0|0,3:2|3:2,0:0:0:0:
420,36,106851,2,0,P|368:36|320:52,1,90,2|0,3:2|3:2,0:0:0:0:
244,116,107451,6,0,B|212:164|236:208|236:208|260:244|236:304,1,180,4|2,3:2|3:2,0:0:0:0:
148,340,108351,1,0,3:2:0:0:
64,272,108651,2,0,P|72:208|76:84,1,180,0|2,3:2|3:2,0:0:0:0:
8,8,109551,1,0,3:2:0:0:
76,92,109851,2,0,B|148:84|148:84|188:104|188:104|252:96,1,180,0|8,3:2|3:2,0:0:0:0:
356,80,110751,1,0,3:2:0:0:
320,184,111051,2,0,P|316:236|324:284,1,90,0|0,0:0|0:0,0:0:0:0:
428,248,111651,2,0,P|433:203|429:158,1,90,0|0,0:0|0:0,0:0:0:0:
368,68,112251,6,0,P|300:59|220:59,1,135,4|0,0:0|0:0,0:0:0:0:
108,160,113151,1,8,0:0:0:0:
180,240,113451,6,0,P|268:240|328:224,1,135,0|0,0:0|0:0,0:0:0:0:
416,104,114351,1,8,0:0:0:0:
492,180,114651,6,0,P|488:232|480:276,1,90,0|8,0:0|0:0,0:0:0:0:
372,268,115251,2,0,P|364:228|364:184,2,67.5,0|0|0,0:0|0:0|0:0,0:0:0:0:
396,316,115851,6,0,P|340:304|288:304,1,90,0|8,0:0|0:0,0:0:0:0:
256,320,116301,2,0,P|220:328|108:312,1,135,0|8,0:0|0:0,0:0:0:0:
52,236,117051,6,0,P|40:172|68:88,2,135,4|0|8,0:0|0:0|0:0,0:0:0:0:
160,236,118251,6,0,P|172:172|144:88,2,135,0|0|8,0:0|0:0|3:0,0:0:0:0:
220,324,119451,6,0,P|300:300|412:304,1,180,4|8,0:0|3:0,0:0:0:0:
492,252,120351,1,0,0:0:0:0:
492,252,120651,5,0,0:0:0:0:
256,192,138651,12,0,142251,0:0:0:0:
64,88,143451,6,0,P|148:72|200:104,1,135,4|0,0:0|0:0,0:0:0:0:
236,124,144051,2,0,B|328:132|276:92|384:100,1,135,0|0,0:0|0:0,0:0:0:0:
416,120,144651,5,0,0:0:0:0:
476,208,144951,1,8,0:0:0:0:
412,296,145251,1,0,0:0:0:0:
316,248,145551,1,8,0:0:0:0:
224,300,145851,6,0,P|176:308|120:296,1,90,0|8,0:0|0:0,0:0:0:0:
88,276,146301,1,0,0:0:0:0:
56,232,146451,2,0,P|48:184|60:128,1,90,0|8,0:0|0:0,0:0:0:0:
124,60,147051,2,0,P|180:44|276:44,1,135,4|0,0:0|0:0,0:0:0:0:
304,64,147651,5,4,0:0:0:0:
360,156,147951,1,12,0:0:0:0:
316,256,148251,6,0,P|271:262|226:258,1,90,4|8,0:0|0:0,0:0:0:0:
180,232,148701,2,0,P|164:180|164:128,1,90,0|0,0:0|0:0,0:0:0:0:
180,92,149151,1,8,0:0:0:0:
288,80,149451,2,0,P|297:124|300:168,1,90.0000034332277,0|8,0:0|0:0,0:0:0:0:
260,204,149900,2,0,P|251:248|253:292,1,90,0|0,0:0|0:0,0:0:0:0:
287,336,150351,6,0,P|309:333|331:330,2,45.0000017166138,8|0|4,0:0|0:0|0:0,0:0:0:0:
180,312,150951,1,8,0:0:0:0:
180,312,151101,2,0,P|172:272|167:223,1,90,4|0,0:0|0:0,0:0:0:0:
276,236,151701,2,0,P|284:191|288:147,1,90,4|0,0:0|0:0,0:0:0:0:
332,112,152151,6,0,P|376:100|420:99,2,90,0|0|0,0:0|0:0|0:0,0:0:0:0:
232,76,153051,6,0,P|168:100|88:104,1,135,4|0,0:0|0:0,0:0:0:0:
48,96,153651,2,0,B|128:96|100:144|170:140,1,135,0|0,0:0|0:0,0:0:0:0:
216,168,154251,5,0,0:0:0:0:
156,256,154551,1,8,0:0:0:0:
216,344,154851,1,0,0:0:0:0:
280,256,155151,1,8,0:0:0:0:
216,168,155451,6,0,P|204:140|196:64,2,90.0000034332277,4|8|0,0:0|0:0|0:0,0:0:0:0:
324,176,156351,1,8,0:0:0:0:
324,176,156501,6,0,P|356:168|428:168,1,90.0000034332277,4|0,0:0|0:0,0:0:0:0:
464,152,156951,2,0,P|480:124|496:64,2,90.0000034332277,8|0|8,0:0|0:0|0:0,0:0:0:0:
424,252,157851,6,0,P|428:308|428:356,1,90.0000034332277,4|8,0:0|0:0,0:0:0:0:
320,344,158451,2,0,P|316:288|316:240,1,90.0000034332277,0|8,0:0|0:0,0:0:0:0:
324,200,158901,1,0,0:0:0:0:
336,148,159051,2,0,P|344:120|352:48,1,90.0000034332277,4|8,0:0|0:0,0:0:0:0:
316,20,159501,2,0,P|268:24|212:32,1,90,0|0,0:0|0:0,0:0:0:0:
184,60,159951,1,8,0:0:0:0:
80,32,160251,6,0,P|84:72|84:168,2,135.000005149841,4|4|12,0:0|0:0|0:0,0:0:0:0:
0,104,161451,6,0,P|0:144|12:212,1,90.0000034332277,4|8,0:0|3:2,0:0:0:0:
104,244,162051,2,0,P|104:284|92:352,1,90.0000034332277,0|8,0:0|0:0,0:0:0:0:
44,348,162501,6,0,P|100:332|184:324,1,135.000005149841,4|8,0:0|0:0,0:0:0:0:
276,284,163251,2,0,P|312:296|368:304,1,90.0000034332277,0|8,0:0|0:0,0:0:0:0:
412,280,163701,6,0,P|408:220|388:136,1,135,0|8,0:0|0:0,0:0:0:0:
444,52,164451,2,0,P|404:44|352:52,1,90.0000034332277,0|8,0:0|0:0,0:0:0:0:
308,80,164901,6,0,P|280:92|160:96,1,135.000005149841,0|8,0:0|0:0,0:0:0:0:
84,44,165651,2,0,L|100:140,1,90.0000034332277,0|8,0:0|0:0,0:0:0:0:
128,180,166101,6,0,L|124:324,1,135.000005149841,0|8,0:0|0:0,0:0:0:0:
208,380,166851,1,0,0:0:0:0:
208,380,167001,2,0,P|232:376|272:380,1,45.0000017166138,0|8,0:0|0:0,0:0:0:0:
292,340,167301,6,0,P|344:348|436:320,1,135,4|8,0:0|0:0,0:0:0:0:
504,256,168051,2,0,P|512:220|512:168,1,90.0000034332277,0|8,0:0|0:0,0:0:0:0:
480,124,168501,6,0,B|444:120|408:136|408:136|372:156|336:148,1,135.000005149841,0|8,0:0|0:0,0:0:0:0:
264,212,169251,2,0,P|248:172|256:108,1,90,0|8,0:0|0:0,0:0:0:0:
284,84,169701,6,0,P|228:116|140:108,1,135,0|8,0:0|0:0,0:0:0:0:
60,156,170451,2,0,P|76:204|104:244,1,90.0000034332277,0|8,0:0|0:0,0:0:0:0:
148,260,170901,6,0,P|204:252|300:240,1,135.000005149841,4|8,0:0|0:0,0:0:0:0:
384,280,171651,1,0,3:0:0:0:
384,280,171801,2,0,P|388:252|388:224,1,45.0000017166138,0|8,0:0|0:0,0:0:0:0:
368,188,172101,6,0,P|348:136|340:44,1,135.000005149841,4|8,0:0|0:0,0:0:0:0:
232,52,172851,2,0,P|228:100|216:156,1,90.0000034332277,0|8,0:0|0:0,0:0:0:0:
184,180,173301,6,0,P|136:188|48:180,1,135.000005149841,0|8,0:0|0:0,0:0:0:0:
4,280,174051,2,0,P|56:296|108:300,1,90.0000034332277,0|8,0:0|0:0,0:0:0:0:
144,312,174501,6,0,P|196:300|284:300,1,135.000005149841,0|8,0:0|0:0,0:0:0:0:
384,312,175251,2,0,P|400:276|404:216,1,90.0000034332277,0|8,0:0|0:0,0:0:0:0:
412,172,175701,6,0,P|396:120|392:68,1,90.0000034332277,0|0,0:0|0:0,0:0:0:0:
416,36,176151,6,0,P|448:32|476:36,2,45.0000017166138,8|0|0,0:0|0:0|0:0,0:0:0:0:
364,56,176601,2,0,P|328:64|300:68,1,45.0000017166138,4|0,0:0|0:0,0:0:0:0:
268,56,176901,6,0,P|216:44|120:44,1,135.000005149841,4|8,0:0|0:0,0:0:0:0:
48,104,177651,2,0,P|48:148|60:200,1,90.0000034332277,0|8,0:0|0:0,0:0:0:0:
96,232,178101,6,0,P|148:244|244:244,1,135.000005149841,4|8,0:0|0:0,0:0:0:0:
304,324,178851,2,0,P|352:312|412:316,1,90,0|8,0:0|0:0,0:0:0:0:
432,348,179301,6,0,P|412:292|408:208,1,135,4|8,0:0|0:0,0:0:0:0:
332,136,180051,2,0,P|340:92|344:36,1,90.0000034332277,0|8,0:0|0:0,0:0:0:0:
388,16,180501,6,0,P|340:32|248:40,1,135.000005149841,4|8,0:0|0:0,0:0:0:0:
204,136,181251,2,0,P|156:120|104:112,1,90.0000034332277,0|8,0:0|3:2,0:0:0:0:
104,60,181701,6,0,P|116:104|116:196,1,135.000005149841,4|8,0:0|0:0,0:0:0:0:
76,292,182451,2,0,P|118:276|162:274,1,90,0|8,0:0|0:0,0:0:0:0:
208,304,182901,6,0,P|199:260|210:216,1,90.0000034332277,4|0,0:0|0:0,0:0:0:0:
232,169,183351,2,0,P|240:148|246:126,1,45.0000017166138,8|0,0:0|0:0,0:0:0:0:
208,88,183651,2,0,P|274:99|341:96,1,135,0|0,0:0|3:2,0:0:0:0:
397,88,184251,6,0,P|388:148|448:162,2,135.000005149841,4|4|4,0:0|0:0|0:0,0:0:0:0:
256,192,185226,12,0,190251,0:0:0:0:
