osu file format v14

[General]
AudioFilename: audio.mp3
AudioLeadIn: 0
PreviewTime: 60501
Countdown: 0
SampleSet: None
StackLeniency: 0.4
Mode: 0
LetterboxInBreaks: 0
WidescreenStoryboard: 1

[Editor]
Bookmarks: 6501,21051,42651,101451,162501
DistanceSpacing: 1.1
BeatDivisor: 4
GridSize: 4
TimelineZoom: 2.5

[Metadata]
Title:Shiroi Yuki No Princess Wa
TitleUnicode:白い雪のプリンセスは
Artist:Hatsune Miku vs. Mitani Nana
ArtistUnicode:初音ミク vs. 実谷なな
Creator:Hokichi
Version:Cassu's Snow White
Source:初音ミク Project DIVA Arcade Future Tone
Tags:yamicchi yami lanturn chocola [-chocola-] bara zerss hikan cassu cassu2 the snow white princess is SOUND VOLTEX II -infinite infection- 初音ミク Project DIVA Future Tone DX BeatStream jubeat prop
BeatmapID:1646696
BeatmapSetID:547883

[Difficulty]
HPDrainRate:6
CircleSize:4.1
OverallDifficulty:8
ApproachRate:9.3
SliderMultiplier:1.6
SliderTickRate:1

[Events]
//Background and Video events
0,0,"cute-hatsune-miku-wallpaper-wallpaper-3.jpg",0,0
//Break Periods
//Storyboard Layer 0 (Background)
//Storyboard Layer 1 (Fail)
//Storyboard Layer 2 (Pass)
//Storyboard Layer 3 (Foreground)
Sprite,Foreground,Centre,"cre\cassu.png",124,416 S,0,1701,,0.3 P,0,1701,,A F,0,1701,1851,0,1 F,0,189651,190251,1,0
//Storyboard Sound Samples

[TimingPoints]
651,300,4,2,1,40,1,0
1701,-117.647058823529,4,2,1,40,0,0
2151,-133.333333333333,4,2,1,40,0,0
6501,-100,4,2,1,75,0,0
20976,-100,4,2,1,5,0,0
21051,-100,4,2,1,75,0,0
25326,-100,4,2,1,5,0,0
25401,-100,4,2,1,75,0,0
34776,-100,4,2,1,5,0,0
35001,-100,4,2,1,75,0,0
35076,-100,4,2,1,5,0,0
35151,-100,4,2,1,75,0,0
35526,-100,4,2,1,5,0,0
35601,-100,4,2,1,75,0,0
36726,-100,4,2,1,5,0,0
36801,-100,4,2,1,75,0,0
42651,-125,4,2,1,75,0,0
51051,-100,4,2,1,75,0,0
52251,-125,4,2,1,75,0,0
58551,-100,4,2,3,40,0,0
58701,-100,4,2,3,45,0,0
58851,-100,4,2,3,50,0,0
59451,-166.666666666667,4,2,3,75,0,0
59826,-166.666666666667,4,2,3,5,0,0
59901,-166.666666666667,4,2,3,50,0,0
60051,-166.666666666667,4,2,3,60,0,0
60201,-166.666666666667,4,2,3,70,0,0
60351,-166.666666666667,4,2,3,75,0,0
60651,-142.857142857143,4,2,1,60,0,0
60876,-142.857142857143,4,2,1,5,0,0
60951,-125,4,2,1,60,0,0
61176,-125,4,2,1,5,0,0
61251,-111.111111111111,4,2,1,60,0,0
61476,-111.111111111111,4,2,1,5,0,0
61551,-100,4,2,1,60,0,0
61776,-100,4,2,1,5,0,0
61851,-90.9090909090909,4,2,1,70,0,1
70701,-76.9230769230769,4,2,1,70,0,1
71001,-66.6666666666667,4,2,1,70,0,1
71301,-58.8235294117647,4,2,1,70,0,1
71751,-90.9090909090909,4,2,1,70,0,1
78651,-100,4,2,1,70,0,1
80901,-100,4,2,1,70,0,0
95301,-83.3333333333333,4,2,1,70,0,0
101151,-166.666666666667,4,2,1,70,0,0
102576,-166.666666666667,4,2,1,5,0,0
102651,-200,4,2,1,70,0,0
111051,-100,4,2,1,70,0,0
120651,-166.666666666667,4,2,1,50,0,0
130776,-166.666666666667,4,2,1,5,0,0
130851,-166.666666666667,4,2,1,50,0,0
135276,-166.666666666667,4,2,1,5,0,0
135351,-166.666666666667,4,2,1,50,0,0
138651,-125,4,2,1,60,0,0
139851,-117.647058823529,4,2,1,60,0,0
141051,-100,4,2,1,60,0,0
141951,-200,4,2,1,60,0,0
143451,-100,4,2,1,70,0,1
162501,-100,4,2,1,70,0,0
184401,-100,4,2,1,30,0,0
184701,-100,4,2,1,70,0,0
184851,-100,4,2,1,30,0,0
185151,-250,4,2,1,70,0,0
185226,-250,4,2,1,5,0,0

[Colours]
Combo1 : 255,55,105
Combo2 : 100,226,253
Combo3 : 113,255,223
Combo4 : 255,74,165

[HitObjects]
112,136,1701,6,0,B|164:136|164:136|192:148|192:148|252:148,1,136.000002593994,2|0,0:0|0:0,0:0:0:0:
340,84,2151,1,0,0:0:0:0:
284,32,2301,1,0,0:0:0:0:
136,216,2451,6,0,P|128:248|172:332,1,120.000004577637,0|0,0:0|0:0,0:0:0:0:
376,216,2901,2,0,P|381:274|350:324,1,120.000004577637,2|0,0:0|0:0,0:0:0:0:
200,256,3351,1,0,0:0:0:0:
312,256,3501,1,0,0:0:0:0:
161,324,3651,6,0,L|37:328,1,120.000004577637,0|0,0:0|0:0,0:0:0:0:
212,172,4101,2,0,L|336:176,1,120.000004577637,2|0,0:0|0:0,0:0:0:0:
128,32,4551,1,0,0:0:0:0:
116,132,4701,1,0,0:0:0:0:
246,35,4851,6,0,B|194:23|194:23|102:35,1,120.000004577637,0|0,0:0|0:0,0:0:0:0:
416,92,5301,2,0,B|364:104|364:104|297:95,1,120.000004577637,2|0,0:0|0:0,0:0:0:0:
127,31,5751,1,0,0:0:0:0:
246,35,5901,1,0,0:0:0:0:
117,249,6051,6,0,P|105:193|117:129,1,120.000004577637,0|0,0:0|0:0,0:0:0:0:
356,184,6501,6,0,L|180:188,1,160,4|0,0:0|0:0,0:0:0:0:
408,60,6951,1,8,0:0:0:0:
456,244,7101,1,0,0:0:0:0:
196,187,7251,1,0,0:0:0:0:
356,184,7401,1,0,0:0:0:0:
276,316,7551,1,8,0:0:0:0:
112,164,7701,6,0,B|128:40|128:40|148:84,1,160,2|0,0:0|0:0,0:0:0:0:
212,280,8151,1,8,0:0:0:0:
48,240,8301,1,0,0:0:0:0:
244,140,8451,2,0,P|284:136|344:144,1,80,0|0,0:0|0:0,0:0:0:0:
460,184,8751,1,8,0:0:0:0:
336,48,8901,6,0,B|292:24|208:84|152:24,1,160,2|0,0:0|0:0,0:0:0:0:
24,16,9351,1,8,0:0:0:0:
180,144,9501,1,0,0:0:0:0:
180,144,9576,1,0,0:0:0:0:
180,144,9651,1,0,0:0:0:0:
0,104,9801,1,0,0:0:0:0:
178,43,9951,5,8,0:0:0:0:
80,308,10101,2,0,P|60:248|80:144,1,160,6|0,0:0|0:0,0:0:0:0:
416,152,10551,5,8,0:0:0:0:
178,43,10701,2,0,P|158:103|178:207,1,160,4|0,0:0|0:0,0:0:0:0:
172,196,11076,1,0,0:0:0:0:
172,196,11151,1,8,0:0:0:0:
416,152,11301,6,0,B|432:204|432:204|416:320,1,160,6|0,0:0|0:0,0:0:0:0:
172,108,11751,1,8,0:0:0:0:
312,56,11901,1,0,0:0:0:0:
264,300,12051,5,0,0:0:0:0:
248,180,12201,1,0,0:0:0:0:
360,220,12351,1,8,0:0:0:0:
88,268,12501,6,0,L|80:112,1,120,2|0,0:0|0:0,0:0:0:0:
116,84,12801,1,0,0:0:0:0:
220,312,12951,2,0,P|176:332|136:328,1,80,8|0,0:0|0:0,0:0:0:0:
248,180,13251,1,0,0:0:0:0:
360,344,13401,1,0,0:0:0:0:
456,132,13551,1,8,0:0:0:0:
188,116,13701,6,0,P|164:176|216:264,1,160,4|0,0:0|0:0,0:0:0:0:
432,208,14151,1,8,0:0:0:0:
248,180,14301,1,0,0:0:0:0:
248,180,14376,1,0,0:0:0:0:
248,180,14451,1,0,0:0:0:0:
456,132,14601,1,0,0:0:0:0:
204,256,14751,5,8,0:0:0:0:
312,48,14901,2,0,B|332:52|360:44|360:44|420:48|420:48|440:36|480:44,1,160,6|0,0:0|0:0,0:0:0:0:
308,256,15351,5,8,0:0:0:0:
200,48,15501,2,0,B|180:52|152:44|152:44|92:48|92:48|72:36|32:44,1,160,4|0,0:0|0:0,0:0:0:0:
300,148,15951,1,8,3:0:0:0:
76,224,16101,6,0,P|52:176|144:172,1,160,6|0,0:0|0:0,0:0:0:0:
355,222,16551,2,0,P|379:174|287:170,1,160,8|0,0:0|0:0,0:0:0:0:
208,360,17001,2,0,B|224:312|224:312|212:216,1,120,0|0,0:0|3:0,0:0:0:0:
144,256,17301,2,0,L|148:300,1,40,0|0,3:0|0:0,0:0:0:0:
288,352,17451,1,0,3:2:0:0:
204,160,17601,1,0,3:2:0:0:
204,160,17676,1,0,0:0:0:0:
204,160,17751,1,8,3:2:0:0:
104,360,17901,1,0,3:2:0:0:
92,132,18051,5,0,3:2:0:0:
208,360,18201,1,0,0:0:0:0:
208,360,18276,1,0,0:0:0:0:
208,360,18351,1,8,3:2:0:0:
280,188,18501,1,0,0:0:0:0:
80,280,18651,5,4,0:0:0:0:
352,312,18801,1,4,0:0:0:0:
372,312,19701,6,0,B|380:248|380:248|372:220|372:220|384:128,1,160,4|0,0:0|0:0,0:0:0:0:
284,88,20151,1,0,3:2:0:0:
444,72,20301,1,0,3:2:0:0:
240,188,20451,5,0,3:2:0:0:
468,208,20601,1,0,3:2:0:0:
172,100,20751,2,0,L|36:108,1,120,4|0,0:0|0:0,0:0:0:0:
48,184,21051,5,6,0:0:0:0:
220,240,21201,1,0,0:0:0:0:
84,280,21351,2,0,P|76:312|92:368,1,80,8|0,0:0|0:0,0:0:0:0:
392,296,21651,5,0,0:0:0:0:
220,240,21801,1,0,0:0:0:0:
356,200,21951,2,0,P|364:168|348:112,1,80,8|0,0:0|0:0,0:0:0:0:
144,192,22251,5,0,0:0:0:0:
184,364,22401,1,0,0:0:0:0:
256,164,22551,1,8,0:0:0:0:
296,336,22701,1,0,0:0:0:0:
32,220,22851,6,0,B|16:184|16:184|24:136,1,80,0|0,0:0|0:0,0:0:0:0:
60,48,23151,1,8,0:0:0:0:
256,164,23301,2,0,P|192:180|96:176,1,160,2|0,0:0|0:0,0:0:0:0:
344,32,23751,2,0,B|360:68|360:68|352:116,1,80,8|0,0:0|0:0,0:0:0:0:
98,176,24051,5,0,0:0:0:0:
168,72,24201,1,0,0:0:0:0:
256,164,24351,2,0,P|260:208|248:264,1,80,8|0,0:0|0:0,0:0:0:0:
195,365,24651,5,2,0:0:0:0:
125,261,24801,1,0,0:0:0:0:
254,243,24951,1,8,0:0:0:0:
56,328,25101,6,0,P|32:276|52:200,1,120,0|0,0:0|0:0,0:0:0:0:
125,261,25401,1,0,0:0:0:0:
88,68,25551,1,0,0:0:0:0:
316,152,25701,6,0,L|144:168,1,160,2|0,0:0|0:0,0:0:0:0:
400,312,26151,2,0,P|412:268|400:228,1,80,8|0,0:0|0:0,0:0:0:0:
232,276,26451,1,0,0:0:0:0:
316,152,26601,1,0,0:0:0:0:
328,368,26751,1,8,0:0:0:0:
252,72,26901,6,0,L|424:88,1,160,2|0,0:0|0:0,0:0:0:0:
168,232,27351,2,0,P|156:188|168:148,1,80,8|0,0:0|0:0,0:0:0:0:
276,240,27651,1,0,0:0:0:0:
136,300,27801,1,0,0:0:0:0:
328,368,27951,1,8,0:0:0:0:
456,160,28101,6,0,P|477:227|448:320,1,160,2|0,0:0|0:0,0:0:0:0:
268,204,28551,5,8,0:0:0:0:
332,56,28701,1,0,0:0:0:0:
400,232,28851,5,0,0:0:0:0:
192,280,29001,1,0,0:0:0:0:
368,152,29151,5,8,0:0:0:0:
452,360,29301,1,0,0:0:0:0:
489,56,29451,6,0,B|465:48|441:48|441:48|393:60|393:60|365:52|329:56,1,160,2|8,0:0|0:0,0:0:0:0:
464,272,29901,2,0,P|488:232|444:128,1,160,0|0,0:0|0:0,0:0:0:0:
224,172,30351,1,8,0:0:0:0:
416,208,30501,1,0,0:0:0:0:
416,208,30576,1,0,0:0:0:0:
416,208,30651,5,6,0:0:0:0:
331,55,30801,1,0,0:0:0:0:
296,292,30951,1,8,0:0:0:0:
224,172,31101,1,0,0:0:0:0:
192,352,31251,1,0,0:0:0:0:
312,164,31401,1,0,0:0:0:0:
324,368,31551,1,8,0:0:0:0:
195,143,31701,5,0,0:0:0:0:
120,312,31851,2,0,P|168:328|204:320,1,80,2|0,0:0|0:0,0:0:0:0:
388,175,32151,2,0,P|340:159|304:167,1,80,8|0,0:0|0:0,0:0:0:0:
392,344,32451,1,0,0:0:0:0:
392,344,32601,1,0,0:0:0:0:
195,143,32751,5,8,0:0:0:0:
120,312,32901,2,0,B|180:324|180:324|296:300,1,160,2|0,0:0|0:0,0:0:0:0:
64,120,33351,1,8,0:0:0:0:
28,252,33501,1,0,0:0:0:0:
195,143,33651,6,0,L|183:55,1,80,0|0,0:0|0:0,0:0:0:0:
64,120,33951,1,8,0:0:0:0:
64,120,34251,5,2,0:0:0:0:
184,64,34401,1,0,0:0:0:0:
112,248,34551,1,8,0:0:0:0:
68,32,34701,6,0,L|116:40,1,40,0|0,0:0|0:0,0:0:0:0:
224,228,35001,6,0,L|176:236,1,40,0|0,0:0|0:0,0:0:0:0:
36,264,35151,5,0,0:0:0:0:
300,212,35301,2,0,L|436:224,1,120,2|0,0:0|0:0,0:0:0:0:
492,232,35601,1,0,0:0:0:0:
224,228,35751,2,0,P|224:184|260:144,1,80,8|0,0:0|0:0,0:0:0:0:
419,222,36051,1,0,0:0:0:0:
300,212,36201,1,0,0:0:0:0:
368,112,36351,1,8,0:0:0:0:
296,320,36501,6,0,L|160:332,1,120,2|0,0:0|0:0,0:0:0:0:
104,340,36801,1,0,0:0:0:0:
243,155,36951,2,0,L|331:163,1,80,8|0,0:0|0:0,0:0:0:0:
184,248,37251,1,0,0:0:0:0:
376,260,37401,1,0,0:0:0:0:
176,330,37551,6,0,P|160:292|176:236,1,80,8|0,0:0|0:0,0:0:0:0:
397,190,37851,2,0,P|425:230|361:250,1,120,6|0,0:0|0:0,0:0:0:0:
324,204,38151,1,8,0:0:0:0:
409,31,38301,2,0,B|409:88|409:88|397:131|397:131|397:207,1,160,2|0,0:0|0:0,0:0:0:0:
224,104,38751,1,8,0:0:0:0:
332,64,38901,1,0,0:0:0:0:
115,190,39051,6,0,P|87:230|151:250,1,120,2|0,0:0|0:0,0:0:0:0:
188,204,39351,1,8,0:0:0:0:
103,31,39501,2,0,B|103:88|103:88|115:131|115:131|115:207,1,160,2|0,0:0|0:0,0:0:0:0:
312,276,39951,1,8,0:0:0:0:
268,172,40101,1,0,0:0:0:0:
176,360,40251,6,0,L|300:348,1,120,2|0,0:0|0:0,0:0:0:0:
312,276,40551,1,8,0:0:0:0:
72,236,40701,2,0,P|56:156|84:72,1,160,2|0,0:0|0:0,0:0:0:0:
268,172,41151,1,8,0:0:0:0:
144,188,41301,1,0,0:0:0:0:
308,64,41451,6,0,L|396:68,1,80,2|0,0:0|0:0,0:0:0:0:
220,256,41751,1,10,0:0:0:0:
184,88,41901,1,0,0:0:0:0:
184,88,41976,1,0,0:0:0:0:
184,88,42051,1,2,0:0:0:0:
332,208,42201,1,0,0:0:0:0:
72,136,42351,1,10,0:0:0:0:
140,360,42501,1,0,0:0:0:0:
260,188,42651,6,0,P|196:168|128:188,1,128,6|8,0:0|0:0,0:0:0:0:
228,340,43101,2,0,P|292:360|360:340,1,128,2|0,0:0|0:0,0:0:0:0:
196,248,43551,1,10,0:0:0:0:
392,188,43701,1,0,0:0:0:0:
138,181,43851,6,0,L|130:49,1,128,2|8,0:0|0:0,0:0:0:0:
228,340,44301,2,0,L|236:208,1,128,2|0,0:0|0:0,0:0:0:0:
300,72,44751,1,10,0:0:0:0:
380,288,44901,1,0,0:0:0:0:
138,181,45051,6,0,B|34:189|34:189|78:213,1,128,2|8,0:0|0:0,0:0:0:0:
235,212,45501,2,0,B|339:204|339:204|295:180,1,128,2|0,0:0|0:0,0:0:0:0:
60,137,45951,2,0,P|52:173|60:217,1,64,10|0,0:0|0:0,0:0:0:0:
306,315,46251,6,0,P|326:253|310:173,1,128,2|8,0:0|0:0,0:0:0:0:
206,69,46701,2,0,P|186:131|202:211,1,128,0|2,0:0|0:0,0:0:0:0:
424,144,47151,1,10,0:0:0:0:
280,108,47301,1,0,0:0:0:0:
306,315,47451,6,0,L|438:307,1,128,6|8,0:0|0:0,0:0:0:0:
193,192,47901,2,0,L|320:199,1,128,2|0,0:0|0:0,0:0:0:0:
433,307,48351,1,10,0:0:0:0:
306,315,48501,1,0,0:0:0:0:
400,84,48651,6,0,B|408:136|408:136|392:212,1,128,2|8,0:0|0:0,0:0:0:0:
160,80,49101,2,0,L|232:76,1,64,2|0,0:0|0:0,0:0:0:0:
280,240,49401,1,0,0:0:0:0:
280,240,49476,1,0,0:0:0:0:
280,240,49551,2,0,L|216:243,1,64,10|0,0:0|0:0,0:0:0:0:
76,84,49851,6,0,P|60:128|128:152,1,128,2|8,0:0|0:0,0:0:0:0:
280,80,50301,1,2,0:0:0:0:
160,48,50451,1,0,0:0:0:0:
204,232,50601,5,0,0:0:0:0:
390,73,50751,2,0,L|376:168,1,96,10|0,0:0|0:0,0:0:0:0:
228,72,51051,6,0,L|312:80,1,80,2|0,0:0|0:0,0:0:0:0:
48,192,51351,2,0,L|127:184,1,80,10|0,0:0|0:0,0:0:0:0:
488,224,51651,6,0,L|408:216,1,80,2|0,0:0|0:0,0:0:0:0:
308,104,51951,2,0,L|228:111,1,80,10|0,0:0|0:0,0:0:0:0:
394,311,52251,6,0,L|412:186,1,96,6|0,0:0|0:0,0:0:0:0:
488,224,52551,1,8,0:0:0:0:
288,288,52701,2,0,P|220:296|148:280,1,128,2|0,0:0|0:0,0:0:0:0:
228,111,53151,2,0,P|236:151|224:192,1,64,10|0,0:0|0:0,0:0:0:0:
56,152,53451,6,0,B|88:140|128:168|172:136,1,96,2|0,0:0|0:0,0:0:0:0:
124,72,53751,1,8,0:0:0:0:
79,225,53901,2,0,P|76:257|84:288,2,64,2|0|0,0:0|0:0|0:0,0:0:0:0:
316,212,54351,6,0,B|288:220|288:220|252:216|252:216|196:232,1,96,10|0,0:0|0:0,0:0:0:0:
152,248,54651,2,0,L|232:256,1,64,2|0,0:0|0:0,0:0:0:0:
424,280,54951,1,8,0:0:0:0:
424,280,55251,6,0,P|432:240|416:192,1,64,0|0,0:0|0:0,0:0:0:0:
280,144,55551,2,0,P|272:104|288:56,1,64,8|0,0:0|0:0,0:0:0:0:
435,80,55851,2,0,P|407:104|327:96,1,96,2|0,0:0|0:0,0:0:0:0:
373,32,56151,1,8,0:0:0:0:
196,100,56301,2,0,P|156:96|128:80,2,64,2|0|0,0:0|0:0|0:0,0:0:0:0:
328,304,56751,6,0,B|296:316|296:316|220:312,1,96,8|0,0:0|0:0,0:0:0:0:
180,264,57051,2,0,L|104:272,1,64,4|0,0:0|0:0,0:0:0:0:
16,284,57351,1,8,0:0:0:0:
234,312,57501,2,0,P|254:268|210:196,1,128,0|0,0:0|0:0,0:0:0:0:
36,104,57951,6,0,L|32:176,1,64,8|0,0:0|0:0,0:0:0:0:
220,201,58251,2,0,L|214:100,1,96,0|0,0:0|0:0,0:0:0:0:
136,96,58551,1,0,0:2:0:0:
292,64,58701,1,0,0:2:0:0:
192,240,58851,5,0,0:2:0:0:
216,84,59001,1,0,0:2:0:0:
300,292,59151,1,0,0:2:0:0:
352,60,59301,1,0,0:2:0:0:
168,236,59451,6,0,B|136:248|136:248|96:240|96:240|40:248,1,119.999996337891,4|0,0:2|0:0,0:0:0:0:
36,316,59901,1,0,0:0:0:0:
144,164,60051,1,0,0:2:0:0:
196,328,60201,5,0,0:2:0:0:
32,236,60351,1,0,0:2:0:0:
264,220,60501,1,0,0:2:0:0:
48,116,60651,6,0,B|60:48|60:48|76:64,1,83.9999974365235,2|0,0:0|0:0,0:0:0:0:
96,192,60951,6,0,B|121:264|121:264|135:233,1,96,2|0,0:0|0:0,0:0:0:0:
162,108,61251,6,0,B|208:44|208:44|216:80,1,107.999996704102,2|0,0:0|0:0,0:0:0:0:
232,232,61551,6,0,B|296:284|296:284|292:236,1,120,2|0,0:0|0:0,0:0:0:0:
336,108,61851,6,0,B|376:96|376:96|468:108,1,132.00000402832,4|0,0:0|0:0,0:0:0:0:
465,107,62151,1,8,0:0:0:0:
292,246,62301,1,0,0:0:0:0:
214,72,62451,1,0,0:0:0:0:
214,72,62601,1,0,0:0:0:0:
400,224,62751,6,0,L|392:328,1,88.000002685547,8|0,0:0|0:0,0:0:0:0:
170,254,63051,2,0,P|202:234|302:254,1,132.00000402832,0|0,0:0|0:0,0:0:0:0:
291,245,63351,1,8,0:0:0:0:
96,324,63501,1,0,0:0:0:0:
236,308,63651,1,0,0:0:0:0:
24,280,63801,1,0,0:0:0:0:
128,72,63951,6,0,P|136:124|120:204,1,132.00000402832,8|0,0:0|0:0,0:0:0:0:
121,201,64251,2,0,P|92:168|88:120,1,88.000002685547,0|0,0:0|0:0,0:0:0:0:
312,32,64551,2,0,P|294:72|252:96,1,88.000002685547,8|0,0:0|0:0,0:0:0:0:
48,48,64851,1,0,0:0:0:0:
232,24,65001,1,0,0:0:0:0:
121,201,65151,6,0,L|129:321,1,88.000002685547,8|0,0:0|0:0,0:0:0:0:
368,188,65451,2,0,B|340:184|324:176|324:176|272:184|272:184|248:176|212:172,1,132.00000402832,4|0,0:0|0:0,0:0:0:0:
228,248,65751,1,8,0:0:0:0:
376,112,65901,1,0,0:0:0:0:
400,344,66051,6,0,B|376:364|352:364|352:364|324:376|264:360,1,132.00000402832,4|0,0:0|0:0,0:0:0:0:
352,256,66351,6,0,B|376:236|400:236|400:236|428:224|488:240,1,132.00000402832,12|0,0:0|0:0,0:0:0:0:
272,288,66651,6,0,P|256:244|264:200,1,88.000002685547,4|0,0:0|0:0,0:0:0:0:
483,334,66951,2,0,P|439:350|395:342,1,88.000002685547,8|0,0:0|0:0,0:0:0:0:
432,124,67251,1,0,0:0:0:0:
477,237,67401,1,0,0:0:0:0:
352,84,67551,2,0,P|308:78|268:93,1,88.000002685547,8|0,0:0|0:0,0:0:0:0:
216,276,67851,6,0,P|240:228|212:156,1,132.00000402832,0|0,0:0|0:0,0:0:0:0:
214,158,68151,1,8,0:0:0:0:
0,200,68301,2,0,B|40:212|40:212|64:192|100:180|136:192|164:224,1,176.000005371094,0|0,0:0|0:0,0:0:0:0:
116,348,68751,2,0,P|92:308|100:260,1,88.000002685547,8|0,0:0|0:0,0:0:0:0:
347,265,69051,6,0,L|195:277,1,132.00000402832,4|0,0:0|0:0,0:0:0:0:
160,220,69351,1,8,0:0:0:0:
368,176,69501,1,4,0:0:0:0:
84,136,69651,1,0,0:0:0:0:
88,148,69726,1,0,0:0:0:0:
92,160,69801,1,4,0:0:0:0:
256,96,69951,1,8,0:0:0:0:
252,108,70026,1,0,0:0:0:0:
248,120,70101,6,0,P|168:88|212:40,1,176.000005371094,4|0,0:0|3:0,0:0:0:0:
400,108,70551,1,8,3:2:0:0:
268,284,70701,6,0,L|260:216,1,51.999997619629,0|0,3:2|3:2,0:0:0:0:
248,120,70851,1,0,3:2:0:0:
152,276,71001,6,0,L|160:208,1,60.0000022888184,0|0,3:2|3:2,0:0:0:0:
180,68,71151,1,8,3:2:0:0:
32,224,71301,6,0,L|56:156,1,68.0000012969971,0|0,3:2|3:2,0:0:0:0:
112,12,71451,1,4,0:0:0:0:
159,216,71601,1,0,0:0:0:0:
276,52,71751,6,0,L|368:48,1,88.000002685547,8|0,0:0|0:0,0:0:0:0:
428,240,72051,1,0,0:0:0:0:
244,152,72201,1,0,0:0:0:0:
499,190,72351,2,0,P|511:226|499:286,1,88.000002685547,8|0,0:0|0:0,0:0:0:0:
296,246,72651,2,0,L|448:238,1,132.00000402832,0|0,0:0|0:0,0:0:0:0:
428,240,72951,1,8,0:0:0:0:
300,368,73101,1,0,0:0:0:0:
280,220,73251,1,0,0:0:0:0:
456,364,73401,1,0,0:0:0:0:
480,152,73551,6,0,L|472:252,1,88.000002685547,8|0,0:0|0:0,0:0:0:0:
208,168,73851,2,0,P|264:136|352:168,1,132.00000402832,4|0,0:0|0:0,0:0:0:0:
327,147,74151,1,8,0:0:0:0:
152,260,74301,2,0,L|96:252,1,44.0000013427735,0|0,0:0|0:0,0:0:0:0:
32,240,74451,1,0,0:0:0:0:
208,168,74601,1,0,0:0:0:0:
8,136,74751,1,8,0:0:0:0:
272,80,74901,6,0,P|304:136|280:252,1,176.000005371094,4|0,0:0|0:0,0:0:0:0:
112,120,75351,1,8,0:0:0:0:
196,344,75501,1,0,0:0:0:0:
248,72,75651,1,0,0:0:0:0:
120,304,75801,1,0,3:2:0:0:
36,60,75951,1,8,3:2:0:0:
295,170,76101,5,0,3:2:0:0:
291,206,76176,1,0,3:2:0:0:
287,242,76251,2,0,L|176:232,1,88.000002685547,4|0,3:2|0:0,0:0:0:0:
248,72,76551,2,0,L|359:62,1,88.000002685547,8|0,0:0|0:0,0:0:0:0:
180,156,76851,5,0,0:0:0:0:
144,48,77001,1,0,0:0:0:0:
105,218,77151,2,0,P|105:250|125:314,1,88.000002685547,8|0,0:0|0:0,0:0:0:0:
311,148,77451,2,0,B|263:148|263:148|215:156|215:156|171:156,1,132.00000402832,0|0,0:0|0:0,0:0:0:0:
180,156,77751,1,8,0:0:0:0:
428,212,77901,2,0,P|448:140|396:44,1,176.000005371094,0|0,0:0|0:0,0:0:0:0:
229,136,78351,2,0,P|277:156|321:140,1,88.000002685547,8|0,0:0|0:0,0:0:0:0:
84,80,78651,6,0,L|96:228,1,120,4|0,0:0|0:0,0:0:0:0:
93,199,78951,1,0,0:0:0:0:
310,147,79101,2,0,B|298:31|298:31|282:75,1,160,12|0,0:0|0:0,0:0:0:0:
232,288,79551,1,4,0:0:0:0:
176,116,79701,1,0,0:0:0:0:
172,140,79776,1,0,0:0:0:0:
168,164,79851,1,4,0:0:0:0:
376,256,80001,1,0,0:0:0:0:
372,232,80076,1,0,0:0:0:0:
368,208,80151,5,8,0:0:0:0:
120,240,80301,1,0,0:0:0:0:
360,120,80451,1,0,0:0:0:0:
124,344,80601,1,0,0:0:0:0:
432,244,80751,1,8,0:0:0:0:
88,240,80901,6,0,B|64:208|80:184|80:184|88:152|80:120|80:120|96:80,1,160,4|0,0:0|0:0,0:0:0:0:
164,68,81276,1,0,0:0:0:0:
164,68,81351,2,0,L|248:80,1,80,8|0,0:0|0:0,0:0:0:0:
232,288,81651,2,0,L|148:276,1,80,0|0,0:0|0:0,0:0:0:0:
320,124,81951,1,8,0:0:0:0:
308,336,82101,6,0,B|344:352|344:352|456:336,1,120,0|0,0:0|0:0,0:0:0:0:
440,268,82401,1,0,0:0:0:0:
232,288,82551,1,8,0:0:0:0:
372,144,82701,1,0,0:0:0:0:
372,144,82776,1,0,0:0:0:0:
372,144,82851,1,0,0:0:0:0:
308,336,83001,1,0,0:0:0:0:
296,96,83151,1,8,0:0:0:0:
156,240,83301,6,0,B|176:240|200:252|200:252|224:248|224:248|244:264|296:272,1,120,0|0,0:0|0:0,0:0:0:0:
280,192,83601,1,0,0:0:0:0:
80,228,83751,1,8,0:0:0:0:
304,276,83901,1,0,0:0:0:0:
152,80,84051,5,0,0:0:0:0:
352,116,84201,1,0,0:0:0:0:
128,164,84351,1,8,0:0:0:0:
400,188,84501,6,0,B|432:176|440:148|440:148|428:72,1,120,0|0,0:0|0:0,0:0:0:0:
412,16,84801,1,0,0:0:0:0:
332,232,84951,1,8,0:0:0:0:
268,104,85101,1,0,0:0:0:0:
468,236,85251,1,0,0:0:0:0:
196,228,85401,1,0,0:0:0:0:
196,228,85476,1,0,0:0:0:0:
196,228,85551,1,8,0:0:0:0:
428,320,85701,6,0,B|400:324|384:332|384:332|344:320|280:332,1,120,4|0,0:0|0:0,0:0:0:0:
240,352,86001,1,0,0:0:0:0:
137,152,86151,1,8,0:0:0:0:
288,200,86301,1,0,0:0:0:0:
89,304,86451,2,0,P|76:272|84:216,1,80,0|0,0:0|0:0,0:0:0:0:
310,327,86751,1,8,0:0:0:0:
203,98,86901,6,0,B|207:122|203:146|203:146|215:174|215:174|211:198|215:234,1,120,0|0,0:0|0:0,0:0:0:0:
288,200,87201,1,0,0:0:0:0:
124,115,87351,2,0,P|124:75|148:39,1,80,8|0,0:0|0:0,0:0:0:0:
322,95,87651,2,0,P|264:102|184:94,1,120,0|0,0:0|0:0,0:0:0:0:
202,97,87951,1,8,0:0:0:0:
432,44,88101,6,0,B|440:92|440:92|420:148|420:148|432:216,1,160,4|0,0:0|0:0,0:0:0:0:
460,352,88551,1,8,0:0:0:0:
324,164,88701,1,0,0:0:0:0:
303,352,88851,1,0,0:0:0:0:
429,199,89001,1,0,0:0:0:0:
212,200,89151,5,8,0:0:0:0:
460,352,89301,2,0,B|404:368|404:368|300:352,1,160,4|0,0:0|0:0,0:0:0:0:
308,336,89676,1,0,0:0:0:0:
312,320,89751,1,0,3:2:0:0:
376,120,89901,1,0,3:2:0:0:
380,136,89976,1,0,3:2:0:0:
384,152,90051,1,0,3:2:0:0:
224,136,90201,6,0,L|268:140,1,40,0|0,3:2|3:2,0:0:0:0:
468,164,90351,1,0,3:2:0:0:
192,224,90501,2,0,L|32:212,1,160,4|0,0:0|0:0,0:0:0:0:
128,36,90951,5,8,0:0:0:0:
263,139,91101,1,0,0:0:0:0:
56,180,91251,1,0,0:0:0:0:
191,283,91401,1,0,0:0:0:0:
112,116,91551,1,8,0:0:0:0:
80,348,91701,2,0,B|136:348|136:348|184:336|184:336|244:336,1,160,0|0,0:0|0:0,0:0:0:0:
464,312,92151,2,0,L|380:304,1,80,8|0,0:0|0:0,0:0:0:0:
136,216,92451,2,0,L|220:208,1,80,0|0,0:0|0:0,0:0:0:0:
408,180,92751,5,8,0:0:0:0:
164,92,92901,2,0,B|192:68|220:72|220:72|256:60|340:84,1,160,0|0,0:0|0:0,0:0:0:0:
340,112,93276,1,0,0:0:0:0:
340,152,93351,1,8,0:0:0:0:
324,188,93426,1,0,0:0:0:0:
296,216,93501,1,0,0:0:0:0:
280,252,93576,1,0,0:0:0:0:
280,292,93651,5,0,0:0:0:0:
300,304,93726,1,0,0:0:0:0:
324,304,93801,2,0,P|336:280|332:252,1,40,0|0,0:0|0:0,0:0:0:0:
160,188,93951,5,8,0:0:0:0:
180,176,94026,1,0,0:0:0:0:
204,176,94101,2,0,P|214:193|216:212,1,40,0|0,0:0|0:0,0:0:0:0:
92,280,94251,5,0,0:0:0:0:
52,252,94326,1,0,0:0:0:0:
48,204,94401,1,0,0:0:0:0:
72,160,94476,1,0,0:0:0:0:
120,160,94551,1,8,0:0:0:0:
156,192,94626,1,0,0:0:0:0:
164,240,94701,1,0,0:0:0:0:
140,284,94776,1,0,0:0:0:0:
148,332,94851,6,0,L|236:340,1,80,0|0,0:0|0:0,0:0:0:0:
360,352,95151,1,8,0:0:0:0:
60,324,95301,6,0,B|44:264|44:264|56:220|56:220|24:184|32:140,1,191.999994140625,4|0,0:0|0:0,0:0:0:0:
288,204,95751,1,8,0:0:0:0:
104,160,95901,1,0,0:0:0:0:
312,88,96051,1,0,0:0:0:0:
80,276,96201,1,0,0:0:0:0:
128,44,96351,5,8,0:0:0:0:
228,304,96501,2,0,B|248:332|272:336|272:336|320:336|320:336|368:304|428:352,1,191.999994140625,4|0,0:0|0:0,0:0:0:0:
144,340,96951,5,8,0:0:0:0:
300,136,97101,1,0,0:0:0:0:
420,336,97251,1,0,0:0:0:0:
192,176,97401,1,0,0:0:0:0:
196,204,97476,1,0,0:0:0:0:
200,232,97551,1,8,0:0:0:0:
432,124,97701,1,0,0:0:0:0:
72,72,97851,5,4,0:0:0:0:
76,80,97926,1,0,0:0:0:0:
80,88,98001,1,0,0:0:0:0:
84,96,98076,1,0,0:0:0:0:
88,104,98151,1,8,0:0:0:0:
92,112,98226,1,0,0:0:0:0:
96,120,98301,6,0,L|88:180,1,47.9999985351563,0|0,0:0|0:0,0:0:0:0:
192,168,98451,2,0,L|198:120,1,47.9999985351563,0|0,0:0|0:0,0:0:0:0:
104,136,98601,2,0,L|96:196,1,47.9999985351563,0|0,0:0|0:0,0:0:0:0:
200,184,98751,2,0,L|206:136,1,47.9999985351563,8|0,0:0|0:0,0:0:0:0:
96,296,98901,1,0,0:0:0:0:
92,288,98976,1,0,0:0:0:0:
88,280,99051,5,0,0:0:0:0:
116,272,99126,1,0,0:0:0:0:
144,272,99201,1,0,0:0:0:0:
172,280,99276,1,0,0:0:0:0:
196,292,99351,1,8,0:0:0:0:
220,308,99426,1,0,0:0:0:0:
248,316,99501,1,0,0:0:0:0:
276,312,99576,1,0,0:0:0:0:
304,300,99651,1,0,0:0:0:0:
320,276,99726,1,0,0:0:0:0:
324,248,99801,1,0,0:0:0:0:
316,220,99876,1,0,0:0:0:0:
296,196,99951,6,0,P|264:184|240:196,1,47.9999985351563,8|0,0:0|0:0,0:0:0:0:
384,320,100101,2,0,P|416:332|440:320,1,47.9999985351563,0|0,0:0|0:0,0:0:0:0:
444,76,100251,5,0,0:0:0:0:
400,84,100326,1,0,0:0:0:0:
372,116,100401,1,0,0:0:0:0:
364,160,100476,1,0,0:0:0:0:
368,204,100551,6,0,P|392:208|424:196,1,47.9999985351563,8|0,0:0|0:0,0:0:0:0:
252,116,100701,2,0,P|276:112|308:124,1,47.9999985351563,0|0,0:0|0:0,0:0:0:0:
244,288,100851,6,0,P|268:285|296:265,1,47.9999985351563,8|0,0:0|0:0,0:0:0:0:
132,120,101001,2,0,P|156:122|184:142,1,47.9999985351563,0|0,0:0|0:0,0:0:0:0:
114,341,101151,5,8,0:0:0:0:
90,305,101226,1,0,0:0:0:0:
86,261,101301,1,0,0:0:0:0:
94,217,101376,1,0,0:0:0:0:
130,193,101451,2,0,B|160:184|180:164|180:164|208:172|220:204|220:204|248:200|276:180|276:180|288:240|368:268|428:212|408:184,1,359.999989013672,4|0,0:0|0:0,0:0:0:0:
347,164,102651,6,0,L|352:76,1,80,0|0,3:2|3:2,0:0:0:0:
134,272,103251,2,0,L|129:184,1,80,2|0,3:2|3:2,0:0:0:0:
344,276,103851,5,0,3:2:0:0:
192,336,104151,1,0,3:2:0:0:
416,248,104451,2,0,P|456:244|500:252,1,80,2|0,3:2|3:2,0:0:0:0:
272,312,105051,2,0,P|268:272|276:228,1,80,0|0,3:2|3:2,0:0:0:0:
452,320,105651,5,2,3:2:0:0:
396,88,105951,1,0,3:2:0:0:
274,232,106251,2,0,L|182:240,1,80,0|0,3:2|3:2,0:0:0:0:
316,56,106851,2,0,L|236:49,1,80,2|0,3:2|3:2,0:0:0:0:
124,272,107451,6,0,P|116:233|129:195,1,80,4|0,3:2|3:2,0:0:0:0:
400,260,108051,1,2,3:2:0:0:
208,320,108351,1,0,3:2:0:0:
472,356,108651,1,0,3:2:0:0:
324,228,108951,6,0,P|316:266|329:304,1,80,0|2,3:2|3:2,0:0:0:0:
452,188,109551,2,0,L|500:180,2,26.6666666666667,0|0|0,3:2|0:0|0:0,0:0:0:0:
384,148,109851,1,0,3:2:0:0:
468,40,110151,1,0,3:2:0:0:
136,188,110451,5,8,3:2:0:0:
372,236,110751,2,0,L|300:240,1,60,0|0,3:2|0:0,0:0:0:0:
264,180,111051,5,0,0:0:0:0:
372,364,111201,1,0,0:0:0:0:
424,148,111351,1,0,0:0:0:0:
272,320,111501,1,0,0:0:0:0:
184,136,111651,1,0,0:0:0:0:
392,280,111801,1,0,0:0:0:0:
480,88,111951,2,0,P|436:68|356:96,1,120,0|0,0:0|0:0,0:0:0:0:
424,148,112251,6,0,B|448:188|448:188|436:276,1,120,4|0,0:0|0:0,0:0:0:0:
438,260,112551,1,8,0:0:0:0:
216,144,112701,2,0,B|212:24|212:24|260:80,1,160,0|0,0:0|0:0,0:0:0:0:
316,320,113151,2,0,P|264:332|188:312,1,120,8|0,0:0|0:0,0:0:0:0:
199,318,113451,2,0,L|208:232,1,80,0|0,0:0|0:0,0:0:0:0:
375,151,113751,1,8,0:0:0:0:
216,144,113901,6,0,L|376:152,1,160,0|0,0:0|0:0,0:0:0:0:
207,238,114351,6,0,B|184:232|152:240|152:240|112:240|84:216,1,120,8|0,0:0|0:0,0:0:0:0:
72,152,114651,2,0,P|28:176|20:216,1,80,0|0,0:0|0:0,0:0:0:0:
207,238,114951,1,8,0:0:0:0:
64,296,115101,1,0,0:0:0:0:
216,144,115251,6,0,L|304:148,1,80,0|0,0:0|0:0,0:0:0:0:
152,84,115476,1,0,0:0:0:0:
152,84,115551,2,0,L|72:80,1,80,8|0,0:0|0:0,0:0:0:0:
328,216,115851,6,0,B|336:168|336:168|328:140|328:140|336:92,1,120,0|0,0:0|0:0,0:0:0:0:
352,28,116151,1,8,0:0:0:0:
256,241,116301,2,0,P|308:293|388:266,1,160,0|0,0:0|0:0,0:0:0:0:
176,124,116751,2,0,B|120:120|120:120|56:124,1,120,8|0,0:0|0:0,0:0:0:0:
56,123,117051,2,0,P|48:76|68:24,1,80,4|0,0:0|0:0,0:0:0:0:
256,128,117351,1,8,0:0:0:0:
44,280,117501,6,0,B|116:288|116:288|220:284,1,160,0|0,0:0|0:0,0:0:0:0:
364,123,117951,2,0,P|316:103|252:131,1,120,8|0,0:0|0:0,0:0:0:0:
256,128,118251,2,0,B|256:168|256:168|272:212,1,80,0|0,0:0|0:0,0:0:0:0:
452,152,118551,5,8,0:0:0:0:
296,44,118701,1,0,0:0:0:0:
472,64,118851,6,0,L|420:52,1,53.3333333333333,8|8,3:0|3:0,0:0:0:0:
256,128,119051,1,8,3:0:0:0:
269,205,119151,2,0,L|321:217,1,53.3333333333333,8|8,3:0|3:0,0:0:0:0:
452,152,119351,2,0,L|400:140,1,53.3333333333333,8|4,3:0|0:0,0:0:0:0:
176,124,119751,6,0,L|256:128,1,80,0|0,0:0|0:0,0:0:0:0:
452,152,120051,5,8,3:0:0:0:
312,264,120201,1,0,0:0:0:0:
255,127,120351,1,0,0:0:0:0:
396,72,120501,1,0,0:0:0:0:
392,332,120651,6,0,L|296:340,1,95.9999970703126,0|0,0:0|0:0,0:0:0:0:
356,159,121251,2,0,L|452:151,1,95.9999970703126,0|0,0:0|0:0,0:0:0:0:
428,228,121626,2,0,L|424:260,2,23.9999992675781,0|0|0,0:0|0:0|0:0,0:0:0:0:
312,232,121851,6,0,P|264:232|216:244,1,95.9999970703126,2|0,0:0|0:0,0:0:0:0:
124,304,122301,1,0,0:0:0:0:
124,304,122451,2,0,P|112:272|116:200,1,95.9999970703126,0|0,0:0|0:0,0:0:0:0:
240,104,122901,5,0,0:0:0:0:
116,64,123051,2,0,L|48:72,1,47.9999985351563,0|0,0:0|0:0,0:0:0:0:
160,205,123351,2,0,L|92:213,1,47.9999985351563,0|0,0:0|0:0,0:0:0:0:
280,112,123651,6,0,L|348:120,1,47.9999985351563,0|0,0:0|0:0,0:0:0:0:
236,253,123951,2,0,L|304:261,1,47.9999985351563,0|0,0:0|0:0,0:0:0:0:
200,108,124251,6,0,P|208:72|224:56,1,47.9999985351563,0|0,0:0|0:0,0:0:0:0:
360,264,124551,2,0,P|352:300|336:316,1,47.9999985351563,0|0,0:0|0:0,0:0:0:0:
252,352,124851,5,0,0:0:0:0:
368,76,125151,1,0,0:0:0:0:
432,276,125451,2,0,B|400:288|360:264|320:288,1,95.9999970703126,0|0,0:0|0:0,0:0:0:0:
120,272,126051,6,0,L|112:212,1,47.9999985351563,0|0,0:0|0:0,0:0:0:0:
244,200,126351,2,0,L|250:247,1,47.9999985351563,0|0,0:0|0:0,0:0:0:0:
116,108,126651,2,0,B|152:96|152:96|224:96,1,95.9999970703126,0|0,0:0|0:0,0:0:0:0:
346,255,127251,6,0,L|246:247,1,95.9999970703126,0|0,0:0|0:0,0:0:0:0:
416,108,127851,2,0,P|428:132|424:164,1,47.9999985351563,0|0,0:0|0:0,0:0:0:0:
296,132,128151,2,0,P|284:108|288:76,1,47.9999985351563,0|0,0:0|0:0,0:0:0:0:
360,20,128451,5,0,0:0:0:0:
448,288,128901,1,0,0:0:0:0:
448,288,129051,2,0,L|352:292,1,95.9999970703126,0|0,0:0|0:0,0:0:0:0:
228,300,129501,5,0,0:0:0:0:
464,188,129801,1,0,0:0:0:0:
132,116,130101,2,0,P|116:160|132:216,1,95.9999970703126,0|0,0:0|0:0,0:0:0:0:
264,164,130551,6,0,L|176:168,1,71.9999978027344,0|0,0:0|0:0,0:0:0:0:
216,92,130851,2,0,L|224:40,1,47.9999985351563,0|0,0:0|0:0,0:0:0:0:
344,184,131151,2,0,L|336:132,1,47.9999985351563,0|0,0:0|0:0,0:0:0:0:
126,206,131451,6,0,P|96:224|128:280,1,95.9999970703126,0|0,0:0|0:0,0:0:0:0:
344,184,132051,2,0,P|374:202|342:258,1,95.9999970703126,0|0,0:0|0:0,0:0:0:0:
232,136,132501,1,0,0:0:0:0:
296,44,132651,6,0,P|300:72|292:108,1,47.9999985351563,0|0,0:0|0:0,0:0:0:0:
152,120,132951,2,0,P|149:96|153:72,1,47.9999985351563,0|0,0:0|0:0,0:0:0:0:
300,248,133251,6,0,L|252:251,1,47.9999985351563,0|0,0:0|0:0,0:0:0:0:
360,152,133551,2,0,L|407:155,1,47.9999985351563,0|0,0:0|0:0,0:0:0:0:
192,298,133851,6,0,P|176:262|192:206,1,95.9999970703126,0|0,0:0|0:0,0:0:0:0:
393,238,134451,2,0,B|361:250|361:250|277:246,1,95.9999970703126,0|0,0:0|0:0,0:0:0:0:
120,164,134901,6,0,B|80:160|80:160|40:180|40:180|-4:176,1,119.999996337891,0|0,0:0|0:0,0:0:0:0:
20,104,135351,2,0,L|68:80,1,47.9999985351563,0|0,0:0|0:0,0:0:0:0:
92,240,135651,2,0,L|49:261,1,47.9999985351563,0|0,0:0|0:0,0:0:0:0:
176,68,135951,1,0,0:0:0:0:
216,304,136251,2,0,B|264:312|264:312|316:296,1,95.9999970703126,0|0,0:0|0:0,0:0:0:0:
448,188,136851,5,0,0:0:0:0:
132,276,137151,2,0,L|140:224,1,47.9999985351563,0|0,0:0|0:0,0:0:0:0:
180,48,137451,2,0,L|192:152,1,95.9999970703126,0|0,0:0|0:0,0:0:0:0:
64,160,137901,5,0,0:0:0:0:
224,220,138051,2,0,B|260:224|260:224|324:212,1,95.9999970703126,0|0,0:0|0:0,0:0:0:0:
180,48,138651,6,0,B|164:24|140:32|140:32|104:32|104:32|80:40|48:40,1,128,4|0,0:2|0:0,0:0:0:0:
216,304,139251,2,0,B|232:328|256:320|256:320|292:320|292:320|316:312|348:312,1,128,0|0,0:0|0:0,0:0:0:0:
356,108,139851,6,0,P|328:140|400:164,1,136.000002593994,0|0,0:0|0:0,0:0:0:0:
200,336,140451,2,0,P|258:322|233:268,1,136.000002593994,0|0,0:0|0:0,0:0:0:0:
104,200,141051,6,0,L|16:208,1,80,4|0,0:2|0:0,0:0:0:0:
200,52,141351,1,0,0:0:0:0:
233,268,141501,1,4,0:2:0:0:
96,160,141651,1,0,0:0:0:0:
352,128,141801,1,0,0:0:0:0:
128,256,141951,6,0,B|96:256|76:296|84:324|104:372|176:360|208:304|208:304|268:320|268:320|348:312,1,360,4|0,0:2|0:0,0:0:0:0:
184,40,143451,6,0,B|172:88|172:88|200:176,1,120,4|0,0:0|0:0,0:0:0:0:
220,224,143751,1,8,0:0:0:0:
316,96,143901,1,0,0:0:0:0:
88,168,144051,1,0,0:0:0:0:
184,40,144201,1,0,0:0:0:0:
208,248,144351,6,0,L|116:252,1,80,8|0,0:0|0:0,0:0:0:0:
316,96,144651,2,0,L|236:92,1,80,0|0,0:0|0:0,0:0:0:0:
408,208,144951,6,0,P|416:168|404:124,1,80,8|0,0:0|0:0,0:0:0:0:
296,340,145251,1,0,0:0:0:0:
224,184,145401,1,0,0:0:0:0:
412,284,145551,2,0,P|452:292|496:280,1,80,8|0,0:0|0:0,0:0:0:0:
336,168,145851,2,0,P|296:160|252:172,1,80,0|0,0:0|0:0,0:0:0:0:
220,344,146151,5,8,0:0:0:0:
296,240,146301,1,0,0:0:0:0:
104,272,146451,1,0,0:0:0:0:
104,272,146601,1,0,0:0:0:0:
224,108,146751,2,0,P|228:72|216:24,1,80,8|0,0:0|0:0,0:0:0:0:
104,272,147051,6,0,P|92:212|112:120,1,120,4|0,0:0|0:0,0:0:0:0:
98,154,147351,1,8,0:0:0:0:
320,100,147501,1,0,0:0:0:0:
48,24,147651,2,0,P|4:88|56:108,1,120,4|0,0:0|0:0,0:0:0:0:
98,154,147951,6,0,B|151:155|151:155|175:147|175:147|227:147,1,120,12|0,0:0|0:0,0:0:0:0:
216,147,148251,2,0,P|224:188|208:224,1,80,4|0,0:0|0:0,0:0:0:0:
20,104,148551,1,8,0:0:0:0:
152,48,148701,1,0,0:0:0:0:
28,208,148851,2,0,P|20:248|36:284,1,80,0|0,0:0|0:0,0:0:0:0:
208,222,149151,1,8,0:0:0:0:
116,340,149301,1,0,0:0:0:0:
304,192,149451,6,0,B|356:184|356:184|424:200,1,120,0|0,0:0|0:0,0:0:0:0:
421,199,149751,1,8,0:0:0:0:
251,363,149901,2,0,B|223:323|223:323|235:271|235:271|212:247|207:219,1,160,0|0,0:0|0:0,0:0:0:0:
488,264,150351,2,0,P|444:284|400:280,1,80,8|0,0:0|0:0,0:0:0:0:
168,152,150651,5,4,0:0:0:0:
416,104,150951,1,8,0:0:0:0:
124,60,151101,5,4,0:0:0:0:
488,264,151401,1,0,0:0:0:0:
251,363,151551,1,0,0:0:0:0:
304,96,151701,2,0,B|348:84|372:96|372:96|404:84|404:84|428:92|476:88,1,160,4|0,0:0|0:0,0:0:0:0:
192,224,152151,1,0,0:0:0:0:
232,20,152301,5,0,0:0:0:0:
224,56,152376,1,0,0:0:0:0:
216,92,152451,1,0,0:0:0:0:
32,248,152601,5,0,0:0:0:0:
40,212,152676,1,0,0:0:0:0:
48,176,152751,1,0,0:0:0:0:
312,180,152901,5,0,0:0:0:0:
300,228,152976,1,0,0:0:0:0:
288,276,153051,2,0,B|244:280|244:280|204:272|204:272|152:232,1,120,4|0,0:0|0:0,0:0:0:0:
136,192,153351,1,8,0:0:0:0:
388,176,153501,1,0,0:0:0:0:
208,108,153651,1,0,0:0:0:0:
208,108,153801,1,0,0:0:0:0:
356,308,153951,6,0,L|440:300,1,80,8|0,0:0|0:0,0:0:0:0:
308,68,154251,2,0,P|288:108|308:180,1,120,0|0,0:0|0:0,0:0:0:0:
306,177,154551,1,8,0:0:0:0:
496,120,154701,1,0,0:0:0:0:
228,44,154851,1,0,0:0:0:0:
396,16,155001,1,0,0:0:0:0:
348,264,155151,6,0,B|308:272|308:272|252:264,1,80,8|0,0:0|0:0,0:0:0:0:
128,116,155451,2,0,B|152:32|152:32|160:68,1,120,4|0,0:0|0:0,0:0:0:0:
184,164,155751,1,8,0:0:0:0:
4,200,155901,1,0,0:0:0:0:
224,228,156051,5,0,0:0:0:0:
52,140,156201,1,0,0:0:0:0:
232,96,156351,5,8,0:0:0:0:
32,272,156501,2,0,B|96:288|96:288|164:272|164:272|132:244,1,160,4|0,0:0|0:0,0:0:0:0:
52,140,156951,1,8,0:0:0:0:
344,176,157101,1,0,0:0:0:0:
145,256,157251,5,0,0:0:0:0:
340,84,157401,1,0,0:0:0:0:
104,52,157551,5,8,0:0:0:0:
392,184,157701,1,0,3:0:0:0:
384,228,157776,1,0,3:0:0:0:
376,272,157851,2,0,B|336:256|336:256|292:264|292:264|252:260,1,120,4|0,0:0|0:0,0:0:0:0:
259,260,158151,1,8,0:0:0:0:
468,196,158301,1,0,0:0:0:0:
332,339,158451,2,0,P|376:351|416:343,1,80,0|0,0:0|0:0,0:0:0:0:
300,144,158751,6,0,L|152:156,1,120,8|0,0:0|0:0,0:0:0:0:
180,153,159051,2,0,B|176:116|176:116|192:64,1,80,4|0,0:0|0:0,0:0:0:0:
384,136,159351,1,8,0:0:0:0:
96,164,159501,2,0,B|88:224|88:224|120:328,1,160,0|0,0:0|0:0,0:0:0:0:
292,240,159951,2,0,P|244:224|192:240,1,80,8|0,0:0|0:0,0:0:0:0:
372,340,160251,5,4,0:0:0:0:
372,132,160401,1,0,0:0:0:0:
241,303,160551,1,8,0:0:0:0:
248,52,160701,5,4,0:0:0:0:
368,248,160851,1,0,0:0:0:0:
468,96,161001,1,0,0:0:0:0:
192,184,161151,5,12,0:0:0:0:
408,268,161301,1,0,0:0:0:0:
408,268,161376,1,0,0:0:0:0:
408,268,161451,1,4,0:0:0:0:
192,352,161601,1,0,3:2:0:0:
192,352,161676,1,0,3:0:0:0:
192,352,161751,2,0,L|188:300,1,40,8|0,3:2|0:0,0:0:0:0:
292,208,161901,6,0,L|344:204,2,40,0|0|0,0:0|0:0|0:0,0:0:0:0:
180,68,162201,2,0,L|128:64,1,40,0|0,0:0|0:0,0:0:0:0:
16,56,162351,1,8,0:0:0:0:
312,112,162501,6,0,L|480:92,1,160,4|0,0:0|0:0,0:0:0:0:
340,322,162951,2,0,B|324:262|324:262|332:198,1,120,8|0,0:0|0:0,0:0:0:0:
331,204,163251,1,0,0:0:0:0:
496,256,163401,1,0,0:0:0:0:
240,328,163551,5,8,0:0:0:0:
424,176,163701,2,0,B|432:116|432:116|448:72|448:72|440:40|412:8,1,160,0|0,0:0|0:0,0:0:0:0:
224,88,164151,1,8,0:0:0:0:
424,196,164301,1,0,0:0:0:0:
148,252,164451,2,0,P|212:264|268:248,1,120,0|0,0:0|0:0,0:0:0:0:
264,250,164751,1,8,0:0:0:0:
44,172,164901,6,0,B|36:240|36:240|56:336,1,160,0|0,0:0|0:0,0:0:0:0:
252,128,165351,2,0,P|212:124|156:132,1,80,8|0,0:0|0:0,0:0:0:0:
360,200,165651,2,0,L|376:72,1,120,0|0,0:0|0:0,0:0:0:0:
374,80,165951,1,8,0:0:0:0:
428,300,166101,2,0,P|376:316|276:284,1,160,0|0,0:0|0:0,0:0:0:0:
380,84,166551,5,8,0:0:0:0:
496,188,166701,1,0,0:0:0:0:
276,268,166851,1,0,0:0:0:0:
304,120,167001,1,0,0:0:0:0:
396,340,167151,1,8,0:0:0:0:
400,68,167301,6,0,L|240:60,1,160,4|0,0:0|0:0,0:0:0:0:
136,288,167751,1,8,0:0:0:0:
76,132,167901,1,0,0:0:0:0:
292,184,168051,2,0,B|308:228|308:228|280:260|292:308,1,120,0|0,0:0|0:0,0:0:0:0:
289,296,168351,1,8,0:0:0:0:
188,128,168501,2,0,P|244:72|324:76,1,160,0|0,0:0|0:0,0:0:0:0:
346,236,168951,6,0,P|306:212|290:176,1,80,8|0,0:0|0:0,0:0:0:0:
440,44,169251,2,0,B|472:80|420:116|448:172,1,120,0|0,0:0|0:0,0:0:0:0:
442,159,169551,1,8,0:0:0:0:
160,78,169701,2,0,B|224:70|224:70|328:74,1,160,0|0,0:0|0:0,0:0:0:0:
160,276,170151,1,8,0:0:0:0:
88,152,170301,1,0,0:0:0:0:
284,228,170451,2,0,B|288:272|288:272|264:360,1,120,0|0,0:0|0:0,0:0:0:0:
268,345,170751,1,8,0:0:0:0:
472,140,170901,6,0,L|304:152,1,160,4|0,0:0|0:0,0:0:0:0:
408,312,171351,1,8,0:0:0:0:
444,48,171501,1,0,3:0:0:0:
408,44,171576,1,0,3:0:0:0:
372,40,171651,1,0,3:0:0:0:
432,236,171801,1,0,0:0:0:0:
472,228,171876,1,0,0:0:0:0:
512,220,171951,1,8,0:0:0:0:
212,64,172101,6,0,B|192:88|200:108|200:108|224:148|224:148|228:192|204:220,1,160,4|0,0:0|0:0,0:0:0:0:
40,296,172551,2,0,P|44:244|68:220,1,80,8|0,0:0|0:0,0:0:0:0:
312,248,172851,1,0,0:0:0:0:
168,340,173001,1,0,0:0:0:0:
244,112,173151,5,8,0:0:0:0:
312,344,173301,2,0,P|400:364|480:316,1,160,0|0,0:0|0:0,0:0:0:0:
388,136,173751,2,0,P|372:180|376:224,1,80,8|0,0:0|0:0,0:0:0:0:
496,196,174051,1,0,0:0:0:0:
372,40,174201,1,0,0:0:0:0:
440,264,174351,5,8,0:0:0:0:
316,108,174501,2,0,B|276:96|248:108|248:108|220:128|220:128|196:112|144:120,1,160,0|0,0:0|0:0,0:0:0:0:
40,208,174951,1,8,0:0:0:0:
280,184,175101,1,0,0:0:0:0:
164,36,175251,1,0,0:0:0:0:
196,284,175401,1,0,0:0:0:0:
300,64,175551,5,8,0:0:0:0:
332,312,175701,2,0,B|380:312|380:312|428:296|428:296|503:295,1,160,0|0,0:0|0:0,0:0:0:0:
384,104,176151,1,8,0:0:0:0:
244,356,176301,1,0,0:0:0:0:
224,316,176376,1,0,0:0:0:0:
220,272,176451,1,0,0:0:0:0:
296,36,176601,6,0,P|264:72|168:60,1,120,4|0,0:0|0:0,0:0:0:0:
120,64,176901,6,0,B|136:128|136:128|112:228,1,160,4|0,0:0|0:0,0:0:0:0:
52,368,177351,1,8,0:0:0:0:
24,144,177501,1,0,0:0:0:0:
204,244,177651,2,0,P|188:276|140:308,1,80,0|0,0:0|0:0,0:0:0:0:
120,64,177951,1,8,0:0:0:0:
368,156,178101,6,0,L|204:168,1,160,4|0,0:0|0:0,0:0:0:0:
284,24,178551,1,8,0:0:0:0:
344,256,178701,1,0,0:0:0:0:
172,96,178851,2,0,P|136:128|128:168,1,80,0|0,0:0|0:0,0:0:0:0:
404,80,179151,1,8,0:0:0:0:
416,312,179301,6,0,B|360:328|360:328|240:320,1,160,4|0,0:0|0:0,0:0:0:0:
328,68,179751,1,8,0:0:0:0:
496,272,179901,1,0,0:0:0:0:
190,360,180051,2,0,P|182:316|202:268,1,80,0|0,0:0|0:0,0:0:0:0:
416,312,180351,5,8,0:0:0:0:
240,108,180501,2,0,B|264:80|292:104|292:104|332:104|332:104|356:88|399:93,1,160,4|0,0:0|0:0,0:0:0:0:
492,248,180951,1,8,0:0:0:0:
264,300,181101,1,0,0:0:0:0:
316,24,181251,1,0,0:0:0:0:
388,328,181401,1,0,0:0:0:0:
376,292,181476,1,0,3:0:0:0:
364,256,181551,5,8,3:2:0:0:
56,168,181701,2,0,B|48:204|56:224|56:224|56:268|56:268|56:308|104:324,1,160,4|0,0:0|0:0,0:0:0:0:
336,176,182151,1,8,0:0:0:0:
112,112,182301,1,0,0:0:0:0:
364,256,182451,1,0,0:0:0:0:
96,352,182601,1,0,0:0:0:0:
368,160,182751,1,8,0:0:0:0:
45,66,182901,2,0,P|33:118|113:194,1,160,4|0,0:0|0:0,0:0:0:0:
272,40,183351,6,0,P|228:44|192:68,1,80,8|0,0:0|0:0,0:0:0:0:
164,128,183576,1,0,0:0:0:0:
176,136,183651,1,0,0:0:0:0:
412,112,183801,1,0,0:0:0:0:
416,96,183876,1,0,0:0:0:0:
420,80,183951,5,8,3:2:0:0:
440,120,184026,1,0,3:2:0:0:
448,164,184101,1,0,3:2:0:0:
440,208,184176,1,0,3:2:0:0:
424,248,184251,6,0,P|392:236|372:188,1,80,4|0,0:0|0:0,0:0:0:0:
360,28,184551,1,0,0:0:0:0:
328,276,184701,6,0,P|320:240|332:196,1,80,4|0,0:0|0:0,0:0:0:0:
444,40,185001,1,0,0:0:0:0:
224,252,185151,6,0,B|244:180|244:180|184:192|184:192|132:212|92:188|92:188|64:220|80:268|80:268|44:292|8:280|8:280|-20:224|0:160|36:120|52:108|52:108|48:40|92:8|172:-4|208:52|212:115|212:115|164:124|164:124|140:131|140:131|124:108|128:91,1,960,4|0,0:0|0:0,0:0:0:0:
