osu file format v14

[General]
AudioFilename: forgive me father for i have sinned.mp3
AudioLeadIn: 0
PreviewTime: 61411
Countdown: 0
SampleSet: Soft
StackLeniency: 0.5
Mode: 0
LetterboxInBreaks: 1
WidescreenStoryboard: 0

[Editor]
Bookmarks: 22647,106712,106880,107049,107217,107386,107554,107723,107891,108060,108228,108397,108566,108734,108903,109071,109240,109408,109577,109745,109914,110082,110251,110419,110588,110757,110925,111094,111262,111431,111599,111768,111936,112105,112273,112442,112610,112779,112948,113116,113285,113453,113622,113790,113959,114127,114296,114464,114633,114801,114970,115139,115307,115476,115644,115813,115981
DistanceSpacing: 1
BeatDivisor: 4
GridSize: 4
TimelineZoom: 1.2

[Metadata]
Title:Yukkuri To
TitleUnicode:ゆっくりと
Artist:Hatsune Miku feat. Wyz
ArtistUnicode:Hatsune Miku feat. Wyz
Creator:GreenHue
Version:Normal
Source:
Tags:canderos quanhitter38 despacito luis fonsi daddy yankee vocaloid cover japanese mikucito despamiku
BeatmapID:1634757
BeatmapSetID:778319

[Difficulty]
HPDrainRate:4
CircleSize:3.5
OverallDifficulty:3
ApproachRate:4
SliderMultiplier:1.8
SliderTickRate:1

[Events]
//Background and Video events
0,0,"EEEEEEEEEEEEEEEEEEEEEEEEEEEEEEEEEEEEEEEEEEEEEEEEEEEEEEEEEEEEEEEEEEEEEEEEEEEEEEEEEEEEEEEEEEEEEEEEEEEEEEEEEEEEEEEEEEEEEEEEEEEEEEEEEEEEEEEEEEEEEEEEEEEEEEEEEEEEEEEEEEE.jpg",0,0
//Break Periods
2,106911,115504
//Storyboard Layer 0 (Background)
//Storyboard Layer 1 (Fail)
//Storyboard Layer 2 (Pass)
//Storyboard Layer 3 (Foreground)
//Storyboard Sound Samples

[TimingPoints]
9164,674.157303370787,4,2,1,45,1,0
61785,909.090909090909,4,2,1,45,1,0
63566,674.157303370787,4,3,1,65,1,0
85139,-100,4,3,1,65,0,1
105363,-100,4,3,1,65,0,0
117498,-100,4,3,1,65,0,1
128285,-100,4,3,1,65,0,0

[Colours]
Combo1 : 255,192,168
Combo2 : 255,194,134
Combo3 : 253,242,142
Combo4 : 225,191,57
SliderBorder : 250,200,134

[HitObjects]
0,75,9163,6,0,L|121:71,1,90,4|0,0:0|0:0,0:0:0:0:
127,47,9669,2,0,L|247:53,1,90,0|0,0:0|0:0,0:0:0:0:
254,77,10175,2,0,P|262:120|243:175,2,90,2|0|2,0:0|0:0|0:0,0:0:0:0:
332,32,11186,1,0,0:0:0:0:
449,168,11860,6,0,L|439:295,1,90,0|2,0:0|0:0,0:0:0:0:
436,302,12366,2,0,P|384:292|332:315,1,90,0|0,0:0|0:0,0:0:0:0:
310,324,12871,2,0,P|265:336|211:319,2,90,2|0|2,0:0|0:0|0:0,0:0:0:0:
268,243,13883,1,0,0:0:0:0:
118,342,14557,6,0,P|80:308|32:297,1,90,0|2,0:0|0:0,0:0:0:0:
49,253,15062,2,0,P|78:190|71:137,1,90
72,125,15568,2,0,P|63:89|-2:30,2,90,2|0|2,0:0|0:0|0:0,0:0:0:0:
115,135,16411,1,0,0:0:0:0:
217,48,16916,1,0,0:0:0:0:
308,63,17253,2,0,L|407:69,1,90,0|2,0:0|0:0,0:0:0:0:
436,91,17759,2,0,P|453:162|430:225,1,135,0|2,0:0|0:0,0:0:0:0:
68,211,19950,5,0,0:0:0:0:
120,284,20287,2,0,B|179:284|207:306|207:306|244:274|319:279,3,180,8|8|8|8,0:0|0:0|0:0|0:0,0:0:0:0:
290,100,22984,2,0,B|231:100|203:78|203:78|164:102|117:103,3,180,8|8|8|8,0:0|0:0|0:0|0:0,0:0:0:0:
56,168,25343,6,0,L|59:260,1,90,0|8,0:0|0:0,0:0:0:0:
129,314,26017,2,0,P|171:319|232:296,1,90,0|8,0:0|0:0,0:0:0:0:
299,270,26692,2,0,P|341:265|402:288,1,90,0|8,0:0|0:0,0:0:0:0:
460,226,27366,2,0,L|457:136,1,90,0|8,0:0|0:0,0:0:0:0:
455,91,27871,6,0,P|383:106|318:94,1,135,0|8,0:0|0:0,0:0:0:0:
235,73,28714,2,0,L|237:162,1,90,0|8,0:0|0:0,0:0:0:0:
240,207,29219,2,0,P|312:192|377:204,1,135,0|8,0:0|0:0,0:0:0:0:
88,340,30737,6,0,P|39:226|74:157,1,180,4|0,0:0|0:0,0:0:0:0:
114,114,31748,2,0,L|306:89,2,180,8|8|8,0:0|0:0|0:0,0:0:0:0:
152,195,33433,6,0,L|275:179,1,90,0|8,0:0|0:0,0:0:0:0:
418,214,34444,2,0,P|454:314|421:410,2,180,8|8|0,0:0|0:0|0:0,0:0:0:0:
358,146,36130,6,0,L|408:43,1,90,0|8,0:0|0:0,0:0:0:0:
312,36,36804,2,0,L|262:139,1,90,0|8,0:0|0:0,0:0:0:0:
204,175,37478,2,0,P|150:183|90:160,1,90,0|8,0:0|0:0,0:0:0:0:
77,93,38152,2,0,P|41:118|23:169,1,90,0|8,0:0|0:0,0:0:0:0:
28,204,38658,1,0,0:0:0:0:
46,244,38826,6,0,P|87:269|161:266,1,90,0|8,0:0|0:0,0:0:0:0:
299,330,39838,1,8,0:0:0:0:
427,257,41523,6,0,L|417:102,1,135,8|8,0:0|0:0,0:0:0:0:
413,77,42197,1,8,0:0:0:0:
346,16,42534,1,0,0:0:0:0:
257,31,42871,2,0,P|188:22|104:35,1,135,8|8,0:0|0:0,0:0:0:0:
83,50,43546,5,8,0:0:0:0:
120,131,43883,1,0,0:0:0:0:
60,198,44220,2,0,L|62:337,1,135,8|8,0:0|0:0,0:0:0:0:
91,367,44894,6,0,P|138:373|197:358,1,90,8|0,0:0|0:0,0:0:0:0:
235,294,45568,2,0,L|232:144,1,135,8|8,0:0|0:0,0:0:0:0:
233,113,46242,5,8,0:0:0:0:
310,68,46579,1,0,0:0:0:0:
392,103,46916,2,0,L|398:250,1,135,8|8,0:0|0:0,0:0:0:0:
402,282,47590,5,8,0:0:0:0:
322,325,47928,1,0,0:0:0:0:
239,288,48265,2,0,P|174:269|90:304,1,135,8|8,0:0|0:0,0:0:0:0:
74,313,48939,6,0,P|86:263|58:212,1,90,8|0,0:0|0:0,0:0:0:0:
18,156,49613,1,8,0:0:0:0:
76,87,49950,1,0,0:0:0:0:
165,87,50287,1,0,0:0:0:0:
225,153,50624,1,0,0:0:0:0:
291,92,50961,2,8,L|402:95,1,90,8|0,0:0|0:0,0:0:0:0:
458,140,51635,2,0,L|464:235,1,90
391,268,52310,6,0,L|381:113,1,135,12|8,0:0|0:0,0:0:0:0:
378,88,52984,1,8,0:0:0:0:
291,63,53321,1,0,0:0:0:0:
209,100,53658,2,0,P|141:116|57:92,1,135,8|8,0:0|0:0,0:0:0:0:
41,76,54333,5,8,0:0:0:0:
18,162,54670,1,0,0:0:0:0:
7,251,55007,2,0,P|-5:315|15:387,1,135,8|8,0:0|0:0,0:0:0:0:
66,384,55681,6,0,L|172:375,1,90,8|0,0:0|0:0,0:0:0:0:
227,321,56355,2,0,L|215:169,1,135,8|8,0:0|0:0,0:0:0:0:
218,141,57029,5,8,0:0:0:0:
304,165,57366,1,0,0:0:0:0:
392,147,57703,2,0,P|404:183|368:283,1,135,8|8,0:0|0:0,0:0:0:0:
406,308,58377,5,8,0:0:0:0:
329,356,58715,1,0,0:0:0:0:
248,307,59052,2,0,P|183:288|99:323,1,135,8|8,0:0|0:0,0:0:0:0:
78,323,59726,6,0,P|90:273|62:222,1,90,8|0,0:0|0:0,0:0:0:0:
0,191,60400,1,8,0:0:0:0:
40,111,60737,1,0,0:0:0:0:
115,159,61074,1,0,0:0:0:0:
191,111,61411,1,0,0:0:0:0:
456,338,63566,6,0,P|457:283|435:221,1,90,6|0,0:0|0:0,0:0:0:0:
372,201,64240,1,8,0:0:0:0:
372,201,64408,2,0,L|290:203,2,45,0|2|0,0:0|0:0|0:0,0:0:0:0:
404,168,64914,2,0,L|392:24,1,135,2|2,0:0|0:0,0:0:0:0:
348,20,65588,2,0,P|296:12|240:36,1,90,8|2,0:0|0:0,0:0:0:0:
224,49,66094,1,0,0:0:0:0:
134,44,66431,1,0,0:0:0:0:
24,120,66936,5,8,0:0:0:0:
24,120,67105,2,0,L|24:75,2,45,0|2|0,0:0|0:0|0:0,0:0:0:0:
64,140,67610,2,0,P|52:184|132:272,1,135,2|2,0:0|0:0,0:0:0:0:
126,289,68285,1,8,0:0:0:0:
205,247,68622,1,2,0:0:0:0:
249,252,68790,2,0,L|329:260,2,45,0|2|0,0:0|0:0|0:0,0:0:0:0:
176,136,69633,5,8,0:0:0:0:
176,136,69801,2,0,L|170:91,2,45,0|2|0,0:0|0:0|0:0,0:0:0:0:
208,168,70307,2,0,P|252:164|295:150,1,90,2|0,0:0|0:0,0:0:0:0:
328,120,70813,1,2,0:0:0:0:
364,92,70981,2,0,L|357:2,2,90,8|2|2,0:0|0:0|0:0,0:0:0:0:
468,240,72330,6,0,P|428:224|344:232,1,90,8|2,0:0|0:0,0:0:0:0:
400,308,73004,2,0,P|308:324|200:304,1,180,2|8,0:0|0:0,0:0:0:0:
56,338,74352,6,0,P|55:283|77:221,1,90,2|0,0:0|0:0,0:0:0:0:
136,196,75026,1,8,0:0:0:0:
136,196,75195,2,0,L|218:198,2,45,0|2|0,0:0|0:0|0:0,0:0:0:0:
98,171,75700,2,0,P|94:103|118:27,1,135,2|2,0:0|0:0,0:0:0:0:
146,9,76374,1,8,0:0:0:0:
226,50,76712,1,2,0:0:0:0:
267,32,76880,2,0,P|319:24|375:48,1,90
310,162,77723,1,0,0:0:0:0:
310,162,77891,6,0,L|310:117,2,45,8|0|2,0:0|0:0|0:0,0:0:0:0:
345,189,78397,2,0,L|309:353,1,135,2|2,0:0|0:0,0:0:0:0:
296,361,79071,2,0,P|252:345|180:353,1,90,8|2,0:0|0:0,0:0:0:0:
164,349,79576,2,0,L|48:365,1,90
6,243,80419,5,8,0:0:0:0:
6,243,80588,2,0,L|0:198,2,45,0|2|0,0:0|0:0|0:0,0:0:0:0:
48,257,81093,2,0,P|92:253|135:239,1,90,2|0,0:0|0:0,0:0:0:0:
175,217,81599,1,2,0:0:0:0:
194,176,81767,2,0,L|187:86,2,90,8|2|2,0:0|0:0|0:0,0:0:0:0:
299,32,83116,6,0,P|339:20|411:52,1,90,8|2,0:0|0:0,0:0:0:0:
344,110,83790,2,0,P|345:198|389:296,1,180,2|8,0:0|0:0,0:0:0:0:
222,373,85139,6,0,P|234:305|186:217,1,135,6|2,0:0|0:0,0:0:0:0:
175,217,85813,1,8,0:0:0:0:
158,128,86150,1,2,0:0:0:0:
179,88,86318,2,0,L|295:80,1,90
301,50,86824,2,0,L|285:-22,2,45,0|2|8,0:0|0:0|0:0,0:0:0:0:
380,92,87498,2,0,L|484:84,1,90,2|2,0:0|0:0,0:0:0:0:
308,164,88509,5,8,0:0:0:0:
140,232,89183,2,0,L|76:240,2,45,2|0|0,0:0|0:0|0:0,0:0:0:0:
172,264,89689,2,0,L|264:256,1,90,2|0,0:0|0:0,0:0:0:0:
304,248,90195,1,2,0:0:0:0:
348,240,90363,2,0,P|336:184|356:132,2,90,0|0|2,0:0|0:0|0:0,0:0:0:0:
376,276,91206,1,8,0:0:0:0:
424,104,91880,6,0,L|469:104,2,45,2|0|0,0:0|0:0|0:0,0:0:0:0:
388,76,92386,2,0,L|264:76,1,90,2|0,0:0|0:0,0:0:0:0:
252,76,92891,1,2,0:0:0:0:
208,76,93060,2,0,P|195:118|181:170,1,90
170,295,93903,6,0,P|213:298|270:287,1,90,8|0,0:0|0:0,0:0:0:0:
297,208,94577,2,0,P|333:196|393:196,1,90,2|0,0:0|0:0,0:0:0:0:
427,273,95251,2,0,B|443:321|419:377,1,90,8|2,0:0|0:0,0:0:0:0:
335,366,95925,6,0,L|171:354,1,135,2|2,0:0|0:0,0:0:0:0:
155,352,96599,1,8,0:0:0:0:
161,262,96936,2,0,L|172:88,1,135,2|0,0:0|0:0,0:0:0:0:
162,83,97610,2,0,L|154:23,1,45,0|2,0:0|0:0,0:0:0:0:
190,8,97948,2,0,P|238:8|310:28,1,90,8|0,0:0|0:0,0:0:0:0:
305,52,98453,2,0,P|349:56|409:44,1,90
463,167,99296,5,8,0:0:0:0:
288,160,99970,2,0,L|212:148,1,45,2|0,0:0|0:0,0:0:0:0:
204,132,100307,2,0,L|188:72,2,45,0|2|8,0:0|0:0|0:0,0:0:0:0:
128,180,100981,1,2,0:0:0:0:
128,180,101150,2,0,L|140:240,1,45,0|2,0:0|0:0,0:0:0:0:
156,264,101487,2,0,L|156:376,1,90,0|0,0:0|0:0,0:0:0:0:
120,380,101992,1,8,0:0:0:0:
294,335,102667,6,0,L|310:396,2,45,2|0|0,0:0|0:0|0:0,0:0:0:0:
322,300,103172,2,0,P|346:252|346:200,1,90,2|0,0:0|0:0,0:0:0:0:
317,184,103678,1,2,0:0:0:0:
292,146,103846,2,0,P|288:102|308:34,1,90
417,119,104689,5,8,0:0:0:0:
495,274,105363,2,0,P|407:270|288:323,2,180,2|8|0,0:0|0:0|0:0,0:0:0:0:
56,64,116824,6,0,L|160:48,1,90,0|0,0:0|0:0,0:0:0:0:
168,88,117330,1,0,0:0:0:0:
192,124,117498,2,0,L|320:100,1,90,6|0,0:0|0:0,0:0:0:0:
372,116,118172,2,0,L|380:228,1,90,8|2,0:0|0:0,0:0:0:0:
380,252,118678,1,0,0:0:0:0:
352,288,118846,2,0,P|308:298|264:290,1,90,2|0,0:0|0:0,0:0:0:0:
188,336,119521,6,0,P|176:308|176:260,1,45,8|0,0:0|0:0,0:0:0:0:
136,268,119858,2,0,P|140:236|156:196,1,45,2|0,0:0|0:0,0:0:0:0:
160,184,120195,2,0,P|172:128|152:64,2,90,2|0|8,0:0|0:0|0:0,0:0:0:0:
84,136,121206,2,0,L|12:136,1,45,2|0,0:0|0:0,0:0:0:0:
0,112,121543,2,0,P|-8:60|16:0,1,90,2|0,0:0|0:0,0:0:0:0:
88,0,122217,5,8,0:0:0:0:
252,72,122891,2,0,P|324:88|408:56,1,135,2|2,0:0|0:0,0:0:0:0:
416,44,123566,1,8,0:0:0:0:
492,208,124240,6,0,L|488:140,2,45,2|0|0,0:0|0:0|0:0,0:0:0:0:
488,252,124745,2,0,P|436:256|380:280,1,90,2|0,0:0|0:0,0:0:0:0:
369,300,125251,1,2,0:0:0:0:
332,326,125419,2,0,L|192:338,1,135
144,264,126262,6,0,L|96:152,1,90,8|2,0:0|0:0,0:0:0:0:
172,120,126936,2,0,L|220:224,1,90,2|0,0:0|0:0,0:0:0:0:
260,276,127610,1,8,0:0:0:0:
296,192,127948,1,2,0:0:0:0:
344,268,128285,6,0,P|412:232|296:40,1,360,6|2,0:0|0:0,0:0:0:0:
136,32,130307,2,0,P|9:133|107:263,1,360,8|8,0:0|0:0,0:0:0:0:
208,143,132330,5,2,0:0:0:0:
368,100,133004,2,0,P|344:144|340:204,1,90,8|2,0:0|0:0,0:0:0:0:
345,227,133509,1,0,0:0:0:0:
256,192,134015,12,0,139071,0:0:0:0:
