osu file format v14

[General]
AudioFilename: audio.mp3
AudioLeadIn: 0
PreviewTime: -1
Countdown: 0
SampleSet: None
StackLeniency: 1
Mode: 3
LetterboxInBreaks: 0
SpecialStyle: 0
WidescreenStoryboard: 1

[Editor]
DistanceSpacing: 1.2
BeatDivisor: 8
GridSize: 4
TimelineZoom: 1.5

[Metadata]
Title:(Ghost Rule)
TitleUnicode:ゴーストルール (ghost Rule)
Artist:Hatsune Miku V4X
ArtistUnicode:Hatsune Miku V4X
Creator:koudza121
Version:Hard
Source:
Tags:
BeatmapID:1412589
BeatmapSetID:667624

[Difficulty]
HPDrainRate:7
CircleSize:4
OverallDifficulty:7
ApproachRate:5
SliderMultiplier:1.40000000596046
SliderTickRate:1

[Events]
//Background and Video events
0,0,"Ghost Rule Miku.png",0,0
//Break Periods
//Storyboard Layer 0 (Background)
//Storyboard Layer 1 (Fail)
//Storyboard Layer 2 (Pass)
//Storyboard Layer 3 (Foreground)
//Storyboard Sound Samples

[TimingPoints]
319,285.714285714286,4,3,0,30,1,0
9461,-100,4,3,0,30,0,1
18604,-100,4,3,0,30,0,0
27747,-100,4,3,0,30,0,1
36890,-100,4,3,0,30,0,0
45747,-10,4,3,0,30,0,0
45890,-10000,4,3,0,30,0,0
47747,-20,4,3,0,30,0,0
48033,-10000,4,3,0,30,0,0
48319,-100,4,3,0,30,0,1
50319,-10000,4,3,0,30,0,1
50604,-100,4,3,0,30,0,1
54890,-10000,4,3,0,30,0,1
55176,-100,4,3,0,30,0,1
66604,-100,4,3,0,30,0,0
84890,-100,4,3,0,30,0,1
94033,-100,4,3,0,30,0,0
102890,-10,4,3,0,30,0,0
103033,-10000,4,3,0,30,0,0
104890,-10,4,3,0,30,0,0
105176,-10000,4,3,0,30,0,0
105461,-100,4,3,0,30,0,1
123747,571.428571428571,4,3,0,30,1,0
151175,285.714285714286,4,3,0,30,1,1
158032,-10000,4,3,0,30,0,0
159746,-10,4,3,0,30,0,0
160032,-10000,4,3,0,30,0,0
160317,-100,4,3,0,30,0,1
168889,6,4,3,0,5,1,0
169167,285.714285714286,4,3,0,30,1,1
173167,6,4,3,0,5,1,0
173460,285.714285714286,4,3,0,30,1,1
196306,-100,4,3,0,30,0,0

[HitObjects]
192,192,4890,1,0,0:0:0:0:
64,192,4890,128,0,5319:0:0:0:0:
320,192,5319,1,0,0:0:0:0:
192,192,5319,128,0,5747:0:0:0:0:
448,192,5747,1,0,0:0:0:0:
320,192,5747,128,0,6176:0:0:0:0:
448,192,6176,1,0,0:0:0:0:
192,192,6176,128,0,6604:0:0:0:0:
320,192,6604,1,0,0:0:0:0:
64,192,6604,128,0,7033:0:0:0:0:
320,192,7176,1,0,0:0:0:0:
448,192,7176,128,0,7604:0:0:0:0:
192,192,7604,1,0,0:0:0:0:
320,192,7604,128,0,8033:0:0:0:0:
64,192,8033,1,0,0:0:0:0:
192,192,8033,128,0,8461:0:0:0:0:
64,192,8461,1,0,0:0:0:0:
320,192,8461,128,0,8890:0:0:0:0:
448,192,8890,128,0,9176:0:0:0:0:
320,192,9176,1,0,0:0:0:0:
448,192,9461,1,0,0:0:0:0:
320,192,9533,1,0,0:0:0:0:
192,192,9604,1,0,0:0:0:0:
64,192,9676,1,0,0:0:0:0:
320,192,9890,1,0,0:0:0:0:
192,192,10033,1,0,0:0:0:0:
448,192,10033,1,0,0:0:0:0:
64,192,10176,1,0,0:0:0:0:
320,192,10176,1,0,0:0:0:0:
192,192,10319,1,0,0:0:0:0:
448,192,10604,1,0,0:0:0:0:
448,192,10747,1,0,0:0:0:0:
320,192,10747,1,0,0:0:0:0:
192,192,10890,1,0,0:0:0:0:
64,192,11176,1,0,0:0:0:0:
192,192,11319,1,0,0:0:0:0:
320,192,11319,1,0,0:0:0:0:
448,192,11319,128,0,11747:0:0:0:0:
64,192,11747,1,0,0:0:0:0:
192,192,11819,1,0,0:0:0:0:
320,192,11890,1,0,0:0:0:0:
448,192,11961,1,0,0:0:0:0:
192,192,12176,1,0,0:0:0:0:
64,192,12319,1,0,0:0:0:0:
320,192,12319,1,0,0:0:0:0:
448,192,12461,1,0,0:0:0:0:
192,192,12461,1,0,0:0:0:0:
320,192,12604,1,0,0:0:0:0:
64,192,12890,1,0,0:0:0:0:
320,192,13033,1,0,0:0:0:0:
448,192,13033,1,0,0:0:0:0:
192,192,13176,1,0,0:0:0:0:
320,192,13461,1,0,0:0:0:0:
448,192,13604,128,0,14033:0:0:0:0:
192,192,13604,1,0,0:0:0:0:
64,192,13604,1,0,0:0:0:0:
320,192,14033,1,0,0:0:0:0:
192,192,14104,1,0,0:0:0:0:
64,192,14176,1,0,0:0:0:0:
192,192,14461,128,0,14604:0:0:0:0:
64,192,14604,1,0,0:0:0:0:
448,192,14747,1,0,0:0:0:0:
320,192,14747,128,0,14890:0:0:0:0:
320,192,15176,1,0,0:0:0:0:
192,192,15319,1,0,0:0:0:0:
64,192,15319,1,0,0:0:0:0:
448,192,15461,1,0,0:0:0:0:
64,192,15747,1,0,0:0:0:0:
320,192,15747,1,0,0:0:0:0:
192,192,15890,128,0,16319:0:0:0:0:
448,192,15890,1,0,0:0:0:0:
320,192,15890,1,0,0:0:0:0:
448,192,16319,1,0,0:0:0:0:
320,192,16390,1,0,0:0:0:0:
192,192,16461,1,0,0:0:0:0:
64,192,16533,1,0,0:0:0:0:
192,192,16747,128,0,16890:0:0:0:0:
320,192,16890,128,0,17033:0:0:0:0:
64,192,17033,1,0,0:0:0:0:
448,192,17033,1,0,0:0:0:0:
192,192,17033,128,0,17176:0:0:0:0:
320,192,17176,1,0,0:0:0:0:
192,192,17461,1,0,0:0:0:0:
320,192,17604,1,0,0:0:0:0:
64,192,17604,1,0,0:0:0:0:
448,192,17747,1,0,0:0:0:0:
192,192,17747,1,0,0:0:0:0:
320,192,17890,1,0,0:0:0:0:
64,192,18033,1,0,0:0:0:0:
448,192,18033,1,0,0:0:0:0:
192,192,18176,1,0,0:0:0:0:
320,192,18319,1,0,0:0:0:0:
448,192,18461,1,0,0:0:0:0:
320,192,18604,128,0,18961:0:0:0:0:
64,192,18604,1,0,0:0:0:0:
448,192,18890,1,0,0:0:0:0:
320,192,19033,128,0,19390:0:0:0:0:
64,192,19176,1,0,0:0:0:0:
448,192,19461,1,0,0:0:0:0:
320,192,19461,128,0,19747:0:0:0:0:
64,192,19747,1,0,0:0:0:0:
320,192,20033,1,0,0:0:0:0:
64,192,20033,1,0,0:0:0:0:
448,192,20319,1,0,0:0:0:0:
192,192,20319,1,0,0:0:0:0:
192,192,20604,1,0,0:0:0:0:
64,192,20604,1,0,0:0:0:0:
320,192,20747,1,0,0:0:0:0:
320,192,20890,1,0,0:0:0:0:
192,192,20890,1,0,0:0:0:0:
448,192,20890,128,0,21247:0:0:0:0:
64,192,21176,1,0,0:0:0:0:
448,192,21319,128,0,21676:0:0:0:0:
320,192,21461,1,0,0:0:0:0:
192,192,21747,1,0,0:0:0:0:
448,192,21747,128,0,22033:0:0:0:0:
64,192,22033,1,0,0:0:0:0:
192,192,22319,1,0,0:0:0:0:
192,192,22604,1,0,0:0:0:0:
320,192,22604,1,0,0:0:0:0:
64,192,22890,1,0,0:0:0:0:
192,192,22890,1,0,0:0:0:0:
320,192,23033,1,0,0:0:0:0:
192,192,23033,1,0,0:0:0:0:
320,192,23176,1,0,0:0:0:0:
192,192,23176,128,0,23533:0:0:0:0:
64,192,23461,1,0,0:0:0:0:
192,192,23604,128,0,23961:0:0:0:0:
320,192,23747,1,0,0:0:0:0:
448,192,24033,1,0,0:0:0:0:
192,192,24033,128,0,24319:0:0:0:0:
320,192,24319,1,0,0:0:0:0:
320,192,24604,1,0,0:0:0:0:
192,192,24604,1,0,0:0:0:0:
448,192,24890,1,0,0:0:0:0:
64,192,24890,1,0,0:0:0:0:
64,192,25176,1,0,0:0:0:0:
320,192,25176,1,0,0:0:0:0:
448,192,25319,1,0,0:0:0:0:
192,192,25461,1,0,0:0:0:0:
64,192,25461,128,0,25819:0:0:0:0:
320,192,25747,1,0,0:0:0:0:
64,192,25890,128,0,26247:0:0:0:0:
192,192,26033,1,0,0:0:0:0:
448,192,26319,1,0,0:0:0:0:
64,192,26319,128,0,26604:0:0:0:0:
320,192,26604,1,0,0:0:0:0:
192,192,26890,1,0,0:0:0:0:
320,192,27033,1,0,0:0:0:0:
448,192,27176,1,0,0:0:0:0:
320,192,27247,1,0,0:0:0:0:
192,192,27319,1,0,0:0:0:0:
64,192,27390,1,0,0:0:0:0:
320,192,27461,128,0,27747:0:0:0:0:
64,192,27747,5,0,0:0:0:0:
192,192,27747,1,0,0:0:0:0:
448,192,27747,1,0,0:0:0:0:
320,192,28033,1,0,0:0:0:0:
192,192,28033,1,0,0:0:0:0:
448,192,28319,1,0,0:0:0:0:
64,192,28319,1,0,0:0:0:0:
64,192,28604,1,0,0:0:0:0:
192,192,28604,1,0,0:0:0:0:
320,192,28890,1,0,0:0:0:0:
192,192,28890,1,0,0:0:0:0:
64,192,29176,1,0,0:0:0:0:
320,192,29176,1,0,0:0:0:0:
448,192,29461,1,0,0:0:0:0:
320,192,29461,1,0,0:0:0:0:
192,192,29604,1,0,0:0:0:0:
320,192,29747,1,0,0:0:0:0:
448,192,29890,1,0,0:0:0:0:
192,192,30033,1,0,0:0:0:0:
320,192,30033,1,0,0:0:0:0:
320,192,30319,1,0,0:0:0:0:
64,192,30319,1,0,0:0:0:0:
448,192,30604,1,0,0:0:0:0:
320,192,30604,1,0,0:0:0:0:
64,192,30890,1,0,0:0:0:0:
192,192,30890,1,0,0:0:0:0:
64,192,31176,1,0,0:0:0:0:
320,192,31176,1,0,0:0:0:0:
448,192,31461,1,0,0:0:0:0:
192,192,31461,1,0,0:0:0:0:
320,192,31747,1,0,0:0:0:0:
64,192,31747,1,0,0:0:0:0:
64,192,32033,1,0,0:0:0:0:
192,192,32033,1,0,0:0:0:0:
320,192,32176,1,0,0:0:0:0:
448,192,32319,1,0,0:0:0:0:
192,192,32319,1,0,0:0:0:0:
192,192,32604,1,0,0:0:0:0:
320,192,32604,1,0,0:0:0:0:
448,192,32890,1,0,0:0:0:0:
64,192,32890,1,0,0:0:0:0:
192,192,33176,1,0,0:0:0:0:
64,192,33176,1,0,0:0:0:0:
320,192,33461,1,0,0:0:0:0:
448,192,33461,1,0,0:0:0:0:
320,192,33747,1,0,0:0:0:0:
192,192,33747,1,0,0:0:0:0:
64,192,34033,1,0,0:0:0:0:
320,192,34033,1,0,0:0:0:0:
192,192,34176,1,0,0:0:0:0:
320,192,34319,1,0,0:0:0:0:
448,192,34461,1,0,0:0:0:0:
192,192,34604,1,0,0:0:0:0:
320,192,34604,1,0,0:0:0:0:
320,192,34890,1,0,0:0:0:0:
448,192,34890,1,0,0:0:0:0:
448,192,35176,1,0,0:0:0:0:
192,192,35176,1,0,0:0:0:0:
64,192,35461,1,0,0:0:0:0:
320,192,35461,1,0,0:0:0:0:
192,192,35604,1,0,0:0:0:0:
64,192,35747,1,0,0:0:0:0:
320,192,35747,1,0,0:0:0:0:
64,192,35926,1,0,0:0:0:0:
192,192,35961,1,0,0:0:0:0:
320,192,35997,1,0,0:0:0:0:
448,192,36033,1,0,0:0:0:0:
448,192,36176,128,0,36319:0:0:0:0:
320,192,36319,128,0,36461:0:0:0:0:
192,192,36461,128,0,36604:0:0:0:0:
64,192,36604,128,0,36747:0:0:0:0:
192,192,36747,1,0,0:0:0:0:
448,192,36890,1,0,0:0:0:0:
192,192,36890,128,0,38033:0:0:0:0:
64,192,36890,1,0,0:0:0:0:
320,192,36890,1,0,0:0:0:0:
448,192,37176,1,0,0:0:0:0:
320,192,37461,1,0,0:0:0:0:
64,192,37461,1,0,0:0:0:0:
448,192,37747,1,0,0:0:0:0:
320,192,38033,1,0,0:0:0:0:
64,192,38033,1,0,0:0:0:0:
192,192,38319,1,0,0:0:0:0:
320,192,38319,128,0,38604:0:0:0:0:
64,192,38604,1,0,0:0:0:0:
448,192,38604,128,0,38890:0:0:0:0:
192,192,38890,1,0,0:0:0:0:
320,192,38890,128,0,39176:0:0:0:0:
448,192,39176,1,0,0:0:0:0:
64,192,39176,1,0,0:0:0:0:
192,192,39176,128,0,41176:0:0:0:0:
320,192,39461,1,0,0:0:0:0:
448,192,39747,1,0,0:0:0:0:
64,192,39747,1,0,0:0:0:0:
320,192,40033,1,0,0:0:0:0:
448,192,40319,1,0,0:0:0:0:
64,192,40319,1,0,0:0:0:0:
320,192,40604,1,0,0:0:0:0:
448,192,40890,1,0,0:0:0:0:
64,192,40890,1,0,0:0:0:0:
320,192,41176,1,0,0:0:0:0:
320,192,41461,1,0,0:0:0:0:
64,192,41461,1,0,0:0:0:0:
448,192,41461,128,0,42890:0:0:0:0:
192,192,41747,1,0,0:0:0:0:
320,192,42033,1,0,0:0:0:0:
64,192,42033,1,0,0:0:0:0:
192,192,42319,1,0,0:0:0:0:
320,192,42604,1,0,0:0:0:0:
64,192,42604,1,0,0:0:0:0:
192,192,42890,1,0,0:0:0:0:
320,192,42890,128,0,43176:0:0:0:0:
64,192,43176,1,0,0:0:0:0:
448,192,43176,128,0,43461:0:0:0:0:
192,192,43461,1,0,0:0:0:0:
320,192,43461,128,0,43747:0:0:0:0:
448,192,43747,1,0,0:0:0:0:
64,192,43747,1,0,0:0:0:0:
192,192,43747,128,0,45747:0:0:0:0:
320,192,44033,1,0,0:0:0:0:
448,192,44319,1,0,0:0:0:0:
64,192,44319,1,0,0:0:0:0:
320,192,44604,1,0,0:0:0:0:
448,192,44890,1,0,0:0:0:0:
64,192,44890,1,0,0:0:0:0:
320,192,45176,1,0,0:0:0:0:
448,192,45461,1,0,0:0:0:0:
64,192,45461,1,0,0:0:0:0:
320,192,45747,1,0,0:0:0:0:
448,192,46033,128,0,46319:0:0:0:0:
320,192,46461,128,0,46747:0:0:0:0:
192,192,46890,128,0,47176:0:0:0:0:
64,192,47319,128,0,47604:0:0:0:0:
448,192,47747,128,0,48319:0:0:0:0:
64,192,47747,128,0,48319:0:0:0:0:
320,192,48319,1,0,0:0:0:0:
192,192,48390,1,0,0:0:0:0:
64,192,48461,1,0,0:0:0:0:
192,192,48533,1,0,0:0:0:0:
320,192,48604,1,0,0:0:0:0:
192,192,48676,1,0,0:0:0:0:
320,192,48747,1,0,0:0:0:0:
448,192,48819,1,0,0:0:0:0:
320,192,48890,1,0,0:0:0:0:
192,192,48961,1,0,0:0:0:0:
64,192,49033,1,0,0:0:0:0:
192,192,49104,1,0,0:0:0:0:
320,192,49176,1,0,0:0:0:0:
192,192,49247,1,0,0:0:0:0:
64,192,49319,1,0,0:0:0:0:
192,192,49390,1,0,0:0:0:0:
320,192,49461,1,0,0:0:0:0:
448,192,49533,1,0,0:0:0:0:
320,192,49604,1,0,0:0:0:0:
192,192,49676,1,0,0:0:0:0:
448,192,49747,1,0,0:0:0:0:
320,192,49819,1,0,0:0:0:0:
192,192,49890,1,0,0:0:0:0:
64,192,49961,1,0,0:0:0:0:
192,192,50033,1,0,0:0:0:0:
64,192,50104,1,0,0:0:0:0:
192,192,50176,1,0,0:0:0:0:
320,192,50247,1,0,0:0:0:0:
448,192,50319,128,0,50604:0:0:0:0:
192,192,50319,128,0,50604:0:0:0:0:
64,192,50604,1,0,0:0:0:0:
192,192,50676,1,0,0:0:0:0:
320,192,50747,1,0,0:0:0:0:
448,192,50819,1,0,0:0:0:0:
64,192,50890,1,0,0:0:0:0:
192,192,50961,1,0,0:0:0:0:
320,192,51033,1,0,0:0:0:0:
192,192,51104,1,0,0:0:0:0:
448,192,51176,1,0,0:0:0:0:
320,192,51247,1,0,0:0:0:0:
192,192,51319,1,0,0:0:0:0:
320,192,51390,1,0,0:0:0:0:
192,192,51461,1,0,0:0:0:0:
64,192,51533,1,0,0:0:0:0:
192,192,51604,1,0,0:0:0:0:
64,192,51676,1,0,0:0:0:0:
192,192,51747,1,0,0:0:0:0:
320,192,51819,1,0,0:0:0:0:
64,192,51890,1,0,0:0:0:0:
192,192,51961,1,0,0:0:0:0:
320,192,52033,1,0,0:0:0:0:
448,192,52104,1,0,0:0:0:0:
64,192,52176,1,0,0:0:0:0:
192,192,52247,1,0,0:0:0:0:
320,192,52319,1,0,0:0:0:0:
64,192,52390,1,0,0:0:0:0:
320,192,52461,1,0,0:0:0:0:
192,192,52533,1,0,0:0:0:0:
448,192,52604,1,0,0:0:0:0:
64,192,52604,1,0,0:0:0:0:
192,192,52747,1,0,0:0:0:0:
448,192,52890,1,0,0:0:0:0:
64,192,52890,1,0,0:0:0:0:
320,192,53033,1,0,0:0:0:0:
448,192,53176,1,0,0:0:0:0:
64,192,53176,1,0,0:0:0:0:
192,192,53319,1,0,0:0:0:0:
64,192,53461,1,0,0:0:0:0:
192,192,53533,1,0,0:0:0:0:
320,192,53604,1,0,0:0:0:0:
448,192,53676,1,0,0:0:0:0:
192,192,53747,1,0,0:0:0:0:
320,192,53819,1,0,0:0:0:0:
192,192,53890,1,0,0:0:0:0:
64,192,53961,1,0,0:0:0:0:
192,192,54033,1,0,0:0:0:0:
320,192,54104,1,0,0:0:0:0:
448,192,54176,1,0,0:0:0:0:
192,192,54247,1,0,0:0:0:0:
320,192,54319,1,0,0:0:0:0:
192,192,54390,1,0,0:0:0:0:
448,192,54461,1,0,0:0:0:0:
320,192,54533,1,0,0:0:0:0:
192,192,54604,1,0,0:0:0:0:
64,192,54676,1,0,0:0:0:0:
448,192,54747,1,0,0:0:0:0:
320,192,54819,1,0,0:0:0:0:
448,192,54890,128,0,55176:0:0:0:0:
64,192,54890,128,0,55176:0:0:0:0:
192,192,55176,1,0,0:0:0:0:
320,192,55247,1,0,0:0:0:0:
448,192,55319,1,0,0:0:0:0:
64,192,55390,1,0,0:0:0:0:
192,192,55461,1,0,0:0:0:0:
320,192,55533,1,0,0:0:0:0:
192,192,55604,1,0,0:0:0:0:
448,192,55676,1,0,0:0:0:0:
320,192,55747,1,0,0:0:0:0:
64,192,55747,1,0,0:0:0:0:
448,192,55819,1,0,0:0:0:0:
320,192,55890,1,0,0:0:0:0:
192,192,55961,1,0,0:0:0:0:
64,192,56033,1,0,0:0:0:0:
192,192,56104,1,0,0:0:0:0:
320,192,56176,1,0,0:0:0:0:
448,192,56247,1,0,0:0:0:0:
64,192,56319,1,0,0:0:0:0:
192,192,56390,1,0,0:0:0:0:
320,192,56461,1,0,0:0:0:0:
448,192,56533,1,0,0:0:0:0:
320,192,56604,1,0,0:0:0:0:
64,192,56676,1,0,0:0:0:0:
192,192,56747,1,0,0:0:0:0:
320,192,56819,1,0,0:0:0:0:
448,192,56890,1,0,0:0:0:0:
64,192,56890,1,0,0:0:0:0:
192,192,57033,1,0,0:0:0:0:
64,192,57176,1,0,0:0:0:0:
448,192,57176,1,0,0:0:0:0:
320,192,57319,1,0,0:0:0:0:
320,192,57461,128,0,57747:0:0:0:0:
448,192,57461,1,0,0:0:0:0:
64,192,57461,1,0,0:0:0:0:
192,192,57747,128,0,58033:0:0:0:0:
320,192,57890,1,0,0:0:0:0:
64,192,58033,128,0,58319:0:0:0:0:
192,192,58176,1,0,0:0:0:0:
320,192,58319,128,0,58604:0:0:0:0:
448,192,58461,1,0,0:0:0:0:
192,192,58604,128,0,58890:0:0:0:0:
64,192,58747,1,0,0:0:0:0:
448,192,58890,128,0,59176:0:0:0:0:
192,192,59033,1,0,0:0:0:0:
192,192,59176,128,0,59319:0:0:0:0:
320,192,59319,1,0,0:0:0:0:
64,192,59319,128,0,59747:0:0:0:0:
448,192,59604,1,0,0:0:0:0:
192,192,59747,1,0,0:0:0:0:
320,192,59890,1,0,0:0:0:0:
448,192,60033,1,0,0:0:0:0:
64,192,60033,1,0,0:0:0:0:
192,192,60176,1,0,0:0:0:0:
192,192,60319,1,0,0:0:0:0:
64,192,60319,1,0,0:0:0:0:
320,192,60461,1,0,0:0:0:0:
448,192,60604,1,0,0:0:0:0:
192,192,60604,1,0,0:0:0:0:
320,192,60747,1,0,0:0:0:0:
64,192,60890,1,0,0:0:0:0:
448,192,60890,1,0,0:0:0:0:
192,192,61033,1,0,0:0:0:0:
64,192,61176,1,0,0:0:0:0:
320,192,61176,1,0,0:0:0:0:
192,192,61319,1,0,0:0:0:0:
320,192,61461,1,0,0:0:0:0:
192,192,61461,1,0,0:0:0:0:
448,192,61604,1,0,0:0:0:0:
448,192,61747,1,0,0:0:0:0:
320,192,61747,1,0,0:0:0:0:
64,192,61890,1,0,0:0:0:0:
448,192,62033,1,0,0:0:0:0:
192,192,62033,1,0,0:0:0:0:
64,192,62104,1,0,0:0:0:0:
192,192,62176,1,0,0:0:0:0:
320,192,62247,1,0,0:0:0:0:
64,192,62319,1,0,0:0:0:0:
192,192,62390,1,0,0:0:0:0:
320,192,62461,1,0,0:0:0:0:
64,192,62533,1,0,0:0:0:0:
192,192,62604,1,0,0:0:0:0:
320,192,62676,1,0,0:0:0:0:
448,192,62747,1,0,0:0:0:0:
320,192,62819,1,0,0:0:0:0:
192,192,62890,1,0,0:0:0:0:
448,192,62961,1,0,0:0:0:0:
320,192,63033,1,0,0:0:0:0:
192,192,63104,1,0,0:0:0:0:
448,192,63176,1,0,0:0:0:0:
320,192,63247,1,0,0:0:0:0:
192,192,63319,1,0,0:0:0:0:
448,192,63390,1,0,0:0:0:0:
320,192,63461,1,0,0:0:0:0:
64,192,63533,1,0,0:0:0:0:
192,192,63604,1,0,0:0:0:0:
320,192,63747,1,0,0:0:0:0:
192,192,63747,1,0,0:0:0:0:
448,192,63890,1,0,0:0:0:0:
64,192,63890,1,0,0:0:0:0:
192,192,64033,1,0,0:0:0:0:
320,192,64176,1,0,0:0:0:0:
448,192,64319,1,0,0:0:0:0:
64,192,64319,1,0,0:0:0:0:
192,192,64461,1,0,0:0:0:0:
448,192,64604,1,0,0:0:0:0:
320,192,64604,1,0,0:0:0:0:
320,192,64747,1,0,0:0:0:0:
192,192,64890,1,0,0:0:0:0:
64,192,64890,1,0,0:0:0:0:
192,192,65033,1,0,0:0:0:0:
320,192,65176,1,0,0:0:0:0:
448,192,65319,1,0,0:0:0:0:
192,192,65461,1,0,0:0:0:0:
320,192,65461,1,0,0:0:0:0:
448,192,65533,1,0,0:0:0:0:
320,192,65604,1,0,0:0:0:0:
192,192,65676,1,0,0:0:0:0:
64,192,65747,1,0,0:0:0:0:
448,192,65819,1,0,0:0:0:0:
320,192,65890,1,0,0:0:0:0:
192,192,65961,1,0,0:0:0:0:
64,192,66033,1,0,0:0:0:0:
448,192,66319,1,0,0:0:0:0:
64,192,66319,1,0,0:0:0:0:
448,192,66604,1,0,0:0:0:0:
320,192,66676,1,0,0:0:0:0:
192,192,66747,1,0,0:0:0:0:
64,192,66819,1,0,0:0:0:0:
448,192,66890,1,0,0:0:0:0:
320,192,67033,1,0,0:0:0:0:
192,192,67176,1,0,0:0:0:0:
448,192,67176,1,0,0:0:0:0:
64,192,67319,1,0,0:0:0:0:
192,192,67461,1,0,0:0:0:0:
320,192,67604,1,0,0:0:0:0:
64,192,67604,1,0,0:0:0:0:
448,192,67747,1,0,0:0:0:0:
448,192,67890,1,0,0:0:0:0:
320,192,67890,1,0,0:0:0:0:
64,192,68033,1,0,0:0:0:0:
192,192,68176,1,0,0:0:0:0:
320,192,68176,1,0,0:0:0:0:
448,192,68319,1,0,0:0:0:0:
64,192,68461,128,0,68890:0:0:0:0:
320,192,68461,1,0,0:0:0:0:
448,192,68461,1,0,0:0:0:0:
192,192,68890,1,0,0:0:0:0:
320,192,68961,1,0,0:0:0:0:
448,192,69033,1,0,0:0:0:0:
64,192,69176,1,0,0:0:0:0:
192,192,69319,1,0,0:0:0:0:
64,192,69461,1,0,0:0:0:0:
320,192,69461,1,0,0:0:0:0:
448,192,69604,1,0,0:0:0:0:
320,192,69747,1,0,0:0:0:0:
448,192,69890,1,0,0:0:0:0:
192,192,69890,1,0,0:0:0:0:
64,192,70033,1,0,0:0:0:0:
320,192,70176,1,0,0:0:0:0:
448,192,70176,1,0,0:0:0:0:
192,192,70319,1,0,0:0:0:0:
64,192,70461,1,0,0:0:0:0:
192,192,70461,1,0,0:0:0:0:
320,192,70604,1,0,0:0:0:0:
448,192,70747,128,0,71176:0:0:0:0:
192,192,70747,1,0,0:0:0:0:
64,192,70747,1,0,0:0:0:0:
320,192,71176,1,0,0:0:0:0:
192,192,71247,1,0,0:0:0:0:
64,192,71319,1,0,0:0:0:0:
448,192,71461,128,0,71747:0:0:0:0:
192,192,71604,1,0,0:0:0:0:
320,192,71747,1,0,0:0:0:0:
448,192,71890,1,0,0:0:0:0:
64,192,71890,128,0,72176:0:0:0:0:
320,192,72033,1,0,0:0:0:0:
448,192,72176,1,0,0:0:0:0:
192,192,72176,1,0,0:0:0:0:
320,192,72319,1,0,0:0:0:0:
192,192,72461,1,0,0:0:0:0:
64,192,72461,1,0,0:0:0:0:
448,192,72604,1,0,0:0:0:0:
448,192,72747,1,0,0:0:0:0:
192,192,72747,1,0,0:0:0:0:
64,192,72890,1,0,0:0:0:0:
192,192,73033,128,0,73461:0:0:0:0:
448,192,73033,1,0,0:0:0:0:
320,192,73033,1,0,0:0:0:0:
448,192,73461,1,0,0:0:0:0:
320,192,73533,1,0,0:0:0:0:
192,192,73604,1,0,0:0:0:0:
64,192,73676,1,0,0:0:0:0:
192,192,73890,1,0,0:0:0:0:
320,192,74033,1,0,0:0:0:0:
64,192,74176,1,0,0:0:0:0:
448,192,74176,1,0,0:0:0:0:
192,192,74319,1,0,0:0:0:0:
320,192,74461,1,0,0:0:0:0:
192,192,74604,1,0,0:0:0:0:
320,192,74747,1,0,0:0:0:0:
64,192,74747,1,0,0:0:0:0:
448,192,74890,1,0,0:0:0:0:
320,192,74961,1,0,0:0:0:0:
192,192,75033,1,0,0:0:0:0:
448,192,75104,1,0,0:0:0:0:
64,192,75176,1,0,0:0:0:0:
320,192,75247,1,0,0:0:0:0:
192,192,75319,1,0,0:0:0:0:
448,192,75390,1,0,0:0:0:0:
64,192,75461,1,0,0:0:0:0:
320,192,75533,1,0,0:0:0:0:
192,192,75604,1,0,0:0:0:0:
448,192,75676,1,0,0:0:0:0:
64,192,75747,1,0,0:0:0:0:
448,192,76033,128,0,76319:0:0:0:0:
64,192,76176,1,0,0:0:0:0:
320,192,76319,128,0,76604:0:0:0:0:
64,192,76604,1,0,0:0:0:0:
192,192,76604,128,0,76747:0:0:0:0:
64,192,76747,128,0,76890:0:0:0:0:
192,192,76890,1,0,0:0:0:0:
448,192,77033,128,0,77176:0:0:0:0:
320,192,77176,128,0,77319:0:0:0:0:
448,192,77319,128,0,77461:0:0:0:0:
192,192,77461,1,0,0:0:0:0:
64,192,77890,128,0,78033:0:0:0:0:
448,192,78033,1,0,0:0:0:0:
192,192,78033,128,0,78176:0:0:0:0:
64,192,78319,128,0,78461:0:0:0:0:
448,192,78461,1,0,0:0:0:0:
192,192,78461,128,0,78604:0:0:0:0:
64,192,78747,128,0,78890:0:0:0:0:
448,192,78890,1,0,0:0:0:0:
192,192,78890,128,0,79033:0:0:0:0:
320,192,79033,128,0,79176:0:0:0:0:
448,192,79176,128,0,79319:0:0:0:0:
320,192,79319,128,0,79461:0:0:0:0:
192,192,79461,128,0,79604:0:0:0:0:
64,192,79604,128,0,79747:0:0:0:0:
320,192,79747,1,0,0:0:0:0:
448,192,80319,1,0,0:0:0:0:
64,192,80604,128,0,80890:0:0:0:0:
448,192,80747,1,0,0:0:0:0:
192,192,80890,128,0,81176:0:0:0:0:
448,192,81176,1,0,0:0:0:0:
320,192,81176,128,0,81319:0:0:0:0:
448,192,81319,128,0,81461:0:0:0:0:
320,192,81461,1,0,0:0:0:0:
64,192,81604,128,0,81747:0:0:0:0:
192,192,81747,128,0,81890:0:0:0:0:
64,192,81890,128,0,82033:0:0:0:0:
320,192,82033,1,0,0:0:0:0:
64,192,82461,128,0,82604:0:0:0:0:
192,192,82604,1,0,0:0:0:0:
320,192,82604,128,0,82747:0:0:0:0:
192,192,82747,128,0,82890:0:0:0:0:
64,192,82890,132,0,83033:0:0:0:0:
192,192,83033,1,0,0:0:0:0:
320,192,83033,128,0,83176:0:0:0:0:
448,192,83176,128,0,83319:0:0:0:0:
320,192,83319,128,0,83461:0:0:0:0:
192,192,83461,1,0,0:0:0:0:
448,192,83461,128,0,83604:0:0:0:0:
320,192,83604,128,0,83747:0:0:0:0:
192,192,83747,128,0,83890:0:0:0:0:
64,192,83890,128,0,84033:0:0:0:0:
192,192,84033,128,0,84176:0:0:0:0:
320,192,84176,128,0,84319:0:0:0:0:
64,192,84319,1,0,0:0:0:0:
448,192,84461,128,0,84604:0:0:0:0:
192,192,84604,128,0,84747:0:0:0:0:
320,192,84747,128,0,84890:0:0:0:0:
448,192,84890,1,0,0:0:0:0:
192,192,84890,1,0,0:0:0:0:
64,192,84890,1,0,0:0:0:0:
192,192,85033,1,0,0:0:0:0:
320,192,85176,1,0,0:0:0:0:
192,192,85319,1,0,0:0:0:0:
448,192,85461,1,0,0:0:0:0:
64,192,85461,1,0,0:0:0:0:
192,192,85604,1,0,0:0:0:0:
320,192,85747,1,0,0:0:0:0:
448,192,85890,1,0,0:0:0:0:
64,192,86033,1,0,0:0:0:0:
192,192,86033,1,0,0:0:0:0:
192,192,86176,1,0,0:0:0:0:
320,192,86319,1,0,0:0:0:0:
448,192,86461,1,0,0:0:0:0:
320,192,86604,1,0,0:0:0:0:
64,192,86604,1,0,0:0:0:0:
448,192,86747,1,0,0:0:0:0:
320,192,86890,1,0,0:0:0:0:
192,192,87033,1,0,0:0:0:0:
448,192,87176,1,0,0:0:0:0:
320,192,87176,1,0,0:0:0:0:
64,192,87319,1,0,0:0:0:0:
192,192,87461,1,0,0:0:0:0:
320,192,87604,1,0,0:0:0:0:
192,192,87747,1,0,0:0:0:0:
448,192,87747,1,0,0:0:0:0:
320,192,87890,1,0,0:0:0:0:
448,192,88033,1,0,0:0:0:0:
320,192,88176,1,0,0:0:0:0:
320,192,88319,1,0,0:0:0:0:
192,192,88319,1,0,0:0:0:0:
64,192,88461,1,0,0:0:0:0:
192,192,88604,1,0,0:0:0:0:
64,192,88747,1,0,0:0:0:0:
448,192,88890,1,0,0:0:0:0:
320,192,88890,1,0,0:0:0:0:
64,192,89033,1,0,0:0:0:0:
192,192,89176,1,0,0:0:0:0:
320,192,89319,1,0,0:0:0:0:
448,192,89461,1,0,0:0:0:0:
192,192,89461,1,0,0:0:0:0:
64,192,89604,1,0,0:0:0:0:
192,192,89747,1,0,0:0:0:0:
320,192,89890,1,0,0:0:0:0:
64,192,90033,1,0,0:0:0:0:
448,192,90033,1,0,0:0:0:0:
192,192,90176,1,0,0:0:0:0:
320,192,90319,1,0,0:0:0:0:
192,192,90461,1,0,0:0:0:0:
320,192,90604,1,0,0:0:0:0:
448,192,90604,1,0,0:0:0:0:
320,192,90747,1,0,0:0:0:0:
192,192,90890,1,0,0:0:0:0:
320,192,91033,1,0,0:0:0:0:
64,192,91176,1,0,0:0:0:0:
448,192,91176,1,0,0:0:0:0:
192,192,91319,1,0,0:0:0:0:
320,192,91461,1,0,0:0:0:0:
448,192,91604,1,0,0:0:0:0:
64,192,91747,1,0,0:0:0:0:
320,192,91747,1,0,0:0:0:0:
192,192,91890,1,0,0:0:0:0:
320,192,92033,1,0,0:0:0:0:
192,192,92176,1,0,0:0:0:0:
64,192,92319,1,0,0:0:0:0:
320,192,92319,1,0,0:0:0:0:
448,192,92461,1,0,0:0:0:0:
320,192,92604,1,0,0:0:0:0:
192,192,92747,1,0,0:0:0:0:
320,192,92890,1,0,0:0:0:0:
64,192,92890,1,0,0:0:0:0:
448,192,93069,1,0,0:0:0:0:
320,192,93104,1,0,0:0:0:0:
192,192,93140,1,0,0:0:0:0:
64,192,93176,1,0,0:0:0:0:
64,192,93319,128,0,93461:0:0:0:0:
192,192,93461,128,0,93604:0:0:0:0:
320,192,93604,128,0,93747:0:0:0:0:
448,192,93747,128,0,93890:0:0:0:0:
320,192,93890,1,0,0:0:0:0:
192,192,94033,1,0,0:0:0:0:
320,192,94033,128,0,95461:0:0:0:0:
64,192,94033,1,0,0:0:0:0:
448,192,94033,1,0,0:0:0:0:
192,192,94319,1,0,0:0:0:0:
448,192,94604,1,0,0:0:0:0:
64,192,94604,1,0,0:0:0:0:
192,192,94890,1,0,0:0:0:0:
448,192,95176,1,0,0:0:0:0:
64,192,95176,1,0,0:0:0:0:
192,192,95461,1,0,0:0:0:0:
448,192,95461,128,0,95747:0:0:0:0:
192,192,95747,1,0,0:0:0:0:
320,192,95747,128,0,96033:0:0:0:0:
448,192,96033,1,0,0:0:0:0:
192,192,96033,128,0,96319:0:0:0:0:
320,192,96319,1,0,0:0:0:0:
64,192,96319,128,0,98319:0:0:0:0:
320,192,96604,1,0,0:0:0:0:
448,192,96890,1,0,0:0:0:0:
192,192,96890,1,0,0:0:0:0:
320,192,97176,1,0,0:0:0:0:
448,192,97461,1,0,0:0:0:0:
192,192,97461,1,0,0:0:0:0:
320,192,97747,1,0,0:0:0:0:
448,192,98033,1,0,0:0:0:0:
192,192,98033,1,0,0:0:0:0:
320,192,98319,1,0,0:0:0:0:
192,192,98604,1,0,0:0:0:0:
448,192,98604,128,0,100033:0:0:0:0:
64,192,98890,1,0,0:0:0:0:
320,192,98890,1,0,0:0:0:0:
192,192,99176,1,0,0:0:0:0:
64,192,99461,1,0,0:0:0:0:
320,192,99461,1,0,0:0:0:0:
192,192,99747,1,0,0:0:0:0:
64,192,100033,1,0,0:0:0:0:
320,192,100033,128,0,100319:0:0:0:0:
192,192,100319,1,0,0:0:0:0:
448,192,100319,128,0,100604:0:0:0:0:
64,192,100604,1,0,0:0:0:0:
320,192,100604,128,0,100890:0:0:0:0:
64,192,100890,1,0,0:0:0:0:
448,192,100890,1,0,0:0:0:0:
192,192,100890,128,0,102890:0:0:0:0:
320,192,101176,1,0,0:0:0:0:
448,192,101461,1,0,0:0:0:0:
64,192,101461,1,0,0:0:0:0:
320,192,101747,1,0,0:0:0:0:
448,192,102033,1,0,0:0:0:0:
64,192,102033,1,0,0:0:0:0:
320,192,102319,1,0,0:0:0:0:
448,192,102604,1,0,0:0:0:0:
64,192,102604,1,0,0:0:0:0:
320,192,102890,1,0,0:0:0:0:
64,192,103176,128,0,103461:0:0:0:0:
192,192,103604,128,0,103890:0:0:0:0:
320,192,104033,128,0,104319:0:0:0:0:
448,192,104461,128,0,104747:0:0:0:0:
320,192,104890,128,0,105461:0:0:0:0:
192,192,104890,128,0,105461:0:0:0:0:
64,192,105461,1,0,0:0:0:0:
192,192,105533,1,0,0:0:0:0:
320,192,105604,1,0,0:0:0:0:
448,192,105676,1,0,0:0:0:0:
64,192,105747,1,0,0:0:0:0:
192,192,105819,1,0,0:0:0:0:
320,192,105890,1,0,0:0:0:0:
448,192,105961,1,0,0:0:0:0:
320,192,106033,1,0,0:0:0:0:
192,192,106104,1,0,0:0:0:0:
64,192,106176,1,0,0:0:0:0:
448,192,106247,1,0,0:0:0:0:
320,192,106319,1,0,0:0:0:0:
192,192,106390,1,0,0:0:0:0:
64,192,106461,1,0,0:0:0:0:
192,192,106533,1,0,0:0:0:0:
320,192,106604,1,0,0:0:0:0:
448,192,106676,1,0,0:0:0:0:
320,192,106747,1,0,0:0:0:0:
192,192,106819,1,0,0:0:0:0:
448,192,106890,1,0,0:0:0:0:
320,192,106961,1,0,0:0:0:0:
192,192,107033,1,0,0:0:0:0:
64,192,107104,1,0,0:0:0:0:
192,192,107176,1,0,0:0:0:0:
320,192,107247,1,0,0:0:0:0:
192,192,107319,1,0,0:0:0:0:
64,192,107390,1,0,0:0:0:0:
448,192,107461,128,0,107747:0:0:0:0:
320,192,107461,128,0,107747:0:0:0:0:
64,192,107747,1,0,0:0:0:0:
192,192,107819,1,0,0:0:0:0:
320,192,107890,1,0,0:0:0:0:
448,192,107961,1,0,0:0:0:0:
64,192,108033,1,0,0:0:0:0:
192,192,108104,1,0,0:0:0:0:
320,192,108176,1,0,0:0:0:0:
192,192,108247,1,0,0:0:0:0:
64,192,108319,1,0,0:0:0:0:
192,192,108390,1,0,0:0:0:0:
320,192,108461,1,0,0:0:0:0:
192,192,108533,1,0,0:0:0:0:
320,192,108604,1,0,0:0:0:0:
448,192,108676,1,0,0:0:0:0:
320,192,108747,1,0,0:0:0:0:
64,192,108819,1,0,0:0:0:0:
192,192,108890,1,0,0:0:0:0:
320,192,108961,1,0,0:0:0:0:
64,192,109033,1,0,0:0:0:0:
192,192,109104,1,0,0:0:0:0:
320,192,109176,1,0,0:0:0:0:
448,192,109247,1,0,0:0:0:0:
64,192,109319,1,0,0:0:0:0:
192,192,109390,1,0,0:0:0:0:
320,192,109461,1,0,0:0:0:0:
448,192,109533,1,0,0:0:0:0:
320,192,109604,1,0,0:0:0:0:
192,192,109676,1,0,0:0:0:0:
448,192,109747,1,0,0:0:0:0:
64,192,109747,1,0,0:0:0:0:
192,192,109890,128,0,110033:0:0:0:0:
448,192,110033,1,0,0:0:0:0:
64,192,110033,1,0,0:0:0:0:
320,192,110176,128,0,110319:0:0:0:0:
448,192,110319,1,0,0:0:0:0:
64,192,110319,1,0,0:0:0:0:
192,192,110461,1,0,0:0:0:0:
448,192,110604,1,0,0:0:0:0:
320,192,110676,1,0,0:0:0:0:
192,192,110747,1,0,0:0:0:0:
64,192,110819,1,0,0:0:0:0:
192,192,110890,1,0,0:0:0:0:
320,192,110961,1,0,0:0:0:0:
448,192,111033,1,0,0:0:0:0:
64,192,111104,1,0,0:0:0:0:
192,192,111176,1,0,0:0:0:0:
320,192,111247,1,0,0:0:0:0:
448,192,111319,1,0,0:0:0:0:
192,192,111390,1,0,0:0:0:0:
64,192,111461,1,0,0:0:0:0:
192,192,111533,1,0,0:0:0:0:
448,192,111604,1,0,0:0:0:0:
320,192,111676,1,0,0:0:0:0:
192,192,111747,1,0,0:0:0:0:
64,192,111819,1,0,0:0:0:0:
448,192,111890,1,0,0:0:0:0:
320,192,111961,1,0,0:0:0:0:
192,192,112033,128,0,112319:0:0:0:0:
64,192,112033,128,0,112319:0:0:0:0:
320,192,112390,1,0,0:0:0:0:
448,192,112461,1,0,0:0:0:0:
64,192,112533,1,0,0:0:0:0:
192,192,112604,1,0,0:0:0:0:
320,192,112676,1,0,0:0:0:0:
192,192,112747,1,0,0:0:0:0:
448,192,112819,1,0,0:0:0:0:
320,192,112890,1,0,0:0:0:0:
64,192,112890,1,0,0:0:0:0:
192,192,112961,1,0,0:0:0:0:
320,192,113033,1,0,0:0:0:0:
448,192,113104,1,0,0:0:0:0:
64,192,113176,1,0,0:0:0:0:
192,192,113247,1,0,0:0:0:0:
320,192,113319,1,0,0:0:0:0:
448,192,113390,1,0,0:0:0:0:
64,192,113461,1,0,0:0:0:0:
192,192,113533,1,0,0:0:0:0:
320,192,113604,1,0,0:0:0:0:
448,192,113676,1,0,0:0:0:0:
320,192,113747,1,0,0:0:0:0:
64,192,113819,1,0,0:0:0:0:
192,192,113890,1,0,0:0:0:0:
320,192,113961,1,0,0:0:0:0:
448,192,114033,1,0,0:0:0:0:
64,192,114033,1,0,0:0:0:0:
192,192,114176,1,0,0:0:0:0:
64,192,114319,1,0,0:0:0:0:
448,192,114319,1,0,0:0:0:0:
320,192,114461,1,0,0:0:0:0:
448,192,114604,128,0,114890:0:0:0:0:
192,192,114604,1,0,0:0:0:0:
64,192,114604,1,0,0:0:0:0:
64,192,114890,128,0,115176:0:0:0:0:
320,192,115033,1,0,0:0:0:0:
192,192,115176,128,0,115461:0:0:0:0:
64,192,115319,1,0,0:0:0:0:
320,192,115461,128,0,115747:0:0:0:0:
448,192,115604,1,0,0:0:0:0:
192,192,115747,128,0,116033:0:0:0:0:
64,192,115890,1,0,0:0:0:0:
448,192,116033,128,0,116319:0:0:0:0:
320,192,116176,1,0,0:0:0:0:
192,192,116319,128,0,116461:0:0:0:0:
320,192,116461,1,0,0:0:0:0:
64,192,116461,128,0,116890:0:0:0:0:
448,192,116747,1,0,0:0:0:0:
192,192,116890,128,0,117176:0:0:0:0:
320,192,117033,1,0,0:0:0:0:
448,192,117176,1,0,0:0:0:0:
64,192,117176,1,0,0:0:0:0:
320,192,117319,1,0,0:0:0:0:
192,192,117461,1,0,0:0:0:0:
64,192,117461,1,0,0:0:0:0:
320,192,117604,1,0,0:0:0:0:
448,192,117747,1,0,0:0:0:0:
192,192,117747,1,0,0:0:0:0:
320,192,117890,1,0,0:0:0:0:
64,192,118033,1,0,0:0:0:0:
448,192,118033,1,0,0:0:0:0:
192,192,118176,1,0,0:0:0:0:
64,192,118319,1,0,0:0:0:0:
320,192,118319,1,0,0:0:0:0:
192,192,118461,1,0,0:0:0:0:
320,192,118604,1,0,0:0:0:0:
192,192,118604,1,0,0:0:0:0:
448,192,118747,1,0,0:0:0:0:
448,192,118890,1,0,0:0:0:0:
320,192,118890,1,0,0:0:0:0:
192,192,119033,1,0,0:0:0:0:
320,192,119176,1,0,0:0:0:0:
64,192,119176,1,0,0:0:0:0:
448,192,119247,1,0,0:0:0:0:
320,192,119319,1,0,0:0:0:0:
192,192,119390,1,0,0:0:0:0:
448,192,119461,1,0,0:0:0:0:
320,192,119533,1,0,0:0:0:0:
192,192,119604,1,0,0:0:0:0:
448,192,119676,1,0,0:0:0:0:
320,192,119747,1,0,0:0:0:0:
192,192,119819,1,0,0:0:0:0:
64,192,119890,1,0,0:0:0:0:
192,192,119961,1,0,0:0:0:0:
320,192,120033,1,0,0:0:0:0:
64,192,120104,1,0,0:0:0:0:
192,192,120176,1,0,0:0:0:0:
320,192,120247,1,0,0:0:0:0:
64,192,120319,1,0,0:0:0:0:
192,192,120390,1,0,0:0:0:0:
320,192,120461,1,0,0:0:0:0:
448,192,120533,1,0,0:0:0:0:
320,192,120604,1,0,0:0:0:0:
64,192,120676,1,0,0:0:0:0:
192,192,120747,1,0,0:0:0:0:
320,192,120890,1,0,0:0:0:0:
192,192,120890,1,0,0:0:0:0:
448,192,121033,1,0,0:0:0:0:
64,192,121033,1,0,0:0:0:0:
192,192,121176,1,0,0:0:0:0:
320,192,121319,1,0,0:0:0:0:
448,192,121461,1,0,0:0:0:0:
64,192,121461,1,0,0:0:0:0:
192,192,121604,1,0,0:0:0:0:
448,192,121747,1,0,0:0:0:0:
320,192,121747,1,0,0:0:0:0:
320,192,121890,1,0,0:0:0:0:
192,192,122033,1,0,0:0:0:0:
64,192,122033,1,0,0:0:0:0:
192,192,122176,1,0,0:0:0:0:
320,192,122319,1,0,0:0:0:0:
448,192,122461,1,0,0:0:0:0:
192,192,122604,1,0,0:0:0:0:
320,192,122604,1,0,0:0:0:0:
64,192,122676,1,0,0:0:0:0:
192,192,122747,1,0,0:0:0:0:
320,192,122819,1,0,0:0:0:0:
448,192,122890,1,0,0:0:0:0:
64,192,122961,1,0,0:0:0:0:
192,192,123033,1,0,0:0:0:0:
320,192,123104,1,0,0:0:0:0:
448,192,123176,1,0,0:0:0:0:
448,192,123461,1,0,0:0:0:0:
64,192,123461,1,0,0:0:0:0:
448,192,123747,128,0,124032:0:0:0:0:
320,192,124032,1,0,0:0:0:0:
64,192,124032,128,0,124318:0:0:0:0:
192,192,124318,1,0,0:0:0:0:
448,192,124318,128,0,124604:0:0:0:0:
320,192,124604,1,0,0:0:0:0:
64,192,124604,128,0,124747:0:0:0:0:
448,192,124747,1,0,0:0:0:0:
192,192,124747,128,0,124889:0:0:0:0:
448,192,124889,128,0,125175:0:0:0:0:
192,192,125175,1,0,0:0:0:0:
320,192,125175,128,0,125461:0:0:0:0:
64,192,125461,1,0,0:0:0:0:
192,192,125461,128,0,125747:0:0:0:0:
448,192,125747,1,0,0:0:0:0:
64,192,125747,128,0,126032:0:0:0:0:
320,192,126032,1,0,0:0:0:0:
448,192,126032,128,0,126318:0:0:0:0:
192,192,126318,1,0,0:0:0:0:
64,192,126318,128,0,126461:0:0:0:0:
192,192,126461,128,0,126604:0:0:0:0:
64,192,126604,1,0,0:0:0:0:
320,192,126604,128,0,126747:0:0:0:0:
448,192,126747,128,0,126889:0:0:0:0:
192,192,126889,1,0,0:0:0:0:
320,192,126889,128,0,127032:0:0:0:0:
192,192,127032,128,0,127175:0:0:0:0:
320,192,127175,1,0,0:0:0:0:
448,192,127175,128,0,127318:0:0:0:0:
320,192,127318,128,0,127461:0:0:0:0:
64,192,127461,1,0,0:0:0:0:
448,192,127461,128,0,127604:0:0:0:0:
320,192,127604,128,0,127747:0:0:0:0:
448,192,127747,1,0,0:0:0:0:
192,192,127747,128,0,127889:0:0:0:0:
64,192,127889,128,0,128032:0:0:0:0:
320,192,128032,1,0,0:0:0:0:
192,192,128032,128,0,128175:0:0:0:0:
64,192,128175,128,0,128318:0:0:0:0:
192,192,128318,1,0,0:0:0:0:
320,192,128318,128,0,128461:0:0:0:0:
192,192,128461,128,0,128604:0:0:0:0:
320,192,128604,1,0,0:0:0:0:
64,192,128604,128,0,128747:0:0:0:0:
192,192,128747,128,0,128889:0:0:0:0:
64,192,128889,1,0,0:0:0:0:
320,192,128889,128,0,129032:0:0:0:0:
320,192,129175,1,0,0:0:0:0:
448,192,129175,128,0,129461:0:0:0:0:
192,192,129461,1,0,0:0:0:0:
320,192,129461,128,0,129604:0:0:0:0:
64,192,129604,1,0,0:0:0:0:
192,192,129675,1,0,0:0:0:0:
320,192,129747,1,0,0:0:0:0:
448,192,129747,128,0,129889:0:0:0:0:
320,192,129889,128,0,130032:0:0:0:0:
64,192,130032,1,0,0:0:0:0:
192,192,130032,128,0,130175:0:0:0:0:
320,192,130175,128,0,130318:0:0:0:0:
448,192,130318,1,0,0:0:0:0:
192,192,130318,128,0,130461:0:0:0:0:
64,192,130461,128,0,130604:0:0:0:0:
320,192,130604,1,0,0:0:0:0:
192,192,130604,128,0,130747:0:0:0:0:
320,192,130747,128,0,130889:0:0:0:0:
192,192,130889,1,0,0:0:0:0:
64,192,130889,128,0,131032:0:0:0:0:
192,192,131032,128,0,131175:0:0:0:0:
448,192,131175,1,0,0:0:0:0:
320,192,131175,128,0,131318:0:0:0:0:
448,192,131318,128,0,131461:0:0:0:0:
64,192,131461,1,0,0:0:0:0:
320,192,131461,128,0,131604:0:0:0:0:
192,192,131604,128,0,131747:0:0:0:0:
320,192,131747,1,0,0:0:0:0:
448,192,131747,128,0,132032:0:0:0:0:
192,192,132032,1,0,0:0:0:0:
64,192,132032,128,0,132318:0:0:0:0:
320,192,132318,1,0,0:0:0:0:
448,192,132318,128,0,132604:0:0:0:0:
192,192,132604,1,0,0:0:0:0:
320,192,132604,128,0,132889:0:0:0:0:
64,192,132889,128,0,133175:0:0:0:0:
192,192,133175,1,0,0:0:0:0:
448,192,133175,128,0,133461:0:0:0:0:
320,192,133461,1,0,0:0:0:0:
64,192,133461,128,0,133747:0:0:0:0:
192,192,133747,1,0,0:0:0:0:
448,192,133747,128,0,133889:0:0:0:0:
64,192,133889,1,0,0:0:0:0:
320,192,133889,128,0,134032:0:0:0:0:
192,192,134032,128,0,134318:0:0:0:0:
320,192,134318,1,0,0:0:0:0:
448,192,134318,128,0,134604:0:0:0:0:
192,192,134604,1,0,0:0:0:0:
320,192,134604,128,0,134889:0:0:0:0:
64,192,134889,1,0,0:0:0:0:
192,192,134889,128,0,135175:0:0:0:0:
320,192,135175,1,0,0:0:0:0:
448,192,135175,128,0,135461:0:0:0:0:
192,192,135461,1,0,0:0:0:0:
64,192,135461,128,0,135604:0:0:0:0:
192,192,135604,128,0,135747:0:0:0:0:
64,192,135747,1,0,0:0:0:0:
320,192,135747,128,0,135889:0:0:0:0:
448,192,135889,128,0,136032:0:0:0:0:
192,192,136032,1,0,0:0:0:0:
320,192,136032,128,0,136175:0:0:0:0:
192,192,136175,128,0,136318:0:0:0:0:
320,192,136318,1,0,0:0:0:0:
448,192,136318,128,0,136461:0:0:0:0:
320,192,136461,128,0,136604:0:0:0:0:
64,192,136604,1,0,0:0:0:0:
448,192,136604,128,0,136747:0:0:0:0:
320,192,136747,128,0,136889:0:0:0:0:
448,192,136889,1,0,0:0:0:0:
192,192,136889,128,0,137032:0:0:0:0:
64,192,137032,128,0,137175:0:0:0:0:
320,192,137175,1,0,0:0:0:0:
192,192,137175,128,0,137318:0:0:0:0:
64,192,137318,128,0,137461:0:0:0:0:
192,192,137461,1,0,0:0:0:0:
448,192,137461,128,0,137604:0:0:0:0:
320,192,137604,128,0,137747:0:0:0:0:
448,192,137747,1,0,0:0:0:0:
192,192,137747,128,0,137889:0:0:0:0:
64,192,137889,128,0,138032:0:0:0:0:
320,192,138032,1,0,0:0:0:0:
192,192,138032,128,0,138175:0:0:0:0:
320,192,138318,1,0,0:0:0:0:
448,192,138318,128,0,138604:0:0:0:0:
192,192,138604,1,0,0:0:0:0:
320,192,138604,128,0,138747:0:0:0:0:
64,192,138747,1,0,0:0:0:0:
192,192,138818,1,0,0:0:0:0:
320,192,138889,1,0,0:0:0:0:
448,192,138889,128,0,139032:0:0:0:0:
320,192,139032,128,0,139175:0:0:0:0:
64,192,139175,1,0,0:0:0:0:
192,192,139175,128,0,139318:0:0:0:0:
320,192,139318,128,0,139461:0:0:0:0:
448,192,139461,1,0,0:0:0:0:
192,192,139461,128,0,139604:0:0:0:0:
64,192,139604,128,0,139747:0:0:0:0:
320,192,139747,1,0,0:0:0:0:
192,192,139747,128,0,139889:0:0:0:0:
320,192,139889,128,0,140032:0:0:0:0:
192,192,140032,1,0,0:0:0:0:
64,192,140032,128,0,140175:0:0:0:0:
192,192,140175,128,0,140318:0:0:0:0:
448,192,140318,1,0,0:0:0:0:
320,192,140318,128,0,140461:0:0:0:0:
448,192,140461,128,0,140604:0:0:0:0:
64,192,140604,1,0,0:0:0:0:
320,192,140604,128,0,140747:0:0:0:0:
192,192,140747,128,0,140889:0:0:0:0:
320,192,140889,1,0,0:0:0:0:
448,192,140889,128,0,141175:0:0:0:0:
192,192,141175,1,0,0:0:0:0:
64,192,141175,128,0,141461:0:0:0:0:
320,192,141461,1,0,0:0:0:0:
448,192,141461,128,0,141747:0:0:0:0:
192,192,141747,1,0,0:0:0:0:
320,192,141747,128,0,142032:0:0:0:0:
192,192,142032,128,0,142175:0:0:0:0:
64,192,142032,1,0,0:0:0:0:
448,192,142175,128,0,142318:0:0:0:0:
192,192,142318,128,0,142461:0:0:0:0:
320,192,142461,128,0,142604:0:0:0:0:
192,192,142604,1,0,0:0:0:0:
448,192,142604,128,0,142747:0:0:0:0:
320,192,142747,128,0,142889:0:0:0:0:
64,192,142889,128,0,143032:0:0:0:0:
192,192,143032,128,0,143175:0:0:0:0:
448,192,143175,1,0,0:0:0:0:
320,192,143175,128,0,143318:0:0:0:0:
64,192,143318,128,0,143461:0:0:0:0:
192,192,143461,128,0,143604:0:0:0:0:
448,192,143604,128,0,143747:0:0:0:0:
64,192,143747,1,0,0:0:0:0:
320,192,143747,128,0,143889:0:0:0:0:
192,192,143889,128,0,144032:0:0:0:0:
448,192,144032,128,0,144175:0:0:0:0:
320,192,144175,128,0,144318:0:0:0:0:
448,192,144318,1,0,0:0:0:0:
192,192,144318,128,0,144461:0:0:0:0:
64,192,144461,128,0,144604:0:0:0:0:
192,192,144604,128,0,144747:0:0:0:0:
448,192,144747,128,0,144889:0:0:0:0:
320,192,144889,1,0,0:0:0:0:
64,192,144889,128,0,145032:0:0:0:0:
192,192,145032,128,0,145175:0:0:0:0:
448,192,145175,128,0,145318:0:0:0:0:
320,192,145318,128,0,145461:0:0:0:0:
448,192,145461,1,0,0:0:0:0:
192,192,145461,128,0,145604:0:0:0:0:
64,192,145604,128,0,145746:0:0:0:0:
192,192,145746,128,0,145889:0:0:0:0:
320,192,145889,128,0,146032:0:0:0:0:
192,192,146032,1,0,0:0:0:0:
64,192,146032,128,0,146175:0:0:0:0:
192,192,146175,128,0,146318:0:0:0:0:
320,192,146318,128,0,146461:0:0:0:0:
448,192,146461,128,0,146604:0:0:0:0:
320,192,146604,1,0,0:0:0:0:
64,192,146604,128,0,146746:0:0:0:0:
192,192,146746,128,0,146889:0:0:0:0:
64,192,146889,128,0,147032:0:0:0:0:
448,192,147032,128,0,147175:0:0:0:0:
192,192,147175,1,0,0:0:0:0:
320,192,147175,128,0,147318:0:0:0:0:
192,192,147318,128,0,147461:0:0:0:0:
448,192,147461,128,0,147604:0:0:0:0:
64,192,147604,128,0,147746:0:0:0:0:
448,192,147746,1,0,0:0:0:0:
192,192,147746,128,0,147889:0:0:0:0:
448,192,147889,128,0,148032:0:0:0:0:
320,192,148032,128,0,148175:0:0:0:0:
64,192,148175,128,0,148318:0:0:0:0:
192,192,148318,1,0,0:0:0:0:
320,192,148318,128,0,148461:0:0:0:0:
64,192,148461,128,0,148604:0:0:0:0:
320,192,148604,128,0,148746:0:0:0:0:
192,192,148746,1,0,0:0:0:0:
448,192,148746,1,0,0:0:0:0:
192,192,148889,128,0,149032:0:0:0:0:
448,192,148889,128,0,149032:0:0:0:0:
320,192,149032,1,0,0:0:0:0:
320,192,149175,1,0,0:0:0:0:
64,192,149175,1,0,0:0:0:0:
320,192,149318,128,0,149461:0:0:0:0:
64,192,149318,128,0,149461:0:0:0:0:
192,192,149461,1,0,0:0:0:0:
448,192,149604,128,0,149746:0:0:0:0:
320,192,149746,128,0,149889:0:0:0:0:
192,192,149889,128,0,150032:0:0:0:0:
64,192,150032,128,0,150318:0:0:0:0:
192,192,150175,1,0,0:0:0:0:
320,192,150318,1,0,0:0:0:0:
192,192,150318,128,0,150604:0:0:0:0:
448,192,150461,1,0,0:0:0:0:
64,192,150604,1,0,0:0:0:0:
320,192,150604,128,0,150889:0:0:0:0:
192,192,150889,1,0,0:0:0:0:
448,192,150889,128,0,151175:0:0:0:0:
64,192,151175,128,0,151317:0:0:0:0:
192,192,151175,128,0,152317:0:0:0:0:
320,192,151175,1,0,0:0:0:0:
320,192,151317,128,0,151460:0:0:0:0:
448,192,151460,128,0,151603:0:0:0:0:
320,192,151603,128,0,151746:0:0:0:0:
64,192,151746,128,0,151889:0:0:0:0:
320,192,151889,128,0,152032:0:0:0:0:
448,192,152032,128,0,152175:0:0:0:0:
320,192,152175,128,0,152317:0:0:0:0:
448,192,152317,128,0,152460:0:0:0:0:
64,192,152317,128,0,153460:0:0:0:0:
320,192,152460,128,0,152603:0:0:0:0:
192,192,152603,128,0,152746:0:0:0:0:
320,192,152746,128,0,152889:0:0:0:0:
448,192,152889,128,0,153032:0:0:0:0:
320,192,153032,128,0,153175:0:0:0:0:
192,192,153175,128,0,153317:0:0:0:0:
448,192,153317,128,0,153460:0:0:0:0:
192,192,153460,128,0,153603:0:0:0:0:
320,192,153460,128,0,154603:0:0:0:0:
64,192,153603,128,0,153746:0:0:0:0:
192,192,153746,128,0,153889:0:0:0:0:
448,192,153889,128,0,154032:0:0:0:0:
192,192,154032,128,0,154175:0:0:0:0:
64,192,154175,128,0,154317:0:0:0:0:
192,192,154317,128,0,154460:0:0:0:0:
64,192,154460,128,0,154603:0:0:0:0:
192,192,154603,128,0,154746:0:0:0:0:
448,192,154603,128,0,155032:0:0:0:0:
320,192,154746,128,0,154889:0:0:0:0:
192,192,154889,128,0,155032:0:0:0:0:
64,192,155032,128,0,155175:0:0:0:0:
448,192,155175,128,0,155317:0:0:0:0:
320,192,155175,128,0,155603:0:0:0:0:
192,192,155317,128,0,155460:0:0:0:0:
64,192,155460,128,0,155603:0:0:0:0:
448,192,155603,128,0,155746:0:0:0:0:
320,192,155746,128,0,155889:0:0:0:0:
192,192,155746,128,0,156889:0:0:0:0:
64,192,155889,128,0,156032:0:0:0:0:
320,192,156032,128,0,156175:0:0:0:0:
448,192,156175,128,0,156317:0:0:0:0:
320,192,156317,128,0,156460:0:0:0:0:
64,192,156460,128,0,156603:0:0:0:0:
320,192,156603,128,0,156746:0:0:0:0:
448,192,156746,128,0,156889:0:0:0:0:
64,192,156889,128,0,157032:0:0:0:0:
320,192,156889,128,0,158032:0:0:0:0:
192,192,157032,128,0,157175:0:0:0:0:
448,192,157175,128,0,157317:0:0:0:0:
64,192,157317,128,0,157460:0:0:0:0:
192,192,157460,128,0,157746:0:0:0:0:
64,192,157746,1,0,0:0:0:0:
448,192,158032,128,0,159175:0:0:0:0:
64,192,158032,128,0,159175:0:0:0:0:
320,192,159175,128,0,160032:0:0:0:0:
192,192,159175,128,0,160032:0:0:0:0:
64,192,160317,5,0,0:0:0:0:
448,192,160317,1,0,0:0:0:0:
192,192,160460,1,0,0:0:0:0:
320,192,160460,1,0,0:0:0:0:
448,192,160603,1,0,0:0:0:0:
64,192,160603,1,0,0:0:0:0:
64,192,160746,1,0,0:0:0:0:
192,192,160817,1,0,0:0:0:0:
448,192,160889,1,0,0:0:0:0:
320,192,160889,1,0,0:0:0:0:
192,192,160960,1,0,0:0:0:0:
64,192,161032,1,0,0:0:0:0:
448,192,161103,1,0,0:0:0:0:
320,192,161175,1,0,0:0:0:0:
192,192,161246,1,0,0:0:0:0:
64,192,161317,1,0,0:0:0:0:
192,192,161389,1,0,0:0:0:0:
448,192,161460,1,0,0:0:0:0:
320,192,161460,1,0,0:0:0:0:
192,192,161532,1,0,0:0:0:0:
64,192,161603,1,0,0:0:0:0:
192,192,161675,1,0,0:0:0:0:
320,192,161746,1,0,0:0:0:0:
64,192,161817,1,0,0:0:0:0:
192,192,161889,1,0,0:0:0:0:
320,192,161960,1,0,0:0:0:0:
448,192,162032,1,0,0:0:0:0:
64,192,162032,1,0,0:0:0:0:
320,192,162103,1,0,0:0:0:0:
192,192,162175,1,0,0:0:0:0:
64,192,162246,1,0,0:0:0:0:
192,192,162317,128,0,162603:0:0:0:0:
448,192,162317,128,0,162603:0:0:0:0:
64,192,162603,1,0,0:0:0:0:
320,192,162675,1,0,0:0:0:0:
192,192,162746,1,0,0:0:0:0:
64,192,162817,1,0,0:0:0:0:
448,192,162889,1,0,0:0:0:0:
320,192,162960,1,0,0:0:0:0:
192,192,163032,1,0,0:0:0:0:
448,192,163103,1,0,0:0:0:0:
320,192,163175,1,0,0:0:0:0:
64,192,163175,1,0,0:0:0:0:
192,192,163246,1,0,0:0:0:0:
320,192,163317,1,0,0:0:0:0:
192,192,163389,1,0,0:0:0:0:
448,192,163460,1,0,0:0:0:0:
320,192,163532,1,0,0:0:0:0:
64,192,163603,1,0,0:0:0:0:
192,192,163675,1,0,0:0:0:0:
64,192,163746,1,0,0:0:0:0:
448,192,163746,1,0,0:0:0:0:
320,192,163817,1,0,0:0:0:0:
192,192,163889,1,0,0:0:0:0:
64,192,163960,1,0,0:0:0:0:
192,192,164032,1,0,0:0:0:0:
320,192,164103,1,0,0:0:0:0:
64,192,164175,1,0,0:0:0:0:
192,192,164246,1,0,0:0:0:0:
64,192,164317,1,0,0:0:0:0:
320,192,164317,1,0,0:0:0:0:
448,192,164389,1,0,0:0:0:0:
320,192,164460,1,0,0:0:0:0:
192,192,164532,1,0,0:0:0:0:
448,192,164603,1,0,0:0:0:0:
64,192,164603,1,0,0:0:0:0:
320,192,164746,1,0,0:0:0:0:
448,192,164889,1,0,0:0:0:0:
64,192,164889,1,0,0:0:0:0:
192,192,165032,1,0,0:0:0:0:
448,192,165175,1,0,0:0:0:0:
64,192,165175,1,0,0:0:0:0:
320,192,165317,1,0,0:0:0:0:
192,192,165389,1,0,0:0:0:0:
64,192,165460,1,0,0:0:0:0:
448,192,165532,1,0,0:0:0:0:
320,192,165603,1,0,0:0:0:0:
192,192,165675,1,0,0:0:0:0:
320,192,165746,1,0,0:0:0:0:
448,192,165817,1,0,0:0:0:0:
64,192,165889,1,0,0:0:0:0:
192,192,165960,1,0,0:0:0:0:
320,192,166032,1,0,0:0:0:0:
64,192,166032,1,0,0:0:0:0:
448,192,166175,1,0,0:0:0:0:
192,192,166317,1,0,0:0:0:0:
64,192,166317,1,0,0:0:0:0:
320,192,166460,1,0,0:0:0:0:
448,192,166603,128,0,166889:0:0:0:0:
64,192,166603,128,0,166889:0:0:0:0:
320,192,166889,128,0,167175:0:0:0:0:
192,192,166889,128,0,167175:0:0:0:0:
64,192,167175,1,0,0:0:0:0:
192,192,167246,1,0,0:0:0:0:
320,192,167317,1,0,0:0:0:0:
192,192,167389,1,0,0:0:0:0:
320,192,167460,1,0,0:0:0:0:
64,192,167532,1,0,0:0:0:0:
192,192,167603,1,0,0:0:0:0:
448,192,167675,1,0,0:0:0:0:
64,192,167746,1,0,0:0:0:0:
320,192,167746,1,0,0:0:0:0:
192,192,167817,1,0,0:0:0:0:
448,192,167889,1,0,0:0:0:0:
320,192,167960,1,0,0:0:0:0:
64,192,168032,1,0,0:0:0:0:
192,192,168103,1,0,0:0:0:0:
320,192,168175,1,0,0:0:0:0:
448,192,168246,1,0,0:0:0:0:
320,192,168317,1,0,0:0:0:0:
192,192,168317,1,0,0:0:0:0:
320,192,168460,1,0,0:0:0:0:
448,192,168460,1,0,0:0:0:0:
320,192,168603,1,0,0:0:0:0:
192,192,168603,1,0,0:0:0:0:
192,192,168746,1,0,0:0:0:0:
64,192,168746,1,0,0:0:0:0:
320,192,168889,128,0,169452:0:0:0:0:
192,192,168889,128,0,169452:0:0:0:0:
64,192,169452,1,0,0:0:0:0:
192,192,169595,1,0,0:0:0:0:
448,192,169738,1,0,0:0:0:0:
64,192,169738,1,0,0:0:0:0:
320,192,169881,1,0,0:0:0:0:
192,192,170024,1,0,0:0:0:0:
320,192,170095,1,0,0:0:0:0:
448,192,170167,1,0,0:0:0:0:
320,192,170238,1,0,0:0:0:0:
64,192,170309,1,0,0:0:0:0:
192,192,170381,1,0,0:0:0:0:
320,192,170452,1,0,0:0:0:0:
64,192,170524,1,0,0:0:0:0:
192,192,170595,1,0,0:0:0:0:
448,192,170667,1,0,0:0:0:0:
320,192,170738,1,0,0:0:0:0:
192,192,170809,1,0,0:0:0:0:
448,192,170881,1,0,0:0:0:0:
64,192,170881,1,0,0:0:0:0:
320,192,170952,1,0,0:0:0:0:
192,192,171024,1,0,0:0:0:0:
64,192,171095,1,0,0:0:0:0:
192,192,171167,1,0,0:0:0:0:
320,192,171238,1,0,0:0:0:0:
448,192,171309,1,0,0:0:0:0:
320,192,171452,128,0,171738:0:0:0:0:
64,192,171452,128,0,171738:0:0:0:0:
448,192,171738,1,0,0:0:0:0:
320,192,171809,1,0,0:0:0:0:
192,192,171881,1,0,0:0:0:0:
320,192,171952,1,0,0:0:0:0:
448,192,172024,1,0,0:0:0:0:
64,192,172095,1,0,0:0:0:0:
192,192,172167,1,0,0:0:0:0:
320,192,172238,1,0,0:0:0:0:
64,192,172309,1,0,0:0:0:0:
192,192,172381,1,0,0:0:0:0:
320,192,172452,1,0,0:0:0:0:
448,192,172524,1,0,0:0:0:0:
320,192,172595,1,0,0:0:0:0:
192,192,172667,1,0,0:0:0:0:
448,192,172738,1,0,0:0:0:0:
320,192,172809,1,0,0:0:0:0:
64,192,172881,1,0,0:0:0:0:
192,192,172952,1,0,0:0:0:0:
320,192,173024,1,0,0:0:0:0:
448,192,173095,1,0,0:0:0:0:
320,192,173167,128,0,173745:0:0:0:0:
192,192,173167,128,0,173745:0:0:0:0:
64,192,173745,1,0,0:0:0:0:
448,192,173745,1,0,0:0:0:0:
320,192,173888,1,0,0:0:0:0:
320,192,174031,1,0,0:0:0:0:
192,192,174031,1,0,0:0:0:0:
192,192,174172,1,0,0:0:0:0:
448,192,174315,1,0,0:0:0:0:
64,192,174315,1,0,0:0:0:0:
192,192,174458,1,0,0:0:0:0:
320,192,174531,1,0,0:0:0:0:
192,192,174602,1,0,0:0:0:0:
64,192,174672,1,0,0:0:0:0:
320,192,174745,1,0,0:0:0:0:
448,192,174815,1,0,0:0:0:0:
320,192,174888,1,0,0:0:0:0:
64,192,174958,1,0,0:0:0:0:
192,192,175031,1,0,0:0:0:0:
320,192,175102,1,0,0:0:0:0:
64,192,175172,1,0,0:0:0:0:
192,192,175245,1,0,0:0:0:0:
448,192,175315,1,0,0:0:0:0:
320,192,175388,1,0,0:0:0:0:
192,192,175458,1,0,0:0:0:0:
320,192,175531,1,0,0:0:0:0:
448,192,175602,1,0,0:0:0:0:
64,192,175672,1,0,0:0:0:0:
192,192,175745,1,0,0:0:0:0:
320,192,175815,1,0,0:0:0:0:
448,192,175888,1,0,0:0:0:0:
320,192,175958,1,0,0:0:0:0:
192,192,176031,128,0,176315:0:0:0:0:
64,192,176031,128,0,176315:0:0:0:0:
320,192,176315,1,0,0:0:0:0:
448,192,176388,1,0,0:0:0:0:
320,192,176458,1,0,0:0:0:0:
192,192,176531,1,0,0:0:0:0:
448,192,176602,1,0,0:0:0:0:
320,192,176672,1,0,0:0:0:0:
64,192,176745,1,0,0:0:0:0:
192,192,176815,1,0,0:0:0:0:
320,192,176888,1,0,0:0:0:0:
64,192,176958,1,0,0:0:0:0:
192,192,177031,1,0,0:0:0:0:
448,192,177102,1,0,0:0:0:0:
320,192,177172,1,0,0:0:0:0:
192,192,177245,1,0,0:0:0:0:
64,192,177315,1,0,0:0:0:0:
192,192,177388,1,0,0:0:0:0:
448,192,177458,1,0,0:0:0:0:
320,192,177531,1,0,0:0:0:0:
192,192,177602,1,0,0:0:0:0:
320,192,177672,1,0,0:0:0:0:
448,192,177745,1,0,0:0:0:0:
64,192,177745,1,0,0:0:0:0:
192,192,177815,1,0,0:0:0:0:
320,192,177888,1,0,0:0:0:0:
448,192,177958,1,0,0:0:0:0:
64,192,178031,128,0,178172:0:0:0:0:
192,192,178172,128,0,178315:0:0:0:0:
320,192,178315,128,0,178458:0:0:0:0:
192,192,178458,128,0,178602:0:0:0:0:
64,192,178602,1,0,0:0:0:0:
448,192,178602,128,0,178888:0:0:0:0:
64,192,178888,128,0,179172:0:0:0:0:
320,192,179031,1,0,0:0:0:0:
192,192,179172,128,0,179458:0:0:0:0:
64,192,179315,1,0,0:0:0:0:
320,192,179458,128,0,179745:0:0:0:0:
448,192,179602,1,0,0:0:0:0:
192,192,179745,128,0,180031:0:0:0:0:
64,192,179888,1,0,0:0:0:0:
448,192,180031,128,0,180315:0:0:0:0:
320,192,180172,1,0,0:0:0:0:
192,192,180315,128,0,180458:0:0:0:0:
64,192,180458,128,0,180888:0:0:0:0:
320,192,180458,1,0,0:0:0:0:
448,192,180745,1,0,0:0:0:0:
192,192,180888,128,0,181172:0:0:0:0:
320,192,181031,1,0,0:0:0:0:
64,192,181172,1,0,0:0:0:0:
448,192,181172,1,0,0:0:0:0:
320,192,181315,1,0,0:0:0:0:
64,192,181458,1,0,0:0:0:0:
192,192,181458,1,0,0:0:0:0:
320,192,181602,1,0,0:0:0:0:
192,192,181745,1,0,0:0:0:0:
448,192,181745,1,0,0:0:0:0:
320,192,181888,1,0,0:0:0:0:
448,192,182031,1,0,0:0:0:0:
64,192,182031,1,0,0:0:0:0:
192,192,182172,1,0,0:0:0:0:
320,192,182315,1,0,0:0:0:0:
64,192,182315,1,0,0:0:0:0:
192,192,182458,1,0,0:0:0:0:
192,192,182602,1,0,0:0:0:0:
320,192,182602,1,0,0:0:0:0:
64,192,182745,1,0,0:0:0:0:
192,192,182815,1,0,0:0:0:0:
320,192,182888,1,0,0:0:0:0:
448,192,182888,1,0,0:0:0:0:
192,192,183031,1,0,0:0:0:0:
192,192,183172,1,0,0:0:0:0:
448,192,183172,1,0,0:0:0:0:
64,192,183245,1,0,0:0:0:0:
192,192,183315,1,0,0:0:0:0:
320,192,183388,1,0,0:0:0:0:
64,192,183458,1,0,0:0:0:0:
192,192,183531,1,0,0:0:0:0:
320,192,183602,1,0,0:0:0:0:
64,192,183672,1,0,0:0:0:0:
192,192,183745,1,0,0:0:0:0:
320,192,183815,1,0,0:0:0:0:
448,192,183888,1,0,0:0:0:0:
320,192,183958,1,0,0:0:0:0:
192,192,184031,1,0,0:0:0:0:
448,192,184102,1,0,0:0:0:0:
320,192,184172,1,0,0:0:0:0:
192,192,184245,1,0,0:0:0:0:
448,192,184315,1,0,0:0:0:0:
320,192,184388,1,0,0:0:0:0:
192,192,184458,1,0,0:0:0:0:
64,192,184531,1,0,0:0:0:0:
192,192,184602,1,0,0:0:0:0:
448,192,184672,1,0,0:0:0:0:
320,192,184745,1,0,0:0:0:0:
192,192,184888,1,0,0:0:0:0:
320,192,184888,1,0,0:0:0:0:
64,192,185031,1,0,0:0:0:0:
448,192,185031,1,0,0:0:0:0:
192,192,185172,1,0,0:0:0:0:
320,192,185315,1,0,0:0:0:0:
64,192,185458,1,0,0:0:0:0:
448,192,185458,1,0,0:0:0:0:
192,192,185602,1,0,0:0:0:0:
320,192,185745,1,0,0:0:0:0:
448,192,185745,1,0,0:0:0:0:
320,192,185888,1,0,0:0:0:0:
64,192,186031,1,0,0:0:0:0:
192,192,186031,1,0,0:0:0:0:
192,192,186172,1,0,0:0:0:0:
320,192,186315,1,0,0:0:0:0:
448,192,186458,1,0,0:0:0:0:
320,192,186602,1,0,0:0:0:0:
192,192,186602,1,0,0:0:0:0:
448,192,186672,1,0,0:0:0:0:
320,192,186745,1,0,0:0:0:0:
192,192,186815,1,0,0:0:0:0:
64,192,186888,1,0,0:0:0:0:
448,192,186958,1,0,0:0:0:0:
320,192,187031,1,0,0:0:0:0:
192,192,187102,1,0,0:0:0:0:
64,192,187172,1,0,0:0:0:0:
448,192,187245,1,0,0:0:0:0:
320,192,187315,1,0,0:0:0:0:
192,192,187388,1,0,0:0:0:0:
64,192,187458,128,0,187745:0:0:0:0:
448,192,187458,128,0,187745:0:0:0:0:
320,192,187745,128,0,188031:0:0:0:0:
64,192,188031,128,0,188315:0:0:0:0:
448,192,188172,1,0,0:0:0:0:
192,192,188315,128,0,188602:0:0:0:0:
64,192,188458,1,0,0:0:0:0:
320,192,188602,128,0,188888:0:0:0:0:
448,192,188745,1,0,0:0:0:0:
192,192,188888,128,0,189172:0:0:0:0:
64,192,189031,1,0,0:0:0:0:
448,192,189172,128,0,189458:0:0:0:0:
320,192,189315,1,0,0:0:0:0:
192,192,189458,128,0,189602:0:0:0:0:
320,192,189602,1,0,0:0:0:0:
64,192,189602,128,0,190031:0:0:0:0:
448,192,189888,1,0,0:0:0:0:
192,192,190031,128,0,190315:0:0:0:0:
320,192,190172,1,0,0:0:0:0:
448,192,190315,1,0,0:0:0:0:
64,192,190315,1,0,0:0:0:0:
320,192,190458,1,0,0:0:0:0:
192,192,190602,1,0,0:0:0:0:
64,192,190602,1,0,0:0:0:0:
320,192,190745,1,0,0:0:0:0:
448,192,190888,1,0,0:0:0:0:
192,192,190888,1,0,0:0:0:0:
320,192,191031,1,0,0:0:0:0:
64,192,191172,1,0,0:0:0:0:
448,192,191172,1,0,0:0:0:0:
192,192,191315,1,0,0:0:0:0:
64,192,191458,1,0,0:0:0:0:
320,192,191458,1,0,0:0:0:0:
192,192,191602,1,0,0:0:0:0:
320,192,191745,1,0,0:0:0:0:
192,192,191745,1,0,0:0:0:0:
64,192,191888,1,0,0:0:0:0:
448,192,191888,1,0,0:0:0:0:
192,192,191958,1,0,0:0:0:0:
448,192,192031,1,0,0:0:0:0:
320,192,192031,1,0,0:0:0:0:
192,192,192172,1,0,0:0:0:0:
320,192,192315,1,0,0:0:0:0:
64,192,192315,1,0,0:0:0:0:
448,192,192388,1,0,0:0:0:0:
320,192,192458,1,0,0:0:0:0:
192,192,192531,1,0,0:0:0:0:
448,192,192602,1,0,0:0:0:0:
320,192,192672,1,0,0:0:0:0:
192,192,192745,1,0,0:0:0:0:
448,192,192815,1,0,0:0:0:0:
320,192,192888,1,0,0:0:0:0:
192,192,192958,1,0,0:0:0:0:
64,192,193031,1,0,0:0:0:0:
192,192,193102,1,0,0:0:0:0:
320,192,193172,1,0,0:0:0:0:
64,192,193245,1,0,0:0:0:0:
192,192,193315,1,0,0:0:0:0:
320,192,193388,1,0,0:0:0:0:
64,192,193458,1,0,0:0:0:0:
192,192,193531,1,0,0:0:0:0:
320,192,193602,1,0,0:0:0:0:
448,192,193672,1,0,0:0:0:0:
320,192,193745,1,0,0:0:0:0:
64,192,193815,1,0,0:0:0:0:
192,192,193888,1,0,0:0:0:0:
320,192,194031,1,0,0:0:0:0:
192,192,194031,1,0,0:0:0:0:
448,192,194172,1,0,0:0:0:0:
64,192,194172,1,0,0:0:0:0:
192,192,194315,1,0,0:0:0:0:
320,192,194458,1,0,0:0:0:0:
448,192,194602,1,0,0:0:0:0:
64,192,194602,1,0,0:0:0:0:
192,192,194745,1,0,0:0:0:0:
448,192,194888,1,0,0:0:0:0:
320,192,194888,1,0,0:0:0:0:
320,192,195031,1,0,0:0:0:0:
192,192,195172,1,0,0:0:0:0:
64,192,195172,1,0,0:0:0:0:
192,192,195315,1,0,0:0:0:0:
320,192,195458,1,0,0:0:0:0:
448,192,195602,1,0,0:0:0:0:
448,192,195745,1,0,0:0:0:0:
192,192,195745,1,0,0:0:0:0:
320,192,195815,1,0,0:0:0:0:
64,192,195815,1,0,0:0:0:0:
448,192,195888,1,0,0:0:0:0:
192,192,195888,1,0,0:0:0:0:
64,192,195958,1,0,0:0:0:0:
320,192,195958,1,0,0:0:0:0:
192,192,196031,1,0,0:0:0:0:
448,192,196031,1,0,0:0:0:0:
320,192,196102,1,0,0:0:0:0:
64,192,196102,1,0,0:0:0:0:
448,192,196172,1,0,0:0:0:0:
192,192,196172,1,0,0:0:0:0:
64,192,196245,1,0,0:0:0:0:
320,192,196245,1,0,0:0:0:0:
192,192,196315,1,0,0:0:0:0:
448,192,196315,1,0,0:0:0:0:
320,192,196888,1,0,0:0:0:0:
64,192,196888,1,0,0:0:0:0:
192,192,197031,1,0,0:0:0:0:
448,192,197172,128,0,197458:0:0:0:0:
320,192,197315,1,0,0:0:0:0:
64,192,197315,1,0,0:0:0:0:
320,192,197458,128,0,197745:0:0:0:0:
448,192,197745,128,0,197888:0:0:0:0:
192,192,197745,1,0,0:0:0:0:
192,192,197888,128,0,198031:0:0:0:0:
320,192,198031,128,0,198172:0:0:0:0:
64,192,198172,128,0,198315:0:0:0:0:
448,192,198315,128,0,198458:0:0:0:0:
192,192,198458,128,0,198602:0:0:0:0:
320,192,198602,1,0,0:0:0:0:
192,192,198745,1,0,0:0:0:0:
64,192,198888,1,0,0:0:0:0:
64,192,199031,128,0,199172:0:0:0:0:
320,192,199172,128,0,199458:0:0:0:0:
192,192,199172,1,0,0:0:0:0:
448,192,199172,1,0,0:0:0:0:
64,192,199458,128,0,199602:0:0:0:0:
320,192,199602,128,0,199888:0:0:0:0:
192,192,199602,1,0,0:0:0:0:
448,192,199602,1,0,0:0:0:0:
192,192,199888,128,0,200031:0:0:0:0:
448,192,200031,128,0,200458:0:0:0:0:
320,192,200031,1,0,0:0:0:0:
64,192,200172,1,0,0:0:0:0:
192,192,200315,1,0,0:0:0:0:
320,192,200458,128,0,200602:0:0:0:0:
192,192,200602,128,0,200745:0:0:0:0:
64,192,200745,128,0,200888:0:0:0:0:
192,192,200888,128,0,201031:0:0:0:0:
320,192,201031,1,0,0:0:0:0:
192,192,201172,1,0,0:0:0:0:
64,192,201315,1,0,0:0:0:0:
448,192,201458,128,0,201602:0:0:0:0:
320,192,201458,1,0,0:0:0:0:
192,192,201458,1,0,0:0:0:0:
448,192,201745,128,0,202031:0:0:0:0:
320,192,201888,1,0,0:0:0:0:
192,192,201888,1,0,0:0:0:0:
320,192,202031,128,0,202315:0:0:0:0:
64,192,202315,128,0,202458:0:0:0:0:
192,192,202315,1,0,0:0:0:0:
192,192,202458,128,0,202602:0:0:0:0:
320,192,202602,128,0,202745:0:0:0:0:
64,192,202745,1,0,0:0:0:0:
192,192,202888,128,0,203031:0:0:0:0:
320,192,203031,128,0,203172:0:0:0:0:
192,192,203172,128,0,203745:0:0:0:0:
64,192,203458,1,0,0:0:0:0:
320,192,203602,1,0,0:0:0:0:
64,192,203745,128,0,203888:0:0:0:0:
448,192,203745,1,0,0:0:0:0:
192,192,203888,128,0,204172:0:0:0:0:
64,192,204172,128,0,204315:0:0:0:0:
448,192,204172,1,0,0:0:0:0:
320,192,204172,1,0,0:0:0:0:
192,192,204315,128,0,204602:0:0:0:0:
448,192,204602,128,0,204888:0:0:0:0:
320,192,204602,1,0,0:0:0:0:
64,192,204878,128,0,205449:0:0:0:0:
192,192,205021,128,0,205449:0:0:0:0:
320,192,205163,128,0,205449:0:0:0:0:
448,192,205306,128,0,205449:0:0:0:0:
