osu file format v14

[General]
AudioFilename: unravel feat. Hatsune Miku - Dubstep [ dj-Jo Remix ] Full Version.mp3
AudioLeadIn: 0
PreviewTime: 61827
Countdown: 0
SampleSet: Normal
StackLeniency: 0.7
Mode: 0
LetterboxInBreaks: 0
EpilepsyWarning: 1
WidescreenStoryboard: 1

[Editor]
Bookmarks: 7603,32708,41595,55814,77160,87827,102049,116271,130493,144715,158938,173160,183827,208715
DistanceSpacing: 1
BeatDivisor: 4
GridSize: 4
TimelineZoom: 2.300001

[Metadata]
Title:unravel [ dj-Jo Remix ] Full Version
TitleUnicode:unravel [ dj-Jo Remix ] Full Version
Artist:Hatsune Miku
ArtistUnicode:Hatsune Miku
Creator:StarForYou
Version:Paralyze
Source:
Tags:Dubstep WTHkapo Fort 東京喰種-トーキョーグール-
BeatmapID:699746
BeatmapSetID:313457

[Difficulty]
HPDrainRate:5
CircleSize:3.6
OverallDifficulty:8
ApproachRate:9.7
SliderMultiplier:2
SliderTickRate:1

[Events]
//Background and Video events
0,0,"Landscapes-Cityscapes-01-768x1280.jpg",0,0
//Break Periods
2,61360,62443
//Storyboard Layer 0 (Background)
//Storyboard Layer 1 (Fail)
//Storyboard Layer 2 (Pass)
//Storyboard Layer 3 (Foreground)
//Storyboard Sound Samples

[TimingPoints]
716,444.444444444444,4,2,1,65,1,0
9049,-100,4,2,1,35,0,0
9160,-100,4,2,1,65,0,0
12604,-100,4,2,1,35,0,0
12715,-100,4,2,1,65,0,0
12938,-100,4,2,1,65,0,0
13049,-100,4,2,1,65,0,0
16160,-100,4,2,1,35,0,0
16271,-100,4,2,1,65,0,0
19715,-100,4,2,1,35,0,0
19827,-100,4,2,1,65,0,0
23271,-100,4,2,1,35,0,0
23382,-100,4,2,1,65,0,0
25604,-100,4,2,2,5,0,0
26049,-100,4,2,2,15,0,0
26493,-100,4,2,2,25,0,0
26715,-100,4,2,2,35,0,0
26938,-100,4,2,2,45,0,0
27160,-100,4,2,2,55,0,0
27382,-100,4,2,2,65,0,0
29160,-100,4,2,1,65,0,0
32715,-80,4,2,1,65,0,0
39827,-100,4,2,4,65,0,0
39938,-100,4,2,1,45,0,0
41604,-100,4,2,1,65,0,0
42271,-100,4,2,2,65,0,0
42493,-100,4,2,1,65,0,0
43382,-100,4,2,2,65,0,0
44160,-100,4,2,1,65,0,0
45827,-100,4,2,2,65,0,0
46049,-100,4,2,1,65,0,0
46382,-100,4,2,2,65,0,0
46493,-100,4,2,1,65,0,0
46604,-100,4,2,2,65,0,0
46715,-100,4,2,1,65,0,0
46827,-100,4,2,2,65,0,0
46938,-100,4,2,1,65,0,0
47049,-100,4,2,2,65,0,0
47160,-100,4,2,1,65,0,0
47271,-100,4,2,2,65,0,0
47382,-100,4,2,1,65,0,0
47493,-100,4,2,2,65,0,0
47715,-100,4,2,1,65,0,0
48271,-100,4,2,2,65,0,0
48382,-100,4,2,1,65,0,0
49382,-100,4,2,2,65,0,0
49938,-100,4,2,1,65,0,0
50604,-100,4,2,2,65,0,0
51049,-100,4,2,1,65,0,0
51160,-100,4,2,2,65,0,0
51604,-100,4,2,1,65,0,0
52715,-100,4,2,2,65,0,0
53827,-100,4,2,1,65,0,0
53938,-100,4,2,2,65,0,0
54049,-100,4,2,1,65,0,0
54160,-100,4,2,2,65,0,0
54938,-100,4,2,1,65,0,0
57160,-100,4,2,2,65,0,0
57382,-100,4,2,1,65,0,0
57604,-100,4,2,2,65,0,0
57827,-100,4,2,1,65,0,0
58049,-100,4,2,2,65,0,0
58271,-100,4,2,1,65,0,0
58493,-100,4,2,2,65,0,0
58715,-100,4,2,1,65,0,0
58938,-100,4,2,2,65,0,0
62938,-66.6666666666667,4,1,1,75,0,1
75382,-66.6666666666667,4,1,2,75,0,1
76271,-100,4,1,1,75,0,0
76382,-100,4,1,1,55,0,0
76493,-66.6666666666667,4,1,1,35,0,0
76604,-66.6666666666667,4,1,1,15,0,0
76715,-57.1428571428571,4,1,1,55,0,0
77160,-66.6666666666667,4,1,1,75,0,1
77160,-66.6666666666667,4,1,1,75,0,1
86049,-100,4,2,1,65,0,1
86715,-133.333333333333,4,2,1,55,0,1
87382,-200,4,2,1,45,0,1
87827,-200,4,2,1,35,0,0
89382,-200,4,2,1,5,0,0
89604,-100,4,2,1,45,0,0
92604,-100,4,2,1,25,0,0
92715,-100,4,2,1,45,0,0
95604,-100,4,2,2,45,0,0
95715,-100,4,2,1,45,0,0
96160,-100,4,2,1,25,0,0
96271,-100,4,2,1,45,0,0
96827,-100,4,2,2,45,0,0
96938,-100,4,2,1,45,0,0
97049,-100,4,2,2,45,0,0
97160,-100,4,2,1,45,0,0
97271,-100,4,2,2,45,0,0
97382,-100,4,2,1,45,0,0
97493,-100,4,2,2,45,0,0
97604,-100,4,2,1,45,0,0
98049,-100,4,2,2,45,0,0
98160,-100,4,2,1,45,0,0
98493,-100,4,2,2,45,0,0
99382,-100,4,2,1,45,0,0
100382,-100,4,2,2,45,0,0
100493,-100,4,2,1,45,0,0
100604,-100,4,2,2,45,0,0
100715,-100,4,2,1,55,0,0
100827,-100,4,2,2,55,0,0
101049,-100,4,2,1,55,0,0
101160,-100,4,2,2,65,0,0
101271,-100,4,2,1,65,0,0
102049,-100,4,2,4,65,0,0
102160,-100,4,2,1,65,0,0
110049,-83.3333333333333,4,2,1,65,0,0
110938,-71.4285714285714,4,2,1,65,0,0
111827,-62.5,4,2,1,65,0,0
112715,-55.5555555555556,4,2,2,65,0,0
113049,-55.5555555555556,4,2,1,65,0,0
113382,-55.5555555555556,4,2,2,65,0,0
113604,-100,4,2,1,65,0,0
113715,-100,4,2,1,65,0,0
114493,-100,4,2,1,65,0,0
114827,-66.6666666666667,4,2,1,65,0,0
115160,-80,4,2,1,65,0,0
115382,-133.333333333333,4,2,1,65,0,0
116049,-50,4,2,1,65,0,0
116271,-133.333333333333,4,2,4,65,0,0
116382,-133.333333333333,4,2,1,65,0,0
119827,-133.333333333333,4,2,4,65,0,0
119938,-133.333333333333,4,2,1,65,0,0
123382,-133.333333333333,4,2,4,65,0,0
123493,-133.333333333333,4,2,1,65,0,0
130049,-66.6666666666667,4,2,1,65,0,0
130493,-80,4,2,1,75,0,0
134049,-80,4,2,4,75,0,0
134160,-80,4,2,1,75,0,0
137604,-80,4,2,4,75,0,0
137715,-80,4,2,1,75,0,0
143827,-100,4,2,1,75,0,0
144715,-100,4,2,1,65,0,0
149493,-100,4,2,2,65,0,0
149604,-100,4,2,1,65,0,0
150049,-100,4,2,1,55,0,0
151827,-100,4,2,4,65,0,0
151938,-100,4,2,1,65,0,0
153160,-100,4,2,2,65,0,0
153382,-100,4,2,1,65,0,0
153604,-100,4,2,2,65,0,0
153827,-100,4,2,1,65,0,0
154049,-100,4,2,2,65,0,0
154271,-100,4,2,1,65,0,0
154493,-100,4,2,2,65,0,0
154715,-100,4,2,1,65,0,0
154938,-100,4,2,2,65,0,0
156938,-100,4,2,1,65,0,0
158049,-133.333333333333,4,2,1,45,0,0
159827,-66.6666666666667,4,1,1,75,0,1
170382,-66.6666666666667,4,1,2,75,0,1
170493,-66.6666666666667,4,1,1,75,0,1
170715,-66.6666666666667,4,1,2,75,0,1
172271,-100,4,1,1,75,0,0
172382,-66.6666666666667,4,1,1,55,0,0
172493,-100,4,1,1,35,0,0
172604,-100,4,1,1,15,0,0
172715,-57.1428571428571,4,1,1,55,0,0
173160,-66.6666666666667,4,1,1,75,0,1
183827,-66.6666666666667,4,1,1,75,0,0
196271,-58.8235294117647,4,1,1,75,0,0
196604,-55.5555555555556,4,1,1,75,0,0
196938,-52.6315789473684,4,1,1,75,0,0
197382,-50,4,1,1,75,0,0
198049,-66.6666666666667,4,1,1,75,0,1
206938,-100,4,2,1,65,0,0
207827,-100,4,2,1,55,0,0
208715,-100,4,2,1,45,0,0
210493,-100,4,2,1,20,0,0

[HitObjects]
152,304,7604,5,0,0:0:0:0:
280,240,7827,2,0,P|356:236|408:256,1,100,4|0,0:0|0:0,0:0:0:0:
460,268,8160,1,4,0:0:0:0:
392,164,8271,2,0,L|400:56,1,100
441,183,8604,1,0,0:0:0:0:
287,339,8715,6,0,L|279:231,1,100,8|0,0:0|0:0,0:0:0:0:
372,280,9049,1,8,0:0:0:0:
152,304,9160,2,0,L|156:240,1,50
36,360,9382,2,0,L|32:296,1,50
30,138,9604,5,2,0:0:0:0:
164,168,9715,2,0,P|200:164|232:156,2,50
16,116,10049,6,0,L|24:252,1,100
152,304,10382,1,0,0:0:0:0:
52,312,10493,2,0,P|19:317|-4:312,1,50,2|0,0:0|0:0,0:0:0:0:
172,284,10715,2,0,L|288:292,1,100
408,244,11049,2,0,L|352:248,1,50
388,336,11271,1,0,0:0:0:0:
508,280,11382,6,0,P|516:220|464:156,1,100,4|0,0:0|0:0,0:0:0:0:
296,96,11715,1,4,0:0:0:0:
408,244,11827,2,0,B|432:240|432:240|360:252|320:208,1,100
400,128,12160,1,0,0:0:0:0:
388,336,12271,2,0,P|344:328|316:312,1,50,8|0,0:0|0:0,0:0:0:0:
212,236,12493,2,0,P|189:197|184:165,1,50
244,360,12715,2,0,P|209:331|193:303,1,50
141,185,12938,2,0,P|141:140|152:109,1,50,8|0,0:0|0:0,0:0:0:0:
16,36,13160,6,0,B|24:56|52:60|52:60|20:100|28:176,1,150,2|0,0:0|0:0,0:0:0:0:
212,236,13604,2,0,B|288:228|288:228|260:212,1,100
40,272,14049,2,0,L|48:332,1,50,2|0,0:0|0:0,0:0:0:0:
141,185,14271,2,0,L|133:125,1,50
68,304,14493,2,0,L|76:364,1,50
116,156,14715,2,0,L|108:96,1,50
96,336,14938,6,0,B|128:344|128:344|160:332|180:320|180:320|192:368|248:368,1,150,4|4,0:0|0:0,0:0:0:0:
252,240,15382,2,0,L|264:320,1,50,0|4,0:0|0:0,0:0:0:0:
352,256,15604,1,0,0:0:0:0:
359,305,15715,1,0,0:0:0:0:
452,280,15827,6,0,L|456:164,1,100,8|0,0:0|0:0,0:0:0:0:
252,240,16160,1,8,0:0:0:0:
508,120,16271,2,0,P|480:104|440:104,1,50
296,64,16493,2,0,P|323:47|343:13,1,50
316,52,16715,6,0,L|324:188,1,100,2|0,0:0|0:0,0:0:0:0:
408,96,17049,1,0,0:0:0:0:
224,44,17160,2,0,P|160:52|96:16,1,100,0|4,0:0|0:0,0:0:0:0:
8,8,17493,1,0,0:0:0:0:
104,176,17604,2,0,L|108:104,1,50,10|0,0:0|0:0,0:0:0:0:
24,240,17827,2,0,L|26:289,1,50
160,136,18049,2,0,L|130:95,1,50
48,272,18271,2,0,L|50:321,1,50
256,352,18493,6,0,B|272:332|272:332|168:348,1,100,4|0,0:0|0:0,0:0:0:0:
248,236,18827,2,0,B|216:260|216:260|308:244,1,100,4|0,0:0|0:0,0:0:0:0:
352,228,19160,2,0,L|416:212,1,50
484,120,19382,6,0,L|476:8,1,100,8|0,0:0|0:0,0:0:0:0:
396,32,19715,1,8,0:0:0:0:
396,32,19827,2,0,L|400:100,1,50
312,40,20049,2,0,L|316:108,1,50
248,236,20271,5,2,0:0:0:0:
352,228,20382,2,0,L|416:232,2,50
224,252,20715,5,0,0:0:0:0:
358,192,20827,2,0,L|420:174,2,50
200,268,21160,5,2,0:0:0:0:
352,157,21271,2,0,L|404:119,2,50
176,284,21604,5,0,0:0:0:0:
104,236,21715,1,0,0:0:0:0:
127,152,21827,1,0,0:0:0:0:
213,147,21938,1,0,0:0:0:0:
244,228,22049,6,0,B|276:212|276:212|284:252|336:276,1,100,4|0,0:0|0:0,0:0:0:0:
472,220,22382,1,4,0:0:0:0:
358,192,22493,2,0,L|362:268,1,50,0|4,0:0|0:0,0:0:0:0:
480,212,22715,1,0,0:0:0:0:
488,204,22827,1,0,0:0:0:0:
312,262,22938,2,0,L|341:332,1,50,8|0,0:0|0:0,0:0:0:0:
496,196,23160,2,0,L|466:125,1,50,0|8,0:0|0:0,0:0:0:0:
332,80,23382,2,0,B|316:84|316:84|364:112|436:60,1,100
476,40,23715,1,0,0:0:0:0:
232,64,23827,6,0,L|240:144,1,50,2|0,0:0|0:0,0:0:0:0:
244,236,24049,2,0,L|236:316,1,50
236,148,24271,6,0,L|216:225,1,50
252,320,24493,2,0,L|217:392,1,50
244,236,24715,6,0,L|252:316,1,50,2|0,0:0|0:0,0:0:0:0:
236,148,24938,2,0,L|240:98,1,50
273,365,25160,6,0,L|252:320,1,50
232,64,25382,2,0,L|253:109,1,50
336,264,25604,6,0,L|368:256,32,25,2|2|2|2|2|2|2|2|2|2|2|2|2|2|2|2|2|2|2|2|2|2|2|2|2|2|2|2|2|2|2|2|14,0:0|0:0|0:0|0:0|0:0|0:0|0:0|0:0|0:0|0:0|0:0|0:0|0:0|0:0|0:0|0:0|0:0|0:0|0:0|0:0|0:0|0:0|0:0|0:0|0:0|0:0|0:0|0:0|0:0|0:0|0:0|0:0|0:0,0:0:0:0:
52,244,29160,6,0,L|60:308,1,50,4|0,0:0|0:0,0:0:0:0:
132,204,29382,1,0,0:0:0:0:
138,253,29493,1,0,0:0:0:0:
212,164,29604,2,0,L|220:228,1,50
292,124,29827,1,0,0:0:0:0:
298,173,29938,1,0,0:0:0:0:
378,133,30049,6,0,L|372:84,1,50,2|0,0:0|0:0,0:0:0:0:
458,93,30271,1,0,0:0:0:0:
452,44,30382,1,0,0:0:0:0:
298,173,30493,2,0,L|292:124,1,50
378,133,30715,1,0,0:0:0:0:
372,84,30827,1,0,0:0:0:0:
212,164,30938,6,0,L|218:213,1,50,4|0,0:0|0:0,0:0:0:0:
378,133,31160,2,0,L|372:84,1,50
132,204,31382,2,0,L|138:253,1,50
298,173,31604,2,0,L|292:124,1,50
212,164,31827,5,4,0:0:0:0:
218,213,31938,1,0,0:0:0:0:
58,293,32049,1,0,0:0:0:0:
52,244,32160,1,0,0:0:0:0:
298,173,32715,5,4,0:0:0:0:
336,248,32827,2,0,P|380:196|368:128,1,125,2|0,0:0|0:0,0:0:0:0:
252,243,33160,2,0,L|260:379,1,125,2|0,0:0|0:0,0:0:0:0:
344,340,33493,1,0,0:0:0:0:
298,173,33604,6,0,L|296:244,1,62.5,2|0,0:0|0:0,0:0:0:0:
374,79,33827,2,0,L|376:150,1,62.5
292,92,34049,1,2,0:0:0:0:
404,2,34160,1,0,0:0:0:0:
425,143,34271,1,0,0:0:0:0:
321,14,34382,1,0,0:0:0:0:
455,66,34493,5,4,0:0:0:0:
374,79,34604,2,0,L|218:71,1,125,2|0,0:0|0:0,0:0:0:0:
96,12,34938,2,0,L|104:156,1,125,2|0,0:0|0:0,0:0:0:0:
176,72,35271,1,0,0:0:0:0:
32,172,35382,6,0,P|60:204|88:212,1,62.5,2|0,0:0|0:0,0:0:0:0:
180,224,35604,2,0,P|222:223|246:206,1,62.5
196,148,35827,1,2,0:0:0:0:
124,288,35938,1,0,0:0:0:0:
282,281,36049,1,0,0:0:0:0:
196,148,36160,1,0,0:0:0:0:
124,288,36271,5,4,0:0:0:0:
192,337,36382,2,0,P|207:278|180:223,1,125,2|0,0:0|0:0,0:0:0:0:
3,287,36715,2,0,B|32:280|32:280|84:296|84:296|124:288,1,125,2|0,0:0|0:0,0:0:0:0:
88,204,37049,1,0,0:0:0:0:
282,281,37160,5,2,0:0:0:0:
288,264,37271,1,0,0:0:0:0:
196,148,37382,1,0,0:0:0:0:
202,165,37493,1,0,0:0:0:0:
294,247,37604,1,2,0:0:0:0:
300,230,37715,1,0,0:0:0:0:
208,182,37827,1,0,0:0:0:0:
214,199,37938,1,0,0:0:0:0:
283,140,38049,5,4,0:0:0:0:
196,148,38160,2,0,L|32:116,1,125,2|0,0:0|0:0,0:0:0:0:
208,60,38493,2,0,L|372:28,1,125,2|0,0:0|0:0,0:0:0:0:
284,104,38827,1,0,0:0:0:0:
408,16,38938,6,0,P|440:16|492:24,1,62.5,2|0,0:0|0:0,0:0:0:0:
500,40,39160,2,0,P|468:40|416:48,1,62.5
356,68,39382,1,2,0:0:0:0:
356,68,39493,1,0,0:0:0:0:
472,124,39604,1,0,0:0:0:0:
472,124,39715,1,0,0:0:0:0:
482,253,39827,6,0,L|296:248,1,150,4|0,0:0|0:0,0:0:0:0:
208,304,40271,2,0,B|240:292|240:292|256:328|296:344,1,100
216,208,40715,1,0,0:0:0:0:
216,208,40827,2,0,B|168:228|168:228|88:184,1,100
124,124,41160,2,0,B|172:104|172:104|252:148,1,100
300,168,41604,6,0,L|460:152,2,150,4|4|4,0:0|0:0|0:0,0:0:0:0:
496,88,42493,2,0,P|520:120|528:152,1,50,2|0,0:0|0:0,0:0:0:0:
512,220,42715,2,0,P|509:259|495:289,1,50
449,153,42938,2,0,P|433:189|409:212,1,50
342,232,43160,2,0,P|306:248|273:251,1,50
208,256,43382,5,0,0:0:0:0:
158,252,43493,1,0,0:0:0:0:
108,249,43604,1,0,0:0:0:0:
48,336,43715,1,0,0:0:0:0:
97,332,43826,1,0,0:0:0:0:
147,329,43937,1,0,0:0:0:0:
32,208,44049,2,0,L|28:276,1,50
96,84,44271,6,0,L|100:152,1,50,8|0,0:0|0:0,0:0:0:0:
24,16,44493,1,4,0:0:0:0:
24,16,44938,1,0,0:0:0:0:
24,16,45160,6,0,L|184:8,2,150,4|4|4,0:0|0:0|0:0,0:0:0:0:
280,76,46049,2,0,L|207:72,1,50,2|0,0:0|0:0,0:0:0:0:
368,156,46271,2,0,L|318:158,1,50,0|8,0:0|0:0,0:0:0:0:
472,76,46493,1,0,0:0:0:0:
460,108,46604,1,0,0:0:0:0:
455,143,46715,1,0,0:0:0:0:
457,178,46827,1,0,0:0:0:0:
466,212,46938,5,2,0:0:0:0:
464,240,47049,1,0,0:0:0:0:
384,220,47160,1,2,0:0:0:0:
381,247,47271,1,0,0:0:0:0:
302,228,47382,1,2,0:0:0:0:
299,255,47493,1,0,0:0:0:0:
296,284,47604,2,0,L|304:344,1,50,6|0,0:0|0:0,0:0:0:0:
220,180,47827,6,0,L|212:240,1,50,8|0,0:0|0:0,0:0:0:0:
208,316,48049,1,0,0:0:0:0:
136,144,48160,2,0,L|128:204,1,50
124,280,48382,1,0,0:0:0:0:
52,108,48493,2,0,L|44:168,1,50,4|0,0:0|0:0,0:0:0:0:
40,244,48715,6,0,L|48:364,1,100,4|0,0:0|0:0,0:0:0:0:
129,193,49049,2,0,L|121:73,1,100,4|0,0:0|0:0,0:0:0:0:
208,316,49382,2,0,L|284:300,1,50
344,280,49604,6,0,L|352:128,2,150,8|4|4,0:0|0:0|0:0,0:0:0:0:
456,144,50493,1,4,0:0:0:0:
456,144,50604,2,0,L|448:28,1,100
448,24,50938,2,0,P|416:36|392:40,1,50
280,36,51160,2,0,P|247:24|226:12,1,50
340,112,51382,6,0,L|348:224,1,100,8|4,0:0|0:0,0:0:0:0:
356,300,51715,1,0,0:0:0:0:
356,300,51827,2,0,L|416:292,1,50
280,324,52049,2,0,L|329:330,1,50
464,340,52271,6,0,L|456:216,1,100,4|0,0:0|0:0,0:0:0:0:
416,168,52604,2,0,L|424:44,1,100,4|0,0:0|0:0,0:0:0:0:
500,100,52938,2,0,L|492:196,1,50
332,208,53160,6,0,B|300:192|300:192|152:224,1,150,8|0,0:0|0:0,0:0:0:0:
104,272,53604,2,0,P|112:216|96:160,1,100
68,108,53938,1,0,0:0:0:0:
28,44,54049,5,2,0:0:0:0:
44,44,54160,2,0,P|72:40|96:32,2,50
120,108,54493,2,0,P|144:94|164:78,1,50,2|0,0:0|0:0,0:0:0:0:
216,24,54715,1,0,0:0:0:0:
20,224,54938,2,0,L|28:360,1,100,10|4,0:0|0:0,0:0:0:0:
80,384,55271,2,0,L|85:284,1,100
88,208,55604,1,0,0:0:0:0:
348,344,55827,6,0,L|464:332,1,100,4|0,0:0|0:0,0:0:0:0:
336,204,56160,1,0,0:0:0:0:
292,268,56271,6,0,L|408:256,1,100,4|0,0:0|0:0,0:0:0:0:
280,128,56604,1,0,0:0:0:0:
236,192,56715,6,0,L|352:180,1,100,4|0,0:0|0:0,0:0:0:0:
224,52,57049,1,0,0:0:0:0:
180,116,57160,6,0,L|296:104,1,100,4|0,0:0|0:0,0:0:0:0:
440,40,57493,1,0,0:0:0:0:
440,40,57604,6,0,L|324:28,1,100,4|0,0:0|0:0,0:0:0:0:
484,140,57938,1,0,0:0:0:0:
484,140,58049,6,0,L|368:128,1,100,4|0,0:0|0:0,0:0:0:0:
424,232,58382,1,0,0:0:0:0:
424,232,58493,6,0,L|308:220,1,100,4|0,0:0|0:0,0:0:0:0:
476,336,58827,1,0,0:0:0:0:
476,336,58938,6,0,L|360:324,1,100,4|0,0:0|0:0,0:0:0:0:
268,320,59271,1,0,0:0:0:0:
268,320,59382,6,0,P|204:316|152:328,1,100,4|0,0:0|0:0,0:0:0:0:
48,252,59715,1,0,0:0:0:0:
48,252,59827,6,0,P|97:256|146:249,1,100,4|0,0:0|0:0,0:0:0:0:
228,204,60160,1,0,0:0:0:0:
228,204,60271,6,0,L|220:92,1,100,4|0,0:0|0:0,0:0:0:0:
212,20,60604,1,0,0:0:0:0:
212,20,60715,6,0,L|264:24,1,33.3333333333333,6|2,0:0|0:0,0:0:0:0:
308,84,60864,2,0,L|341:81,1,33.3333333333333,2|2,0:0|0:0,0:0:0:0:
396,20,61012,2,0,L|429:22,1,33.3333333333333,2|2,0:0|0:0,0:0:0:0:
512,28,61160,1,2,0:0:0:0:
512,28,62938,6,0,B|488:64|488:64|544:120|504:224,1,150.000005722046,4|0,0:0|0:0,0:0:0:0:
381,208,63271,2,0,B|281:192|281:192|329:185,1,150.000005722046
412,300,63632,2,0,L|486:311,1,75.0000028610231
264,324,63827,6,0,L|468:292,1,150.000005722046,8|0,0:0|0:0,0:0:0:0:
264,240,64160,2,0,P|188:280|200:372,1,150.000005722046
344,284,64493,2,0,L|348:192,1,75.0000028610231,2|0,0:0|0:0,0:0:0:0:
352,116,64715,6,0,P|256:128|180:96,1,150.000005722046,2|0,0:0|0:0,0:0:0:0:
128,60,65049,1,0,0:0:0:0:
208,208,65160,2,0,B|224:280|224:280|212:368,1,150.000005722046,0|2,0:0|0:0,0:0:0:0:
136,284,65493,1,0,0:0:0:0:
344,284,65604,6,0,P|424:280|500:236,1,150.000005722046,8|0,0:0|0:0,0:0:0:0:
352,116,65938,1,0,0:0:0:0:
352,116,66049,2,0,L|360:164,1,37.5000014305115,2|0,0:0|0:0,0:0:0:0:
488,24,66271,2,0,L|480:72,1,37.5000014305115,2|0,0:0|0:0,0:0:0:0:
292,224,66493,6,0,B|264:176|264:176|216:184|172:140,1,150.000005722046,4|0,0:0|0:0,0:0:0:0:
248,95,66827,2,0,P|174:105|111:68,1,150.000005722046
16,8,67160,2,0,P|20:56|4:100,1,75.0000028610231
12,228,67382,6,0,B|24:324|24:324|4:384,1,150.000005722046,8|2,0:0|0:0,0:0:0:0:
96,364,67715,2,0,B|108:336|108:336|168:372|224:316,1,150.000005722046
156,272,68049,2,0,L|256:280,1,75.0000028610231
416,308,68271,6,0,B|488:288|488:288|400:260,1,150.000005722046,2|0,0:0|0:0,0:0:0:0:
340,120,68604,2,0,B|384:176|384:176|504:208,1,150.000005722046
380,48,68938,2,0,P|328:40|288:56,1,75.0000028610231
156,272,69160,6,0,B|188:224|188:224|160:68,1,150.000005722046,8|0,0:0|0:0,0:0:0:0:
96,204,69493,1,0,0:0:0:0:
252,104,69604,2,0,B|296:88|296:88|344:44,2,100.000003814697,2|2|2,0:0|0:0|0:0,0:0:0:0:
44,132,70049,6,0,P|12:204|52:280,1,150.000005722046,4|0,0:0|0:0,0:0:0:0:
156,271,70382,2,0,B|188:227|188:227|144:207|96:204,1,150.000005722046
120,352,70715,2,0,L|228:352,1,75.0000028610231
440,312,70938,6,0,B|308:336|308:336|300:260|228:248,1,225.000008583069,8|0,0:0|0:0,0:0:0:0:
216,344,71382,2,0,L|220:176,1,150.000005722046,2|0,0:0|0:0,0:0:0:0:
312,88,71827,6,0,B|336:44|336:44|348:104|348:104|400:80|480:112|480:112|396:160,1,300.000011444092,2|0,0:0|0:0,0:0:0:0:
360,288,72493,2,0,B|356:264|356:264|312:344|360:384,1,150.000005722046,0|8,0:0|0:0,0:0:0:0:
472,204,72938,2,0,B|476:228|476:228|520:148|472:108,1,150.000005722046
312,88,73308,2,0,P|372:104|416:76,1,100.000003814697
360,24,73604,6,0,B|356:136|356:136|388:224,1,150.000005722046,2|0,0:0|0:0,0:0:0:0:
300,232,73938,2,0,B|276:180|276:180|236:180|236:180|204:236,1,150.000005722046
143,171,74271,2,0,B|156:136|156:136|152:24,1,150.000005722046,0|8,0:0|0:0,0:0:0:0:
32,192,74715,6,0,B|144:168|144:168|272:184,1,225.000008583069,2|0,0:0|0:0,0:0:0:0:
340,120,75160,2,0,P|304:112|276:84,1,75.0000028610231
344,40,75382,1,8,0:0:0:0:
408,164,75530,1,8,0:0:0:0:
268,157,75678,1,8,0:0:0:0:
411,83,75827,1,8,0:0:0:0:
336,201,75975,1,8,0:0:0:0:
272,76,76123,1,8,0:0:0:0:
411,83,76271,6,0,L|504:92,1,50,2|0,0:0|0:0,0:0:0:0:
411,83,76493,6,0,L|288:92,1,75.0000028610231
411,83,76715,6,0,B|396:172|396:172|412:264|412:264|392:360,1,262.500002503395,2|0,0:0|0:0,0:0:0:0:
296,364,77160,6,0,B|232:328|232:328|200:364|144:360,1,150.000005722046,4|0,0:0|0:0,0:0:0:0:
136,205,77493,2,0,B|172:248|164:280|164:280|128:280|104:307,1,150.000005722046
156,116,77827,2,0,P|196:136|224:188,1,75.0000028610231
32,356,78049,6,0,P|17:293|100:216,1,150.000005722046,8|0,0:0|0:0,0:0:0:0:
156,116,78382,2,0,B|124:148|124:148|120:212|44:232,1,150.000005722046
36,144,78715,2,0,L|40:48,1,75.0000028610231
196,40,78938,6,0,P|288:52|364:16,1,150.000005722046,2|0,0:0|0:0,0:0:0:0:
420,0,79271,1,0,0:0:0:0:
324,128,79382,2,0,B|336:168|336:168|304:216|336:280,1,150.000005722046
404,224,79715,1,0,0:0:0:0:
288,348,79827,6,0,B|248:328|244:296|244:296|200:304|200:304|120:292,1,150.000005722046,8|0,0:0|0:0,0:0:0:0:
60,292,80160,1,0,0:0:0:0:
60,292,80271,2,0,L|56:344,1,37.5000014305115,2|0,0:0|0:0,0:0:0:0:
160,184,80493,2,0,L|157:146,1,37.5000014305115,2|0,0:0|0:0,0:0:0:0:
324,128,80715,6,0,B|364:108|364:108|408:156|484:112,1,150.000005722046,4|0,0:0|0:0,0:0:0:0:
248,28,81049,2,0,B|260:76|260:76|224:132|268:188,1,150.000005722046
420,56,81382,2,0,L|332:60,1,75.0000028610231
208,276,81604,6,0,B|256:300|324:264|324:264|284:316,1,150.000005722046,8|2,0:0|0:0,0:0:0:0:
384,348,81938,2,0,B|408:312|408:312|460:336|506:292,1,150.000005722046
432,164,82271,2,0,L|444:252,1,75.0000028610231
324,128,82493,6,0,L|168:136,1,150.000005722046,2|0,0:0|0:0,0:0:0:0:
32,192,82827,2,0,B|52:228|52:228|12:284|64:360,1,150.000005722046
208,312,83160,2,0,B|232:296|232:296|152:324|104:268,1,150.000005722046,2|8,0:0|0:0,0:0:0:0:
324,128,83604,2,0,B|340:200|296:240|296:240|344:344|236:384,1,300.000011444092
216,384,84271,6,0,B|324:372|324:372|388:384,1,150.000005722046,4|0,0:0|0:0,0:0:0:0:
480,308,84604,2,0,B|424:292|424:292|408:180,1,150.000005722046
492,88,84938,2,0,L|492:163,1,75.0000028610231
300,240,85160,6,0,B|240:228|240:228|196:244|196:244|200:196,1,150.000005722046,8|0,0:0|0:0,0:0:0:0:
140,8,85604,2,0,B|124:116|124:116|80:164,1,150.000005722046
16,244,86049,6,0,B|8:284|8:284|40:328|44:384|44:384|96:384,1,200,2|0,0:0|0:0,0:0:0:0:
192,368,86715,2,0,P|252:348|352:364,1,150.000005722046
436,360,87382,2,0,B|440:316|440:316|428:256,1,100,0|2,0:0|0:0,0:0:0:0:
256,192,88049,12,0,89382,0:0:0:0:
116,272,89604,5,2,0:0:0:0:
196,320,89715,2,0,P|224:332|284:316,2,50
240,248,90049,6,0,L|376:240,1,100
420,264,90382,1,0,0:0:0:0:
428,268,90493,2,0,L|420:332,1,50,2|0,0:0|0:0,0:0:0:0:
488,168,90715,2,0,L|496:232,1,50
392,172,90938,1,0,0:0:0:0:
376,140,91049,1,0,0:0:0:0:
371,106,91160,1,0,0:0:0:0:
377,71,91271,1,0,0:0:0:0:
393,40,91382,6,0,B|328:52|328:52|236:32,2,150,4|4|0,0:0|0:0|0:0,0:0:0:0:
288,136,92271,2,0,L|180:112,1,100,8|0,0:0|0:0,0:0:0:0:
168,108,92604,2,0,B|176:168|176:168|164:232,1,100,8|0,0:0|0:0,0:0:0:0:
164,220,92938,1,0,0:0:0:0:
160,236,93049,1,0,0:0:0:0:
124,316,93160,6,0,B|188:328|188:328|216:284|280:284,1,150,2|0,0:0|0:0,0:0:0:0:
359,360,93604,2,0,L|260:368,1,100
432,216,94049,1,2,0:0:0:0:
440,228,94160,1,0,0:0:0:0:
444,244,94271,1,0,0:0:0:0:
448,260,94382,1,0,0:0:0:0:
448,276,94493,5,0,0:0:0:0:
440,226,94604,1,0,0:0:0:0:
444,177,94715,1,0,0:0:0:0:
459,129,94827,1,0,0:0:0:0:
485,87,94938,6,0,B|380:96|380:96|444:72,1,150,4|4,0:0|0:0,0:0:0:0:
312,16,95382,2,0,B|288:36|288:36|180:56,1,100
52,152,95827,2,0,B|68:208|68:208|44:260|72:312,2,150,8|8|0,0:0|0:0|0:0,0:0:0:0:
197,259,96715,6,0,L|148:256,1,50,2|0,0:0|0:0,0:0:0:0:
220,284,96938,2,0,L|170:280,1,50
336,212,97160,6,0,L|286:215,1,50
358,187,97382,2,0,L|308:190,1,50,4|0,0:0|0:0,0:0:0:0:
448,212,97604,6,0,L|444:162,1,50,8|0,0:0|0:0,0:0:0:0:
473,234,97827,2,0,L|469:184,1,50,4|0,0:0|0:0,0:0:0:0:
344,320,98049,6,0,L|347:369,1,50
319,298,98271,2,0,L|322:347,1,50
369,342,98493,6,0,L|220:356,2,150,4|4|0,0:0|0:0|0:0,0:0:0:0:
473,234,99382,2,0,L|477:122,1,100,8|0,0:0|0:0,0:0:0:0:
496,48,99715,2,0,P|420:64|396:100,1,100,4|0,0:0|0:0,0:0:0:0:
332,112,100049,2,0,P|356:140|384:152,1,50,4|0,0:0|0:0,0:0:0:0:
336,28,100271,5,2,0:0:0:0:
252,68,100382,2,0,L|168:64,2,50
332,112,100715,5,0,0:0:0:0:
220,148,100827,2,0,L|136:144,2,50
328,196,101160,5,2,0:0:0:0:
184,228,101271,2,0,L|100:224,2,50
324,280,101604,5,0,0:0:0:0:
152,308,101715,2,0,L|68:304,2,50
320,364,102049,6,0,B|368:352|368:352|432:364,1,100,4|0,0:0|0:0,0:0:0:0:
500,372,102382,1,0,0:0:0:0:
324,280,102493,2,0,P|264:268|200:216,1,100
304,188,102827,1,0,0:0:0:0:
152,308,102938,2,0,L|156:160,1,100,8|0,0:0|0:0,0:0:0:0:
48,152,103271,2,0,L|50:251,1,100
188,116,103604,2,0,L|104:112,1,50
304,188,103827,6,0,L|408:180,1,100,4|0,0:0|0:0,0:0:0:0:
472,72,104160,2,0,B|456:104|456:104|492:128|492:196,1,100
464,296,104493,2,0,B|460:280|460:280|464:200,1,50
484,380,104715,6,0,L|368:376,1,100,8|0,0:0|0:0,0:0:0:0:
304,372,105049,1,0,0:0:0:0:
304,188,105160,2,0,P|320:256|304:308,1,100
232,248,105493,1,0,0:0:0:0:
387,52,105604,6,0,L|380:152,1,100,4|0,0:0|0:0,0:0:0:0:
296,88,105938,2,0,L|304:188,1,100
204,124,106271,2,0,L|220:188,1,50
224,40,106493,6,0,L|96:24,1,100,8|0,0:0|0:0,0:0:0:0:
296,88,106827,2,0,L|196:100,1,100
387,52,107160,2,0,L|467:60,1,50
484,156,107382,6,0,B|472:196|472:196|492:212|496:264,1,100,4|0,0:0|0:0,0:0:0:0:
416,256,107715,2,0,P|440:308|496:324,1,100
392,176,108049,2,0,L|332:212,1,50
204,272,108271,6,0,B|124:264|124:264|52:208,2,150,8|0|0,0:0|0:0|0:0,0:0:0:0:
116,152,109160,6,0,P|56:140|20:152,1,100,4|0,0:0|0:0,0:0:0:0:
160,228,109493,2,0,P|200:182|203:137,1,100
69,221,109827,2,0,P|72:256|80:276,1,50
256,348,110049,6,0,P|336:336|400:348,1,119.999996337891,8|0,0:0|0:0,0:0:0:0:
494,248,110382,2,0,P|435:259|375:255,1,119.999996337891
256,192,110715,2,0,L|260:128,1,59.9999981689454
372,0,110938,6,0,P|416:44|364:84,1,139.999995727539,4|0,0:0|0:0,0:0:0:0:
158,37,111271,2,0,B|216:68|232:12|296:38,1,139.999995727539
264,201,111604,2,0,L|259:131,1,69.9999978637696
350,285,111827,6,0,B|226:301|226:301|256:320,1,160,8|0,0:0|0:0,0:0:0:0:
456,348,112160,2,0,P|476:280|436:200,1,160
264,200,112493,2,0,P|220:204|172:196,1,80
23,326,112715,6,0,P|39:238|20:151,1,179.999994506836,4|0,0:0|0:0,0:0:0:0:
187,24,113049,2,0,P|167:111|183:199,1,179.999994506836
420,92,113382,2,0,L|408:0,1,89.9999972534181
204,152,113604,5,8,0:0:0:0:
276,132,113715,1,0,0:0:0:0:
348,112,113827,1,0,0:0:0:0:
420,92,113938,1,0,0:0:0:0:
492,72,114050,1,4,0:0:0:0:
399,189,114160,1,0,0:0:0:0:
405,39,114271,1,0,0:0:0:0:
488,163,114382,1,0,0:0:0:0:
422,296,114493,6,0,B|376:268|376:268|436:272,1,100,4|0,0:0|0:0,0:0:0:0:
356,348,114827,6,0,B|304:320|304:320|204:328,1,150.000005722046,2|0,0:0|0:0,0:0:0:0:
176,252,115160,6,0,B|204:248|204:248|208:224|200:200,1,62.5,2|0,0:0|0:0,0:0:0:0:
100,232,115382,6,0,P|36:240|104:272,1,187.500007152558,4|0,0:0|0:0,0:0:0:0:
68,256,116049,6,0,L|68:124,1,100,2|0,0:0|0:0,0:0:0:0:
192,72,116271,6,0,B|264:92|312:48|312:48|368:72|368:72|436:44,1,262.500010013581,4|0,0:0|0:0,0:0:0:0:
492,112,117160,2,0,B|408:148|408:148|452:212|416:300,1,225.000008583069,8|0,0:0|0:0,0:0:0:0:
296,356,118049,6,0,B|264:356|264:356|244:304|180:300|180:300|224:284|244:228,1,225.000008583069,4|0,0:0|0:0,0:0:0:0:
156,224,118827,1,0,0:0:0:0:
156,224,118938,2,0,L|160:344,1,112.500004291535,8|0,0:0|0:0,0:0:0:0:
60,192,119382,2,0,L|57:210,1,18.7500007152558,2|0,0:0|0:0,0:0:0:0:
132,132,119604,2,0,L|128:100,1,18.7500007152558,2|0,0:0|0:0,0:0:0:0:
156,224,119827,6,0,B|256:196|256:196|324:292|432:292,1,300.000011444092,4|8,0:0|0:0,0:0:0:0:
320,136,120938,2,0,P|364:192|444:212,1,150.000005722046,8|0,0:0|0:0,0:0:0:0:
452,72,121604,6,0,B|424:36|424:36|392:72|392:72|352:28|268:20|224:100,1,262.500010013581
320,136,122493,2,0,L|160:124,1,150.000005722046,8|2,0:0|0:0,0:0:0:0:
92,144,123086,2,0,P|92:100|116:60,1,50.0000019073487,2|2,0:0|0:0,0:0:0:0:
148,208,123382,6,0,B|136:248|112:272|112:272|144:256|192:272|192:272|240:244|304:280,1,262.500010013581,4|0,0:0|0:0,0:0:0:0:
236,344,124271,2,0,B|300:316|356:344|356:344|396:304,1,150.000005722046,8|4,0:0|0:0,0:0:0:0:
374,325,125160,6,0,B|350:261|382:213|382:213|338:169|360:120|360:120|378:165,1,262.500010013581,4|0,0:0|0:0,0:0:0:0:
292,228,126049,2,0,B|248:212|248:212|204:248|140:228,1,150.000005722046,8|0,0:0|0:0,0:0:0:0:
200,136,126641,2,0,B|188:152|188:152|144:144,1,50.0000019073487
48,8,126938,6,0,B|80:88|80:88|52:128|64:176|64:176|16:160|16:80,1,262.500010013581,4|0,0:0|0:0,0:0:0:0:
158,146,127827,1,8,0:0:0:0:
292,228,128049,2,0,B|348:196|432:224|432:224|388:188,1,187.500007152558,8|0,0:0|0:0,0:0:0:0:
344,296,128715,6,0,P|396:300|432:316,1,50.0000019073487,2|2,0:0|0:0,0:0:0:0:
476,312,129012,1,2,0:0:0:0:
300,312,129160,6,2,P|351:306|390:316,1,50.0000019073487
432,304,129457,1,2,0:0:0:0:
264,340,129604,6,0,P|314:325|328:328,1,37.5000014305115
392,309,129827,2,0,P|410:313|426:322,1,37.5000014305115
496,228,130049,6,0,B|456:144|496:48|496:48|464:100,1,225.000008583069,2|0,0:0|0:0,0:0:0:0:
359,62,130493,6,0,B|400:76|436:56|436:56|475:81,1,125,4|0,0:0|0:0,0:0:0:0:
308,128,130827,1,0,0:0:0:0:
308,128,130938,2,0,L|297:3,1,125,8|0,0:0|0:0,0:0:0:0:
400,224,131271,1,0,0:0:0:0:
398,246,131382,2,0,L|390:322,1,62.5,8|0,0:0|0:0,0:0:0:0:
496,228,131604,2,0,L|489:165,1,62.5
452,360,131827,2,0,L|284:348,1,125,4|0,0:0|0:0,0:0:0:0:
168,272,132160,1,0,0:0:0:0:
168,272,132271,6,0,P|240:220|272:148,1,125,4|0,0:0|0:0,0:0:0:0:
76,232,132604,2,0,L|80:412,1,125
152,180,132938,1,4,0:0:0:0:
284,292,133049,1,0,0:0:0:0:
308,128,133160,6,0,L|232:112,1,62.5,8|0,0:0|0:0,0:0:0:0:
400,188,133382,2,0,L|476:172,1,62.5
284,292,133604,1,2,0:0:0:0:
372,264,133715,1,2,0:0:0:0:
440,326,133827,1,2,0:0:0:0:
264,381,133938,1,2,0:0:0:0:
460,237,134049,6,0,P|400:264|324:208,1,125,4|0,0:0|0:0,0:0:0:0:
400,188,134382,1,0,0:0:0:0:
284,292,134493,2,0,B|200:284|200:284|144:304,1,125,4|0,0:0|0:0,0:0:0:0:
0,256,134938,2,0,B|20:208|20:208|0:112,1,125,8|4,0:0|0:0,0:0:0:0:
96,236,135271,2,0,B|76:284|76:284|96:380,1,125
150,171,135604,2,0,L|89:156,1,62.5
180,248,135827,6,0,P|228:196|216:120,1,125,4|0,0:0|0:0,0:0:0:0:
164,92,136160,1,0,0:0:0:0:
304,124,136271,2,0,L|434:105,1,125,4|0,0:0|0:0,0:0:0:0:
348,28,136604,1,0,0:0:0:0:
376,196,136715,2,0,L|368:260,1,62.5,8|0,0:0|0:0,0:0:0:0:
496,64,136938,2,0,L|504:128,1,62.5
480,244,137160,5,2,0:0:0:0:
356,348,137308,1,2,0:0:0:0:
203,292,137456,1,2,0:0:0:0:
174,131,137604,6,0,B|220:116|220:116|224:184|284:196,1,125,4|0,0:0|0:0,0:0:0:0:
176,36,137938,2,0,B|112:60|112:60|44:56,1,125
304,124,138271,2,0,L|292:200,1,62.5,4|0,0:0|0:0,0:0:0:0:
500,32,138493,6,0,B|444:60|444:60|368:24,1,125,4|0,0:0|0:0,0:0:0:0:
479,218,138827,2,0,B|496:176|472:132|472:132|504:116,1,125
393,183,139160,2,0,P|363:177|332:180,1,62.5
352,276,139382,6,0,L|200:264,1,125,4|2,0:0|0:0,0:0:0:0:
148,256,139715,1,2,0:0:0:0:
68,244,139827,1,2,0:0:0:0:
98,320,139938,1,2,0:0:0:0:
118,180,140049,1,2,0:0:0:0:
18,308,140161,1,2,0:0:0:0:
178,332,140271,6,0,L|168:168,1,125,8|2,0:0|0:0,0:0:0:0:
164,128,140604,1,2,0:0:0:0:
158,49,140715,5,2,0:0:0:0:
235,162,140827,1,2,0:0:0:0:
98,172,140938,1,2,0:0:0:0:
229,84,141049,1,2,0:0:0:0:
370,153,141160,6,0,P|384:220|372:296,1,125,4|2,0:0|0:0,0:0:0:0:
352,348,141493,1,2,0:0:0:0:
303,290,141604,1,2,0:0:0:0:
453,263,141715,1,2,0:0:0:0:
427,334,141827,1,2,0:0:0:0:
328,218,141938,1,2,0:0:0:0:
404,204,142049,6,0,L|244:188,1,125,8|2,0:0|0:0,0:0:0:0:
204,180,142382,1,2,0:0:0:0:
128,168,142493,1,2,0:0:0:0:
79,227,142604,1,2,0:0:0:0:
106,298,142715,1,2,0:0:0:0:
182,311,142826,1,2,0:0:0:0:
232,252,142938,6,0,L|228:160,1,62.5,4|0,0:0|0:0,0:0:0:0:
352,348,143160,2,0,L|356:256,1,62.5
182,311,143382,2,0,L|178:219,1,62.5,2|2,0:0|0:0,0:0:0:0:
427,334,143604,2,0,L|431:242,1,62.5,2|2,0:0|0:0,0:0:0:0:
204,180,143827,6,0,P|144:176|96:76,1,133.333333333333,4|0,0:0|0:0,0:0:0:0:
196,40,144271,2,0,P|192:76|176:108,1,66.6666666666667,2|2,0:0|0:0,0:0:0:0:
108,48,144567,1,2,0:0:0:0:
260,116,144715,6,0,B|376:104|376:104|404:72,2,150,4|4|4,0:0|0:0|0:0,0:0:0:0:
480,104,145604,2,0,B|448:144|448:144|472:192|448:252,2,150,8|0|0,0:0|0:0|0:0,0:0:0:0:
376,196,146493,6,0,L|388:332,1,100,2|0,0:0|0:0,0:0:0:0:
440,348,146827,2,0,L|304:360,1,100
264,364,147160,1,0,0:0:0:0:
112,360,147382,2,0,B|80:328|80:328|96:276|60:220,2,150,2|0|0,0:0|0:0|0:0,0:0:0:0:
120,368,148271,6,0,L|228:364,1,100,4|0,0:0|0:0,0:0:0:0:
264,364,148604,2,0,B|268:340|268:340|248:288|288:224,1,100,4|0,0:0|0:0,0:0:0:0:
284,224,148938,1,0,0:0:0:0:
392,128,149160,2,0,L|492:132,1,100,8|0,0:0|0:0,0:0:0:0:
440,68,149493,2,0,L|340:72,1,100,8|0,0:0|0:0,0:0:0:0:
288,72,149827,1,0,0:0:0:0:
96,80,150049,5,2,0:0:0:0:
91,85,150160,1,0,0:0:0:0:
82,89,150272,1,0,0:0:0:0:
70,85,150383,1,0,0:0:0:0:
61,72,150494,1,2,0:0:0:0:
63,51,150605,1,0,0:0:0:0:
84,44,150716,1,0,0:0:0:0:
123,51,150827,1,0,0:0:0:0:
135,111,150938,5,14,0:0:0:0:
166,162,151049,1,0,0:0:0:0:
212,199,151160,1,0,0:0:0:0:
268,218,151271,1,0,0:0:0:0:
327,216,151382,5,2,0:0:0:0:
347,161,151493,1,0,0:0:0:0:
300,125,151604,1,0,0:0:0:0:
251,159,151715,1,0,0:0:0:0:
268,218,151827,6,0,L|416:216,1,100,4|0,0:0|0:0,0:0:0:0:
448,212,152160,1,0,0:0:0:0:
253,196,152271,6,0,L|391:143,1,100,4|0,0:0|0:0,0:0:0:0:
420,128,152604,1,0,0:0:0:0:
228,189,152715,6,0,L|340:92,1,100,4|0,0:0|0:0,0:0:0:0:
361,67,153048,1,0,0:0:0:0:
204,199,153160,6,0,L|276:69,1,100,4|0,0:0|0:0,0:0:0:0:
286,37,153493,1,0,0:0:0:0:
128,184,153604,6,0,L|176:271,1,100,4|0,0:0|0:0,0:0:0:0:
56,152,153938,1,0,0:0:0:0:
204,199,154049,6,0,L|252:286,1,100,4|0,0:0|0:0,0:0:0:0:
132,167,154383,1,0,0:0:0:0:
280,214,154493,6,0,L|328:301,1,100,4|0,0:0|0:0,0:0:0:0:
208,182,154827,1,0,0:0:0:0:
356,229,154938,6,0,L|404:316,1,100,4|0,0:0|0:0,0:0:0:0:
284,197,155272,1,0,0:0:0:0:
488,216,155382,6,0,P|492:152|460:84,1,100,4|0,0:0|0:0,0:0:0:0:
440,52,155715,1,0,0:0:0:0:
404,176,155827,6,0,P|400:240|432:308,1,100,4|0,0:0|0:0,0:0:0:0:
452,340,156160,1,0,0:0:0:0:
360,96,156271,6,0,L|216:108,1,100,4|0,0:0|0:0,0:0:0:0:
172,108,156604,1,0,0:0:0:0:
132,187,156715,1,8,0:0:0:0:
180,261,156827,1,0,0:0:0:0:
139,339,156938,1,4,0:0:0:0:
91,264,157049,1,4,0:0:0:0:
221,183,157160,5,8,0:0:0:0:
226,336,157271,1,8,0:0:0:0:
180,261,157382,1,8,0:0:0:0:
269,258,157493,1,8,0:0:0:0:
311,180,157604,2,0,L|424:200,1,100,8|8,0:0|0:0,0:0:0:0:
464,128,158049,6,0,P|484:52|424:116,1,225.000008583069,2|0,0:0|0:0,0:0:0:0:
456,84,158938,1,2,0:0:0:0:
392,75,159827,6,0,B|352:96|352:96|456:84,1,150.000005722046,4|0,0:0|0:0,0:0:0:0:
179,33,160160,2,0,B|244:44|244:44|324:16,1,150.000005722046
112,104,160493,2,0,B|136:112|136:112|148:148|132:188,1,75.0000028610231,2|0,0:0|0:0,0:0:0:0:
60,304,160715,6,0,B|100:280|100:280|152:300|204:268,1,150.000005722046,2|0,0:0|0:0,0:0:0:0:
269,351,161049,2,0,B|304:324|308:276|308:276|348:288|368:273,1,150.000005722046
496,336,161382,2,0,P|452:332|400:344,1,75.0000028610231,2|0,0:0|0:0,0:0:0:0:
336,196,161604,6,0,P|408:168|456:92,1,150.000005722046,8|0,0:0|0:0,0:0:0:0:
336,84,161938,1,0,0:0:0:0:
456,236,162049,2,0,L|496:232,1,25.0000009536744,2|0,0:0|0:0,0:0:0:0:
228,184,162271,2,0,L|252:186,1,25.0000009536744,2|0,0:0|0:0,0:0:0:0:
48,248,162493,6,0,B|76:292|52:356|52:356|100:304,1,150.000005722046,4|0,0:0|0:0,0:0:0:0:
180,284,162827,2,0,B|256:268|256:268|326:285,1,150.000005722046,2|0,0:0|0:0,0:0:0:0:
456,236,163160,2,0,B|412:224|412:224|368:196,1,75.0000028610231,2|0,0:0|0:0,0:0:0:0:
492,296,163382,6,0,P|468:224|528:128,1,150.000005722046,8|0,0:0|0:0,0:0:0:0:
400,344,163715,2,0,P|402:268|491:198,1,150.000005722046
316,332,164049,2,0,P|333:288|399:267,1,75.0000028610231
228,356,164271,6,0,P|148:360|36:312,1,150.000005722046,2|0,0:0|0:0,0:0:0:0:
173,336,164604,2,0,P|97:312|8:229,1,150.000005722046
129,299,164938,2,0,P|85:266|48:192,1,75.0000028610231
172,68,165160,6,0,L|156:236,1,150.000005722046,8|0,0:0|0:0,0:0:0:0:
56,132,165493,1,0,0:0:0:0:
240,0,165604,2,0,P|264:48|256:108,2,100.000003814697,2|2|2,0:0|0:0|0:0,0:0:0:0:
56,132,166049,6,0,L|256:128,1,150.000005722046,4|0,0:0|0:0,0:0:0:0:
344,176,166382,2,0,B|292:180|292:180|256:236|180:232,1,150.000005722046
320,96,166715,2,0,P|376:100|408:124,1,75.0000028610231,2|0,0:0|0:0,0:0:0:0:
396,268,166938,6,0,B|360:336|360:336|328:248,1,150.000005722046,8|2,0:0|0:0,0:0:0:0:
452,344,167271,1,2,0:0:0:0:
268,316,167382,2,0,B|260:292|260:292|208:268,1,75.0000028610231,2|2,0:0|0:0,0:0:0:0:
68,264,167604,2,0,B|92:236|92:236|100:180,1,75.0000028610231
320,96,167827,6,0,B|320:44|320:44|372:128|344:220|344:220|392:184|340:156,1,300.000011444092
206,220,168493,2,0,B|126:264|126:264|66:264,1,150.000005722046,0|8,0:0|0:0,0:0:0:0:
306,220,168938,2,0,B|386:264|386:264|446:264,1,150.000005722046
479,183,169271,1,0,0:0:0:0:
479,183,169382,2,0,B|423:183|423:183|371:143,1,75.0000028610231
444,40,169604,6,0,B|512:68|512:68|408:128,1,150.000005722046,2|0,0:0|0:0,0:0:0:0:
481,250,169938,2,0,B|413:222|413:222|517:162,1,150.000005722046
368,144,170271,2,0,L|252:120,1,75.0000028610231,0|8,0:0|0:0,0:0:0:0:
224,40,170493,6,0,P|176:104|204:192,1,150.000005722046,8|8,0:0|0:0,0:0:0:0:
280,288,170938,2,0,L|364:276,1,75.0000028610231,8|0,0:0|0:0,0:0:0:0:
368,144,171160,2,0,L|442:154,1,75.0000028610231
481,250,171382,5,8,0:0:0:0:
336,368,171530,1,8,0:0:0:0:
306,183,171678,1,8,0:0:0:0:
391,381,171827,5,8,0:0:0:0:
204,378,171975,1,8,0:0:0:0:
300,217,172123,1,8,0:0:0:0:
280,352,172271,6,0,L|208:344,1,50,2|0,0:0|0:0,0:0:0:0:
180,352,172493,6,0,L|252:344,1,50
229,346,172715,6,0,B|248:296|248:296|184:236|224:164|224:164|168:256,1,262.500002503395,2|0,0:0|0:0,0:0:0:0:
300,217,173160,6,0,P|392:196|436:144,1,150.000005722046,4|0,0:0|0:0,0:0:0:0:
332,320,173493,2,0,P|258:309|203:260,1,150.000005722046
366,107,173827,2,0,P|340:133|304:140,1,75.0000028610231
300,64,174049,6,0,P|376:88|456:20,1,150.000005722046,8|0,0:0|0:0,0:0:0:0:
228,108,174382,2,0,P|152:84|72:152,1,150.000005722046
300,213,174715,2,0,P|307:176|303:139,1,75.0000028610231
164,168,174938,6,0,P|160:264|208:328,1,150.000005722046,2|0,0:0|0:0,0:0:0:0:
439,191,175271,2,0,P|365:181|299:213,1,150.000005722046
380,364,175604,2,0,P|384:324|376:276,1,75.0000028610231
296,324,175827,6,0,P|364:376|448:356,1,150.000005722046,8|0,0:0|0:0,0:0:0:0:
352,104,176160,1,0,0:0:0:0:
224,288,176271,2,0,L|212:340,1,37.5000014305115,2|0,0:0|0:0,0:0:0:0:
268,160,176493,2,0,L|280:212,1,37.5000014305115,2|0,0:0|0:0,0:0:0:0:
296,324,176715,6,0,L|96:312,1,150.000005722046,4|0,0:0|0:0,0:0:0:0:
40,304,177049,2,0,B|48:260|48:260|0:208|48:128,1,150.000005722046
109,124,177382,2,0,P|120:159|112:196,1,75.0000028610231
144,44,177604,6,0,P|184:92|172:240,1,150.000005722046,8|2,0:0|0:0,0:0:0:0:
272,104,177938,2,0,P|282:165|198:287,1,150.000005722046
108,236,178271,2,0,P|140:236|184:268,1,75.0000028610231
296,324,178493,6,0,B|356:308|356:308|400:344|400:344|396:284,1,150.000005722046,2|0,0:0|0:0,0:0:0:0:
488,176,178827,2,0,B|464:228|464:228|480:344,1,150.000005722046
396,172,179160,2,0,B|408:144|408:144|400:56,1,75.0000028610231,2|0,0:0|0:0,0:0:0:0:
272,104,179382,6,0,B|192:116|192:116|96:92,1,150.000005722046,8|2,0:0|0:0,0:0:0:0:
196,16,179715,1,2,0:0:0:0:
124,184,179827,2,0,L|56:164,1,37.5000014305115,2|0,0:0|0:0,0:0:0:0:
304,180,180049,2,0,L|268:188,1,37.5000014305115,2|0,0:0|0:0,0:0:0:0:
391,23,180271,6,0,B|404:88|404:88|456:96|476:148,1,150.000005722046,4|0,0:0|0:0,0:0:0:0:
450,281,180604,2,0,B|464:220|464:220|416:212|396:172,1,150.000005722046
469,134,180938,2,0,P|416:136|368:112,1,75.0000028610231
236,240,181160,6,0,P|216:164|276:84,1,150.000005722046,8|0,0:0|0:0,0:0:0:0:
352,20,181493,2,0,B|320:44|320:44|276:4|228:12|228:12|260:28,1,150.000005722046
304,180,181827,2,0,P|348:176|400:148,1,75.0000028610231
152,168,182049,6,0,B|112:224|136:288|136:288|88:356|88:356|64:236,1,300.000011444092,2|0,0:0|0:0,0:0:0:0:
236,240,182715,2,0,B|408:260,2,150.000005722046,0|8|0,0:0|0:0|0:0,0:0:0:0:
416,180,183382,2,0,L|344:168,1,37.5000014305115,2|0,0:0|0:0,0:0:0:0:
224,44,183604,2,0,L|296:32,1,37.5000014305115,2|0,0:0|0:0,0:0:0:0:
176,304,183827,6,0,P|152:228|212:148,1,150.000005722046,4|0,0:0|0:0,0:0:0:0:
200,160,184160,2,0,L|368:152,1,150.000005722046
372,152,184493,2,0,L|380:68,1,75.0000028610231
284,192,184715,6,0,L|303:370,1,150.000005722046,8|0,0:0|0:0,0:0:0:0:
304,360,185049,2,0,B|336:376|336:376|368:324|456:340,1,150.000005722046
456,340,185382,2,0,P|452:296|468:240,1,75.0000028610231
372,152,185604,6,0,P|284:180|184:144,1,150.000005722046,2|0,0:0|0:0,0:0:0:0:
212,160,185938,2,0,L|224:324,1,150.000005722046
224,332,186271,2,0,P|184:340|140:324,1,75.0000028610231
48,364,186493,6,0,P|48:288|124:224,1,150.000005722046,8|0,0:0|0:0,0:0:0:0:
151,331,186827,1,0,0:0:0:0:
60,160,186938,2,0,P|84:152|116:156,1,37.5000014305115,2|0,0:0|0:0,0:0:0:0:
248,168,187160,2,0,P|229:166|211:159,1,37.5000014305115,2|0,0:0|0:0,0:0:0:0:
340,80,187382,6,0,L|492:88,1,150.000005722046,4|0,0:0|0:0,0:0:0:0:
512,88,187715,2,0,P|504:172|508:252,1,150.000005722046
508,260,188049,2,0,L|496:344,1,75.0000028610231
420,168,188271,6,0,L|395:336,1,150.000005722046,8|2,0:0|0:0,0:0:0:0:
396,340,188604,2,0,B|328:332|328:332|288:360|236:348,1,150.000005722046
228,348,188938,2,0,P|188:328|164:296,1,75.0000028610231
256,252,189160,6,0,P|164:280|92:240,1,150.000005722046,2|0,0:0|0:0,0:0:0:0:
96,252,189493,2,0,L|104:96,1,150.000005722046
108,72,189827,2,0,L|28:84,1,75.0000028610231,2|0,0:0|0:0,0:0:0:0:
208,176,190049,6,0,B|260:164|260:164|308:180|308:180|308:116,1,150.000005722046,8|0,0:0|0:0,0:0:0:0:
240,80,190382,1,0,0:0:0:0:
256,252,190493,2,0,L|256:304,1,37.5000014305115,2|0,0:0|0:0,0:0:0:0:
384,140,190715,2,0,L|384:192,1,37.5000014305115,2|0,0:0|0:0,0:0:0:0:
508,28,190938,6,0,P|424:48|344:20,1,150.000005722046,4|0,0:0|0:0,0:0:0:0:
220,28,191271,2,0,P|304:48|384:20,1,150.000005722046
140,28,191604,2,0,P|164:84|196:100,1,75.0000028610231
72,256,191827,6,0,P|92:180|48:104,1,150.000005722046,8|0,0:0|0:0,0:0:0:0:
184,188,192160,2,0,P|164:264|208:340,1,150.000005722046
330,244,192493,2,0,L|256:252,1,75.0000028610231
364,340,192715,6,0,B|460:340|460:340|428:280,1,150.000005722046,2|0,0:0|0:0,0:0:0:0:
476,128,193049,2,0,B|497:172|481:224|481:224|513:272,1,150.000005722046
400,212,193382,2,0,P|408:176|384:132,1,75.0000028610231
212,124,193604,6,0,B|244:184|244:184|292:164|348:196,1,150.000005722046,8|0,0:0|0:0,0:0:0:0:
284,260,193938,1,0,0:0:0:0:
140,172,194049,2,0,L|124:120,1,37.5000014305115,2|0,0:0|0:0,0:0:0:0:
292,276,194271,2,0,L|280:311,1,37.5000014305115,2|0,0:0|0:0,0:0:0:0:
128,336,194493,6,0,B|48:332|48:332|96:268,1,150.000005722046,4|0,0:0|0:0,0:0:0:0:
61,109,194827,2,0,B|32:160|48:204|48:204|16:244,1,150.000005722046
140,172,195160,2,0,P|196:164|252:132,1,75.0000028610231
360,108,195382,6,0,P|440:100|500:52,1,150.000005722046,8|0,0:0|0:0,0:0:0:0:
268,156,195715,2,0,P|334:201|411:203,1,150.000005722046
172,148,196049,2,0,P|189:210|236:251,1,75.0000028610231
252,32,196271,6,0,B|256:68|236:84|236:84|200:48|144:44|80:92,1,170.000003242493,2|0,0:0|0:0,0:0:0:0:
172,148,196604,6,0,B|112:164|72:132|72:132|84:200|52:240,1,179.999994506836,2|0,0:0|0:0,0:0:0:0:
64,336,196938,6,0,B|148:304|148:304|244:384|352:336,1,284.999992389679,2|0,0:0|0:0,0:0:0:0:
452,384,197382,6,0,B|472:312|436:272|436:272|464:236|464:236|396:196|448:100|448:100|480:132|464:196,1,400,2|0,0:0|0:0,0:0:0:0:
467,175,198049,6,0,L|275:171,1,150.000005722046,4|0,0:0|0:0,0:0:0:0:
316,72,198382,1,0,0:0:0:0:
268,240,198493,2,0,P|288:304|268:404,1,150.000005722046,8|0,0:0|0:0,0:0:0:0:
232,120,198827,1,0,0:0:0:0:
20,208,198938,6,0,L|184:196,1,150.000005722046,2|0,0:0|0:0,0:0:0:0:
108,328,199271,1,0,0:0:0:0:
232,120,199382,2,0,P|300:160|400:132,1,150.000005722046,8|0,0:0|0:0,0:0:0:0:
140,104,199715,1,0,0:0:0:0:
424,224,199827,6,0,L|414:63,1,150.000005722046,2|0,0:0|0:0,0:0:0:0:
316,72,200160,1,0,0:0:0:0:
344,260,200271,2,0,P|416:312|504:256,1,150.000005722046,8|0,0:0|0:0,0:0:0:0:
508,148,200604,1,0,0:0:0:0:
352,172,200715,6,0,L|184:192,1,150.000005722046,8|0,0:0|0:0,0:0:0:0:
288,316,201049,1,0,0:0:0:0:
316,72,201160,2,0,L|308:16,1,37.5000014305115,2|0,0:0|0:0,0:0:0:0:
112,204,201382,2,0,L|120:148,1,37.5000014305115,2|0,0:0|0:0,0:0:0:0:
288,316,201604,6,0,P|388:296|480:328,1,150.000005722046,4|0,0:0|0:0,0:0:0:0:
352,172,201938,2,0,P|396:112|415:40,1,150.000005722046
203,189,202271,2,0,P|247:213|299:213,1,75.0000028610231,2|2,0:0|0:0,0:0:0:0:
272,104,202493,6,0,L|100:104,1,150.000005722046,2|0,0:0|0:0,0:0:0:0:
28,16,202827,1,0,0:0:0:0:
324,32,202938,2,0,P|360:96|320:176,1,150.000005722046,8|0,0:0|0:0,0:0:0:0:
204,188,203271,1,0,0:0:0:0:
412,248,203382,6,0,L|208:244,1,150.000005722046,2|0,0:0|0:0,0:0:0:0:
272,104,203715,1,0,0:0:0:0:
504,156,203827,2,0,B|480:192|480:192|512:244|484:304,1,150.000005722046,8|0,0:0|0:0,0:0:0:0:
329,344,204160,1,0,0:0:0:0:
130,110,204271,6,0,P|199:85|271:103,1,150.000005722046,8|0,0:0|0:0,0:0:0:0:
472,40,204604,2,0,P|402:64|330:47,1,150.000005722046
352,144,204938,1,0,0:0:0:0:
352,144,205160,6,0,B|336:224|336:224|356:312,1,150.000005722046,4|0,0:0|0:0,0:0:0:0:
272,352,205493,2,0,B|256:296|256:296|212:304|212:304|156:284,1,150.000005722046
236,144,205827,2,0,L|220:228,1,75.0000028610231
84,228,206049,6,0,L|117:52,1,150.000005722046,8|0,0:0|0:0,0:0:0:0:
352,144,206493,2,0,L|318:319,1,150.000005722046
236,144,206938,6,0,P|320:136|392:28,1,200,2|0,0:0|0:0,0:0:0:0:
268,32,207604,1,0,0:0:0:0:
268,32,207827,2,0,B|388:52|388:52|480:36,2,200,4|0|4,0:0|0:0|0:0,0:0:0:0:
256,192,208938,12,0,210493,0:0:0:0:
