osu file format v14

[General]
AudioFilename: unravel feat. Hatsune Miku - Dubstep [ dj-Jo Remix ] Full Version.mp3
AudioLeadIn: 0
PreviewTime: 61827
Countdown: 0
SampleSet: None
StackLeniency: 0.7
Mode: 0
LetterboxInBreaks: 0
EpilepsyWarning: 1
WidescreenStoryboard: 1

[Editor]
Bookmarks: 7603,32708,41595,55814,77160,87827,102049,116271,130493,144715,158938,173160,183827,208715
DistanceSpacing: 1
BeatDivisor: 4
GridSize: 4
TimelineZoom: 2.300001

[Metadata]
Title:unravel [ dj-Jo Remix ] Full Version
TitleUnicode:unravel [ dj-Jo Remix ] Full Version
Artist:Hatsune Miku
ArtistUnicode:Hatsune Miku
Creator:StarForYou
Version:Normal
Source:
Tags:Dubstep WTHkapo Fort 東京喰種-トーキョーグール-
BeatmapID:919448
BeatmapSetID:313457

[Difficulty]
HPDrainRate:3
CircleSize:3
OverallDifficulty:3
ApproachRate:3
SliderMultiplier:0.8
SliderTickRate:1

[Events]
//Background and Video events
0,0,"Landscapes-Cityscapes-01-768x1280.jpg",0,0
//Break Periods
2,88027,93498
//Storyboard Layer 0 (Background)
//Storyboard Layer 1 (Fail)
//Storyboard Layer 2 (Pass)
//Storyboard Layer 3 (Foreground)
//Storyboard Sound Samples

[TimingPoints]
716,444.444444444444,4,2,1,65,1,0
9049,-100,4,2,1,35,0,0
9160,-100,4,2,1,65,0,0
12604,-100,4,2,1,35,0,0
12715,-100,4,2,1,65,0,0
12938,-100,4,2,1,65,0,0
13049,-100,4,2,1,65,0,0
16160,-100,4,2,1,35,0,0
16271,-100,4,2,1,65,0,0
19715,-100,4,2,1,35,0,0
19827,-100,4,2,1,65,0,0
23271,-100,4,2,1,35,0,0
23382,-100,4,2,1,65,0,0
25604,-100,4,2,2,5,0,0
26049,-100,4,2,2,15,0,0
26493,-100,4,2,2,25,0,0
26715,-100,4,2,2,35,0,0
26938,-100,4,2,2,45,0,0
27160,-100,4,2,2,55,0,0
27382,-100,4,2,2,65,0,0
29160,-100,4,2,1,65,0,0
32715,-100,4,2,1,65,0,0
39827,-100,4,2,4,65,0,0
39938,-100,4,2,1,45,0,0
41604,-100,4,2,1,65,0,0
42271,-100,4,2,2,65,0,0
42493,-100,4,2,1,65,0,0
43382,-100,4,2,2,65,0,0
44160,-100,4,2,1,65,0,0
45827,-100,4,2,2,65,0,0
46049,-100,4,2,1,65,0,0
46382,-100,4,2,2,65,0,0
46493,-100,4,2,1,65,0,0
46604,-100,4,2,2,65,0,0
46715,-100,4,2,1,65,0,0
46827,-100,4,2,2,65,0,0
46938,-100,4,2,1,65,0,0
47049,-100,4,2,2,65,0,0
47160,-100,4,2,1,65,0,0
47271,-100,4,2,2,65,0,0
47382,-100,4,2,1,65,0,0
47493,-100,4,2,2,65,0,0
47715,-100,4,2,1,65,0,0
48271,-100,4,2,2,65,0,0
48382,-100,4,2,1,65,0,0
49382,-100,4,2,2,65,0,0
49938,-100,4,2,1,65,0,0
50604,-100,4,2,2,65,0,0
51049,-100,4,2,1,65,0,0
51160,-100,4,2,2,65,0,0
51604,-100,4,2,1,65,0,0
52715,-100,4,2,2,65,0,0
53827,-100,4,2,1,65,0,0
53938,-100,4,2,2,65,0,0
54049,-100,4,2,1,65,0,0
54160,-100,4,2,2,65,0,0
54938,-100,4,2,1,65,0,0
57160,-100,4,2,2,65,0,0
57382,-100,4,2,1,65,0,0
57604,-100,4,2,2,65,0,0
57827,-100,4,2,1,65,0,0
58049,-100,4,2,2,65,0,0
58271,-100,4,2,1,65,0,0
58493,-100,4,2,2,65,0,0
58715,-100,4,2,1,65,0,0
58938,-100,4,2,2,65,0,0
62938,-100,4,1,1,75,0,1
75382,-100,4,1,2,75,0,1
76271,-100,4,1,1,75,0,0
76382,-100,4,1,1,55,0,0
76493,-100,4,1,1,35,0,0
76604,-100,4,1,1,15,0,0
76715,-100,4,1,1,55,0,0
77160,-100,4,1,1,75,0,1
77160,-100,4,1,1,75,0,1
86049,-100,4,2,1,65,0,1
86715,-100,4,2,1,55,0,1
87382,-100,4,2,1,45,0,1
87827,-100,4,2,1,35,0,0
89382,-100,4,2,1,5,0,0
89604,-100,4,2,1,45,0,0
92604,-100,4,2,1,25,0,0
92715,-100,4,2,1,45,0,0
95604,-100,4,2,2,45,0,0
95715,-100,4,2,1,45,0,0
96160,-100,4,2,1,25,0,0
96271,-100,4,2,1,45,0,0
96827,-100,4,2,2,45,0,0
96938,-100,4,2,1,45,0,0
97049,-100,4,2,2,45,0,0
97160,-100,4,2,1,45,0,0
97271,-100,4,2,2,45,0,0
97382,-100,4,2,1,45,0,0
97493,-100,4,2,2,45,0,0
97604,-100,4,2,1,45,0,0
98049,-100,4,2,2,45,0,0
98160,-100,4,2,1,45,0,0
98493,-100,4,2,2,45,0,0
99382,-100,4,2,1,45,0,0
100382,-100,4,2,2,45,0,0
100493,-100,4,2,1,45,0,0
100604,-100,4,2,2,45,0,0
100715,-100,4,2,1,55,0,0
100827,-100,4,2,2,55,0,0
101049,-100,4,2,1,55,0,0
101160,-100,4,2,2,65,0,0
101271,-100,4,2,1,65,0,0
102049,-100,4,2,4,65,0,0
102160,-100,4,2,1,65,0,0
112715,-100,4,2,2,65,0,0
113049,-100,4,2,1,65,0,0
113382,-100,4,2,2,65,0,0
113604,-100,4,2,1,65,0,0
113715,-100,4,2,1,65,0,0
114493,-100,4,2,1,65,0,0
114827,-100,4,2,1,65,0,0
115160,-100,4,2,1,65,0,0
115382,-100,4,2,1,65,0,0
116049,-100,4,2,1,65,0,0
116271,-100,4,2,4,65,0,0
116382,-100,4,2,1,65,0,0
119827,-100,4,2,4,65,0,0
119938,-100,4,2,1,65,0,0
123382,-100,4,2,4,65,0,0
123493,-100,4,2,1,65,0,0
130049,-100,4,2,1,65,0,0
130493,-100,4,2,1,75,0,0
134049,-100,4,2,4,75,0,0
134160,-100,4,2,1,75,0,0
137604,-100,4,2,4,75,0,0
137715,-100,4,2,1,75,0,0
143827,-100,4,2,1,75,0,0
144715,-100,4,2,1,65,0,0
149493,-100,4,2,2,65,0,0
149604,-100,4,2,1,65,0,0
150049,-100,4,2,1,55,0,0
151827,-100,4,2,4,65,0,0
151938,-100,4,2,1,65,0,0
153160,-100,4,2,2,65,0,0
153382,-100,4,2,1,65,0,0
153604,-100,4,2,2,65,0,0
153827,-100,4,2,1,65,0,0
154049,-100,4,2,2,65,0,0
154271,-100,4,2,1,65,0,0
154493,-100,4,2,2,65,0,0
154715,-100,4,2,1,65,0,0
154938,-100,4,2,2,65,0,0
156938,-100,4,2,1,65,0,0
158049,-100,4,2,1,45,0,0
159827,-100,4,1,1,75,0,1
170382,-100,4,1,2,75,0,1
170493,-100,4,1,1,75,0,1
170715,-100,4,1,2,75,0,1
172271,-100,4,1,1,75,0,0
172382,-100,4,1,1,55,0,0
172493,-100,4,1,1,35,0,0
172604,-100,4,1,1,15,0,0
172715,-100,4,1,1,55,0,0
173160,-100,4,1,1,75,0,1
183827,-100,4,1,1,75,0,0
196271,-100,4,1,1,75,0,0
196604,-100,4,1,1,75,0,0
196938,-100,4,1,1,75,0,0
197382,-100,4,1,1,75,0,0
198049,-100,4,1,1,75,0,1
206938,-100,4,2,1,65,0,0
207827,-100,4,2,1,55,0,0
208715,-100,4,2,1,45,0,0
210493,-100,4,2,1,20,0,0

[HitObjects]
88,160,7827,6,0,B|116:136|116:96|116:96|176:172|272:140,1,240
320,200,9604,2,0,P|344:160|284:64,1,160
216,52,10938,1,0,0:0:0:0:
140,80,11382,6,0,B|128:128|128:128|148:192|148:192|132:248,1,160
120,312,12715,1,0,0:0:0:0:
196,288,13160,2,0,P|260:268|352:288,1,160
424,256,14493,1,0,0:0:0:0:
474,193,14938,6,0,B|484:108|484:108|460:24,2,160
424,256,17160,1,0,0:0:0:0:
349,286,17604,2,0,L|269:278,1,80
188,280,18493,6,0,B|200:232|200:232|156:184|192:116,1,160
256,172,19827,1,0,0:0:0:0:
276,248,20271,2,0,B|260:312|260:312|240:360|176:360,1,160
116,316,21604,1,0,0:0:0:0:
188,280,22049,6,0,L|352:276,1,160
404,216,23382,1,0,0:0:0:0:
432,292,23827,2,0,P|472:260|460:156,1,160
388,128,25160,2,0,L|308:136,1,80
256,192,25827,12,0,27382,0:0:0:0:
96,280,29160,6,0,P|135:282|171:265,1,80
224,324,30049,2,0,P|248:284|243:233,1,80
326,235,30938,2,0,P|303:194|257:172,1,80
299,102,31827,2,0,P|252:101|211:129,1,80
170,58,32715,6,0,P|144:100|208:192,1,160
223,115,34049,1,0,0:0:0:0:
256,44,34493,2,0,L|84:52,1,160
56,52,35604,2,0,P|48:92|56:132,1,80
68,168,36271,6,0,L|240:160,1,160
308,156,37604,1,0,0:0:0:0:
356,92,38049,2,0,P|388:136|344:228,1,160
312,236,39160,2,0,L|320:332,1,80
320,356,39827,1,0,0:0:0:0:
320,356,41604,6,0,P|260:348|144:360,1,160
84,332,42938,1,0,0:0:0:0:
41,265,43382,2,0,L|52:100,1,160
56,64,44493,2,0,P|88:68|144:60,1,80
172,48,45160,6,0,B|248:60|248:60|348:48,1,160
408,36,46493,1,0,0:0:0:0:
392,116,46938,2,0,L|404:288,1,160
403,275,48715,6,0,P|368:260|244:280,1,160
220,300,49827,2,0,L|128:292,1,80
128,332,50493,6,0,P|144:280|104:176,1,160
72,172,51604,2,0,L|80:88,1,80
84,52,52271,6,0,P|128:64|244:48,1,160
316,20,53604,1,0,0:0:0:0:
392,48,54049,2,0,B|404:132|404:132|388:220,1,160
252,288,55827,6,0,L|160:280,1,80
92,272,56715,1,0,0:0:0:0:
60,199,57160,1,0,0:0:0:0:
107,134,57604,6,0,L|186:127,1,80
267,118,58492,1,0,0:0:0:0:
299,45,58937,1,0,0:0:0:0:
219,53,59382,6,0,L|225:132,1,80
276,196,60271,2,0,L|269:275,1,80
264,356,61160,1,0,0:0:0:0:
36,132,62938,6,0,P|84:144|152:132,1,120
184,108,63827,2,0,L|176:244,1,120
176,268,64715,2,0,P|216:264|268:272,1,80
320,316,65604,2,0,P|359:320|399:316,1,80
456,260,66493,6,0,L|452:132,1,120
444,100,67382,2,0,B|384:108|384:108|312:96,1,120
288,88,68271,2,0,L|196:92,1,80
136,56,69160,2,0,P|128:92|148:148,1,80
168,208,70049,6,0,P|180:244|164:336,1,120
148,360,70938,2,0,P|181:341|274:341,1,120
300,344,71827,2,0,L|392:340,1,80
428,276,72715,2,0,P|432:232|420:192,1,80
368,136,73604,6,0,B|296:104|288:164|196:128,1,160
172,120,74715,2,0,P|188:168|160:244,1,120
20,172,76271,1,0,0:0:0:0:
116,44,77160,6,0,P|160:28|244:56,1,120
264,68,78049,2,0,L|392:56,1,120
424,56,78938,2,0,P|432:100|424:148,1,80
408,212,79827,2,0,P|404:251|412:290,1,80
468,348,80715,6,0,B|428:328|428:328|344:332,1,120
312,332,81604,2,0,B|252:344|252:344|180:332,1,120
160,312,82493,2,0,L|164:220,1,80
160,152,83382,2,0,P|100:156|68:140,1,80
124,80,84271,6,0,P|176:72|236:120,1,120
260,136,85160,2,0,P|309:167|367:156,1,120
400,132,86049,1,0,0:0:0:0:
256,192,86271,12,0,87827,0:0:0:0:
272,136,94938,6,0,P|307:205|294:283,1,160
216,300,96271,1,0,0:0:0:0:
196,224,96715,6,0,L|372:200,1,160
432,344,98493,2,0,L|256:368,2,160
488,192,101160,1,0,0:0:0:0:
388,68,102049,6,0,P|336:132|324:212,1,160
