osu file format v14

[General]
AudioFilename: audio.mp3
AudioLeadIn: 0
PreviewTime: -1
Countdown: 1
SampleSet: None
StackLeniency: 0.7
Mode: 0
LetterboxInBreaks: 0
WidescreenStoryboard: 0

[Editor]
DistanceSpacing: 1
BeatDivisor: 3
GridSize: 8
TimelineZoom: 0.8

[Metadata]
Title:Voices
TitleUnicode:Voices
Artist:Hatsune Miku
ArtistUnicode:Hatsune Miku
Creator:COLD3N
Version:Strange COLD3N
Source:
Tags:First level XD
BeatmapID:1516273
BeatmapSetID:717793

[Difficulty]
HPDrainRate:5
CircleSize:5
OverallDifficulty:5
ApproachRate:5
SliderMultiplier:1.9
SliderTickRate:3

[Events]
//Background and Video events
0,0,"osu is life.jpg",0,0
//Break Periods
2,25446,40225
2,73646,80084
//Storyboard Layer 0 (Background)
//Storyboard Layer 1 (Fail)
//Storyboard Layer 2 (Pass)
//Storyboard Layer 3 (Foreground)
//Storyboard Sound Samples

[TimingPoints]
9403.70154759676,500.333555703803,4,1,0,100,1,0

[HitObjects]
80,88,64,5,0,0:0:0:0:
256,192,898,12,0,4233,0:0:0:0:
256,192,5734,12,0,6735,0:0:0:0:
104,128,7402,5,0,0:0:0:0:
248,248,7902,1,0,0:0:0:0:
432,184,8403,1,0,0:0:0:0:
256,144,8903,2,0,L|464:192,1,190
288,152,9904,5,0,0:0:0:0:
152,280,10404,5,0,0:0:0:0:
160,64,11405,2,0,B|352:256|328:280|120:264,1,380
136,120,15407,1,0,0:0:0:0:
240,264,15908,1,0,0:0:0:0:
392,160,16408,1,0,0:0:0:0:
304,344,16908,1,0,0:0:0:0:
208,184,17409,5,0,0:0:0:0:
344,320,19410,2,0,B|208:32|128:296|392:32|360:72,5,316.666666666667
384,232,23579,6,0,B|432:80|-160:-48,1,633.333333333333
248,184,41425,5,0,0:0:0:0:
88,72,41925,1,0,0:0:0:0:
120,256,42425,5,0,0:0:0:0:
312,256,42926,1,0,0:0:0:0:
224,104,43426,1,0,0:0:0:0:
312,288,43926,1,0,0:0:0:0:
176,160,44427,1,0,0:0:0:0:
328,296,44927,1,0,0:0:0:0:
160,200,45427,2,0,B|488:48|320:120|384:304|384:304,1,380
488,344,49430,1,0,0:0:0:0:
336,240,49930,1,0,0:0:0:0:
176,144,50431,1,0,0:0:0:0:
344,80,50931,1,0,0:0:0:0:
168,176,51431,1,0,0:0:0:0:
360,224,51932,1,0,0:0:0:0:
168,224,52432,1,0,0:0:0:0:
344,152,52932,1,0,0:0:0:0:
304,344,53433,1,0,0:0:0:0:
472,32,53933,1,0,0:0:0:0:
64,32,54433,1,0,0:0:0:0:
72,352,54934,1,0,0:0:0:0:
480,360,55434,1,0,0:0:0:0:
32,40,55934,1,0,0:0:0:0:
256,192,56768,1,0,0:0:0:0:
264,192,56935,1,0,0:0:0:0:
480,192,57435,1,0,0:0:0:0:
32,184,57936,1,0,0:0:0:0:
248,32,58436,1,0,0:0:0:0:
256,360,58936,1,0,0:0:0:0:
48,56,59437,2,0,B|416:288|368:264,1,380
144,88,60938,1,0,0:0:0:0:
384,288,61438,1,0,0:0:0:0:
72,96,61938,2,0,L|240:200,1,190
233,196,62439,2,0,L|344:32,1,190
336,32,62939,2,0,L|480:192,1,190
463,173,63439,2,0,L|320:16,1,190
256,192,63940,1,0,0:0:0:0:
56,336,64440,1,0,0:0:0:0:
72,328,64607,1,0,0:0:0:0:
88,312,64773,1,0,0:0:0:0:
256,200,64940,1,0,0:0:0:0:
240,224,65441,1,0,0:0:0:0:
408,208,65941,1,0,0:0:0:0:
208,272,66441,1,0,0:0:0:0:
368,136,66942,1,0,0:0:0:0:
120,96,67442,1,0,0:0:0:0:
400,176,67942,1,0,0:0:0:0:
120,80,68443,1,0,0:0:0:0:
176,336,68943,1,0,0:0:0:0:
472,320,69443,1,0,0:0:0:0:
112,104,69944,1,0,0:0:0:0:
416,64,70444,1,0,0:0:0:0:
136,304,70944,1,0,0:0:0:0:
88,88,71445,1,0,0:0:0:0:
464,80,71945,1,0,0:0:0:0:
464,288,72445,1,0,0:0:0:0:
72,288,72946,1,0,0:0:0:0:
256,192,73446,1,0,0:0:0:0:
256,192,81284,12,0,91291,0:0:0:0:
