osu file format v14

[General]
AudioFilename: uni.mp3
AudioLeadIn: 0
PreviewTime: 52671
Countdown: 0
SampleSet: Normal
StackLeniency: 0.7
Mode: 0
LetterboxInBreaks: 1
WidescreenStoryboard: 1

[Editor]
DistanceSpacing: 1
BeatDivisor: 4
GridSize: 4
TimelineZoom: 1.900006

[Metadata]
Title:Uni
TitleUnicode:Uni
Artist:Hatsune Miku
ArtistUnicode:Hatsune Miku
Creator:ruikoH
Version:Insane
Source:
Tags:
BeatmapID:463467
BeatmapSetID:195312

[Difficulty]
HPDrainRate:6
CircleSize:4
OverallDifficulty:8
ApproachRate:9
SliderMultiplier:2.6
SliderTickRate:1

[Events]
//Background and Video events
0,0,"black.PNG",0,0
//Break Periods
2,31345,45201
2,60429,81842
//Storyboard Layer 0 (Background)
//Storyboard Layer 1 (Fail)
//Storyboard Layer 2 (Pass)
//Storyboard Layer 3 (Foreground)
//Storyboard Sound Samples

[TimingPoints]
-0.0056517153291793,458.015267175573,4,1,1,100,1,0
18320,-100,4,1,1,100,0,0
31259,-125,4,1,1,100,0,0
45229,-100,4,1,1,100,0,0
49465,-85.7632933104631,4,1,1,100,0,0
52671,-75.0018750468762,4,1,1,100,0,1
80782,-83.3333333333333,4,1,1,100,0,1
80896,-93.4579439252336,4,1,1,100,0,1
81011,-107.52688172043,4,1,1,100,0,1
81125,-125,4,1,1,100,0,1
82442,-125,4,1,1,100,0,0
97099,-107.52688172043,4,1,1,100,0,0
100763,-93.4579439252336,4,1,1,100,0,0
104427,-83.3333333333333,4,1,1,100,0,0
108098,-66.6666666666667,4,1,1,100,0,0
126412,-50,4,1,1,100,0,1
153893,-50,4,1,1,100,0,1

[HitObjects]
208,124,1603,5,0,0:0:0:0:
144,140,1717,1,0,0:0:0:0:
80,156,1832,1,0,0:0:0:0:
192,248,2061,1,0,0:0:0:0:
255,259,2175,1,0,0:0:0:0:
319,270,2290,1,0,0:0:0:0:
445,180,2519,1,0,0:0:0:0:
464,118,2633,1,0,0:0:0:0:
484,56,2748,6,0,L|451:49,1,32.5
283,95,2977,2,0,L|250:88,1,32.5
420,239,3206,2,0,L|387:232,1,32.5
37,191,3664,1,0,0:0:0:0:
82,145,3778,1,0,0:0:0:0:
131,234,3893,1,0,0:0:0:0:
86,280,4007,1,0,0:0:0:0:
41,326,4122,5,0,0:0:0:0:
225,328,4351,1,0,0:0:0:0:
399,302,4580,2,0,L|437:318,1,32.5
290,183,4809,2,0,L|328:199,1,32.5
206,51,5038,2,0,L|244:67,1,32.5
79,151,5267,5,0,0:0:0:0:
97,213,5381,1,0,0:0:0:0:
115,275,5496,1,0,0:0:0:0:
233,137,5725,1,0,0:0:0:0:
287,172,5839,1,0,0:0:0:0:
341,207,5954,1,0,0:0:0:0:
360,356,6183,1,0,0:0:0:0:
295,352,6297,1,0,0:0:0:0:
229,348,6412,6,0,L|180:367,1,32.5
185,190,6641,2,0,L|136:209,1,32.5
365,131,6870,2,0,L|316:150,1,32.5
122,147,7328,1,0,0:0:0:0:
69,185,7442,1,0,0:0:0:0:
200,172,7557,1,0,0:0:0:0:
253,134,7671,1,0,0:0:0:0:
306,96,7786,5,0,0:0:0:0:
457,215,8015,1,0,0:0:0:0:
344,336,8244,2,0,B|312:328|312:328|288:336|288:336|268:328|268:328|248:336|248:336|228:328|228:328|208:336|208:336|188:328|188:328|168:336|168:336|148:328|148:328|128:336|128:336|100:328,1,260
376,72,8931,5,0,0:0:0:0:
396,132,9045,1,0,0:0:0:0:
416,192,9160,1,0,0:0:0:0:
276,276,9389,1,0,0:0:0:0:
264,212,9503,1,0,0:0:0:0:
252,148,9618,1,0,0:0:0:0:
72,104,9847,1,0,0:0:0:0:
112,156,9961,1,0,0:0:0:0:
152,208,10076,6,0,L|200:228,1,32.5
308,204,10305,2,0,L|356:224,1,32.5
424,304,10534,2,0,L|472:324,1,32.5
192,336,10992,1,0,0:0:0:0:
252,316,11106,1,0,0:0:0:0:
220,248,11221,1,0,0:0:0:0:
161,224,11335,1,0,0:0:0:0:
102,201,11450,5,0,0:0:0:0:
256,48,11679,1,0,0:0:0:0:
320,240,11908,1,0,0:0:0:0:
460,76,12137,1,0,0:0:0:0:
480,240,12366,2,0,P|432:272|364:284,1,97.5
280,176,12595,5,0,0:0:0:0:
220,204,12709,1,0,0:0:0:0:
160,228,12824,1,0,0:0:0:0:
24,108,13053,1,0,0:0:0:0:
80,76,13167,1,0,0:0:0:0:
136,44,13282,1,0,0:0:0:0:
160,292,13511,1,0,0:0:0:0:
224,300,13625,1,0,0:0:0:0:
288,308,13740,1,0,0:0:0:0:
344,84,13969,1,0,0:0:0:0:
464,292,14198,1,0,0:0:0:0:
252,188,14656,5,0,0:0:0:0:
252,188,14770,1,0,0:0:0:0:
252,188,14885,1,0,0:0:0:0:
252,188,14999,1,0,0:0:0:0:
252,188,15114,1,0,0:0:0:0:
236,36,15343,1,0,0:0:0:0:
272,344,15572,1,0,0:0:0:0:
472,140,15801,1,0,0:0:0:0:
44,228,16030,1,0,0:0:0:0:
168,60,16259,5,0,0:0:0:0:
216,104,16374,1,0,0:0:0:0:
264,148,16488,1,0,0:0:0:0:
432,204,16717,1,0,0:0:0:0:
372,232,16832,1,0,0:0:0:0:
316,264,16946,1,0,0:0:0:0:
88,312,17175,1,0,0:0:0:0:
92,248,17290,1,0,0:0:0:0:
92,184,17404,1,0,0:0:0:0:
280,80,17633,1,0,0:0:0:0:
472,292,17862,1,0,0:0:0:0:
88,320,18091,1,0,0:0:0:0:
176,76,18320,5,0,0:0:0:0:
172,140,18435,1,0,0:0:0:0:
344,132,18549,1,0,0:0:0:0:
328,68,18664,1,0,0:0:0:0:
264,200,18778,1,0,0:0:0:0:
188,44,19007,1,0,0:0:0:0:
68,272,19236,1,0,0:0:0:0:
244,24,19465,1,0,0:0:0:0:
396,292,19694,1,0,0:0:0:0:
392,56,19923,5,0,0:0:0:0:
340,96,20038,1,0,0:0:0:0:
288,136,20152,1,0,0:0:0:0:
92,56,20381,1,0,0:0:0:0:
120,116,20496,1,0,0:0:0:0:
148,172,20610,1,0,0:0:0:0:
440,232,20839,1,0,0:0:0:0:
376,232,20954,1,0,0:0:0:0:
312,232,21068,1,0,0:0:0:0:
40,196,21297,1,0,0:0:0:0:
400,332,21526,1,0,0:0:0:0:
228,32,21755,1,0,0:0:0:0:
300,268,21984,5,0,0:0:0:0:
212,312,22099,1,0,0:0:0:0:
184,140,22213,1,0,0:0:0:0:
284,160,22328,1,0,0:0:0:0:
136,236,22442,1,0,0:0:0:0:
424,96,22671,1,0,0:0:0:0:
328,344,22900,1,0,0:0:0:0:
236,24,23129,1,0,0:0:0:0:
120,352,23358,1,0,0:0:0:0:
108,40,23587,5,0,0:0:0:0:
124,104,23702,1,0,0:0:0:0:
140,168,23816,1,0,0:0:0:0:
348,56,24045,1,0,0:0:0:0:
352,120,24160,1,0,0:0:0:0:
352,184,24274,1,0,0:0:0:0:
88,232,24503,1,0,0:0:0:0:
152,244,24618,1,0,0:0:0:0:
216,256,24732,1,0,0:0:0:0:
456,120,24961,1,0,0:0:0:0:
308,340,25190,1,0,0:0:0:0:
268,48,25419,1,0,0:0:0:0:
132,312,25648,5,0,0:0:0:0:
96,260,25763,1,0,0:0:0:0:
152,204,25877,1,0,0:0:0:0:
108,156,25992,1,0,0:0:0:0:
96,72,26106,1,0,0:0:0:0:
96,72,26335,5,0,0:0:0:0:
244,320,26564,1,0,0:0:0:0:
460,104,26793,1,0,0:0:0:0:
72,192,27022,1,0,0:0:0:0:
412,252,27251,5,0,0:0:0:0:
388,192,27366,1,0,0:0:0:0:
364,132,27480,1,0,0:0:0:0:
120,320,27709,1,0,0:0:0:0:
184,320,27824,1,0,0:0:0:0:
248,320,27938,1,0,0:0:0:0:
156,28,28167,1,0,0:0:0:0:
152,92,28282,1,0,0:0:0:0:
148,156,28396,1,0,0:0:0:0:
344,20,28625,1,0,0:0:0:0:
440,292,28854,1,0,0:0:0:0:
144,72,29083,1,0,0:0:0:0:
317,333,29312,5,0,0:0:0:0:
440,292,29427,1,0,0:0:0:0:
440,162,29541,1,0,0:0:0:0:
316,122,29656,1,0,0:0:0:0:
240,227,29770,1,0,0:0:0:0:
184,0,29999,5,0,0:0:0:0:
432,136,30229,1,0,0:0:0:0:
256,192,30458,12,0,31145,0:0:0:0:
144,280,45801,5,0,0:0:0:0:
204,300,45916,1,0,0:0:0:0:
268,308,46030,1,0,0:0:0:0:
332,304,46145,1,0,0:0:0:0:
392,276,46259,1,0,0:0:0:0:
428,220,46374,1,0,0:0:0:0:
440,156,46488,1,0,0:0:0:0:
432,92,46603,1,0,0:0:0:0:
400,36,46717,5,0,0:0:0:0:
360,88,46832,1,0,0:0:0:0:
304,120,46946,1,0,0:0:0:0:
240,132,47061,1,0,0:0:0:0:
176,132,47175,1,0,0:0:0:0:
192,196,47290,1,0,0:0:0:0:
184,260,47404,1,0,0:0:0:0:
136,304,47519,1,0,0:0:0:0:
72,308,47633,5,0,0:0:0:0:
24,264,47748,1,0,0:0:0:0:
20,200,47862,1,0,0:0:0:0:
60,148,47977,1,0,0:0:0:0:
124,132,48091,1,0,0:0:0:0:
176,172,48206,1,0,0:0:0:0:
204,228,48320,1,0,0:0:0:0:
200,292,48435,1,0,0:0:0:0:
172,352,48549,5,0,0:0:0:0:
236,364,48664,1,0,0:0:0:0:
300,348,48778,1,0,0:0:0:0:
348,304,48893,1,0,0:0:0:0:
440,272,49007,5,0,0:0:0:0:
428,208,49122,1,0,0:0:0:0:
384,160,49236,1,0,0:0:0:0:
324,136,49351,1,0,0:0:0:0:
188,284,49465,5,0,0:0:0:0:
148,220,49580,1,0,0:0:0:0:
160,144,49694,1,0,0:0:0:0:
228,112,49809,1,0,0:0:0:0:
296,140,49923,5,0,0:0:0:0:
356,92,50038,5,0,0:0:0:0:
432,104,50152,1,0,0:0:0:0:
480,164,50267,1,0,0:0:0:0:
476,240,50381,1,0,0:0:0:0:
420,292,50496,5,0,0:0:0:0:
344,288,50610,1,0,0:0:0:0:
284,240,50725,1,0,0:0:0:0:
240,180,50839,1,0,0:0:0:0:
168,156,50954,5,0,0:0:0:0:
96,172,51068,1,0,0:0:0:0:
48,232,51183,1,0,0:0:0:0:
48,308,51297,1,0,0:0:0:0:
96,364,51412,5,0,0:0:0:0:
152,312,51526,1,0,0:0:0:0:
224,292,51641,1,0,0:0:0:0:
296,316,51755,1,0,0:0:0:0:
368,296,51870,1,0,0:0:0:0:
380,220,51984,1,0,0:0:0:0:
328,164,52099,1,0,0:0:0:0:
256,180,52213,1,0,0:0:0:0:
280,316,52671,2,0,B|272:288|272:288|292:308|292:308|280:284|280:284|300:292|300:292|292:276|292:276|312:276|312:272|300:252|300:256|300:256|320:260|320:260|316:240|316:240|340:244|340:244|336:228|336:228|352:240|352:240|340:268|340:268|356:292|356:292|396:308,1,346.657991753543
84,240,53358,1,0,0:0:0:0:
208,116,53587,2,0,P|276:152|384:144,1,173.328995876771
368,64,53931,1,0,0:0:0:0:
336,268,54160,2,0,P|264:240|160:260,1,173.328995876771
192,336,54503,1,0,0:0:0:0:
36,160,54732,1,0,0:0:0:0:
304,68,54961,1,0,0:0:0:0:
388,92,55076,1,0,0:0:0:0:
448,156,55190,1,0,0:0:0:0:
460,244,55305,1,0,0:0:0:0:
420,320,55419,1,0,0:0:0:0:
336,344,55534,1,0,0:0:0:0:
260,300,55648,1,0,0:0:0:0:
256,212,55763,1,0,0:0:0:0:
236,128,55877,1,0,0:0:0:0:
176,64,55992,2,0,P|116:64|64:168,1,173.328995876771
104,228,56335,1,0,0:0:0:0:
184,264,56450,1,0,0:0:0:0:
184,264,56793,1,0,0:0:0:0:
60,28,57022,1,0,0:0:0:0:
136,288,57251,2,0,P|216:256|308:164,1,173.328995876771
364,232,57595,1,0,0:0:0:0:
412,68,57824,2,0,P|320:40|176:64,1,173.328995876771
164,76,58167,1,0,0:0:0:0:
468,188,58396,1,0,0:0:0:0:
156,264,58625,1,0,0:0:0:0:
388,56,58854,1,0,0:0:0:0:
284,132,58969,1,0,0:0:0:0:
416,180,59083,1,0,0:0:0:0:
76,148,59312,1,0,0:0:0:0:
16,24,59426,1,0,0:0:0:0:
152,32,59541,1,0,0:0:0:0:
152,32,59770,1,0,0:0:0:0:
216,312,59999,1,0,0:0:0:0:
340,48,60229,1,0,0:0:0:0:
40,156,82442,5,0,0:0:0:0:
176,72,82671,1,0,0:0:0:0:
268,196,82900,1,0,0:0:0:0:
136,284,83129,1,0,0:0:0:0:
288,80,83358,5,0,0:0:0:0:
476,128,83587,1,0,0:0:0:0:
424,316,83816,1,0,0:0:0:0:
252,268,84045,1,0,0:0:0:0:
256,48,84274,5,0,0:0:0:0:
112,176,84503,1,0,0:0:0:0:
252,288,84732,1,0,0:0:0:0:
416,172,84961,1,0,0:0:0:0:
232,304,85190,5,0,0:0:0:0:
116,88,85419,1,0,0:0:0:0:
296,8,85648,1,0,0:0:0:0:
420,204,85877,1,0,0:0:0:0:
156,80,86106,6,0,L|56:168,1,104
156,224,86564,1,0,0:0:0:0:
240,152,86793,1,0,0:0:0:0:
368,84,87022,2,0,L|492:108,1,104
448,216,87480,1,0,0:0:0:0:
336,192,87709,1,0,0:0:0:0:
144,236,87938,6,0,L|240:304,1,104
316,184,88396,1,0,0:0:0:0:
216,124,88625,1,0,0:0:0:0:
320,112,88854,1,0,0:0:0:0:
344,236,89083,1,0,0:0:0:0:
212,260,89312,1,0,0:0:0:0:
192,128,89541,1,0,0:0:0:0:
128,84,89770,5,0,0:0:0:0:
352,156,89999,1,0,0:0:0:0:
72,220,90229,1,0,0:0:0:0:
428,304,90458,1,0,0:0:0:0:
440,44,90687,1,0,0:0:0:0:
336,244,90916,1,0,0:0:0:0:
184,104,91145,1,0,0:0:0:0:
204,308,91374,1,0,0:0:0:0:
316,80,91603,1,0,0:0:0:0:
108,192,91832,1,0,0:0:0:0:
364,200,92061,1,0,0:0:0:0:
120,64,92290,1,0,0:0:0:0:
272,276,92519,1,0,0:0:0:0:
256,48,92748,1,0,0:0:0:0:
148,272,92977,1,0,0:0:0:0:
364,104,93206,1,0,0:0:0:0:
108,128,93435,1,0,0:0:0:0:
172,208,93664,1,0,0:0:0:0:
240,288,93893,1,0,0:0:0:0:
400,288,94122,1,0,0:0:0:0:
452,104,94351,1,0,0:0:0:0:
328,80,94580,1,0,0:0:0:0:
208,52,94809,1,0,0:0:0:0:
68,152,95038,1,0,0:0:0:0:
148,256,95267,1,0,0:0:0:0:
264,296,95496,1,0,0:0:0:0:
352,56,95725,1,0,0:0:0:0:
236,20,95954,1,0,0:0:0:0:
244,192,96183,1,0,0:0:0:0:
244,192,96641,6,0,P|236:116|132:104,1,156
72,112,97099,6,0,P|72:144|76:176,1,60.4500018909073
280,184,97328,2,0,P|260:148|228:120,1,60.4500018909073
92,296,97557,2,0,P|116:320|148:332,1,60.4500018909073
284,296,97786,2,0,P|304:268|312:232,1,60.4500018909073
144,68,98015,2,0,P|124:96|116:128,1,60.4500018909073
208,244,98244,2,0,P|232:256|272:256,1,60.4500018909073
280,112,98473,2,0,P|256:88|248:60,1,60.4500018909073
456,60,98702,2,0,P|468:84|464:120,1,60.4500018909073
308,172,98931,6,0,P|292:144|268:128,1,60.4500018909073
120,116,99160,2,0,P|84:112|52:120,1,60.4500018909073
84,272,99389,2,0,P|80:304|92:336,1,60.4500018909073
288,300,99618,2,0,P|292:264|272:224,1,60.4500018909073
112,168,99847,6,0,P|68:112|160:100,1,181.350005672722
192,112,100305,2,0,L|252:72,1,60.4500018909073
288,164,100534,2,0,L|352:112,1,60.4500018909073
436,96,100763,6,0,P|464:124|472:152,1,69.5499978775025
436,260,100992,2,0,P|408:276|372:280,1,69.5499978775025
268,240,101221,2,0,P|236:220|192:224,1,69.5499978775025
60,256,101450,2,0,P|68:296|88:320,1,69.5499978775025
236,336,101679,6,0,P|268:316|276:284,1,69.5499978775025
164,168,101908,2,0,P|156:132|176:104,1,69.5499978775025
320,64,102137,2,0,P|320:104|344:128,1,69.5499978775025
448,184,102366,2,0,P|472:148|472:116,1,69.5499978775025
312,56,102595,2,0,P|288:144|184:152,1,208.649993632508
144,128,103053,2,0,L|64:156,1,69.5499978775025
144,232,103282,2,0,L|104:300,1,69.5499978775025
268,276,103511,6,0,L|280:360,1,69.5499978775025
296,152,103740,2,0,L|288:72,1,69.5499978775025
172,204,103969,2,0,L|96:216,1,69.5499978775025
396,240,104198,2,0,L|472:228,1,69.5499978775025
388,88,104427,6,0,P|356:56|328:40,1,77.999997619629
216,252,104656,2,0,P|256:268|300:268,1,77.999997619629
328,36,104885,2,0,P|292:24|240:20,1,77.999997619629
108,152,105114,2,0,P|108:184|132:232,1,77.999997619629
292,188,105343,2,0,P|316:156|356:144,1,77.999997619629
480,264,105572,2,0,P|468:292|424:312,1,77.999997619629
304,136,105801,2,0,P|344:112|400:124,1,77.999997619629
436,324,106030,2,0,P|408:352|372:360,1,77.999997619629
220,332,106259,6,0,P|252:304|264:260,1,77.999997619629
60,232,106488,2,0,P|24:200|16:168,1,77.999997619629
160,48,106717,2,0,P|192:36|236:64,1,77.999997619629
308,180,106946,2,0,P|312:224|272:252,1,77.999997619629
132,312,107175,6,0,P|224:340|360:324,1,233.999992858887
388,272,107633,2,0,L|472:312,1,77.999997619629
388,152,107862,2,0,L|476:180,1,77.999997619629
328,72,108091,6,0,P|304:32|272:16,1,77.999997619629
64,160,108320,2,0,P|60:208|80:264,1,97.50000371933
332,208,108549,2,0,P|332:156|300:112,1,97.50000371933
120,276,108778,2,0,P|156:324|204:340,1,97.50000371933
308,56,109007,6,0,P|272:32|208:28,1,97.50000371933
296,308,109236,2,0,P|368:300|424:276,1,97.50000371933
132,112,109465,2,0,P|104:168|112:216,1,97.50000371933
356,176,109694,2,0,L|440:108,1,97.50000371933
188,32,109923,6,0,L|256:132,1,97.50000371933
412,300,110152,2,0,L|288:276,1,97.50000371933
100,240,110381,2,0,L|212:172,1,97.50000371933
424,68,110610,2,0,L|372:168,1,97.50000371933
264,344,110839,5,0,0:0:0:0:
256,192,111068,12,0,111526,0:0:0:0:
