osu file format v14

[General]
AudioFilename: audio.mp3
AudioLeadIn: 0
PreviewTime: 183310
Countdown: 0
SampleSet: Normal
StackLeniency: 0.5
Mode: 0
LetterboxInBreaks: 0
WidescreenStoryboard: 1

[Editor]
Bookmarks: 46579,94975,105353,110542,112488,115731,119303,121569,123191,127407,131299,135191,137790,149790,159390,162990,164190,173790,182790,183390,186990,196590,202590,211590,212190,216990,224190
DistanceSpacing: 2
BeatDivisor: 1
GridSize: 4
TimelineZoom: 2.12

[Metadata]
Title:The Ultimate Medley: Virtuous Runaway Suite
TitleUnicode:終極のメドレー ~超絶技巧暴走組曲~
Artist:Hatsune Miku
ArtistUnicode:Hatsune Miku
Creator:Inactive User
Version:Ultimate
Source:Project Diva X
Tags:The Disappearance of Hatsune Miku cosMo@Bousou-P Two-Faced Lovers wowaka Sadistic.Music∞Factory 2D Dream Fever PolyphonicBranch The Intense Voice of Hatsune Miku Storyteller Project Diva X Sega
BeatmapID:1831152
BeatmapSetID:876147

[Difficulty]
HPDrainRate:4
CircleSize:4
OverallDifficulty:8
ApproachRate:9.7
SliderMultiplier:1.5
SliderTickRate:1

[Events]
//Background and Video events
0,0,"Hatsune Miku.jpg",0,0
//Break Periods
2,137944,139245
2,202790,211095
//Storyboard Layer 0 (Background)
//Storyboard Layer 1 (Fail)
//Storyboard Layer 2 (Pass)
//Storyboard Layer 3 (Foreground)
//Storyboard Layer 4 (Overlay)
//Storyboard Sound Samples

[TimingPoints]
2285,230.769230769231,4,1,0,50,1,0
9900,-66.6666666666667,4,1,0,50,0,0
10131,-100,4,1,0,50,0,0
10361,-66.6666666666667,4,1,0,50,0,0
10592,-100,4,1,0,50,0,0
10823,-66.6666666666667,4,1,0,50,0,0
11054,-100,4,1,0,50,0,0
11285,-66.6666666666667,4,1,0,50,0,0
11515,-100,4,1,0,50,0,0
11746,-66.6666666666667,4,1,0,50,0,0
11977,-100,4,1,0,50,0,0
12208,-66.6666666666667,4,1,0,50,0,0
12438,-100,4,1,0,50,0,0
12669,-66.6666666666667,4,1,0,50,0,0
12900,-100,4,1,0,50,0,0
13131,-66.6666666666667,4,1,0,50,0,0
13361,-100,4,1,0,50,0,0
13592,-66.6666666666667,4,1,0,50,0,0
13823,-100,4,1,0,50,0,0
14054,-66.6666666666667,4,1,0,50,0,0
14285,-100,4,1,0,50,0,0
14515,-66.6666666666667,4,1,0,50,0,0
14746,-100,4,1,0,50,0,0
14977,-66.6666666666667,4,1,0,50,0,0
15208,-100,4,1,0,50,0,0
16708,-83.3333333333333,4,1,0,50,0,0
20746,-66.6666666666667,4,1,0,50,0,0
21208,-71.4285714285714,4,1,0,50,0,0
24438,-100,4,1,0,50,0,0
29746,-66.6666666666667,4,1,0,50,0,0
45785,-40,4,1,0,50,0,0
46579,461.538461538462,4,1,0,50,1,0
46579,-100,4,1,0,50,0,0
48425,444.444444444444,4,1,0,50,1,0
48425,-90.9090909090909,4,1,0,50,0,0
50202,428.571428571429,4,1,0,50,1,0
50202,-83.3333333333333,4,1,0,50,0,0
51916,413.793103448276,4,1,0,50,1,0
51916,-76.9230769230769,4,1,0,50,0,0
53571,400,4,1,0,50,1,0
53571,-71.4285714285714,4,1,0,50,0,0
55171,375,4,1,0,50,1,0
55171,-66.6666666666667,4,1,0,50,0,0
56671,352.941176470588,4,1,0,50,1,0
56671,-62.5,4,1,0,50,0,0
59494,342.857142857143,4,1,0,50,1,0
59494,-58.8235294117647,4,1,0,50,0,0
60865,-55.5555555555556,4,1,0,50,0,0
62236,-52.6315789473684,4,1,0,50,0,0
63608,-50,4,1,0,50,0,0
64979,-47.6190476190476,4,1,0,50,0,0
66351,-45.4545454545455,4,1,0,50,0,0
67722,-43.4782608695652,4,1,0,50,0,0
69094,-41.6666666666667,4,1,0,50,0,0
70465,-40,4,1,0,50,0,0
75265,-36.3636363636364,4,1,0,50,0,0
75951,-40,4,1,0,50,0,0
94975,324.324324324324,4,1,0,50,1,0
94975,-50,4,1,0,50,0,0
110542,-40,4,1,0,50,0,0
114920,-50,4,1,0,50,0,0
115083,-66.6666666666667,4,1,0,50,0,0
115326,-100,4,1,0,50,0,0
115569,-200,4,1,0,50,0,0
116380,-100,4,1,0,50,0,0
136488,-50,4,1,0,50,0,0
137790,300,4,1,0,50,1,0
139890,-83.3333333333333,4,1,0,50,0,0
140040,-71.4285714285714,4,1,0,50,0,0
140190,-62.5,4,1,0,50,0,0
143640,-55.5555555555556,4,1,0,50,0,0
144990,-62.5,4,1,0,50,0,0
148440,-55.5555555555556,4,1,0,50,0,0
158040,-50,4,1,0,50,0,0
159390,-200,4,1,0,50,0,0
159990,-166.666666666667,4,1,0,50,0,0
160590,-142.857142857143,4,1,0,50,0,0
160740,-125,4,1,0,50,0,0
160890,-111.111111111111,4,1,0,50,0,0
161040,-100,4,1,0,50,0,0
161190,-90.909090909091,4,1,0,50,0,0
161790,-40,4,1,0,50,0,0
166290,-36.3636363636364,4,1,0,50,0,0
167490,-50,4,1,0,50,0,0
173190,-44.4444444444445,4,1,0,50,0,0
182790,-50,4,1,0,50,0,0
182940,-47.6190476190476,4,1,0,50,0,0
183090,-45.4545454545455,4,1,0,50,0,0
183240,-43.4782608695652,4,1,0,50,0,0
183390,-100,4,1,0,50,0,0

[HitObjects]
134,108,2285,5,0,0:0:0:0:
151,137,2361,1,0,0:0:0:0:
173,163,2438,1,0,0:0:0:0:
199,186,2515,1,0,0:0:0:0:
228,205,2592,1,0,0:0:0:0:
259,220,2669,1,0,0:0:0:0:
291,232,2746,1,0,0:0:0:0:
325,239,2823,1,0,0:0:0:0:
359,244,2900,1,0,0:0:0:0:
394,244,2977,1,0,0:0:0:0:
428,242,3054,1,0,0:0:0:0:
460,230,3131,1,0,0:0:0:0:
489,211,3208,5,0,0:0:0:0:
470,181,3285,1,0,0:0:0:0:
443,158,3361,1,0,0:0:0:0:
412,141,3438,1,0,0:0:0:0:
379,128,3515,1,0,0:0:0:0:
344,124,3592,1,0,0:0:0:0:
309,126,3669,1,0,0:0:0:0:
275,135,3746,1,0,0:0:0:0:
242,148,3823,1,0,0:0:0:0:
214,169,3900,1,0,0:0:0:0:
190,195,3977,1,0,0:0:0:0:
171,224,4054,1,0,0:0:0:0:
170,259,4131,5,0,0:0:0:0:
204,253,4208,1,0,0:0:0:0:
239,254,4285,1,0,0:0:0:0:
273,259,4361,1,0,0:0:0:0:
307,265,4438,1,0,0:0:0:0:
340,275,4515,1,0,0:0:0:0:
368,295,4592,5,0,0:0:0:0:
334,303,4669,1,0,0:0:0:0:
303,318,4746,1,0,0:0:0:0:
273,336,4823,1,0,0:0:0:0:
244,354,4900,1,0,0:0:0:0:
218,376,4977,1,0,0:0:0:0:
184,363,5054,5,0,0:0:0:0:
153,345,5131,1,0,0:0:0:0:
124,324,5208,1,0,0:0:0:0:
121,289,5285,1,0,0:0:0:0:
120,264,5361,1,0,0:0:0:0:
119,238,5438,1,0,0:0:0:0:
118,212,5515,1,0,0:0:0:0:
117,176,5592,1,0,0:0:0:0:
116,140,5669,1,0,0:0:0:0:
116,104,5746,1,0,0:0:0:0:
116,68,5823,1,0,0:0:0:0:
116,32,5900,1,0,0:0:0:0:
142,9,5977,5,0,0:0:0:0:
177,9,6054,1,0,0:0:0:0:
208,24,6131,1,0,0:0:0:0:
242,89,6208,5,0,0:0:0:0:
277,89,6285,1,0,0:0:0:0:
308,74,6361,1,0,0:0:0:0:
352,13,6438,5,0,0:0:0:0:
378,36,6515,1,0,0:0:0:0:
391,68,6592,1,0,0:0:0:0:
358,135,6669,5,0,0:0:0:0:
336,162,6746,1,0,0:0:0:0:
330,196,6823,1,0,0:0:0:0:
380,251,6900,5,0,0:0:0:0:
361,280,6977,1,0,0:0:0:0:
340,308,7054,1,0,0:0:0:0:
269,333,7131,5,0,0:0:0:0:
236,319,7208,1,0,0:0:0:0:
201,316,7285,1,0,0:0:0:0:
128,332,7361,5,0,0:0:0:0:
96,316,7438,1,0,0:0:0:0:
78,285,7515,1,0,0:0:0:0:
131,232,7592,5,0,0:0:0:0:
164,221,7669,1,0,0:0:0:0:
192,200,7746,1,0,0:0:0:0:
175,126,7823,5,0,0:0:0:0:
154,97,7900,1,0,0:0:0:0:
122,81,7977,1,0,0:0:0:0:
49,60,8054,5,0,0:0:0:0:
67,38,8131,1,0,0:0:0:0:
86,8,8208,1,0,0:0:0:0:
160,12,8285,5,0,0:0:0:0:
190,28,8361,1,0,0:0:0:0:
224,34,8438,1,0,0:0:0:0:
298,25,8515,5,0,0:0:0:0:
329,39,8592,1,0,0:0:0:0:
354,62,8669,1,0,0:0:0:0:
327,132,8746,5,0,0:0:0:0:
296,148,8823,1,0,0:0:0:0:
271,172,8900,1,0,0:0:0:0:
196,160,8977,5,0,0:0:0:0:
161,152,9054,1,0,0:0:0:0:
126,150,9131,1,0,0:0:0:0:
66,195,9208,5,0,0:0:0:0:
52,227,9285,1,0,0:0:0:0:
39,259,9361,1,0,0:0:0:0:
30,333,9438,5,0,0:0:0:0:
62,346,9515,1,0,0:0:0:0:
96,341,9592,1,0,0:0:0:0:
139,279,9669,5,0,0:0:0:0:
167,258,9746,1,0,0:0:0:0:
201,252,9823,1,0,0:0:0:0:
308,217,9900,6,0,P|278:283|273:367,1,150.000005722046
381,310,10131,5,0,0:0:0:0:
404,284,10208,1,0,0:0:0:0:
423,254,10285,1,0,0:0:0:0:
362,160,10361,6,0,P|428:130|512:125,1,150.000005722046
477,53,10592,5,0,0:0:0:0:
447,35,10669,1,0,0:0:0:0:
413,23,10746,1,0,0:0:0:0:
308,63,10823,6,0,P|252:112|183:140,1,150.000005722046
164,66,11054,5,0,0:0:0:0:
132,79,11131,1,0,0:0:0:0:
101,98,11208,1,0,0:0:0:0:
34,189,11285,6,0,P|102:218|176:223,1,150.000005722046
251,212,11515,5,0,0:0:0:0:
276,190,11592,1,0,0:0:0:0:
301,162,11669,1,0,0:0:0:0:
351,61,11746,6,0,P|412:103|455:163,1,150.000005722046
478,236,11977,5,0,0:0:0:0:
466,267,12054,1,0,0:0:0:0:
458,304,12131,1,0,0:0:0:0:
355,350,12208,6,0,P|280:355|211:384,1,150.000005722046
150,341,12438,5,0,0:0:0:0:
120,327,12515,1,0,0:0:0:0:
89,305,12592,1,0,0:0:0:0:
64,195,12669,6,0,P|83:122|124:60,1,150.000005722046
196,34,12900,5,0,0:0:0:0:
210,64,12977,1,0,0:0:0:0:
232,95,13054,1,0,0:0:0:0:
339,127,13131,6,0,P|349:200|334:274,1,150.000005722046
260,282,13361,5,0,0:0:0:0:
227,264,13438,1,0,0:0:0:0:
201,243,13515,1,0,0:0:0:0:
135,151,13592,6,0,P|69:187|19:242,1,150.000005722046
32,317,13823,5,0,0:0:0:0:
69,326,13900,1,0,0:0:0:0:
102,328,13977,1,0,0:0:0:0:
211,353,14054,6,0,P|282:373|357:369,1,150.000005722046
425,336,14285,5,0,0:0:0:0:
424,299,14361,1,0,0:0:0:0:
417,266,14438,1,0,0:0:0:0:
330,196,14515,6,0,P|258:216|183:212,1,150.000005722046
119,171,14746,5,0,0:0:0:0:
120,134,14823,1,0,0:0:0:0:
127,101,14900,1,0,0:0:0:0:
219,36,14977,6,0,P|290:15|365:19,1,150.000005722046
434,49,15208,1,0,0:0:0:0:
438,240,15438,5,0,0:0:0:0:
339,76,15553,1,0,0:0:0:0:
343,267,15785,5,0,0:0:0:0:
244,103,15900,1,0,0:0:0:0:
248,294,16131,5,0,0:0:0:0:
248,294,16246,1,0,0:0:0:0:
63,59,16708,5,0,0:0:0:0:
138,149,16823,1,0,0:0:0:0:
63,240,16938,1,0,0:0:0:0:
138,330,17054,2,0,P|215:337|328:319,2,179.999994506836
29,234,17746,5,0,0:0:0:0:
81,78,17861,1,0,0:0:0:0:
240,28,17977,2,0,B|270:0|299:25|336:55|390:16,1,134.999995880127
393,8,18208,1,0,0:0:0:0:
432,261,18438,6,0,L|334:274,1,89.9999972534181
202,290,18669,1,0,0:0:0:0:
94,127,18785,1,0,0:0:0:0:
112,305,18900,2,0,P|185:373|272:361,1,179.999994506836
419,331,19246,5,0,0:0:0:0:
443,298,19304,1,0,0:0:0:0:
457,260,19361,1,0,0:0:0:0:
455,88,19477,2,0,P|415:100|369:121,1,89.9999972534181
211,259,19823,6,0,B|152:231|152:231|31:229,1,179.999994506836
130,312,20285,2,0,P|174:341|231:353,1,89.9999972534181
355,270,20515,1,0,0:0:0:0:
298,27,20746,6,0,B|275:52|275:52|274:164,1,112.500004291535
277,280,20977,1,0,0:0:0:0:
158,70,21208,6,0,B|141:65|141:65|54:79,1,104.999996795654
378,107,21438,2,0,B|394:111|394:111|481:97,1,104.999996795654
420,21,21669,2,0,P|309:50|292:159,1,209.999993591309
360,191,21958,2,0,B|336:226|336:226|281:197|189:226,1,157.499995193482
33,95,22361,6,0,B|36:207|36:207|87:277,1,157.499995193482
144,314,22592,2,0,P|223:303|277:315,1,104.999996795654
376,358,22823,2,0,P|427:323|453:239,1,104.999996795654
341,164,23054,2,0,B|269:164|269:164|205:123,1,104.999996795654
182,29,23285,1,0,0:0:0:0:
182,29,23400,2,0,B|233:5|233:5|310:7,1,104.999996795654
457,143,23746,6,0,P|399:225|395:298,1,157.499995193482
478,241,23977,2,0,B|430:206|430:206|287:204,1,157.499995193482
289,297,24208,2,0,B|194:338|194:338|221:302|215:261,1,157.499995193482
266,156,24438,5,0,0:0:0:0:
276,140,24496,1,0,0:0:0:0:
286,124,24554,1,0,0:0:0:0:
297,109,24611,1,0,0:0:0:0:
309,94,24669,1,0,0:0:0:0:
321,80,24727,1,0,0:0:0:0:
334,66,24785,1,0,0:0:0:0:
347,53,24842,1,0,0:0:0:0:
363,44,24900,5,0,0:0:0:0:
381,39,24958,1,0,0:0:0:0:
399,37,25015,1,0,0:0:0:0:
417,42,25073,1,0,0:0:0:0:
433,51,25131,1,0,0:0:0:0:
447,62,25188,1,0,0:0:0:0:
457,77,25246,1,0,0:0:0:0:
461,95,25304,1,0,0:0:0:0:
458,113,25361,5,0,0:0:0:0:
447,137,25419,1,0,0:0:0:0:
431,158,25477,1,0,0:0:0:0:
407,170,25535,1,0,0:0:0:0:
381,174,25592,1,0,0:0:0:0:
354,169,25650,1,0,0:0:0:0:
330,157,25708,1,0,0:0:0:0:
307,143,25765,1,0,0:0:0:0:
289,123,25823,5,0,0:0:0:0:
263,116,25881,1,0,0:0:0:0:
237,120,25938,1,0,0:0:0:0:
211,127,25996,1,0,0:0:0:0:
188,140,26054,1,0,0:0:0:0:
172,160,26111,1,0,0:0:0:0:
164,185,26169,1,0,0:0:0:0:
163,211,26227,1,0,0:0:0:0:
163,237,26285,5,0,0:0:0:0:
188,264,26342,1,0,0:0:0:0:
221,280,26400,1,0,0:0:0:0:
256,292,26458,1,0,0:0:0:0:
292,286,26515,1,0,0:0:0:0:
323,265,26573,1,0,0:0:0:0:
347,236,26631,1,0,0:0:0:0:
368,205,26688,1,0,0:0:0:0:
382,169,26746,5,0,0:0:0:0:
407,141,26804,1,0,0:0:0:0:
442,129,26861,1,0,0:0:0:0:
477,142,26919,1,0,0:0:0:0:
497,173,26977,1,0,0:0:0:0:
497,210,27035,1,0,0:0:0:0:
481,243,27092,1,0,0:0:0:0:
445,255,27150,1,0,0:0:0:0:
408,245,27208,5,0,0:0:0:0:
374,229,27265,1,0,0:0:0:0:
336,227,27323,1,0,0:0:0:0:
298,234,27381,1,0,0:0:0:0:
263,247,27438,1,0,0:0:0:0:
232,269,27496,1,0,0:0:0:0:
207,297,27554,1,0,0:0:0:0:
192,330,27611,1,0,0:0:0:0:
173,362,27669,5,0,0:0:0:0:
140,381,27727,1,0,0:0:0:0:
104,369,27785,1,0,0:0:0:0:
75,345,27842,1,0,0:0:0:0:
67,308,27900,1,0,0:0:0:0:
72,270,27958,1,0,0:0:0:0:
86,235,28015,1,0,0:0:0:0:
111,207,28073,1,0,0:0:0:0:
137,180,28131,5,0,0:0:0:0:
167,147,28188,1,0,0:0:0:0:
199,115,28246,1,0,0:0:0:0:
211,71,28304,1,0,0:0:0:0:
195,29,28361,1,0,0:0:0:0:
156,5,28419,1,0,0:0:0:0:
111,12,28477,1,0,0:0:0:0:
69,30,28535,1,0,0:0:0:0:
53,71,28592,5,0,0:0:0:0:
88,99,28650,1,0,0:0:0:0:
123,126,28708,1,0,0:0:0:0:
153,158,28765,1,0,0:0:0:0:
175,197,28823,1,0,0:0:0:0:
183,241,28881,1,0,0:0:0:0:
181,285,28938,1,0,0:0:0:0:
165,327,28996,1,0,0:0:0:0:
180,369,29054,5,0,0:0:0:0:
223,379,29111,1,0,0:0:0:0:
266,366,29169,1,0,0:0:0:0:
302,338,29227,1,0,0:0:0:0:
323,298,29285,1,0,0:0:0:0:
352,264,29342,1,0,0:0:0:0:
389,238,29400,1,0,0:0:0:0:
433,230,29458,1,0,0:0:0:0:
470,253,29515,5,0,0:0:0:0:
484,295,29573,1,0,0:0:0:0:
453,328,29631,1,0,0:0:0:0:
409,336,29688,1,0,0:0:0:0:
341,339,29746,6,0,L|212:340,1,112.500004291535
29,104,29977,2,0,L|158:105,1,112.500004291535
441,143,30208,2,0,P|461:88|452:21,1,112.500004291535
123,216,30438,2,0,P|104:270|113:338,1,112.500004291535
369,204,30669,1,0,0:0:0:0:
369,204,30785,2,0,B|408:233|408:233|501:231,1,112.500004291535
425,22,31131,6,0,B|412:72|412:72|425:131,1,112.500004291535
98,120,31361,2,0,B|110:170|110:170|97:229,1,112.500004291535
428,255,31592,2,0,B|415:305|415:305|428:364,1,112.500004291535
294,290,31823,5,0,0:0:0:0:
277,275,31900,1,0,0:0:0:0:
258,261,31977,1,0,0:0:0:0:
238,250,32054,1,0,0:0:0:0:
216,242,32131,1,0,0:0:0:0:
193,238,32208,1,0,0:0:0:0:
171,231,32285,5,0,0:0:0:0:
153,217,32361,1,0,0:0:0:0:
140,198,32438,1,0,0:0:0:0:
133,176,32515,1,0,0:0:0:0:
133,153,32592,1,0,0:0:0:0:
138,131,32669,1,0,0:0:0:0:
151,112,32746,5,0,0:0:0:0:
172,91,32823,1,0,0:0:0:0:
200,82,32900,1,0,0:0:0:0:
229,88,32977,1,0,0:0:0:0:
253,105,33054,1,0,0:0:0:0:
269,130,33131,1,0,0:0:0:0:
279,158,33208,5,0,0:0:0:0:
287,186,33285,1,0,0:0:0:0:
308,206,33361,1,0,0:0:0:0:
335,218,33438,1,0,0:0:0:0:
365,218,33515,1,0,0:0:0:0:
393,208,33592,1,0,0:0:0:0:
417,190,33669,5,0,0:0:0:0:
442,162,33746,1,0,0:0:0:0:
453,126,33823,1,0,0:0:0:0:
445,89,33900,1,0,0:0:0:0:
413,68,33977,1,0,0:0:0:0:
376,58,34054,1,0,0:0:0:0:
338,63,34131,5,0,0:0:0:0:
302,74,34208,1,0,0:0:0:0:
271,95,34285,1,0,0:0:0:0:
252,126,34361,1,0,0:0:0:0:
253,163,34438,1,0,0:0:0:0:
263,199,34515,1,0,0:0:0:0:
270,235,34592,5,0,0:0:0:0:
265,279,34669,1,0,0:0:0:0:
242,318,34746,1,0,0:0:0:0:
201,338,34823,1,0,0:0:0:0:
156,330,34900,1,0,0:0:0:0:
119,303,34977,1,0,0:0:0:0:
94,265,35054,5,0,0:0:0:0:
79,222,35131,1,0,0:0:0:0:
84,177,35198,1,0,0:0:0:0:
105,137,35285,1,0,0:0:0:0:
142,113,35361,1,0,0:0:0:0:
185,99,35438,1,0,0:0:0:0:
228,110,35515,5,0,0:0:0:0:
260,151,35592,1,0,0:0:0:0:
256,203,35669,1,0,0:0:0:0:
210,229,35746,1,0,0:0:0:0:
157,229,35823,1,0,0:0:0:0:
105,238,35900,1,0,0:0:0:0:
63,270,35977,5,0,0:0:0:0:
34,314,36054,1,0,0:0:0:0:
59,359,36131,1,0,0:0:0:0:
109,372,36208,1,0,0:0:0:0:
160,361,36285,1,0,0:0:0:0:
204,335,36361,1,0,0:0:0:0:
244,301,36438,5,0,0:0:0:0:
286,259,36515,1,0,0:0:0:0:
339,231,36592,1,0,0:0:0:0:
398,226,36669,1,0,0:0:0:0:
452,251,36746,1,0,0:0:0:0:
487,299,36823,1,0,0:0:0:0:
492,358,36900,5,0,0:0:0:0:
435,377,36977,1,0,0:0:0:0:
377,358,37054,1,0,0:0:0:0:
328,322,37131,1,0,0:0:0:0:
287,277,37208,1,0,0:0:0:0:
266,220,37285,1,0,0:0:0:0:
261,160,37361,5,0,0:0:0:0:
248,93,37438,1,0,0:0:0:0:
201,43,37515,1,0,0:0:0:0:
133,36,37592,1,0,0:0:0:0:
67,54,37669,1,0,0:0:0:0:
28,109,37746,1,0,0:0:0:0:
28,176,37823,5,0,0:0:0:0:
77,222,37900,1,0,0:0:0:0:
144,221,37977,1,0,0:0:0:0:
195,177,38054,1,0,0:0:0:0:
251,139,38131,1,0,0:0:0:0:
313,113,38208,1,0,0:0:0:0:
380,106,38285,5,0,0:0:0:0:
442,145,38361,1,0,0:0:0:0:
475,212,38438,1,0,0:0:0:0:
466,286,38515,1,0,0:0:0:0:
416,342,38592,1,0,0:0:0:0:
343,321,38669,1,0,0:0:0:0:
294,263,38746,5,0,0:0:0:0:
300,188,38823,1,0,0:0:0:0:
304,113,38900,1,0,0:0:0:0:
260,51,38977,1,0,0:0:0:0:
187,32,39054,1,0,0:0:0:0:
114,50,39131,1,0,0:0:0:0:
65,107,39208,5,0,0:0:0:0:
60,181,39285,1,0,0:0:0:0:
107,238,39361,1,0,0:0:0:0:
176,265,39438,5,0,0:0:0:0:
250,257,39515,1,0,0:0:0:0:
302,203,39592,1,0,0:0:0:0:
328,132,39669,5,0,0:0:0:0:
364,66,39746,1,0,0:0:0:0:
438,54,39823,1,0,0:0:0:0:
499,96,39900,5,0,0:0:0:0:
505,170,39977,1,0,0:0:0:0:
455,226,40054,1,0,0:0:0:0:
381,209,40131,5,0,0:0:0:0:
307,225,40208,1,0,0:0:0:0:
270,290,40285,1,0,0:0:0:0:
292,360,40361,5,0,0:0:0:0:
365,373,40438,1,0,0:0:0:0:
436,350,40515,1,0,0:0:0:0:
469,282,40592,5,0,0:0:0:0:
436,214,40669,1,0,0:0:0:0:
387,156,40746,1,0,0:0:0:0:
313,168,40823,5,0,0:0:0:0:
245,201,40900,1,0,0:0:0:0:
170,197,40977,1,0,0:0:0:0:
108,154,41054,5,0,0:0:0:0:
80,84,41131,1,0,0:0:0:0:
114,17,41208,1,0,0:0:0:0:
188,10,41285,5,0,0:0:0:0:
247,54,41361,1,0,0:0:0:0:
309,95,41438,1,0,0:0:0:0:
383,101,41515,5,0,0:0:0:0:
443,56,41592,1,0,0:0:0:0:
499,6,41669,1,0,0:0:0:0:
508,80,41746,5,0,0:0:0:0:
486,152,41823,1,0,0:0:0:0:
416,181,41900,1,0,0:0:0:0:
343,201,41977,5,0,0:0:0:0:
273,229,42054,1,0,0:0:0:0:
217,279,42131,1,0,0:0:0:0:
172,339,42208,5,0,0:0:0:0:
99,359,42285,1,0,0:0:0:0:
37,318,42361,1,0,0:0:0:0:
40,243,42438,5,0,0:0:0:0:
101,199,42515,1,0,0:0:0:0:
174,216,42592,1,0,0:0:0:0:
248,227,42669,5,0,0:0:0:0:
305,179,42746,1,0,0:0:0:0:
299,104,42823,1,0,0:0:0:0:
231,70,42900,5,0,0:0:0:0:
169,112,42977,1,0,0:0:0:0:
173,186,43054,1,0,0:0:0:0:
187,259,43131,5,0,0:0:0:0:
255,290,43208,1,0,0:0:0:0:
315,334,43285,1,0,0:0:0:0:
389,337,43361,5,0,0:0:0:0:
457,305,43438,1,0,0:0:0:0:
489,237,43515,1,0,0:0:0:0:
453,171,43592,5,0,0:0:0:0:
387,133,43669,1,0,0:0:0:0:
312,129,43746,1,0,0:0:0:0:
247,90,43823,5,0,0:0:0:0:
293,31,43900,1,0,0:0:0:0:
367,24,43977,1,0,0:0:0:0:
437,49,44054,5,0,0:0:0:0:
481,109,44131,1,0,0:0:0:0:
452,178,44208,1,0,0:0:0:0:
383,208,44285,5,0,0:0:0:0:
310,190,44361,1,0,0:0:0:0:
235,202,44438,1,0,0:0:0:0:
173,245,44515,5,0,0:0:0:0:
98,257,44592,1,0,0:0:0:0:
31,222,44669,1,0,0:0:0:0:
15,148,44746,5,0,0:0:0:0:
57,85,44823,1,0,0:0:0:0:
131,91,44900,1,0,0:0:0:0:
196,107,44977,5,0,0:0:0:0:
262,93,45054,1,0,0:0:0:0:
320,58,45131,1,0,0:0:0:0:
374,33,45208,5,0,0:0:0:0:
431,49,45285,1,0,0:0:0:0:
459,101,45361,1,0,0:0:0:0:
454,153,45438,5,0,0:0:0:0:
413,186,45515,1,0,0:0:0:0:
361,182,45592,1,0,0:0:0:0:
365,137,45669,5,0,0:0:0:0:
392,163,45785,2,0,L|439:269,1,93.75
375,184,45900,2,0,L|422:290,1,93.75
357,205,46015,2,0,L|404:311,1,93.75
340,227,46131,2,0,L|387:333,1,93.75
322,248,46246,2,0,L|369:354,1,93.75
305,270,46361,2,0,L|352:376,1,93.75
283,289,46477,2,0,L|330:395,1,93.75
237,298,46579,6,0,L|238:218,1,75
315,42,47040,2,0,L|315:130,1,75
159,226,47502,2,0,L|72:227,1,75
395,118,47963,2,0,L|469:118,1,75
237,298,48425,6,0,L|238:212,1,82.5000025177003
315,42,48869,2,0,L|315:130,1,82.5000025177003
159,226,49313,2,0,L|72:227,1,82.5000025177003
395,118,49758,2,0,L|478:118,1,82.5000025177003
237,298,50202,6,0,L|238:194,1,89.9999972534181
315,42,50630,2,0,L|315:133,1,89.9999972534181
159,226,51059,2,0,L|66:227,1,89.9999972534181
395,118,51487,2,0,L|492:119,1,89.9999972534181
237,298,51916,6,0,L|238:187,1,97.4999955368044
315,42,52329,2,0,L|315:139,1,97.4999955368044
159,226,52743,2,0,P|106:235|58:227,1,97.4999955368044
395,118,53157,1,0,0:0:0:0:
426,110,53260,1,0,0:0:0:0:
458,109,53363,1,0,0:0:0:0:
490,115,53467,1,0,0:0:0:0:
436,218,53571,6,0,P|382:235|321:217,1,104.999996795654
76,166,53971,2,0,P|130:149|191:167,1,104.999996795654
282,372,54371,2,0,P|299:318|281:257,1,104.999996795654
230,12,54771,2,0,P|213:66|231:127,1,104.999996795654
436,218,55171,6,0,P|382:235|321:217,1,112.500004291535
76,166,55546,2,0,P|130:149|191:167,1,112.500004291535
282,372,55921,2,0,P|299:318|281:257,1,112.500004291535
230,12,56296,2,0,P|213:66|231:127,1,112.500004291535
436,218,56671,6,0,P|382:235|321:217,1,120
76,166,57023,2,0,P|128:149|188:166,1,120
282,372,57376,2,0,P|299:318|281:257,1,120
230,12,57729,2,0,P|213:66|231:127,1,120
76,218,58082,6,0,B|130:235|130:235|191:217,1,120
436,166,58435,2,0,B|382:149|382:149|321:167,1,120
230,372,58788,2,0,B|213:318|213:318|231:257,1,120
243,229,59053,1,0,0:0:0:0:
231,186,59141,1,0,0:0:0:0:
218,143,59229,1,0,0:0:0:0:
230,100,59318,1,0,0:0:0:0:
242,57,59406,1,0,0:0:0:0:
230,14,59494,6,0,L|98:16,1,127.50000243187
307,113,59836,2,0,L|439:115,1,127.50000243187
230,212,60179,2,0,L|98:214,1,127.50000243187
307,311,60522,2,0,L|439:313,1,127.50000243187
230,14,60865,6,0,L|88:16,1,134.999995880127
307,113,61208,2,0,L|445:115,1,134.999995880127
230,212,61551,2,0,L|90:214,1,134.999995880127
307,311,61808,1,0,0:0:0:0:
340,311,61894,1,0,0:0:0:0:
374,312,61979,1,0,0:0:0:0:
408,312,62065,1,0,0:0:0:0:
441,313,62151,1,0,0:0:0:0:
262,337,62236,6,0,B|240:306|240:306|93:307,1,142.49999619484
250,47,62579,2,0,B|272:78|272:78|419:77,1,142.49999619484
111,186,62922,2,0,B|142:208|142:208|141:355,1,142.49999619484
401,198,63265,2,0,B|370:176|370:176|371:29,1,142.49999619484
262,337,63608,6,0,B|240:306|240:306|93:307,1,150
250,47,63951,2,0,B|272:78|272:78|419:77,1,150
111,186,64294,2,0,B|142:208|141:355,1,150
401,198,64551,1,0,0:0:0:0:
382,165,64636,1,0,0:0:0:0:
375,129,64722,1,0,0:0:0:0:
372,91,64808,1,0,0:0:0:0:
371,54,64894,1,0,0:0:0:0:
277,71,64979,6,0,B|277:194|277:194|246:159,1,157.499995193482
75,320,65322,2,0,B|75:197|75:197|106:232,1,157.499995193482
301,285,65665,2,0,B|178:285|178:285|213:254,1,157.499995193482
52,83,66008,2,0,B|175:83|175:83|140:114,1,157.499995193482
277,71,66351,6,0,B|277:194|277:194|246:159,1,165.000005035401
75,320,66694,2,0,B|75:197|75:197|106:232,1,165.000005035401
301,285,67036,2,0,B|178:285|178:285|213:254,1,165.000005035401
52,83,67294,1,0,0:0:0:0:
93,83,67379,1,0,0:0:0:0:
134,83,67465,1,0,0:0:0:0:
174,83,67551,1,0,0:0:0:0:
143,110,67636,1,0,0:0:0:0:
259,131,67722,6,0,P|363:114|441:118,1,172.500003290176
105,169,68065,2,0,P|88:65|92:-13,1,172.500003290176
253,253,68408,2,0,P|149:270|71:266,1,172.500003290176
407,215,68751,2,0,P|424:319|420:397,1,172.500003290176
259,131,69094,5,0,0:0:0:0:
347,116,69179,1,0,0:0:0:0:
437,117,69265,1,0,0:0:0:0:
105,169,69435,1,0,0:0:0:0:
90,80,69522,1,0,0:0:0:0:
91,0,69608,1,0,0:0:0:0:
253,253,69779,1,0,0:0:0:0:
164,267,69865,1,0,0:0:0:0:
74,266,69951,1,0,0:0:0:0:
29,187,70036,1,0,0:0:0:0:
22,232,70122,1,0,0:0:0:0:
15,276,70208,1,0,0:0:0:0:
14,321,70294,1,0,0:0:0:0:
16,366,70379,1,0,0:0:0:0:
221,320,70465,6,0,B|204:186|204:186|230:218|271:223,1,187.5
289,234,70722,1,0,0:0:0:0:
336,234,70808,1,0,0:0:0:0:
381,222,70894,1,0,0:0:0:0:
418,194,70979,2,0,P|429:130|383:62,1,93.75
311,51,71151,6,0,L|309:172,1,93.75
201,333,71322,2,0,L|203:212,1,93.75
200,52,71494,2,0,B|83:31|30:106|30:106|87:94|108:151,1,281.25
101,189,71836,6,0,B|157:295|157:295|159:243|187:217,1,187.5
215,205,72094,1,0,0:0:0:0:
261,202,72179,1,0,0:0:0:0:
301,225,72265,1,0,0:0:0:0:
324,265,72351,2,0,P|324:310|294:363,1,93.75
399,329,72522,6,0,L|545:327,1,93.75
322,119,72694,2,0,L|176:121,1,93.75
148,361,72865,2,0,B|96:274|145:157|145:157|112:187|57:177,1,281.25
214,256,73208,6,0,B|280:275|280:275|397:246,1,187.5
430,215,73465,1,0,0:0:0:0:
457,176,73551,1,0,0:0:0:0:
449,130,73636,1,0,0:0:0:0:
421,91,73722,2,0,P|343:60|318:62,1,93.75
97,146,73894,6,0,L|43:58,1,93.75
299,256,74065,2,0,L|353:168,1,93.75
117,336,74236,2,0,B|85:226|85:226|168:313|268:316,1,281.25
202,197,74579,6,0,P|199:114|128:170,1,187.5
123,189,74836,1,0,0:0:0:0:
130,235,74922,1,0,0:0:0:0:
151,277,75008,1,0,0:0:0:0:
178,315,75094,2,0,P|146:344|83:352,1,93.75
48,205,75265,6,0,P|103:92|155:65,1,103.125000983477
334,127,75436,2,0,P|279:240|227:267,1,103.125000983477
157,24,75608,2,0,P|270:79|297:131,1,103.125000983477
235,310,75779,2,0,P|122:255|95:203,1,103.125000983477
194,154,75951,6,0,B|311:188|311:188|387:175,1,187.5
417,156,76208,1,0,0:0:0:0:
454,128,76294,1,0,0:0:0:0:
463,82,76379,1,0,0:0:0:0:
453,36,76465,2,0,P|405:25|308:35,1,93.75
93,20,76636,6,0,L|152:164,1,93.75
326,150,76808,2,0,L|267:294,1,93.75
137,337,76979,2,0,B|280:355|280:355|394:303|454:315,1,281.25
476,375,77322,6,0,P|482:258|442:177,1,187.5
416,168,77579,1,0,0:0:0:0:
369,158,77665,1,0,0:0:0:0:
322,161,77751,1,0,0:0:0:0:
277,175,77836,2,0,P|206:181|159:143,1,93.75
57,24,78008,6,0,L|191:65,1,93.75
455,24,78179,2,0,L|321:65,1,93.75
119,152,78351,2,0,B|175:270|67:270|67:270|98:353|160:366,1,281.25
205,297,78694,6,0,P|296:296|260:362,1,187.5
319,370,78951,1,0,0:0:0:0:
365,375,79036,1,0,0:0:0:0:
408,357,79122,1,0,0:0:0:0:
443,326,79208,2,0,P|475:282|487:222,1,93.75
408,44,79379,6,0,B|371:77|371:77|312:38,1,93.75
38,155,79551,2,0,B|75:188|75:188|134:149,1,93.75
399,241,79722,2,0,B|362:274|362:274|307:191|221:316|133:247,1,281.25
208,163,80065,5,0,0:0:0:0:
263,153,80151,1,0,0:0:0:0:
318,147,80236,1,0,0:0:0:0:
374,141,80322,1,0,0:0:0:0:
486,127,80408,5,0,0:0:0:0:
468,180,80494,1,0,0:0:0:0:
451,233,80579,1,0,0:0:0:0:
433,286,80665,1,0,0:0:0:0:
347,358,80751,5,0,0:0:0:0:
297,384,80836,1,0,0:0:0:0:
240,382,80922,1,0,0:0:0:0:
188,358,81008,1,0,0:0:0:0:
156,250,81094,5,0,0:0:0:0:
130,200,81179,1,0,0:0:0:0:
85,165,81265,1,0,0:0:0:0:
29,155,81351,1,0,0:0:0:0:
72,279,81436,5,0,0:0:0:0:
113,300,81522,1,0,0:0:0:0:
158,309,81608,1,0,0:0:0:0:
204,301,81694,1,0,0:0:0:0:
244,278,81779,2,0,P|333:244|391:240,1,93.75
378,237,81951,5,0,0:0:0:0:
423,227,82036,1,0,0:0:0:0:
464,205,82122,2,0,P|483:157|481:96,1,93.75
468,70,82294,5,0,0:0:0:0:
428,45,82379,1,0,0:0:0:0:
381,41,82465,2,0,L|233:44,1,93.75
240,49,82636,5,0,0:0:0:0:
211,86,82722,1,0,0:0:0:0:
205,132,82808,2,0,L|282:211,1,93.75
316,222,82979,5,0,0:0:0:0:
351,191,83065,1,0,0:0:0:0:
361,145,83151,2,0,P|396:99|463:81,1,93.75
474,87,83322,5,0,0:0:0:0:
502,124,83408,1,0,0:0:0:0:
500,170,83494,2,0,P|457:264|447:277,1,93.75
427,287,83665,5,0,0:0:0:0:
376,327,83751,1,0,0:0:0:0:
308,343,83836,1,0,0:0:0:0:
244,324,83922,1,0,0:0:0:0:
191,284,84008,1,0,0:0:0:0:
167,222,84094,1,0,0:0:0:0:
148,159,84179,2,0,P|87:133|14:127,1,93.75
31,173,84351,5,0,0:0:0:0:
4,210,84436,1,0,0:0:0:0:
7,256,84522,2,0,P|32:299|84:325,1,93.75
116,315,84694,5,0,0:0:0:0:
156,291,84779,1,0,0:0:0:0:
201,280,84865,2,0,P|267:271|336:287,1,93.75
338,289,85036,5,0,0:0:0:0:
378,312,85122,1,0,0:0:0:0:
424,303,85208,1,0,0:0:0:0:
448,262,85294,1,0,0:0:0:0:
441,216,85379,1,0,0:0:0:0:
405,185,85465,1,0,0:0:0:0:
358,182,85551,2,0,P|308:192|242:186,1,93.75
223,169,85722,5,0,0:0:0:0:
187,138,85808,1,0,0:0:0:0:
142,121,85894,2,0,L|35:109,1,93.75
5,91,86065,5,0,0:0:0:0:
4,44,86151,1,0,0:0:0:0:
34,17,86236,2,0,P|86:41|166:42,1,93.75
169,47,86408,5,0,0:0:0:0:
234,46,86494,1,0,0:0:0:0:
298,38,86579,1,0,0:0:0:0:
361,55,86665,1,0,0:0:0:0:
417,89,86751,1,0,0:0:0:0:
454,141,86836,1,0,0:0:0:0:
464,205,86922,2,0,L|468:310,1,93.75
389,255,87094,2,0,L|393:360,1,93.75
314,315,87265,5,0,0:0:0:0:
272,336,87351,1,0,0:0:0:0:
228,351,87436,1,0,0:0:0:0:
181,345,87522,1,0,0:0:0:0:
138,325,87608,2,0,P|71:308|23:302,1,93.75
17,267,87779,5,0,0:0:0:0:
43,228,87865,1,0,0:0:0:0:
87,213,87951,2,0,P|141:218|209:237,1,93.75
226,231,88122,5,0,0:0:0:0:
268,250,88208,1,0,0:0:0:0:
294,288,88294,2,0,L|344:367,1,93.75
390,376,88465,5,0,0:0:0:0:
434,361,88551,1,0,0:0:0:0:
461,323,88636,2,0,P|480:280|471:202,1,93.75
461,190,88808,5,0,0:0:0:0:
415,177,88894,1,0,0:0:0:0:
369,185,88979,2,0,P|323:229|281:237,1,93.75
248,247,89151,5,0,0:0:0:0:
183,239,89236,1,0,0:0:0:0:
131,198,89322,1,0,0:0:0:0:
109,135,89408,1,0,0:0:0:0:
110,69,89494,1,0,0:0:0:0:
140,16,89579,1,0,0:0:0:0:
178,64,89665,2,0,P|228:149|293:179,1,93.75
266,161,89836,5,0,0:0:0:0:
313,161,89922,1,0,0:0:0:0:
349,169,90008,1,0,0:0:0:0:
382,186,90094,1,0,0:0:0:0:
398,208,90179,1,0,0:0:0:0:
405,235,90265,1,0,0:0:0:0:
401,253,90351,1,0,0:0:0:0:
394,270,90436,5,0,0:0:0:0:
383,285,90522,1,0,0:0:0:0:
368,296,90608,1,0,0:0:0:0:
351,304,90694,1,0,0:0:0:0:
333,309,90779,1,0,0:0:0:0:
314,310,90865,1,0,0:0:0:0:
295,309,90951,1,0,0:0:0:0:
239,249,91036,5,0,0:0:0:0:
222,239,91122,1,0,0:0:0:0:
205,230,91208,1,0,0:0:0:0:
186,224,91294,1,0,0:0:0:0:
167,222,91379,2,0,P|118:219|68:224,1,93.75
247,338,91551,5,0,0:0:0:0:
263,346,91636,2,0,L|355:387,1,93.75
371,159,91808,5,0,0:0:0:0:
370,140,91894,2,0,L|365:25,1,93.75
97,22,92065,5,0,0:0:0:0:
85,36,92151,1,0,0:0:0:0:
75,51,92236,2,0,L|-15:169,1,93.75
256,192,92408,12,0,93951,0:0:0:0:
106,154,94122,5,0,0:0:0:0:
112,160,94208,1,0,0:0:0:0:
118,166,94294,1,0,0:0:0:0:
124,172,94379,1,0,0:0:0:0:
130,178,94465,1,0,0:0:0:0:
136,184,94551,1,0,0:0:0:0:
142,190,94636,1,0,0:0:0:0:
148,196,94722,1,0,0:0:0:0:
154,202,94808,1,0,0:0:0:0:
160,208,94894,1,0,0:0:0:0:
164,216,94975,6,0,P|188:234|245:230,1,75
368,185,95137,2,0,L|396:254,1,75
471,36,95299,2,0,P|410:46|354:101,1,75
124,84,95461,2,0,P|179:109|220:177,1,75
466,157,95623,2,0,P|410:203|384:292,1,150
91,336,95947,5,0,0:0:0:0:
91,336,96029,1,0,0:0:0:0:
88,291,96110,6,0,L|173:294,1,75
280,263,96272,2,0,L|280:163,1,75
451,209,96434,2,0,L|366:212,1,75
88,127,96596,2,0,L|173:130,1,75
451,45,96758,2,0,L|281:50,1,150
79,48,97083,5,0,0:0:0:0:
320,187,97245,1,0,0:0:0:0:
338,199,97326,1,0,0:0:0:0:
357,210,97407,5,0,0:0:0:0:
365,230,97488,1,0,0:0:0:0:
365,252,97569,2,0,B|345:271|345:271|288:260,1,75
182,124,97731,2,0,L|293:134,1,75
33,27,97893,2,0,B|14:47|14:47|25:103,1,75
122,275,98056,2,0,P|48:361|-39:386,1,150
88,158,98380,5,0,0:0:0:0:
352,283,98542,1,0,0:0:0:0:
370,270,98623,1,0,0:0:0:0:
387,255,98704,2,0,L|444:204,1,75
224,43,98866,2,0,P|221:89|238:135,1,75
248,189,99029,1,0,0:0:0:0:
265,261,99110,1,0,0:0:0:0:
239,331,99191,2,0,P|220:355|182:381,1,75
121,241,99353,5,0,0:0:0:0:
95,171,99434,1,0,0:0:0:0:
112,99,99515,2,0,P|139:61|180:31,1,75
320,52,99677,5,0,0:0:0:0:
387,85,99758,1,0,0:0:0:0:
402,158,99839,1,0,0:0:0:0:
353,342,100002,1,0,0:0:0:0:
225,146,100164,6,0,P|175:84|91:38,1,150
111,168,100407,2,0,L|56:231,1,75
204,337,100569,2,0,L|297:345,1,75
354,191,100731,2,0,P|437:153|550:170,1,150
445,243,100975,5,0,0:0:0:0:
275,49,101137,1,0,0:0:0:0:
275,49,101218,1,0,0:0:0:0:
237,46,101299,2,0,L|234:163,1,75
214,310,101461,2,0,L|139:232,1,75
119,66,101623,2,0,L|38:65,1,75
322,190,101785,2,0,L|397:268,1,75
494,72,101947,2,0,P|369:23|288:31,1,150
140,182,102272,5,0,0:0:0:0:
414,154,102434,1,0,0:0:0:0:
450,145,102515,1,0,0:0:0:0:
486,137,102596,2,0,P|491:195|484:237,1,75
294,360,102758,2,0,P|238:339|205:348,1,75
34,198,102920,2,0,B|17:149|17:149|39:88|39:88|21:14,1,150
102,143,103164,1,0,0:0:0:0:
102,143,103245,1,0,0:0:0:0:
317,302,103407,6,0,B|413:294|416:209,1,150
287,28,103731,2,0,B|191:36|188:121,1,150
191,343,104056,2,0,B|243:336|243:336|286:383|286:383|351:394|391:365|421:328|394:262,1,300
367,201,104461,5,0,0:0:0:0:
348,168,104542,1,0,0:0:0:0:
325,137,104623,2,0,L|268:70,1,75
63,129,104785,2,0,P|82:227|172:232,1,150
144,157,105029,2,0,L|225:129,1,75
394,72,105191,5,0,0:0:0:0:
394,72,105272,1,0,0:0:0:0:
417,100,105353,5,0,0:0:0:0:
434,132,105434,1,0,0:0:0:0:
438,169,105515,6,0,L|435:261,1,75
239,346,105677,2,0,L|331:349,1,75
103,226,105839,2,0,L|11:229,1,75
278,129,106002,2,0,L|352:126,1,75
52,32,106164,6,0,L|54:106,1,75
166,356,106326,2,0,L|163:281,1,75
244,35,106488,2,0,L|318:32,1,75
444,164,106650,5,0,0:0:0:0:
444,164,106731,1,0,0:0:0:0:
444,201,106812,2,0,L|446:245,1,37.5
382,327,106893,2,0,L|434:330,1,37.5
296,222,106974,1,0,0:0:0:0:
296,222,107056,6,0,L|212:174,1,75
125,318,107218,1,0,0:0:0:0:
125,318,107299,2,0,L|208:365,1,75
23,187,107461,2,0,L|20:99,1,75
174,27,107623,2,0,L|262:24,1,75
451,134,107785,2,0,L|363:131,1,75
229,248,107947,5,0,0:0:0:0:
229,248,108029,1,0,0:0:0:0:
147,109,108110,2,0,L|63:108,1,75
305,183,108272,2,0,L|389:184,1,75
122,227,108434,2,0,L|121:301,1,75
273,79,108596,2,0,L|273:4,1,75
433,105,108758,6,0,L|508:105,1,75
241,242,108920,2,0,L|241:331,1,75
153,58,109083,2,0,L|78:58,1,75
348,179,109245,6,0,L|433:180,1,75
159,181,109407,1,0,0:0:0:0:
159,181,109488,1,0,0:0:0:0:
102,200,109569,5,0,0:0:0:0:
58,241,109650,1,0,0:0:0:0:
51,300,109731,1,0,0:0:0:0:
75,354,109812,1,0,0:0:0:0:
129,379,109893,1,0,0:0:0:0:
187,364,109974,1,0,0:0:0:0:
280,290,110056,6,0,L|281:181,1,75
287,79,110218,1,0,0:0:0:0:
287,79,110299,1,0,0:0:0:0:
287,79,110380,1,0,0:0:0:0:
287,79,110461,1,0,0:0:0:0:
342,70,110542,5,0,0:0:0:0:
342,70,110623,1,0,0:0:0:0:
342,70,110704,2,0,B|343:141|343:141|319:182,1,93.75
118,371,110866,2,0,B|189:372|189:372|230:348,1,93.75
479,237,111029,2,0,B|408:238|408:238|367:214,1,93.75
189,109,111191,2,0,B|118:108|118:108|77:132,1,93.75
157,297,111353,6,0,L|158:201,1,93.75
404,133,111515,2,0,L|497:132,1,93.75
297,291,111677,2,0,L|296:384,1,93.75
298,118,111839,6,0,P|271:84|218:70,1,93.75
214,153,112002,1,0,0:0:0:0:
214,153,112083,1,0,0:0:0:0:
141,291,112164,2,0,L|129:279|60:278,1,46.875
141,291,112245,2,0,L|72:290,1,46.875
141,291,112326,1,0,0:0:0:0:
232,335,112407,1,0,0:0:0:0:
388,283,112488,6,0,B|409:244|392:221|392:221|373:191|400:156|400:156|414:124|384:74,1,187.5
315,39,112731,2,0,P|262:140|201:35,1,281.25
257,72,113137,5,0,0:0:0:0:
259,99,113218,1,0,0:0:0:0:
261,126,113299,1,0,0:0:0:0:
263,153,113380,1,0,0:0:0:0:
259,180,113461,5,0,0:0:0:0:
233,169,113542,1,0,0:0:0:0:
207,158,113623,1,0,0:0:0:0:
181,147,113704,1,0,0:0:0:0:
155,135,113785,5,0,0:0:0:0:
158,162,113866,1,0,0:0:0:0:
162,189,113947,1,0,0:0:0:0:
166,217,114029,1,0,0:0:0:0:
170,244,114110,5,0,0:0:0:0:
197,236,114191,1,0,0:0:0:0:
224,228,114272,1,0,0:0:0:0:
251,221,114353,1,0,0:0:0:0:
278,215,114434,6,0,P|372:217|482:262,1,187.5
418,102,114677,2,0,B|347:46|280:55|280:55|313:86|313:119,1,187.5
188,91,114920,2,0,P|135:115|77:112,1,75
37,46,115083,2,0,P|18:120|33:192,1,112.500004291535
78,226,115326,2,0,B|128:249|128:249|170:241,1,75
213,197,115569,2,0,P|232:189|253:191,1,37.5
370,70,116380,5,0,0:0:0:0:
371,94,116488,1,0,0:0:0:0:
371,118,116596,1,0,0:0:0:0:
370,142,116704,1,0,0:0:0:0:
369,166,116812,1,0,0:0:0:0:
368,190,116920,1,0,0:0:0:0:
367,214,117028,5,0,0:0:0:0:
323,188,117137,1,0,0:0:0:0:
277,167,117245,1,0,0:0:0:0:
229,152,117353,1,0,0:0:0:0:
179,159,117461,1,0,0:0:0:0:
133,179,117569,1,0,0:0:0:0:
118,226,117677,5,0,0:0:0:0:
123,275,117785,1,0,0:0:0:0:
144,320,117893,1,0,0:0:0:0:
185,349,118002,1,0,0:0:0:0:
234,357,118110,1,0,0:0:0:0:
281,340,118218,1,0,0:0:0:0:
301,294,118326,5,0,0:0:0:0:
261,263,118434,1,0,0:0:0:0:
211,259,118542,1,0,0:0:0:0:
162,272,118650,1,0,0:0:0:0:
121,301,118758,1,0,0:0:0:0:
90,340,118866,1,0,0:0:0:0:
66,383,118974,5,0,0:0:0:0:
64,332,119083,1,0,0:0:0:0:
63,282,119191,1,0,0:0:0:0:
62,232,119299,2,0,L|64:192,1,25
195,152,119623,5,0,0:0:0:0:
220,194,119731,1,0,0:0:0:0:
263,218,119839,1,0,0:0:0:0:
312,223,119947,1,0,0:0:0:0:
362,220,120056,1,0,0:0:0:0:
408,201,120164,1,0,0:0:0:0:
440,162,120272,5,0,0:0:0:0:
457,112,120380,1,0,0:0:0:0:
450,57,120488,1,0,0:0:0:0:
400,28,120596,1,0,0:0:0:0:
340,28,120704,1,0,0:0:0:0:
299,75,120812,1,0,0:0:0:0:
292,137,120920,5,0,0:0:0:0:
276,195,121029,1,0,0:0:0:0:
226,224,121137,1,0,0:0:0:0:
172,211,121245,1,0,0:0:0:0:
133,175,121353,1,0,0:0:0:0:
127,125,121461,1,0,0:0:0:0:
138,76,121569,5,0,0:0:0:0:
182,97,121677,1,0,0:0:0:0:
218,135,121785,1,0,0:0:0:0:
232,185,121893,1,0,0:0:0:0:
226,240,122002,1,0,0:0:0:0:
204,290,122110,1,0,0:0:0:0:
147,299,122218,5,0,0:0:0:0:
91,285,122326,1,0,0:0:0:0:
57,235,122434,1,0,0:0:0:0:
63,175,122542,1,0,0:0:0:0:
104,128,122650,1,0,0:0:0:0:
166,123,122758,1,0,0:0:0:0:
212,167,122866,5,0,0:0:0:0:
264,204,122974,1,0,0:0:0:0:
331,213,123083,1,0,0:0:0:0:
391,183,123191,2,0,L|422:148,1,25
313,64,123515,5,0,0:0:0:0:
310,128,123623,1,0,0:0:0:0:
293,190,123731,1,0,0:0:0:0:
250,239,123839,1,0,0:0:0:0:
187,254,123947,1,0,0:0:0:0:
125,230,124056,1,0,0:0:0:0:
104,168,124164,5,0,0:0:0:0:
135,111,124272,1,0,0:0:0:0:
197,94,124380,1,0,0:0:0:0:
257,117,124488,1,0,0:0:0:0:
296,168,124596,1,0,0:0:0:0:
291,232,124704,1,0,0:0:0:0:
259,294,124812,5,0,0:0:0:0:
282,359,124920,1,0,0:0:0:0:
348,381,125029,1,0,0:0:0:0:
416,369,125137,1,0,0:0:0:0:
454,310,125245,1,0,0:0:0:0:
435,242,125353,1,0,0:0:0:0:
377,194,125461,5,0,0:0:0:0:
310,159,125569,1,0,0:0:0:0:
236,143,125677,1,0,0:0:0:0:
161,152,125785,2,0,L|100:178,1,50
62,218,126002,5,0,0:0:0:0:
54,287,126110,1,0,0:0:0:0:
99,332,126218,1,0,0:0:0:0:
162,343,126326,1,0,0:0:0:0:
214,314,126434,1,0,0:0:0:0:
238,259,126542,1,0,0:0:0:0:
253,206,126650,5,0,0:0:0:0:
285,161,126758,1,0,0:0:0:0:
329,138,126866,1,0,0:0:0:0:
378,144,126974,1,0,0:0:0:0:
413,171,127083,1,0,0:0:0:0:
436,209,127191,1,0,0:0:0:0:
436,253,127299,1,0,0:0:0:0:
378,342,127407,5,0,0:0:0:0:
342,354,127488,1,0,0:0:0:0:
304,351,127569,1,0,0:0:0:0:
268,339,127650,1,0,0:0:0:0:
235,307,127731,1,0,0:0:0:0:
214,267,127812,1,0,0:0:0:0:
210,222,127893,1,0,0:0:0:0:
214,177,127974,1,0,0:0:0:0:
234,127,128056,5,0,0:0:0:0:
270,89,128137,1,0,0:0:0:0:
321,78,128218,1,0,0:0:0:0:
371,92,128299,1,0,0:0:0:0:
405,131,128380,1,0,0:0:0:0:
406,183,128461,1,0,0:0:0:0:
379,228,128542,1,0,0:0:0:0:
328,241,128623,1,0,0:0:0:0:
284,229,128704,5,0,0:0:0:0:
248,201,128785,1,0,0:0:0:0:
212,173,128866,1,0,0:0:0:0:
168,162,128947,1,0,0:0:0:0:
123,171,129029,1,0,0:0:0:0:
89,200,129110,1,0,0:0:0:0:
64,237,129191,1,0,0:0:0:0:
59,281,129272,1,0,0:0:0:0:
88,314,129353,5,0,0:0:0:0:
131,326,129434,1,0,0:0:0:0:
175,318,129515,1,0,0:0:0:0:
212,293,129596,1,0,0:0:0:0:
262,279,129677,1,0,0:0:0:0:
313,289,129758,1,0,0:0:0:0:
357,317,129839,1,0,0:0:0:0:
391,356,129920,1,0,0:0:0:0:
439,377,130002,6,0,L|490:382,1,37.5
334,176,130164,2,0,L|283:181,1,37.5
124,347,130326,2,0,L|161:350,1,37.5
87,337,130488,5,0,0:0:0:0:
58,313,130569,1,0,0:0:0:0:
53,268,130650,1,0,0:0:0:0:
70,226,130731,1,0,0:0:0:0:
119,208,130812,1,0,0:0:0:0:
170,216,130893,1,0,0:0:0:0:
225,238,130974,2,0,L|281:277,1,37.5
116,77,131137,2,0,L|60:38,1,37.5
317,60,131299,5,0,0:0:0:0:
371,93,131380,1,0,0:0:0:0:
411,142,131461,1,0,0:0:0:0:
427,203,131542,1,0,0:0:0:0:
312,318,131623,5,0,0:0:0:0:
248,319,131704,1,0,0:0:0:0:
184,320,131785,1,0,0:0:0:0:
120,322,131866,1,0,0:0:0:0:
154,277,131947,5,0,0:0:0:0:
201,267,132028,1,0,0:0:0:0:
244,244,132109,1,0,0:0:0:0:
285,219,132190,1,0,0:0:0:0:
315,180,132272,1,0,0:0:0:0:
328,133,132353,1,0,0:0:0:0:
323,84,132434,1,0,0:0:0:0:
303,39,132515,1,0,0:0:0:0:
227,125,132596,5,0,0:0:0:0:
225,173,132677,1,0,0:0:0:0:
240,219,132758,1,0,0:0:0:0:
272,255,132839,1,0,0:0:0:0:
317,272,132920,1,0,0:0:0:0:
366,275,133002,1,0,0:0:0:0:
412,260,133083,1,0,0:0:0:0:
445,225,133164,1,0,0:0:0:0:
449,176,133245,6,0,L|446:122,1,37.5
422,96,133407,1,0,0:0:0:0:
385,64,133488,2,0,L|382:26,1,37.5
344,90,133650,1,0,0:0:0:0:
297,104,133731,1,0,0:0:0:0:
248,100,133812,1,0,0:0:0:0:
202,83,133893,5,0,0:0:0:0:
156,66,133974,1,0,0:0:0:0:
107,72,134056,1,0,0:0:0:0:
70,104,134137,1,0,0:0:0:0:
56,150,134218,1,0,0:0:0:0:
64,197,134299,1,0,0:0:0:0:
91,237,134380,1,0,0:0:0:0:
138,247,134461,1,0,0:0:0:0:
182,227,134542,5,0,0:0:0:0:
228,212,134623,1,0,0:0:0:0:
276,211,134704,2,0,L|326:228,1,37.5
444,278,134866,2,0,L|499:241,1,37.5
307,342,135029,2,0,L|259:350,1,37.5
215,334,135191,5,0,0:0:0:0:
162,314,135272,1,0,0:0:0:0:
123,273,135353,1,0,0:0:0:0:
97,222,135434,1,0,0:0:0:0:
88,166,135515,1,0,0:0:0:0:
101,111,135596,1,0,0:0:0:0:
129,62,135677,1,0,0:0:0:0:
177,34,135758,1,0,0:0:0:0:
184,89,135839,5,0,0:0:0:0:
187,145,135920,1,0,0:0:0:0:
220,190,136002,1,0,0:0:0:0:
272,211,136083,1,0,0:0:0:0:
318,242,136164,1,0,0:0:0:0:
339,294,136245,1,0,0:0:0:0:
322,347,136326,1,0,0:0:0:0:
269,365,136407,1,0,0:0:0:0:
194,368,136488,6,0,L|102:365,1,75
384,299,136650,2,0,L|476:296,1,75
194,230,136812,2,0,L|102:227,1,75
384,161,136974,2,0,L|476:158,1,75
194,92,137137,6,0,L|108:89,2,75
217,121,137380,6,0,L|259:122,1,37.5
242,137,137461,2,0,L|284:138,1,37.5
267,153,137542,2,0,L|309:154,1,37.5
295,161,137623,2,0,L|337:162,1,37.5
320,177,137704,2,0,L|362:178,1,37.5
358,132,139740,6,0,L|289:132,1,37.5
330,152,139890,2,0,L|261:152,1,44.999998626709
295,175,140040,2,0,L|226:175,1,52.4999983978272
254,202,140190,2,0,L|185:202,1,60
210,227,140340,1,0,0:0:0:0:
210,227,140415,1,0,0:0:0:0:
210,227,140490,6,0,P|173:284|224:340,1,120
457,173,140790,2,0,B|482:155|482:155|484:22,1,120
265,58,141090,1,0,0:0:0:0:
163,100,141240,2,0,P|119:178|112:235,1,120
205,180,141540,5,0,0:0:0:0:
438,127,141690,2,0,B|445:147|434:169|434:169|416:189|367:207,1,120
110,292,141990,2,0,L|-3:340,1,120
305,294,142290,1,0,0:0:0:0:
478,129,142590,6,0,B|453:180|490:214|457:270,1,120
379,368,142890,1,0,0:0:0:0:
235,243,143040,1,0,0:0:0:0:
207,231,143115,1,0,0:0:0:0:
177,230,143190,2,0,P|147:235|112:239,2,60
399,191,143490,1,0,0:0:0:0:
224,85,143640,6,0,B|169:78|169:78|24:89,1,134.999995880127
368,117,143940,1,0,0:0:0:0:
223,282,144090,1,0,0:0:0:0:
368,117,144240,1,0,0:0:0:0:
213,150,144390,1,0,0:0:0:0:
175,154,144465,1,0,0:0:0:0:
138,161,144540,1,0,0:0:0:0:
100,166,144615,1,0,0:0:0:0:
62,171,144690,1,0,0:0:0:0:
62,171,144840,5,0,0:0:0:0:
159,309,144990,2,0,L|293:308,1,120
453,230,145290,1,0,0:0:0:0:
343,137,145440,1,0,0:0:0:0:
319,117,145515,1,0,0:0:0:0:
295,98,145590,2,0,P|218:62|163:65,1,120
216,151,145890,5,0,0:0:0:0:
330,266,146040,2,0,P|285:325|237:343,1,120
128,295,146340,1,0,0:0:0:0:
100,282,146415,1,0,0:0:0:0:
70,280,146490,2,0,L|69:151,1,120
166,68,146790,5,0,0:0:0:0:
232,247,146940,1,0,0:0:0:0:
232,247,147015,1,0,0:0:0:0:
249,271,147090,2,0,P|310:318|360:321,1,120
418,172,147390,6,0,L|423:89,1,60
447,127,147540,2,0,L|452:44,1,60
436,254,147690,1,0,0:0:0:0:
422,280,147765,1,0,0:0:0:0:
395,294,147840,1,0,0:0:0:0:
214,354,147990,2,0,L|370:370,2,120
54,262,148440,6,0,B|34:230|34:230|39:102,1,134.999995880127
34,6,148740,1,0,0:0:0:0:
194,204,148890,1,0,0:0:0:0:
211,221,148965,1,0,0:0:0:0:
229,237,149040,1,0,0:0:0:0:
249,251,149115,1,0,0:0:0:0:
271,263,149190,1,0,0:0:0:0:
294,271,149265,1,0,0:0:0:0:
318,276,149340,1,0,0:0:0:0:
342,278,149415,1,0,0:0:0:0:
367,276,149490,1,0,0:0:0:0:
390,269,149565,1,0,0:0:0:0:
411,256,149640,1,0,0:0:0:0:
428,238,149715,1,0,0:0:0:0:
447,210,149790,6,0,B|425:177|425:177|319:120,1,134.999995880127
138,149,150090,1,0,0:0:0:0:
366,45,150240,1,0,0:0:0:0:
249,175,150390,2,0,L|252:325,1,134.999995880127
168,28,150690,5,0,0:0:0:0:
168,28,150840,2,0,L|18:29,1,134.999995880127
324,137,151140,1,0,0:0:0:0:
165,202,151290,1,0,0:0:0:0:
324,271,151440,1,0,0:0:0:0:
324,271,151515,1,0,0:0:0:0:
324,271,151590,2,0,L|409:274,1,67.4999979400635
165,346,151740,2,0,L|91:347,1,67.4999979400635
322,384,151890,1,0,0:0:0:0:
216,136,152190,6,0,P|151:104|105:101,1,67.4999979400635
36,81,152340,1,0,0:0:0:0:
36,81,152490,1,0,0:0:0:0:
36,81,152640,2,0,B|51:126|51:126|49:244,1,134.999995880127
142,313,152940,2,0,P|195:307|289:331,1,134.999995880127
138,139,153240,6,0,L|-13:146,1,134.999995880127
318,136,153540,1,0,0:0:0:0:
351,134,153615,1,0,0:0:0:0:
384,133,153690,1,0,0:0:0:0:
185,240,153840,1,0,0:0:0:0:
152,238,153915,1,0,0:0:0:0:
119,237,153990,1,0,0:0:0:0:
119,237,154140,1,0,0:0:0:0:
356,245,154290,6,0,P|430:275|454:359,1,134.999995880127
272,358,154590,2,0,L|195:357,1,67.4999979400635
223,384,154740,2,0,L|146:383,1,67.4999979400635
32,249,154890,2,0,L|31:319,1,67.4999979400635
92,137,155040,1,0,0:0:0:0:
123,126,155115,1,0,0:0:0:0:
156,123,155190,1,0,0:0:0:0:
332,218,155340,2,0,P|317:275|320:309,2,67.4999979400635
394,57,155640,6,0,P|319:37|242:44,1,134.999995880127
77,91,155940,1,0,0:0:0:0:
319,115,156090,2,0,B|356:125|356:125|268:168,1,134.999995880127
79,247,156390,1,0,0:0:0:0:
59,274,156465,1,0,0:0:0:0:
44,304,156540,1,0,0:0:0:0:
228,311,156690,2,0,P|295:303|372:313,1,134.999995880127
466,182,156990,5,0,0:0:0:0:
464,215,157065,1,0,0:0:0:0:
457,248,157140,1,0,0:0:0:0:
302,382,157290,2,0,L|301:242,1,134.999995880127
285,58,157590,1,0,0:0:0:0:
285,58,157740,2,0,P|230:124|173:145,1,134.999995880127
25,301,158040,6,0,L|247:309,1,150
373,200,158340,1,0,0:0:0:0:
336,200,158415,1,0,0:0:0:0:
299,200,158490,1,0,0:0:0:0:
99,113,158640,1,0,0:0:0:0:
136,113,158715,1,0,0:0:0:0:
173,113,158790,1,0,0:0:0:0:
389,36,158940,5,0,0:0:0:0:
286,376,159090,1,0,0:0:0:0:
238,75,159240,1,0,0:0:0:0:
159,185,159390,6,0,L|160:217,1,18.75
161,328,159540,2,0,L|162:347,1,18.75
247,185,159690,2,0,L|248:217,1,18.75
249,328,159840,2,0,L|250:347,1,18.75
335,179,159990,6,0,L|367:180,1,22.4999993133545
338,17,160140,2,0,L|370:18,1,22.4999993133545
423,179,160290,2,0,L|455:180,1,22.4999993133545
426,17,160440,2,0,L|458:18,1,22.4999993133545
254,62,160590,6,0,L|214:62,1,26.2499991989136
228,91,160740,6,0,L|189:101,1,30
200,132,160890,6,0,L|165:151,1,33.7499989700318
188,182,161040,6,0,L|159:210,1,37.5
193,234,161190,6,0,L|118:363,1,123.75000377655
111,377,161490,2,0,L|67:377,1,41.2500012588501
238,375,161640,2,0,L|282:375,1,41.2500012588501
380,310,161790,5,0,0:0:0:0:
380,291,161865,1,0,0:0:0:0:
379,262,161940,1,0,0:0:0:0:
379,233,162015,1,0,0:0:0:0:
377,195,162090,1,0,0:0:0:0:
374,157,162165,1,0,0:0:0:0:
368,110,162240,1,0,0:0:0:0:
344,69,162315,1,0,0:0:0:0:
293,44,162390,5,0,0:0:0:0:
240,24,162465,1,0,0:0:0:0:
174,15,162540,1,0,0:0:0:0:
108,21,162615,1,0,0:0:0:0:
51,70,162690,1,0,0:0:0:0:
39,144,162765,1,0,0:0:0:0:
73,220,162840,1,0,0:0:0:0:
137,273,162915,1,0,0:0:0:0:
228,293,162990,5,0,0:0:0:0:
316,49,163140,1,0,0:0:0:0:
363,266,163290,2,0,B|385:320|385:320|449:204,1,187.5
418,99,163590,5,0,0:0:0:0:
391,107,163665,1,0,0:0:0:0:
364,115,163740,1,0,0:0:0:0:
336,118,163815,1,0,0:0:0:0:
307,118,163890,1,0,0:0:0:0:
279,115,163965,1,0,0:0:0:0:
251,109,164040,1,0,0:0:0:0:
223,101,164115,1,0,0:0:0:0:
148,61,164190,6,0,B|121:49|107:27|107:27|107:187,1,187.5
109,315,164490,1,0,0:0:0:0:
136,352,164565,1,0,0:0:0:0:
180,365,164640,2,0,P|228:366|276:347,1,93.75
351,273,164790,2,0,P|375:196|462:233,1,187.5
428,298,165090,5,0,0:0:0:0:
428,298,165240,2,0,L|374:113,1,187.5
230,39,165540,1,0,0:0:0:0:
229,228,165690,1,0,0:0:0:0:
186,207,165765,1,0,0:0:0:0:
144,184,165840,1,0,0:0:0:0:
54,68,165990,2,0,B|26:103|26:103|63:157|21:199|21:199|41:263,1,187.5
129,320,166290,6,0,P|233:300|341:323,1,206.250001966953
228,380,166515,1,0,0:0:0:0:
228,380,166590,2,0,L|227:167,1,206.250001966953
422,34,166890,6,0,B|430:105|430:105|396:165,1,103.125000983477
365,151,167040,1,0,0:0:0:0:
89,180,167190,1,0,0:0:0:0:
403,231,167340,1,0,0:0:0:0:
130,266,167490,6,0,L|55:273,1,75
167,262,167640,2,0,P|215:217|174:154,1,150
76,198,167940,5,0,0:0:0:0:
251,347,168090,2,0,B|301:345|314:304|314:304|362:330|401:293|401:293|441:291|474:308,1,225
351,238,168390,2,0,P|301:181|346:133,1,150
397,114,168690,1,0,0:0:0:0:
449,87,168765,1,0,0:0:0:0:
441,27,168840,1,0,0:0:0:0:
381,21,168915,1,0,0:0:0:0:
334,58,168990,6,0,P|228:48|151:30,1,150
69,10,169290,2,0,L|-12:24,1,75
83,97,169440,2,0,L|8:131,1,75
122,182,169590,2,0,B|165:181|165:181|175:231|256:221,1,150
417,193,169890,5,0,0:0:0:0:
401,251,169965,1,0,0:0:0:0:
368,301,170040,2,0,B|308:278|308:278|259:311|204:282|204:282|147:310,1,225
252,221,170340,1,0,0:0:0:0:
357,130,170490,6,0,L|357:25,1,75
389,105,170640,2,0,L|361:3,1,75
418,66,170790,2,0,P|466:139|449:233,1,150
385,330,171090,5,0,0:0:0:0:
325,327,171165,1,0,0:0:0:0:
265,329,171240,2,0,B|237:352|237:352|124:350,1,150
46,165,171540,2,0,P|2:273|10:314,1,150
84,249,171765,1,0,0:0:0:0:
143,247,171840,1,0,0:0:0:0:
311,270,171990,5,0,0:0:0:0:
459,147,172140,1,0,0:0:0:0:
297,29,172290,1,0,0:0:0:0:
297,29,172440,2,0,P|274:119|248:174,1,150
139,349,172740,5,0,0:0:0:0:
58,89,172890,1,0,0:0:0:0:
167,256,173040,1,0,0:0:0:0:
213,77,173190,2,0,P|302:58|219:130,1,253.125009655953
176,144,173490,2,0,B|32:253|32:253|129:279,1,253.125009655953
205,234,173790,5,0,0:0:0:0:
230,234,173865,1,0,0:0:0:0:
255,234,173940,1,0,0:0:0:0:
280,235,174015,1,0,0:0:0:0:
305,236,174090,1,0,0:0:0:0:
330,237,174165,1,0,0:0:0:0:
355,238,174240,1,0,0:0:0:0:
380,239,174315,1,0,0:0:0:0:
405,239,174390,5,0,0:0:0:0:
386,221,174465,1,0,0:0:0:0:
367,203,174540,1,0,0:0:0:0:
348,185,174615,1,0,0:0:0:0:
329,167,174690,1,0,0:0:0:0:
310,149,174765,1,0,0:0:0:0:
291,131,174840,1,0,0:0:0:0:
272,113,174915,1,0,0:0:0:0:
252,97,174990,5,0,0:0:0:0:
253,122,175065,1,0,0:0:0:0:
254,147,175140,1,0,0:0:0:0:
255,172,175215,1,0,0:0:0:0:
256,197,175290,1,0,0:0:0:0:
257,222,175365,1,0,0:0:0:0:
258,247,175440,1,0,0:0:0:0:
259,272,175515,1,0,0:0:0:0:
260,297,175590,5,0,0:0:0:0:
238,284,175665,1,0,0:0:0:0:
216,271,175740,1,0,0:0:0:0:
193,258,175815,1,0,0:0:0:0:
170,245,175890,1,0,0:0:0:0:
147,232,175965,1,0,0:0:0:0:
124,219,176040,1,0,0:0:0:0:
102,206,176115,1,0,0:0:0:0:
57,114,176190,5,0,0:0:0:0:
30,146,176265,1,0,0:0:0:0:
20,187,176340,1,0,0:0:0:0:
20,229,176415,1,0,0:0:0:0:
42,264,176490,1,0,0:0:0:0:
80,280,176565,1,0,0:0:0:0:
120,291,176640,1,0,0:0:0:0:
154,315,176715,1,0,0:0:0:0:
178,349,176790,5,0,0:0:0:0:
213,371,176865,1,0,0:0:0:0:
254,366,176940,1,0,0:0:0:0:
287,340,177015,1,0,0:0:0:0:
309,304,177090,1,0,0:0:0:0:
311,261,177165,1,0,0:0:0:0:
246,199,177240,5,0,0:0:0:0:
267,162,177315,1,0,0:0:0:0:
305,144,177390,1,0,0:0:0:0:
346,135,177465,1,0,0:0:0:0:
386,148,177540,1,0,0:0:0:0:
417,175,177615,1,0,0:0:0:0:
470,253,177690,5,0,0:0:0:0:
489,215,177765,1,0,0:0:0:0:
497,173,177840,1,0,0:0:0:0:
489,131,177915,1,0,0:0:0:0:
434,60,177990,5,0,0:0:0:0:
391,57,178065,1,0,0:0:0:0:
348,55,178140,1,0,0:0:0:0:
305,53,178215,1,0,0:0:0:0:
262,50,178290,1,0,0:0:0:0:
219,47,178365,1,0,0:0:0:0:
176,45,178440,1,0,0:0:0:0:
133,42,178515,1,0,0:0:0:0:
59,77,178590,5,0,0:0:0:0:
83,110,178665,1,0,0:0:0:0:
94,150,178740,1,0,0:0:0:0:
97,192,178815,1,0,0:0:0:0:
93,233,178890,1,0,0:0:0:0:
78,272,178965,1,0,0:0:0:0:
53,306,179040,1,0,0:0:0:0:
18,330,179115,1,0,0:0:0:0:
4,232,179190,5,0,0:0:0:0:
31,199,179265,1,0,0:0:0:0:
70,184,179340,1,0,0:0:0:0:
111,178,179415,1,0,0:0:0:0:
151,189,179490,1,0,0:0:0:0:
185,213,179565,1,0,0:0:0:0:
221,233,179640,1,0,0:0:0:0:
262,225,179715,1,0,0:0:0:0:
312,154,179790,5,0,0:0:0:0:
351,139,179865,1,0,0:0:0:0:
391,150,179940,1,0,0:0:0:0:
419,180,180015,1,0,0:0:0:0:
424,221,180090,1,0,0:0:0:0:
405,258,180165,1,0,0:0:0:0:
367,278,180240,1,0,0:0:0:0:
324,276,180315,1,0,0:0:0:0:
235,316,180390,5,0,0:0:0:0:
195,301,180465,1,0,0:0:0:0:
152,297,180540,1,0,0:0:0:0:
110,301,180615,1,0,0:0:0:0:
67,297,180690,1,0,0:0:0:0:
33,270,180765,1,0,0:0:0:0:
22,229,180840,1,0,0:0:0:0:
35,189,180915,1,0,0:0:0:0:
69,164,180990,5,0,0:0:0:0:
111,166,181065,1,0,0:0:0:0:
149,183,181140,1,0,0:0:0:0:
181,209,181215,1,0,0:0:0:0:
208,241,181290,1,0,0:0:0:0:
241,266,181365,1,0,0:0:0:0:
280,281,181440,1,0,0:0:0:0:
322,277,181515,1,0,0:0:0:0:
359,258,181590,5,0,0:0:0:0:
393,233,181665,1,0,0:0:0:0:
420,201,181740,1,0,0:0:0:0:
431,160,181815,1,0,0:0:0:0:
431,117,181890,1,0,0:0:0:0:
405,83,181965,1,0,0:0:0:0:
366,65,182040,6,0,B|294:57|252:72|208:119|208:119|277:112|296:172,1,253.125009655953
221,193,182340,1,0,0:0:0:0:
297,384,182490,1,0,0:0:0:0:
356,147,182640,1,0,0:0:0:0:
281,285,182790,6,0,L|173:284,1,75
240,303,182940,2,0,L|132:302,1,78.7499975967408
194,326,183090,2,0,L|86:325,1,82.5000025177003
146,350,183240,2,0,L|38:349,1,86.2500016450882
250,384,183390,5,0,0:0:0:0:
268,379,183465,1,0,0:0:0:0:
285,372,183540,1,0,0:0:0:0:
300,360,183615,1,0,0:0:0:0:
309,343,183690,1,0,0:0:0:0:
311,324,183765,1,0,0:0:0:0:
308,305,183840,1,0,0:0:0:0:
299,288,183915,1,0,0:0:0:0:
286,273,183990,5,0,0:0:0:0:
268,265,184065,1,0,0:0:0:0:
249,262,184140,1,0,0:0:0:0:
231,254,184215,1,0,0:0:0:0:
217,241,184290,1,0,0:0:0:0:
212,222,184365,1,0,0:0:0:0:
212,203,184440,1,0,0:0:0:0:
220,186,184515,1,0,0:0:0:0:
233,173,184590,5,0,0:0:0:0:
251,174,184665,1,0,0:0:0:0:
268,179,184740,1,0,0:0:0:0:
284,187,184815,1,0,0:0:0:0:
299,197,184890,1,0,0:0:0:0:
312,210,184965,1,0,0:0:0:0:
321,226,185040,1,0,0:0:0:0:
327,243,185115,1,0,0:0:0:0:
333,260,185190,5,0,0:0:0:0:
341,276,185265,1,0,0:0:0:0:
350,292,185340,1,0,0:0:0:0:
362,305,185415,1,0,0:0:0:0:
376,317,185490,1,0,0:0:0:0:
391,327,185565,1,0,0:0:0:0:
408,333,185640,1,0,0:0:0:0:
426,336,185715,1,0,0:0:0:0:
444,335,185790,5,0,0:0:0:0:
460,326,185865,1,0,0:0:0:0:
469,310,185940,1,0,0:0:0:0:
477,293,186015,1,0,0:0:0:0:
480,274,186090,1,0,0:0:0:0:
480,255,186165,1,0,0:0:0:0:
478,236,186240,1,0,0:0:0:0:
470,218,186315,1,0,0:0:0:0:
460,201,186390,5,0,0:0:0:0:
442,194,186465,1,0,0:0:0:0:
424,188,186540,1,0,0:0:0:0:
407,178,186615,1,0,0:0:0:0:
392,166,186690,1,0,0:0:0:0:
379,152,186765,1,0,0:0:0:0:
370,135,186840,1,0,0:0:0:0:
365,116,186915,1,0,0:0:0:0:
368,97,186990,5,0,0:0:0:0:
386,64,187065,1,0,0:0:0:0:
419,46,187140,1,0,0:0:0:0:
456,47,187215,1,0,0:0:0:0:
463,83,187290,5,0,0:0:0:0:
428,97,187365,1,0,0:0:0:0:
391,89,187440,1,0,0:0:0:0:
356,74,187515,1,0,0:0:0:0:
322,56,187590,5,0,0:0:0:0:
284,51,187665,1,0,0:0:0:0:
247,60,187740,1,0,0:0:0:0:
220,86,187815,1,0,0:0:0:0:
250,107,187890,5,0,0:0:0:0:
277,132,187965,1,0,0:0:0:0:
288,167,188040,1,0,0:0:0:0:
286,204,188115,1,0,0:0:0:0:
260,231,188190,5,0,0:0:0:0:
242,238,188265,1,0,0:0:0:0:
224,244,188340,1,0,0:0:0:0:
205,241,188415,1,0,0:0:0:0:
188,232,188490,1,0,0:0:0:0:
173,219,188565,1,0,0:0:0:0:
162,203,188640,1,0,0:0:0:0:
157,184,188715,1,0,0:0:0:0:
157,165,188790,5,0,0:0:0:0:
154,146,188865,1,0,0:0:0:0:
149,127,188940,1,0,0:0:0:0:
141,109,189015,1,0,0:0:0:0:
130,93,189090,1,0,0:0:0:0:
116,80,189165,1,0,0:0:0:0:
98,72,189240,1,0,0:0:0:0:
79,67,189315,1,0,0:0:0:0:
60,65,189390,5,0,0:0:0:0:
43,73,189465,1,0,0:0:0:0:
31,87,189540,1,0,0:0:0:0:
26,105,189615,1,0,0:0:0:0:
29,123,189690,1,0,0:0:0:0:
36,140,189765,1,0,0:0:0:0:
47,155,189840,1,0,0:0:0:0:
56,171,189915,1,0,0:0:0:0:
65,187,189990,5,0,0:0:0:0:
68,205,190065,1,0,0:0:0:0:
64,223,190140,1,0,0:0:0:0:
56,240,190215,1,0,0:0:0:0:
47,256,190290,1,0,0:0:0:0:
40,273,190365,1,0,0:0:0:0:
38,291,190440,1,0,0:0:0:0:
40,309,190515,1,0,0:0:0:0:
50,324,190590,5,0,0:0:0:0:
66,332,190665,1,0,0:0:0:0:
84,336,190740,1,0,0:0:0:0:
102,335,190815,1,0,0:0:0:0:
120,331,190890,1,0,0:0:0:0:
138,326,190965,1,0,0:0:0:0:
154,317,191040,1,0,0:0:0:0:
168,305,191115,1,0,0:0:0:0:
180,290,191190,5,0,0:0:0:0:
193,277,191265,1,0,0:0:0:0:
210,270,191340,1,0,0:0:0:0:
228,270,191415,1,0,0:0:0:0:
245,276,191490,1,0,0:0:0:0:
261,284,191565,1,0,0:0:0:0:
276,295,191640,1,0,0:0:0:0:
286,310,191715,1,0,0:0:0:0:
295,326,191790,5,0,0:0:0:0:
300,344,191865,1,0,0:0:0:0:
294,361,191940,1,0,0:0:0:0:
278,371,192015,1,0,0:0:0:0:
259,373,192090,1,0,0:0:0:0:
241,367,192165,1,0,0:0:0:0:
224,357,192240,1,0,0:0:0:0:
216,339,192315,1,0,0:0:0:0:
216,312,192390,5,0,0:0:0:0:
216,285,192465,1,0,0:0:0:0:
215,258,192540,1,0,0:0:0:0:
214,231,192615,1,0,0:0:0:0:
214,204,192690,1,0,0:0:0:0:
214,177,192765,1,0,0:0:0:0:
215,150,192840,1,0,0:0:0:0:
216,123,192915,1,0,0:0:0:0:
217,85,192990,5,0,0:0:0:0:
233,51,193065,1,0,0:0:0:0:
266,34,193140,1,0,0:0:0:0:
303,35,193215,1,0,0:0:0:0:
336,52,193290,1,0,0:0:0:0:
361,79,193365,1,0,0:0:0:0:
365,116,193440,1,0,0:0:0:0:
348,149,193515,1,0,0:0:0:0:
319,173,193590,5,0,0:0:0:0:
302,206,193665,1,0,0:0:0:0:
301,243,193740,1,0,0:0:0:0:
311,278,193815,1,0,0:0:0:0:
339,302,193890,1,0,0:0:0:0:
371,320,193965,1,0,0:0:0:0:
408,323,194040,1,0,0:0:0:0:
445,317,194115,1,0,0:0:0:0:
469,288,194190,5,0,0:0:0:0:
477,251,194265,1,0,0:0:0:0:
461,216,194340,1,0,0:0:0:0:
429,195,194415,1,0,0:0:0:0:
392,188,194490,1,0,0:0:0:0:
355,196,194565,1,0,0:0:0:0:
326,220,194640,1,0,0:0:0:0:
309,253,194715,1,0,0:0:0:0:
292,286,194790,5,0,0:0:0:0:
260,307,194865,1,0,0:0:0:0:
222,307,194940,1,0,0:0:0:0:
188,289,195015,1,0,0:0:0:0:
161,262,195090,1,0,0:0:0:0:
149,226,195165,1,0,0:0:0:0:
152,188,195240,1,0,0:0:0:0:
168,154,195315,1,0,0:0:0:0:
195,128,195390,5,0,0:0:0:0:
210,93,195465,1,0,0:0:0:0:
217,56,195540,1,0,0:0:0:0:
201,21,195615,1,0,0:0:0:0:
167,4,195690,1,0,0:0:0:0:
129,3,195765,1,0,0:0:0:0:
93,16,195840,1,0,0:0:0:0:
70,46,195915,1,0,0:0:0:0:
67,83,195990,5,0,0:0:0:0:
88,114,196065,1,0,0:0:0:0:
115,140,196140,1,0,0:0:0:0:
126,175,196215,1,0,0:0:0:0:
119,211,196290,1,0,0:0:0:0:
102,244,196365,1,0,0:0:0:0:
75,270,196440,1,0,0:0:0:0:
42,289,196515,1,0,0:0:0:0:
10,308,196590,5,0,0:0:0:0:
24,354,196665,1,0,0:0:0:0:
68,374,196740,1,0,0:0:0:0:
116,368,196815,1,0,0:0:0:0:
152,335,196890,5,0,0:0:0:0:
186,300,196965,1,0,0:0:0:0:
233,291,197040,1,0,0:0:0:0:
281,296,197115,1,0,0:0:0:0:
325,276,197190,5,0,0:0:0:0:
311,229,197265,1,0,0:0:0:0:
266,208,197340,1,0,0:0:0:0:
217,202,197415,1,0,0:0:0:0:
208,250,197490,5,0,0:0:0:0:
216,297,197565,1,0,0:0:0:0:
245,335,197640,1,0,0:0:0:0:
288,356,197715,1,0,0:0:0:0:
325,355,197790,5,0,0:0:0:0:
362,360,197865,1,0,0:0:0:0:
397,371,197940,1,0,0:0:0:0:
434,373,198015,1,0,0:0:0:0:
469,361,198090,1,0,0:0:0:0:
495,334,198165,1,0,0:0:0:0:
495,296,198240,1,0,0:0:0:0:
479,261,198315,1,0,0:0:0:0:
451,235,198390,5,0,0:0:0:0:
414,243,198465,1,0,0:0:0:0:
385,267,198540,1,0,0:0:0:0:
357,291,198615,1,0,0:0:0:0:
320,301,198690,1,0,0:0:0:0:
282,299,198765,1,0,0:0:0:0:
245,289,198840,1,0,0:0:0:0:
213,269,198915,1,0,0:0:0:0:
184,244,198990,5,0,0:0:0:0:
162,274,199065,1,0,0:0:0:0:
141,305,199140,1,0,0:0:0:0:
107,321,199215,1,0,0:0:0:0:
70,312,199290,1,0,0:0:0:0:
38,291,199365,1,0,0:0:0:0:
23,256,199440,1,0,0:0:0:0:
25,218,199515,1,0,0:0:0:0:
46,187,199590,5,0,0:0:0:0:
81,173,199665,1,0,0:0:0:0:
112,152,199740,1,0,0:0:0:0:
127,117,199815,1,0,0:0:0:0:
129,79,199890,1,0,0:0:0:0:
111,45,199965,1,0,0:0:0:0:
77,28,200040,1,0,0:0:0:0:
39,29,200115,1,0,0:0:0:0:
11,54,200190,5,0,0:0:0:0:
27,87,200265,1,0,0:0:0:0:
57,108,200340,1,0,0:0:0:0:
93,114,200415,1,0,0:0:0:0:
130,112,200490,1,0,0:0:0:0:
166,105,200565,1,0,0:0:0:0:
200,89,200640,1,0,0:0:0:0:
232,69,200715,1,0,0:0:0:0:
265,51,200790,5,0,0:0:0:0:
302,48,200865,1,0,0:0:0:0:
338,54,200940,1,0,0:0:0:0:
372,67,201015,1,0,0:0:0:0:
398,93,201090,1,0,0:0:0:0:
417,125,201165,1,0,0:0:0:0:
427,160,201240,1,0,0:0:0:0:
421,197,201315,1,0,0:0:0:0:
393,222,201390,5,0,0:0:0:0:
355,226,201465,1,0,0:0:0:0:
321,208,201540,1,0,0:0:0:0:
299,176,201615,1,0,0:0:0:0:
295,138,201690,1,0,0:0:0:0:
307,102,201765,1,0,0:0:0:0:
335,77,201840,1,0,0:0:0:0:
372,74,201915,1,0,0:0:0:0:
404,93,201990,5,0,0:0:0:0:
426,122,202065,1,0,0:0:0:0:
461,133,202140,1,0,0:0:0:0:
496,120,202215,1,0,0:0:0:0:
508,84,202290,1,0,0:0:0:0:
503,46,202365,1,0,0:0:0:0:
470,27,202440,1,0,0:0:0:0:
432,29,202515,1,0,0:0:0:0:
404,54,202590,5,0,0:0:0:0:
194,63,211590,5,0,0:0:0:0:
194,70,211665,1,0,0:0:0:0:
194,77,211740,1,0,0:0:0:0:
194,84,211815,1,0,0:0:0:0:
195,91,211890,1,0,0:0:0:0:
196,98,211965,1,0,0:0:0:0:
197,105,212040,1,0,0:0:0:0:
197,112,212115,1,0,0:0:0:0:
209,119,212190,5,0,0:0:0:0:
221,126,212265,1,0,0:0:0:0:
233,133,212340,1,0,0:0:0:0:
245,140,212415,1,0,0:0:0:0:
257,147,212490,1,0,0:0:0:0:
269,155,212565,1,0,0:0:0:0:
281,162,212640,1,0,0:0:0:0:
293,170,212715,1,0,0:0:0:0:
273,181,212790,5,0,0:0:0:0:
253,191,212865,1,0,0:0:0:0:
233,201,212940,1,0,0:0:0:0:
213,211,213015,1,0,0:0:0:0:
193,221,213090,1,0,0:0:0:0:
173,231,213165,1,0,0:0:0:0:
153,241,213240,1,0,0:0:0:0:
133,252,213315,1,0,0:0:0:0:
125,222,213390,5,0,0:0:0:0:
110,195,213465,1,0,0:0:0:0:
95,168,213540,1,0,0:0:0:0:
80,141,213615,1,0,0:0:0:0:
65,114,213690,1,0,0:0:0:0:
50,88,213765,1,0,0:0:0:0:
35,62,213840,1,0,0:0:0:0:
18,36,213915,1,0,0:0:0:0:
55,34,213990,5,0,0:0:0:0:
90,44,214065,1,0,0:0:0:0:
125,55,214140,1,0,0:0:0:0:
160,67,214215,1,0,0:0:0:0:
194,81,214290,1,0,0:0:0:0:
230,91,214365,1,0,0:0:0:0:
265,102,214440,1,0,0:0:0:0:
299,116,214515,1,0,0:0:0:0:
325,152,214590,5,0,0:0:0:0:
282,167,214665,1,0,0:0:0:0:
246,195,214740,1,0,0:0:0:0:
226,235,214815,1,0,0:0:0:0:
226,280,214890,1,0,0:0:0:0:
242,322,214965,1,0,0:0:0:0:
277,349,215040,1,0,0:0:0:0:
320,360,215115,1,0,0:0:0:0:
370,335,215190,5,0,0:0:0:0:
347,283,215265,1,0,0:0:0:0:
298,254,215340,1,0,0:0:0:0:
241,252,215415,1,0,0:0:0:0:
185,259,215490,1,0,0:0:0:0:
135,284,215565,1,0,0:0:0:0:
96,325,215640,1,0,0:0:0:0:
74,376,215715,1,0,0:0:0:0:
137,366,215790,5,0,0:0:0:0:
176,315,215865,1,0,0:0:0:0:
198,255,215940,1,0,0:0:0:0:
210,192,216015,1,0,0:0:0:0:
207,128,216090,1,0,0:0:0:0:
176,72,216165,1,0,0:0:0:0:
121,38,216240,1,0,0:0:0:0:
58,24,216315,1,0,0:0:0:0:
41,93,216390,5,0,0:0:0:0:
89,144,216465,1,0,0:0:0:0:
153,173,216540,1,0,0:0:0:0:
224,172,216615,1,0,0:0:0:0:
294,159,216690,1,0,0:0:0:0:
476,73,216990,5,0,0:0:0:0:
464,147,217065,1,0,0:0:0:0:
418,206,217140,1,0,0:0:0:0:
346,229,217215,1,0,0:0:0:0:
271,222,217290,1,0,0:0:0:0:
208,180,217365,1,0,0:0:0:0:
185,108,217440,1,0,0:0:0:0:
222,43,217515,1,0,0:0:0:0:
293,19,217590,5,0,0:0:0:0:
334,81,217665,1,0,0:0:0:0:
315,153,217740,1,0,0:0:0:0:
250,191,217815,1,0,0:0:0:0:
175,190,217890,1,0,0:0:0:0:
100,189,217965,1,0,0:0:0:0:
42,237,218040,1,0,0:0:0:0:
40,311,218115,1,0,0:0:0:0:
102,352,218190,5,0,0:0:0:0:
176,343,218265,1,0,0:0:0:0:
243,310,218340,1,0,0:0:0:0:
273,241,218415,1,0,0:0:0:0:
281,166,218490,1,0,0:0:0:0:
251,96,218565,1,0,0:0:0:0:
184,60,218640,1,0,0:0:0:0:
109,62,218715,1,0,0:0:0:0:
53,111,218790,5,0,0:0:0:0:
123,135,218865,1,0,0:0:0:0:
197,145,218940,1,0,0:0:0:0:
271,137,219015,1,0,0:0:0:0:
343,154,219090,1,0,0:0:0:0:
410,187,219165,1,0,0:0:0:0:
437,256,219240,1,0,0:0:0:0:
433,330,219315,1,0,0:0:0:0:
373,375,219390,5,0,0:0:0:0:
319,322,219465,1,0,0:0:0:0:
332,248,219540,1,0,0:0:0:0:
382,192,219615,1,0,0:0:0:0:
454,171,219690,1,0,0:0:0:0:
502,113,219765,1,0,0:0:0:0:
473,43,219840,1,0,0:0:0:0:
398,32,219915,1,0,0:0:0:0:
343,83,219990,5,0,0:0:0:0:
321,154,220065,1,0,0:0:0:0:
306,227,220140,1,0,0:0:0:0:
290,300,220215,1,0,0:0:0:0:
239,355,220290,1,0,0:0:0:0:
165,368,220365,1,0,0:0:0:0:
95,340,220440,1,0,0:0:0:0:
68,269,220515,1,0,0:0:0:0:
121,216,220590,5,0,0:0:0:0:
191,242,220665,1,0,0:0:0:0:
248,289,220740,1,0,0:0:0:0:
322,297,220815,1,0,0:0:0:0:
392,271,220890,1,0,0:0:0:0:
426,204,220965,1,0,0:0:0:0:
418,129,221040,1,0,0:0:0:0:
356,86,221115,1,0,0:0:0:0:
284,108,221190,5,0,0:0:0:0:
218,144,221265,1,0,0:0:0:0:
176,206,221340,1,0,0:0:0:0:
135,268,221415,1,0,0:0:0:0:
68,269,221490,1,0,0:0:0:0:
10,221,221565,1,0,0:0:0:0:
4,146,221640,1,0,0:0:0:0:
33,76,221715,1,0,0:0:0:0:
104,54,221790,5,0,0:0:0:0:
139,119,221865,1,0,0:0:0:0:
139,193,221940,1,0,0:0:0:0:
107,261,222015,1,0,0:0:0:0:
120,334,222090,1,0,0:0:0:0:
187,366,222165,1,0,0:0:0:0:
261,358,222240,1,0,0:0:0:0:
323,316,222315,1,0,0:0:0:0:
371,258,222390,5,0,0:0:0:0:
320,203,222465,1,0,0:0:0:0:
252,235,222540,1,0,0:0:0:0:
207,295,222615,1,0,0:0:0:0:
145,337,222690,1,0,0:0:0:0:
70,344,222765,1,0,0:0:0:0:
11,297,222840,1,0,0:0:0:0:
15,222,222915,1,0,0:0:0:0:
66,167,222990,5,0,0:0:0:0:
140,174,223065,1,0,0:0:0:0:
214,171,223140,1,0,0:0:0:0:
281,137,223215,1,0,0:0:0:0:
313,69,223290,1,0,0:0:0:0:
376,28,223365,1,0,0:0:0:0:
450,39,223440,1,0,0:0:0:0:
503,91,223515,1,0,0:0:0:0:
486,164,223590,5,0,0:0:0:0:
423,205,223665,1,0,0:0:0:0:
348,195,223740,1,0,0:0:0:0:
289,148,223815,1,0,0:0:0:0:
232,98,223890,1,0,0:0:0:0:
159,80,223965,1,0,0:0:0:0:
89,108,224040,1,0,0:0:0:0:
62,178,224115,1,0,0:0:0:0:
