osu file format v14

[General]
AudioFilename: audio.mp3
AudioLeadIn: 0
PreviewTime: 183310
Countdown: 0
SampleSet: None
StackLeniency: 0.3
Mode: 0
LetterboxInBreaks: 0
WidescreenStoryboard: 1

[Editor]
Bookmarks: 24438,31823,39208,44688,46579,80037,94975,105353,110542,112488,115731,119303,121569,123191,127407,131299,135191,137790,139735,149790,159390,162990,164190,173790,182790,183390,186990,196590,202590,211590,212190,216990,224190
DistanceSpacing: 0.5
BeatDivisor: 4
GridSize: 4
TimelineZoom: 2.12

[Metadata]
Title:The Ultimate Medley: Virtuous Runaway Suite
TitleUnicode:終極のメドレー ~超絶技巧暴走組曲~
Artist:Hatsune Miku
ArtistUnicode:Hatsune Miku
Creator:Inactive User
Version:End
Source:Project Diva X
Tags:The Disappearance of Hatsune Miku cosMo@Bousou-P Two-Faced Lovers wowaka Sadistic.Music∞Factory 2D Dream Fever PolyphonicBranch The Intense Voice of Hatsune Miku Storyteller Project Diva X Sega
BeatmapID:2643440
BeatmapSetID:876147

[Difficulty]
HPDrainRate:4
CircleSize:4
OverallDifficulty:8
ApproachRate:9.7
SliderMultiplier:2.5
SliderTickRate:1

[Events]
//Background and Video events
0,0,"Hatsune Miku.jpg",0,0
//Break Periods
//Storyboard Layer 0 (Background)
//Storyboard Layer 1 (Fail)
//Storyboard Layer 2 (Pass)
//Storyboard Layer 3 (Foreground)
//Storyboard Layer 4 (Overlay)
//Storyboard Sound Samples

[TimingPoints]
2285,230.769230769231,4,1,0,50,1,0
17054,-125,4,1,0,50,0,0
19823,-111.111111111111,4,1,0,50,0,0
20977,-125,4,1,0,50,0,0
22361,-100,4,1,0,50,0,0
23746,-200,4,1,0,50,0,0
24438,-100,4,1,0,50,0,0
31823,-125,4,1,0,50,0,0
38285,-100,4,1,0,50,0,0
44746,-200,4,1,0,50,0,0
46592,461.538461538462,4,1,0,50,1,0
46592,-100,4,1,0,50,0,0
48438,444.444444444444,4,1,0,50,1,0
48438,-90.9090909090909,4,1,0,50,0,0
50215,428.571428571429,4,1,0,50,1,0
50215,-83.3333333333333,4,1,0,50,0,0
51929,413.793103448276,4,1,0,50,1,0
51929,-76.9230769230769,4,1,0,50,0,0
53584,400,4,1,0,50,1,0
53584,-71.4285714285714,4,1,0,50,0,0
55184,375,4,1,0,50,1,0
55184,-66.6666666666667,4,1,0,50,0,0
56684,352.941176470588,4,1,0,50,1,0
56684,-62.5,4,1,0,50,0,0
58095,342.857142857143,4,1,0,50,1,0
58095,-58.8235294117647,4,1,0,50,0,0
59466,-55.5555555555556,4,1,0,50,0,0
60837,-52.6315789473684,4,1,0,50,0,0
62209,-50,4,1,0,50,0,0
63580,-47.6190476190476,4,1,0,50,0,0
64952,-45.4545454545455,4,1,0,50,0,0
66323,-43.4782608695652,4,1,0,50,0,0
67695,-41.6666666666667,4,1,0,50,0,0
69066,-40,4,1,0,50,0,0
70437,-38.4615384615385,4,1,0,50,0,0
80037,-66.6666666666667,4,1,0,50,0,0
94975,324.324324324324,4,1,0,50,1,0
137785,300,4,1,0,50,1,0

[HitObjects]
76,51,2285,6,0,B|118:69|124:154|124:154|157:76|224:75|277:120|278:191|238:249|170:246|129:192|129:192|58:203|20:281|37:350|114:374|180:357|199:303|198:264|198:264|251:320|349:298,1,916.666666666667
431,339,3208,2,0,L|470:266,11,83.3333333333334
335,169,4131,2,0,L|374:242,5,83.3333333333334
442,157,4592,2,0,L|481:84,5,83.3333333333334
378,38,5054,5,0,0:0:0:0:
369,37,5131,1,0,0:0:0:0:
352,36,5208,1,0,0:0:0:0:
326,35,5285,1,0,0:0:0:0:
293,34,5361,1,0,0:0:0:0:
251,32,5438,1,0,0:0:0:0:
200,30,5515,1,0,0:0:0:0:
14,26,5746,1,0,0:0:0:0:
130,157,5977,6,0,P|202:121|302:121,1,166.666666666667
424,298,6208,2,0,L|264:209,1,166.666666666667
43,96,6438,2,0,B|45:183|45:183|96:293,1,166.666666666667
372,184,6669,2,0,P|391:87|365:17,1,166.666666666667
200,299,6900,2,0,L|17:361,1,166.666666666667
397,369,7131,2,0,B|463:320|463:320|504:208,1,166.666666666667
229,47,7361,5,0,0:0:0:0:
225,80,7438,1,0,0:0:0:0:
206,107,7515,1,0,0:0:0:0:
174,118,7592,1,0,0:0:0:0:
140,119,7669,1,0,0:0:0:0:
109,105,7746,1,0,0:0:0:0:
86,80,7823,1,0,0:0:0:0:
72,110,7900,1,0,0:0:0:0:
75,143,7977,1,0,0:0:0:0:
86,174,8054,1,0,0:0:0:0:
109,197,8131,1,0,0:0:0:0:
124,226,8208,1,0,0:0:0:0:
123,259,8285,5,0,0:0:0:0:
103,285,8361,1,0,0:0:0:0:
71,296,8438,1,0,0:0:0:0:
42,312,8515,1,0,0:0:0:0:
42,345,8592,1,0,0:0:0:0:
65,368,8669,1,0,0:0:0:0:
97,360,8746,1,0,0:0:0:0:
128,348,8823,1,0,0:0:0:0:
161,343,8900,1,0,0:0:0:0:
194,341,8977,1,0,0:0:0:0:
227,345,9054,1,0,0:0:0:0:
259,353,9131,1,0,0:0:0:0:
291,346,9208,5,0,0:0:0:0:
305,316,9285,1,0,0:0:0:0:
319,286,9361,1,0,0:0:0:0:
333,256,9438,1,0,0:0:0:0:
348,226,9515,1,0,0:0:0:0:
363,196,9592,1,0,0:0:0:0:
408,79,9669,2,0,L|256:142,1,125
81,211,9900,5,0,0:0:0:0:
296,41,10131,1,0,0:0:0:0:
296,41,10246,1,0,0:0:0:0:
173,163,10361,2,0,P|176:237|223:318,1,125
336,384,10592,1,0,0:0:0:0:
507,126,10823,5,0,0:0:0:0:
260,233,11054,1,0,0:0:0:0:
260,233,11169,1,0,0:0:0:0:
345,124,11285,2,0,B|391:66|391:66|406:0,1,125
155,69,11515,1,0,0:0:0:0:
148,354,11746,5,0,0:0:0:0:
262,111,11977,1,0,0:0:0:0:
262,111,12092,1,0,0:0:0:0:
106,238,12208,2,0,P|176:257|250:277,1,125
420,282,12438,1,0,0:0:0:0:
161,147,12669,5,0,0:0:0:0:
78,48,12785,2,0,L|225:33,1,125
322,30,13015,1,0,0:0:0:0:
194,223,13131,2,0,P|202:295|224:360,1,125
384,384,13361,1,0,0:0:0:0:
79,280,13592,5,0,0:0:0:0:
446,161,13823,1,0,0:0:0:0:
446,161,13938,1,0,0:0:0:0:
282,260,14054,2,0,P|210:228|152:161,1,125
86,61,14285,1,0,0:0:0:0:
326,83,14515,5,0,0:0:0:0:
391,384,14746,1,0,0:0:0:0:
391,384,14861,1,0,0:0:0:0:
444,222,14977,2,0,B|467:156|467:156|517:121,1,125
468,0,15208,5,0,0:0:0:0:
357,270,15323,1,0,0:0:0:0:
86,159,15438,1,0,0:0:0:0:
308,33,15554,5,0,0:0:0:0:
147,324,15669,1,0,0:0:0:0:
419,210,15785,1,0,0:0:0:0:
165,73,15900,5,0,0:0:0:0:
503,287,16015,1,0,0:0:0:0:
166,226,16131,1,0,0:0:0:0:
166,226,16246,1,0,0:0:0:0:
72,28,16708,5,0,0:0:0:0:
67,52,16823,1,0,0:0:0:0:
60,76,16938,1,0,0:0:0:0:
56,101,17054,2,0,B|71:176|71:176|52:233|52:233|64:300,1,200
209,376,17515,5,0,0:0:0:0:
209,376,17631,1,0,0:0:0:0:
152,140,17746,2,0,P|161:70|188:23,1,100
235,240,17977,1,0,0:0:0:0:
512,54,18208,2,0,L|382:48,1,100
239,108,18438,5,0,0:0:0:0:
239,108,18554,1,0,0:0:0:0:
326,296,18669,2,0,P|359:235|378:163,1,100
342,25,18900,1,0,0:0:0:0:
473,384,19131,2,0,B|448:330|448:330|403:277,1,100
267,209,19361,1,0,0:0:0:0:
267,209,19477,1,0,0:0:0:0:
67,286,19592,6,0,L|46:383,1,100
3,133,19823,2,0,P|59:98|179:111,1,168.749994850159
226,18,20054,2,0,B|184:17|184:17|248:42|277:126,1,168.749994850159
266,180,20285,2,0,B|191:206|191:206|104:185,1,168.749994850159
257,270,20515,2,0,P|194:344|283:384,1,224.999993133545
454,293,20977,5,0,0:0:0:0:
127,384,21208,1,0,0:0:0:0:
127,384,21323,1,0,0:0:0:0:
334,269,21438,2,0,L|367:153,1,100
475,89,21669,1,0,0:0:0:0:
244,298,21900,2,0,L|20:303,1,200
87,161,22361,6,0,P|152:145|209:171,1,125
298,72,22592,1,0,0:0:0:0:
8,235,22823,1,0,0:0:0:0:
385,286,23054,1,0,0:0:0:0:
385,286,23169,1,0,0:0:0:0:
385,286,23285,2,0,B|397:201|397:201|431:128|431:128|450:25,1,250
283,106,23746,6,0,L|314:98,3,31.25
216,195,23977,2,0,L|185:186,3,31.25
283,283,24208,2,0,L|313:274,3,31.25
215,371,24438,6,0,L|115:336,11,62.5
107,188,25131,2,0,L|72:288,3,62.5
265,135,25361,2,0,L|165:100,3,62.5
318,293,25592,2,0,L|353:193,3,62.5
455,155,25823,2,0,L|420:55,3,62.5
277,55,26054,2,0,L|377:20,3,62.5
165,156,26285,6,0,L|265:191,3,62.5
107,65,26515,2,0,L|106:3,1,62.5
58,156,26631,2,0,L|-42:191,5,62.5
107,240,26977,2,0,L|106:302,7,62.5
226,384,27438,2,0,L|225:322,3,62.5
345,240,27669,2,0,L|344:302,3,62.5
464,384,27900,2,0,L|463:322,3,62.5
463,192,28131,6,0,L|464:130,7,62.5
413,24,28592,2,0,L|368:67,7,62.5
284,141,29054,2,0,L|239:97,11,62.5
243,243,29746,2,0,L|287:286,3,62.5
133,333,29977,5,0,0:0:0:0:
133,333,30035,1,0,0:0:0:0:
133,333,30092,2,0,L|69:411,1,62.5
0,252,30208,5,0,0:0:0:0:
0,252,30266,1,0,0:0:0:0:
0,252,30323,2,0,L|64:330,1,62.5
133,171,30438,5,0,0:0:0:0:
133,171,30496,1,0,0:0:0:0:
133,171,30554,2,0,L|69:249,1,62.5
7,90,30669,5,0,0:0:0:0:
7,90,30727,1,0,0:0:0:0:
7,90,30785,2,0,L|71:168,1,62.5
129,5,30900,5,0,0:0:0:0:
129,5,30958,1,0,0:0:0:0:
129,5,31015,2,0,L|65:83,1,62.5
242,35,31131,5,0,0:0:0:0:
264,46,31188,1,0,0:0:0:0:
287,55,31246,1,0,0:0:0:0:
310,64,31304,1,0,0:0:0:0:
382,123,31361,5,0,0:0:0:0:
358,144,31419,1,0,0:0:0:0:
334,165,31477,1,0,0:0:0:0:
310,186,31535,1,0,0:0:0:0:
235,243,31592,5,0,0:0:0:0:
263,267,31650,1,0,0:0:0:0:
291,291,31708,1,0,0:0:0:0:
318,315,31765,1,0,0:0:0:0:
391,336,31823,5,0,0:0:0:0:
56,255,32054,1,0,0:0:0:0:
256,0,32285,1,0,0:0:0:0:
256,0,32400,1,0,0:0:0:0:
198,154,32515,2,0,L|215:280,1,100
158,384,32746,1,0,0:0:0:0:
294,175,32977,5,0,0:0:0:0:
294,175,33092,1,0,0:0:0:0:
86,41,33208,1,0,0:0:0:0:
86,41,33323,1,0,0:0:0:0:
134,193,33438,2,0,L|220:260,1,100
320,365,33669,1,0,0:0:0:0:
56,271,33900,5,0,0:0:0:0:
425,204,34131,1,0,0:0:0:0:
425,204,34246,1,0,0:0:0:0:
221,174,34361,2,0,P|194:110|188:54,1,100
281,4,34592,1,0,0:0:0:0:
146,344,34823,5,0,0:0:0:0:
53,50,35054,1,0,0:0:0:0:
53,50,35169,1,0,0:0:0:0:
46,252,35285,2,0,P|116:259|191:249,1,100
280,301,35515,1,0,0:0:0:0:
362,12,35746,5,0,0:0:0:0:
116,175,35977,1,0,0:0:0:0:
116,175,36092,1,0,0:0:0:0:
288,127,36208,2,0,B|346:115|346:115|400:114,1,100
449,71,36438,1,0,0:0:0:0:
358,305,36669,5,0,0:0:0:0:
358,305,36785,1,0,0:0:0:0:
194,216,36900,1,0,0:0:0:0:
194,216,37015,1,0,0:0:0:0:
65,57,37131,2,0,L|36:182,1,100
9,271,37361,1,0,0:0:0:0:
164,50,37592,5,0,0:0:0:0:
419,122,37823,2,0,L|293:134,1,100
89,141,38054,1,0,0:0:0:0:
369,240,38285,5,0,0:0:0:0:
356,240,38342,1,0,0:0:0:0:
343,240,38400,1,0,0:0:0:0:
330,240,38458,1,0,0:0:0:0:
317,240,38515,1,0,0:0:0:0:
304,240,38573,1,0,0:0:0:0:
291,240,38631,1,0,0:0:0:0:
278,240,38688,1,0,0:0:0:0:
265,240,38746,1,0,0:0:0:0:
252,240,38804,1,0,0:0:0:0:
239,240,38861,1,0,0:0:0:0:
226,240,38919,1,0,0:0:0:0:
194,241,38977,5,0,0:0:0:0:
2,74,39208,5,0,0:0:0:0:
2,74,39265,1,0,0:0:0:0:
2,74,39323,1,0,0:0:0:0:
2,74,39381,1,0,0:0:0:0:
88,141,39438,5,0,0:0:0:0:
88,141,39495,1,0,0:0:0:0:
88,141,39553,1,0,0:0:0:0:
88,141,39611,1,0,0:0:0:0:
174,74,39669,5,0,0:0:0:0:
174,74,39727,1,0,0:0:0:0:
174,74,39785,1,0,0:0:0:0:
174,74,39843,1,0,0:0:0:0:
260,141,39900,5,0,0:0:0:0:
260,141,39957,1,0,0:0:0:0:
260,141,40015,1,0,0:0:0:0:
260,141,40073,1,0,0:0:0:0:
346,74,40130,5,0,0:0:0:0:
346,74,40188,1,0,0:0:0:0:
346,74,40246,1,0,0:0:0:0:
346,74,40304,1,0,0:0:0:0:
432,141,40361,5,0,0:0:0:0:
432,141,40418,1,0,0:0:0:0:
432,141,40476,1,0,0:0:0:0:
432,141,40534,1,0,0:0:0:0:
346,208,40592,5,0,0:0:0:0:
346,208,40649,1,0,0:0:0:0:
346,208,40707,1,0,0:0:0:0:
346,208,40765,1,0,0:0:0:0:
432,275,40823,5,0,0:0:0:0:
432,275,40880,1,0,0:0:0:0:
432,275,40938,1,0,0:0:0:0:
432,275,40996,1,0,0:0:0:0:
342,338,41054,5,0,0:0:0:0:
323,333,41111,1,0,0:0:0:0:
304,328,41169,1,0,0:0:0:0:
285,323,41227,1,0,0:0:0:0:
190,255,41285,5,0,0:0:0:0:
209,250,41342,1,0,0:0:0:0:
228,245,41400,1,0,0:0:0:0:
247,240,41458,1,0,0:0:0:0:
342,172,41515,5,0,0:0:0:0:
323,167,41572,1,0,0:0:0:0:
304,162,41630,1,0,0:0:0:0:
285,157,41688,1,0,0:0:0:0:
190,89,41746,5,0,0:0:0:0:
209,84,41803,1,0,0:0:0:0:
228,79,41861,1,0,0:0:0:0:
247,74,41919,1,0,0:0:0:0:
356,33,41977,5,0,0:0:0:0:
361,52,42034,1,0,0:0:0:0:
366,71,42092,1,0,0:0:0:0:
371,90,42150,1,0,0:0:0:0:
454,128,42207,5,0,0:0:0:0:
449,147,42265,1,0,0:0:0:0:
444,166,42323,1,0,0:0:0:0:
439,185,42380,1,0,0:0:0:0:
356,223,42438,5,0,0:0:0:0:
361,242,42496,1,0,0:0:0:0:
366,261,42554,1,0,0:0:0:0:
371,280,42611,1,0,0:0:0:0:
454,318,42669,5,0,0:0:0:0:
449,337,42727,1,0,0:0:0:0:
444,356,42785,1,0,0:0:0:0:
439,375,42842,1,0,0:0:0:0:
329,347,42900,5,0,0:0:0:0:
302,330,42958,1,0,0:0:0:0:
274,316,43015,1,0,0:0:0:0:
243,310,43073,1,0,0:0:0:0:
213,320,43131,1,0,0:0:0:0:
190,340,43188,1,0,0:0:0:0:
167,362,43246,1,0,0:0:0:0:
135,366,43304,1,0,0:0:0:0:
105,357,43361,1,0,0:0:0:0:
80,336,43419,1,0,0:0:0:0:
67,307,43477,1,0,0:0:0:0:
68,275,43535,1,0,0:0:0:0:
91,254,43592,5,0,0:0:0:0:
122,252,43650,1,0,0:0:0:0:
148,235,43708,1,0,0:0:0:0:
165,209,43765,1,0,0:0:0:0:
175,179,43823,1,0,0:0:0:0:
169,148,43881,1,0,0:0:0:0:
149,124,43938,1,0,0:0:0:0:
119,113,43996,1,0,0:0:0:0:
87,116,44054,1,0,0:0:0:0:
57,123,44111,1,0,0:0:0:0:
29,107,44169,1,0,0:0:0:0:
12,80,44227,1,0,0:0:0:0:
21,50,44285,5,0,0:0:0:0:
54,34,44342,1,0,0:0:0:0:
97,31,44400,1,0,0:0:0:0:
145,42,44458,1,0,0:0:0:0:
197,60,44515,1,0,0:0:0:0:
243,102,44573,1,0,0:0:0:0:
267,159,44631,1,0,0:0:0:0:
257,219,44688,1,0,0:0:0:0:
284,203,44746,6,0,P|384:196|256:338,1,468.75
251,309,45669,1,0,0:0:0:0:
248,290,45785,1,0,0:0:0:0:
245,271,45900,1,0,0:0:0:0:
238,248,46016,1,0,0:0:0:0:
235,229,46131,1,0,0:0:0:0:
232,210,46246,1,0,0:0:0:0:
229,191,46361,1,0,0:0:0:0:
222,168,46477,1,0,0:0:0:0:
218,146,46592,6,0,L|229:6,1,125
317,357,47053,2,0,L|328:217,1,125
191,146,47515,2,0,L|180:6,1,125
92,357,47976,2,0,L|81:217,1,125
28,37,48438,6,0,P|83:67|171:63,1,137.500004196167
314,123,48882,2,0,P|259:153|171:149,1,137.500004196167
140,241,49326,2,0,P|195:271|283:267,1,137.500004196167
426,327,49771,2,0,P|371:357|283:353,1,137.500004196167
371,127,50215,6,0,B|346:187|346:187|344:277,1,149.999995422363
137,86,50643,2,0,B|197:111|197:111|282:113,1,149.999995422363
96,319,51072,2,0,B|121:259|121:259|123:175,1,149.999995422363
329,359,51500,2,0,B|269:334|269:334|185:333,1,149.999995422363
471,277,51929,6,0,L|508:89,1,162.499992561341
338,0,52342,2,0,L|375:188,1,162.499992561341
205,277,52756,2,0,L|242:89,1,162.499992561341
72,0,53170,1,0,0:0:0:0:
87,79,53273,1,0,0:0:0:0:
103,159,53377,1,0,0:0:0:0:
118,238,53480,1,0,0:0:0:0:
133,317,53584,6,0,P|207:355|309:371,1,174.999994659424
379,67,53984,2,0,P|305:29|203:13,1,174.999994659424
381,315,54384,2,0,P|419:241|435:139,1,174.999994659424
131,69,54784,2,0,P|93:143|77:245,1,174.999994659424
512,246,55184,6,0,B|418:266|418:266|309:233,1,187.500007152558
0,138,55559,2,0,B|94:118|94:118|203:151,1,187.500007152558
512,138,55934,2,0,B|418:118|418:118|309:151,1,187.500007152558
0,246,56309,2,0,B|94:266|94:266|203:233,1,187.500007152558
477,4,56684,6,0,L|463:223,1,200
351,384,57036,2,0,L|337:165,1,200
225,4,57389,2,0,L|211:223,1,200
99,384,57742,2,0,L|85:165,1,200
6,5,58095,6,0,P|125:14|216:38,1,212.500004053116
512,95,58437,2,0,P|393:104|302:128,1,212.500004053116
6,185,58780,2,0,P|125:194|216:218,1,212.500004053116
268,269,59037,1,0,0:0:0:0:
314,327,59123,1,0,0:0:0:0:
383,353,59209,1,0,0:0:0:0:
456,338,59295,1,0,0:0:0:0:
483,269,59380,1,0,0:0:0:0:
456,200,59466,6,0,B|417:240|417:240|395:52,1,224.999993133545
241,31,59809,2,0,B|280:-9|280:-9|302:179,1,224.999993133545
265,340,60152,2,0,B|226:380|226:380|204:192,1,224.999993133545
50,171,60495,2,0,B|89:131|89:131|111:319,1,224.999993133545
486,364,60837,6,0,P|410:291|392:129,1,237.499993658066
312,7,61180,2,0,P|272:117|302:231,1,237.499993658066
226,384,61523,2,0,P|136:308|104:196,1,237.499993658066
112,125,61780,1,0,0:0:0:0:
148,63,61866,1,0,0:0:0:0:
180,113,61952,1,0,0:0:0:0:
182,160,62037,1,0,0:0:0:0:
174,194,62123,1,0,0:0:0:0:
149,220,62209,6,0,L|420:187,1,250
56,136,62552,2,0,L|89:407,1,250
248,38,62895,2,0,L|-23:71,1,250
327,0,63237,2,0,L|360:271,1,250
466,359,63580,6,0,B|325:330|253:329|253:329|334:304,1,262.499991989136
0,231,63923,2,0,B|141:202|213:201|213:201|132:176,1,262.499991989136
466,103,64266,2,0,B|325:74|253:73|253:73|334:48,1,262.499991989136
339,126,64523,1,0,0:0:0:0:
359,188,64609,1,0,0:0:0:0:
346,252,64695,1,0,0:0:0:0:
314,294,64780,1,0,0:0:0:0:
279,313,64866,1,0,0:0:0:0:
254,303,64952,6,0,B|336:280|336:280|217:291|147:259,1,275.000008392334
83,52,65338,2,0,B|1:75|1:75|120:64|190:96,1,275.000008392334
252,384,65637,2,0,B|170:361|170:361|289:372|359:340,1,275.000008392334
423,133,65980,2,0,B|505:156|505:156|386:145|316:177,1,275.000008392334
92,306,66323,6,0,L|118:-9,1,287.500005483627
396,19,66666,2,0,L|420:306,1,287.500005483627
92,306,67009,2,0,L|118:-9,1,287.500005483627
161,149,67266,1,0,0:0:0:0:
235,105,67352,1,0,0:0:0:0:
296,68,67437,1,0,0:0:0:0:
345,38,67523,1,0,0:0:0:0:
382,16,67609,1,0,0:0:0:0:
406,0,67695,6,0,B|391:100|391:100|511:276,1,299.999990844727
391,384,68037,2,0,B|406:284|406:284|286:108,1,299.999990844727
178,0,68380,2,0,B|163:100|163:100|283:276,1,299.999990844727
163,384,68723,2,0,B|178:284|178:284|58:108,1,299.999990844727
7,352,69066,5,0,0:0:0:0:
47,328,69152,1,0,0:0:0:0:
86,304,69237,1,0,0:0:0:0:
229,280,69409,1,0,0:0:0:0:
204,318,69494,1,0,0:0:0:0:
178,357,69580,1,0,0:0:0:0:
335,289,69752,5,0,0:0:0:0:
342,242,69838,1,0,0:0:0:0:
348,197,69923,1,0,0:0:0:0:
356,151,70009,1,0,0:0:0:0:
410,26,70095,1,0,0:0:0:0:
422,72,70181,1,0,0:0:0:0:
435,116,70266,1,0,0:0:0:0:
448,161,70352,1,0,0:0:0:0:
465,240,70437,6,0,P|366:351|195:323,1,324.999985122681
191,111,70780,1,0,0:0:0:0:
191,111,70866,1,0,0:0:0:0:
191,111,70952,2,0,B|239:176|239:176|313:210,1,162.499992561341
460,49,71123,6,0,L|323:139,1,162.499992561341
87,336,71295,2,0,L|224:246,1,162.499992561341
483,52,71466,2,0,L|-23:384,1,487.499977684022
223,270,71809,6,0,P|85:226|14:52,1,324.999985122681
232,0,72152,1,0,0:0:0:0:
232,0,72237,1,0,0:0:0:0:
232,0,72323,2,0,B|262:84|262:84|252:206,1,162.499992561341
441,340,72495,6,0,L|325:227,1,162.499992561341
56,41,72666,2,0,L|172:154,1,162.499992561341
425,360,72837,2,0,L|53:-1,1,487.499977684022
197,66,73180,6,0,P|209:232|83:362,1,324.999985122681
0,209,73523,1,0,0:0:0:0:
0,209,73609,1,0,0:0:0:0:
0,209,73695,2,0,B|75:175|75:175|197:184,1,162.499992561341
508,239,73866,6,0,L|302:207,1,162.499992561341
4,145,74037,2,0,L|210:177,1,162.499992561341
497,230,74209,2,0,L|11:154,1,487.499977684022
151,135,74552,6,0,B|111:107|72:89|72:89|215:148|303:106,1,324.999985122681
354,17,74895,1,0,0:0:0:0:
383,55,74980,1,0,0:0:0:0:
389,103,75066,1,0,0:0:0:0:
371,310,75237,6,0,P|295:320|189:302,1,162.499992561341
141,74,75409,2,0,P|217:64|323:82,1,162.499992561341
138,307,75580,2,0,P|128:231|146:125,1,162.499992561341
374,77,75752,2,0,P|384:153|366:259,1,162.499992561341
248,252,75923,6,0,P|142:242|4:87,1,324.999985122681
162,34,76266,1,0,0:0:0:0:
210,26,76352,1,0,0:0:0:0:
257,32,76437,2,0,P|342:60|414:114,1,162.499992561341
505,308,76609,6,0,L|329:269,1,162.499992561341
81,37,76780,2,0,L|177:189,1,162.499992561341
488,285,76952,2,0,B|231:228|231:228|90:20,1,487.499977684022
208,98,77295,6,0,P|119:176|202:368,1,324.999985122681
432,344,77637,1,0,0:0:0:0:
417,297,77723,1,0,0:0:0:0:
401,250,77809,2,0,P|367:174|289:90,1,162.499992561341
28,87,77980,6,0,L|175:155,1,162.499992561341
484,87,78152,2,0,L|337:155,1,162.499992561341
39,107,78323,2,0,B|259:219|259:219|509:101,1,487.499977684022
356,105,78666,6,0,P|249:237|372:377,1,324.999985122681
504,335,79009,1,0,0:0:0:0:
469,300,79095,1,0,0:0:0:0:
426,277,79180,2,0,P|329:255|235:266,1,162.499992561341
10,351,79352,6,0,L|126:197,1,162.499992561341
393,119,79523,2,0,L|202:145,1,162.499992561341
0,337,79695,2,0,B|140:134|140:134|429:95,1,487.499977684022
464,209,80037,5,0,0:0:0:0:
445,252,80123,1,0,0:0:0:0:
410,283,80209,1,0,0:0:0:0:
363,292,80295,1,0,0:0:0:0:
285,241,80380,1,0,0:0:0:0:
238,243,80466,1,0,0:0:0:0:
195,263,80552,1,0,0:0:0:0:
169,301,80637,1,0,0:0:0:0:
94,358,80723,5,0,0:0:0:0:
82,312,80809,1,0,0:0:0:0:
70,266,80895,1,0,0:0:0:0:
57,221,80980,1,0,0:0:0:0:
131,163,81066,1,0,0:0:0:0:
119,117,81152,1,0,0:0:0:0:
108,71,81237,1,0,0:0:0:0:
97,25,81323,1,0,0:0:0:0:
5,1,81409,6,0,L|34:131,3,93.7500035762788
131,163,81752,2,0,L|102:33,3,93.7500035762788
300,142,82095,2,0,L|207:156,3,93.7500035762788
219,237,82437,2,0,L|233:329,3,93.7500035762788
54,262,82780,2,0,L|146:247,3,93.7500035762788
398,304,83123,2,0,L|305:318,3,93.7500035762788
477,253,83466,1,0,0:0:0:0:
490,159,83552,1,0,0:0:0:0:
458,71,83637,1,0,0:0:0:0:
379,19,83723,1,0,0:0:0:0:
292,55,83809,5,0,0:0:0:0:
369,108,83895,1,0,0:0:0:0:
282,144,83980,2,0,L|250:256,1,93.7500035762788
71,279,84152,6,0,L|163:294,1,93.7500035762788
315,382,84323,2,0,L|210:364,1,93.7500035762788
71,279,84495,6,0,L|176:297,3,93.7500035762788
250,187,84837,2,0,L|145:205,3,93.7500035762788
71,95,85180,2,0,L|176:113,3,93.7500035762788
250,3,85523,2,0,L|157:18,3,93.7500035762788
322,181,85866,2,0,L|306:88,3,93.7500035762788
413,226,86209,1,0,0:0:0:0:
500,192,86295,1,0,0:0:0:0:
500,99,86380,1,0,0:0:0:0:
425,40,86466,1,0,0:0:0:0:
400,132,86552,5,0,0:0:0:0:
322,183,86637,1,0,0:0:0:0:
252,119,86723,2,0,L|159:114,1,93.7500035762788
28,34,86895,6,0,L|143:30,1,93.7500035762788
207,68,87066,2,0,L|322:72,1,93.7500035762788
477,26,87237,6,0,L|362:30,3,93.7500035762788
376,225,87580,2,0,L|380:132,3,93.7500035762788
279,250,87923,2,0,L|282:343,3,93.7500035762788
92,221,88266,2,0,L|185:217,3,93.7500035762788
465,368,88609,2,0,L|371:371,3,93.7500035762788
282,343,88952,1,0,0:0:0:0:
192,371,89037,1,0,0:0:0:0:
118,311,89123,1,0,0:0:0:0:
92,221,89209,1,0,0:0:0:0:
135,137,89295,5,0,0:0:0:0:
185,216,89380,1,0,0:0:0:0:
230,135,89466,2,0,L|347:134,1,93.7500035762788
412,97,89637,5,0,0:0:0:0:
413,87,89723,1,0,0:0:0:0:
417,78,89809,1,0,0:0:0:0:
424,72,89895,1,0,0:0:0:0:
433,70,89980,1,0,0:0:0:0:
441,73,90066,1,0,0:0:0:0:
448,78,90152,1,0,0:0:0:0:
451,86,90237,1,0,0:0:0:0:
452,95,90323,1,0,0:0:0:0:
446,102,90409,1,0,0:0:0:0:
437,105,90495,5,0,0:0:0:0:
418,101,90580,1,0,0:0:0:0:
391,92,90666,1,0,0:0:0:0:
353,85,90752,1,0,0:0:0:0:
306,84,90837,1,0,0:0:0:0:
251,97,90923,1,0,0:0:0:0:
204,143,91009,5,0,0:0:0:0:
209,236,91095,1,0,0:0:0:0:
277,299,91180,1,0,0:0:0:0:
371,299,91266,1,0,0:0:0:0:
450,248,91352,2,0,P|482:204|494:142,1,93.7500035762788
402,32,91523,5,0,0:0:0:0:
369,120,91609,2,0,L|324:226,1,93.7500035762788
229,364,91780,5,0,0:0:0:0:
196,276,91866,2,0,L|168:177,1,93.7500035762788
61,28,92037,5,0,0:0:0:0:
64,122,92123,1,0,0:0:0:0:
67,215,92209,2,0,L|69:340,1,93.7500035762788
256,192,92380,12,0,93752,0:0:0:0:
