osu file format v14

[General]
AudioFilename: audio.mp3
AudioLeadIn: 0
PreviewTime: 183310
Countdown: 0
SampleSet: Normal
StackLeniency: 0.5
Mode: 0
LetterboxInBreaks: 0
WidescreenStoryboard: 1

[Editor]
Bookmarks: 137790,164190,192390,202590,215190,216690,222990,224115
DistanceSpacing: 1
BeatDivisor: 8
GridSize: 4
TimelineZoom: 2.02

[Metadata]
Title:The Ultimate Medley: Virtuous Runaway Suite
TitleUnicode:終極のメドレー ~超絶技巧暴走組曲~
Artist:Hatsune Miku
ArtistUnicode:Hatsune Miku
Creator:Inactive User
Version:5. The Intense Voice of Hatsune Miku (3 The More Do-Able Remap)
Source:Project Diva X
Tags:The Disappearance of Hatsune Miku cosMo@Bousou-P Two-Faced Lovers wowaka Sadistic.Music∞Factory 2D Dream Fever PolyphonicBranch The Intense Voice of Hatsune Miku Storyteller Project Diva X Sega
BeatmapID:1831150
BeatmapSetID:876147

[Difficulty]
HPDrainRate:4
CircleSize:4
OverallDifficulty:8
ApproachRate:9.7
SliderMultiplier:1.5
SliderTickRate:1

[Events]
//Background and Video events
0,0,"Hatsune Miku.jpg",0,0
//Break Periods
2,202790,211095
//Storyboard Layer 0 (Background)
//Storyboard Layer 1 (Fail)
//Storyboard Layer 2 (Pass)
//Storyboard Layer 3 (Foreground)
//Storyboard Layer 4 (Overlay)
//Storyboard Sound Samples

[TimingPoints]
183390,300,4,1,0,50,1,0
186990,-50,4,1,0,50,0,0
188190,-100,4,1,0,50,0,0
192990,-80,4,1,0,50,0,0
196590,-40,4,1,0,50,0,0
197790,-80,4,1,0,50,0,0
211590,-100,4,1,0,50,0,0
216990,-66.6666666666667,4,1,0,50,0,0

[HitObjects]
250,384,183390,5,0,0:0:0:0:
252,365,183465,1,0,0:0:0:0:
254,346,183540,1,0,0:0:0:0:
257,327,183615,1,0,0:0:0:0:
260,308,183690,5,0,0:0:0:0:
229,327,183765,1,0,0:0:0:0:
194,338,183840,1,0,0:0:0:0:
157,336,183915,1,0,0:0:0:0:
132,307,183990,5,0,0:0:0:0:
134,288,184065,1,0,0:0:0:0:
136,269,184140,1,0,0:0:0:0:
139,250,184215,1,0,0:0:0:0:
141,231,184290,5,0,0:0:0:0:
110,212,184365,1,0,0:0:0:0:
75,201,184440,1,0,0:0:0:0:
38,203,184515,1,0,0:0:0:0:
6,223,184590,5,0,0:0:0:0:
6,204,184665,1,0,0:0:0:0:
6,185,184740,1,0,0:0:0:0:
6,166,184815,1,0,0:0:0:0:
6,147,184890,5,0,0:0:0:0:
35,123,184965,1,0,0:0:0:0:
71,116,185040,1,0,0:0:0:0:
106,126,185115,1,0,0:0:0:0:
130,154,185190,5,0,0:0:0:0:
137,136,185265,1,0,0:0:0:0:
144,119,185340,1,0,0:0:0:0:
152,102,185415,1,0,0:0:0:0:
160,85,185490,5,0,0:0:0:0:
185,112,185565,1,0,0:0:0:0:
215,133,185640,1,0,0:0:0:0:
251,142,185715,1,0,0:0:0:0:
287,134,185790,5,0,0:0:0:0:
294,116,185865,1,0,0:0:0:0:
301,99,185940,1,0,0:0:0:0:
309,82,186015,1,0,0:0:0:0:
317,65,186090,5,0,0:0:0:0:
297,32,186165,1,0,0:0:0:0:
261,20,186240,1,0,0:0:0:0:
224,29,186315,1,0,0:0:0:0:
197,55,186390,5,0,0:0:0:0:
192,73,186465,1,0,0:0:0:0:
187,91,186540,1,0,0:0:0:0:
182,109,186615,1,0,0:0:0:0:
177,127,186690,5,0,0:0:0:0:
157,160,186765,1,0,0:0:0:0:
121,172,186840,1,0,0:0:0:0:
84,163,186915,1,0,0:0:0:0:
41,100,186990,6,0,B|86:42|86:42|155:75,1,150
155,300,187290,2,0,B|224:332|224:332|269:275,1,150
242,50,187590,2,0,B|311:82|311:82|355:24,1,150
355,248,187890,2,0,B|400:190|400:190|469:223,1,150
494,292,188190,5,0,0:0:0:0:
488,309,188265,1,0,0:0:0:0:
482,326,188340,1,0,0:0:0:0:
476,343,188415,1,0,0:0:0:0:
470,361,188490,5,0,0:0:0:0:
440,337,188565,1,0,0:0:0:0:
409,315,188640,1,0,0:0:0:0:
371,308,188715,1,0,0:0:0:0:
334,315,188790,5,0,0:0:0:0:
328,332,188865,1,0,0:0:0:0:
322,349,188940,1,0,0:0:0:0:
316,366,189015,1,0,0:0:0:0:
310,384,189090,5,0,0:0:0:0:
272,377,189165,1,0,0:0:0:0:
241,355,189240,1,0,0:0:0:0:
211,331,189315,1,0,0:0:0:0:
193,297,189390,5,0,0:0:0:0:
195,278,189465,1,0,0:0:0:0:
197,259,189540,1,0,0:0:0:0:
199,240,189615,1,0,0:0:0:0:
202,221,189690,5,0,0:0:0:0:
233,199,189765,1,0,0:0:0:0:
268,188,189840,1,0,0:0:0:0:
305,183,189915,1,0,0:0:0:0:
338,200,189990,5,0,0:0:0:0:
340,181,190065,1,0,0:0:0:0:
342,162,190140,1,0,0:0:0:0:
344,143,190215,1,0,0:0:0:0:
347,124,190290,5,0,0:0:0:0:
378,146,190365,1,0,0:0:0:0:
413,157,190440,1,0,0:0:0:0:
450,162,190515,1,0,0:0:0:0:
483,145,190590,5,0,0:0:0:0:
472,129,190665,1,0,0:0:0:0:
462,113,190740,1,0,0:0:0:0:
452,97,190815,1,0,0:0:0:0:
442,81,190890,5,0,0:0:0:0:
406,69,190965,1,0,0:0:0:0:
368,71,191040,1,0,0:0:0:0:
333,85,191115,1,0,0:0:0:0:
310,115,191190,5,0,0:0:0:0:
299,99,191265,1,0,0:0:0:0:
289,83,191340,1,0,0:0:0:0:
279,67,191415,1,0,0:0:0:0:
266,53,191490,5,0,0:0:0:0:
238,78,191565,1,0,0:0:0:0:
221,112,191640,1,0,0:0:0:0:
215,149,191715,1,0,0:0:0:0:
218,186,191790,5,0,0:0:0:0:
201,195,191865,1,0,0:0:0:0:
185,204,191940,1,0,0:0:0:0:
169,214,192015,1,0,0:0:0:0:
153,224,192090,5,0,0:0:0:0:
145,260,192165,1,0,0:0:0:0:
153,296,192240,1,0,0:0:0:0:
180,321,192315,1,0,0:0:0:0:
217,323,192390,5,0,0:0:0:0:
226,359,192465,1,0,0:0:0:0:
290,310,192540,1,0,0:0:0:0:
291,347,192615,1,0,0:0:0:0:
364,316,192690,1,0,0:0:0:0:
357,352,192765,1,0,0:0:0:0:
435,339,192840,1,0,0:0:0:0:
419,373,192915,1,0,0:0:0:0:
497,379,192990,5,0,0:0:0:0:
506,334,193065,1,0,0:0:0:0:
500,288,193140,1,0,0:0:0:0:
480,246,193215,1,0,0:0:0:0:
447,212,193290,1,0,0:0:0:0:
405,192,193365,1,0,0:0:0:0:
359,186,193440,1,0,0:0:0:0:
313,195,193515,1,0,0:0:0:0:
273,219,193590,5,0,0:0:0:0:
227,228,193665,1,0,0:0:0:0:
180,222,193740,1,0,0:0:0:0:
139,201,193815,1,0,0:0:0:0:
106,168,193890,1,0,0:0:0:0:
85,126,193965,1,0,0:0:0:0:
80,80,194040,1,0,0:0:0:0:
89,34,194115,1,0,0:0:0:0:
130,11,194190,5,0,0:0:0:0:
175,1,194265,1,0,0:0:0:0:
222,7,194340,1,0,0:0:0:0:
263,28,194415,1,0,0:0:0:0:
296,61,194490,1,0,0:0:0:0:
317,103,194565,1,0,0:0:0:0:
322,149,194640,1,0,0:0:0:0:
313,195,194715,1,0,0:0:0:0:
303,240,194790,5,0,0:0:0:0:
309,287,194865,1,0,0:0:0:0:
329,328,194940,1,0,0:0:0:0:
362,362,195015,1,0,0:0:0:0:
404,382,195090,1,0,0:0:0:0:
450,388,195165,1,0,0:0:0:0:
496,379,195240,1,0,0:0:0:0:
509,334,195315,1,0,0:0:0:0:
484,294,195390,5,0,0:0:0:0:
439,278,195465,1,0,0:0:0:0:
394,268,195540,1,0,0:0:0:0:
347,266,195615,1,0,0:0:0:0:
300,270,195690,1,0,0:0:0:0:
255,282,195765,1,0,0:0:0:0:
212,300,195840,1,0,0:0:0:0:
172,324,195915,1,0,0:0:0:0:
139,359,195990,5,0,0:0:0:0:
105,326,196065,1,0,0:0:0:0:
76,289,196140,1,0,0:0:0:0:
54,248,196215,1,0,0:0:0:0:
37,204,196290,1,0,0:0:0:0:
28,158,196365,1,0,0:0:0:0:
25,111,196440,1,0,0:0:0:0:
29,65,196515,1,0,0:0:0:0:
91,26,196590,6,0,B|105:125|190:73|184:195,1,187.5
448,166,196890,2,0,B|433:66|348:118|354:-3,1,187.5
117,36,197190,2,0,B|142:95|142:95|193:130|193:130|210:205,1,187.5
475,176,197490,2,0,B|449:116|449:116|398:81|398:81|381:6,1,187.5
469,29,197790,5,0,0:0:0:0:
470,75,197865,1,0,0:0:0:0:
454,119,197940,1,0,0:0:0:0:
424,154,198015,1,0,0:0:0:0:
390,187,198090,1,0,0:0:0:0:
362,224,198165,1,0,0:0:0:0:
350,269,198240,1,0,0:0:0:0:
356,315,198315,1,0,0:0:0:0:
324,280,198390,5,0,0:0:0:0:
281,261,198465,1,0,0:0:0:0:
235,257,198540,1,0,0:0:0:0:
188,258,198615,1,0,0:0:0:0:
142,252,198690,1,0,0:0:0:0:
101,229,198765,1,0,0:0:0:0:
73,191,198840,1,0,0:0:0:0:
63,146,198915,1,0,0:0:0:0:
97,113,198990,5,0,0:0:0:0:
140,97,199065,1,0,0:0:0:0:
185,106,199140,1,0,0:0:0:0:
219,138,199215,1,0,0:0:0:0:
239,180,199290,1,0,0:0:0:0:
273,211,199365,1,0,0:0:0:0:
318,220,199440,1,0,0:0:0:0:
361,205,199515,1,0,0:0:0:0:
392,169,199590,5,0,0:0:0:0:
395,122,199665,1,0,0:0:0:0:
374,81,199740,1,0,0:0:0:0:
335,56,199815,1,0,0:0:0:0:
289,63,199890,1,0,0:0:0:0:
251,89,199965,1,0,0:0:0:0:
232,132,200040,1,0,0:0:0:0:
239,178,200115,1,0,0:0:0:0:
251,223,200190,5,0,0:0:0:0:
218,255,200265,1,0,0:0:0:0:
173,266,200340,1,0,0:0:0:0:
128,253,200415,1,0,0:0:0:0:
87,232,200490,1,0,0:0:0:0:
42,244,200565,1,0,0:0:0:0:
10,277,200640,1,0,0:0:0:0:
0,322,200715,1,0,0:0:0:0:
8,368,200790,5,0,0:0:0:0:
49,347,200865,1,0,0:0:0:0:
96,339,200940,1,0,0:0:0:0:
142,346,201015,1,0,0:0:0:0:
177,377,201090,1,0,0:0:0:0:
223,383,201165,1,0,0:0:0:0:
269,375,201240,1,0,0:0:0:0:
311,355,201315,1,0,0:0:0:0:
344,322,201390,5,0,0:0:0:0:
379,271,201465,1,0,0:0:0:0:
367,211,201540,1,0,0:0:0:0:
317,177,201615,1,0,0:0:0:0:
257,188,201690,1,0,0:0:0:0:
223,238,201765,1,0,0:0:0:0:
234,298,201840,1,0,0:0:0:0:
284,332,201915,1,0,0:0:0:0:
354,338,201990,5,0,0:0:0:0:
398,275,202065,1,0,0:0:0:0:
383,200,202140,1,0,0:0:0:0:
321,157,202215,1,0,0:0:0:0:
246,171,202290,1,0,0:0:0:0:
203,233,202365,1,0,0:0:0:0:
217,308,202440,1,0,0:0:0:0:
279,351,202515,1,0,0:0:0:0:
365,356,202590,5,0,0:0:0:0:
193,129,211590,5,0,0:0:0:0:
193,136,211665,1,0,0:0:0:0:
193,143,211740,1,0,0:0:0:0:
193,150,211815,1,0,0:0:0:0:
194,157,211890,1,0,0:0:0:0:
195,164,211965,1,0,0:0:0:0:
196,171,212040,1,0,0:0:0:0:
196,178,212115,1,0,0:0:0:0:
232,186,212190,5,0,0:0:0:0:
232,197,212265,1,0,0:0:0:0:
232,208,212340,1,0,0:0:0:0:
232,219,212415,1,0,0:0:0:0:
232,230,212490,1,0,0:0:0:0:
232,241,212565,1,0,0:0:0:0:
232,252,212640,1,0,0:0:0:0:
232,263,212715,1,0,0:0:0:0:
268,269,212790,5,0,0:0:0:0:
275,281,212865,1,0,0:0:0:0:
282,293,212940,1,0,0:0:0:0:
289,305,213015,1,0,0:0:0:0:
296,317,213090,1,0,0:0:0:0:
304,329,213165,1,0,0:0:0:0:
311,341,213240,1,0,0:0:0:0:
319,353,213315,1,0,0:0:0:0:
356,351,213390,5,0,0:0:0:0:
370,338,213465,1,0,0:0:0:0:
384,325,213540,1,0,0:0:0:0:
398,312,213615,1,0,0:0:0:0:
412,299,213690,1,0,0:0:0:0:
426,286,213765,1,0,0:0:0:0:
440,274,213840,1,0,0:0:0:0:
454,262,213915,1,0,0:0:0:0:
459,224,213990,5,0,0:0:0:0:
437,219,214065,1,0,0:0:0:0:
415,214,214140,1,0,0:0:0:0:
393,209,214215,1,0,0:0:0:0:
371,203,214290,1,0,0:0:0:0:
349,198,214365,1,0,0:0:0:0:
327,193,214440,1,0,0:0:0:0:
305,188,214515,1,0,0:0:0:0:
272,206,214590,5,0,0:0:0:0:
249,218,214665,1,0,0:0:0:0:
226,231,214740,1,0,0:0:0:0:
203,244,214815,1,0,0:0:0:0:
180,257,214890,1,0,0:0:0:0:
158,271,214965,1,0,0:0:0:0:
136,285,215040,1,0,0:0:0:0:
114,300,215115,1,0,0:0:0:0:
129,333,215190,5,0,0:0:0:0:
155,346,215265,1,0,0:0:0:0:
184,353,215340,1,0,0:0:0:0:
213,351,215415,1,0,0:0:0:0:
241,343,215490,1,0,0:0:0:0:
265,325,215565,1,0,0:0:0:0:
283,301,215640,1,0,0:0:0:0:
288,271,215715,1,0,0:0:0:0:
260,245,215790,5,0,0:0:0:0:
227,237,215865,1,0,0:0:0:0:
193,236,215940,1,0,0:0:0:0:
160,244,216015,1,0,0:0:0:0:
131,261,216090,1,0,0:0:0:0:
106,283,216165,1,0,0:0:0:0:
84,309,216240,1,0,0:0:0:0:
70,340,216315,1,0,0:0:0:0:
106,347,216390,5,0,0:0:0:0:
122,313,216465,1,0,0:0:0:0:
121,275,216540,1,0,0:0:0:0:
105,240,216615,1,0,0:0:0:0:
73,219,216690,1,0,0:0:0:0:
81,62,216990,5,0,0:0:0:0:
136,52,217065,1,0,0:0:0:0:
190,64,217140,1,0,0:0:0:0:
236,96,217215,1,0,0:0:0:0:
265,144,217290,1,0,0:0:0:0:
274,199,217365,1,0,0:0:0:0:
260,253,217440,1,0,0:0:0:0:
227,298,217515,1,0,0:0:0:0:
171,293,217590,5,0,0:0:0:0:
138,248,217665,1,0,0:0:0:0:
124,194,217740,1,0,0:0:0:0:
133,138,217815,1,0,0:0:0:0:
163,91,217890,1,0,0:0:0:0:
208,58,217965,1,0,0:0:0:0:
263,46,218040,1,0,0:0:0:0:
318,56,218115,1,0,0:0:0:0:
360,92,218190,5,0,0:0:0:0:
348,145,218265,1,0,0:0:0:0:
308,183,218340,1,0,0:0:0:0:
263,218,218415,1,0,0:0:0:0:
224,258,218490,1,0,0:0:0:0:
221,311,218565,1,0,0:0:0:0:
266,342,218640,1,0,0:0:0:0:
322,349,218715,1,0,0:0:0:0:
376,334,218790,5,0,0:0:0:0:
364,280,218865,1,0,0:0:0:0:
324,242,218940,1,0,0:0:0:0:
279,207,219015,1,0,0:0:0:0:
240,167,219090,1,0,0:0:0:0:
237,114,219165,1,0,0:0:0:0:
282,83,219240,1,0,0:0:0:0:
338,76,219315,1,0,0:0:0:0:
379,114,219390,5,0,0:0:0:0:
424,144,219465,1,0,0:0:0:0:
474,126,219540,1,0,0:0:0:0:
480,73,219615,1,0,0:0:0:0:
446,29,219690,1,0,0:0:0:0:
394,11,219765,1,0,0:0:0:0:
338,15,219840,1,0,0:0:0:0:
288,40,219915,1,0,0:0:0:0:
273,95,219990,5,0,0:0:0:0:
245,143,220065,1,0,0:0:0:0:
199,173,220140,1,0,0:0:0:0:
144,182,220215,1,0,0:0:0:0:
92,161,220290,1,0,0:0:0:0:
68,113,220365,1,0,0:0:0:0:
98,69,220440,1,0,0:0:0:0:
152,69,220515,1,0,0:0:0:0:
197,103,220590,5,0,0:0:0:0:
213,154,220665,1,0,0:0:0:0:
194,207,220740,1,0,0:0:0:0:
151,242,220815,1,0,0:0:0:0:
99,263,220890,1,0,0:0:0:0:
47,284,220965,1,0,0:0:0:0:
17,329,221040,1,0,0:0:0:0:
47,373,221115,1,0,0:0:0:0:
102,380,221190,5,0,0:0:0:0:
144,350,221265,1,0,0:0:0:0:
132,297,221340,1,0,0:0:0:0:
91,259,221415,1,0,0:0:0:0:
49,222,221490,1,0,0:0:0:0:
20,174,221565,1,0,0:0:0:0:
19,118,221640,1,0,0:0:0:0:
52,74,221715,1,0,0:0:0:0:
95,38,221790,5,0,0:0:0:0:
148,21,221865,1,0,0:0:0:0:
204,21,221940,1,0,0:0:0:0:
248,52,222015,1,0,0:0:0:0:
248,107,222090,1,0,0:0:0:0:
257,161,222165,1,0,0:0:0:0:
302,192,222240,1,0,0:0:0:0:
358,194,222315,1,0,0:0:0:0:
410,175,222390,5,0,0:0:0:0:
460,153,222465,1,0,0:0:0:0:
488,193,222540,1,0,0:0:0:0:
454,237,222615,1,0,0:0:0:0:
412,274,222690,1,0,0:0:0:0:
387,323,222765,1,0,0:0:0:0:
422,362,222840,1,0,0:0:0:0:
470,348,222915,1,0,0:0:0:0:
493,297,222990,6,0,L|446:296,1,28.1250010728836
488,240,223065,2,0,L|453:240,1,28.1250010728836
472,188,223140,2,0,L|434:193,1,28.1250010728836
452,135,223215,2,0,L|423:150,1,28.1250010728836
415,88,223290,2,0,L|377:126,1,28.1250010728836
369,55,223365,2,0,L|349:94,1,28.1250010728836
316,34,223440,2,0,L|308:69,1,28.1250010728836
261,18,223515,2,0,L|259:63,1,28.1250010728836
211,16,223590,6,0,L|217:63,1,28.1250010728836
158,37,223665,2,0,L|177:76,1,28.1250010728836
112,70,223740,2,0,L|140:99,1,28.1250010728836
77,115,223815,2,0,L|108:134,1,28.1250010728836
56,168,223890,2,0,L|87:178,1,28.1250010728836
39,222,223965,2,0,L|86:230,1,28.1250010728836
34,279,224040,2,0,L|73:280,1,28.1250010728836
32,335,224115,2,0,L|79:334,1,28.1250010728836
