osu file format v14

[General]
AudioFilename: audio.mp3
AudioLeadIn: 0
PreviewTime: 183310
Countdown: 0
SampleSet: Normal
StackLeniency: 0.5
Mode: 0
LetterboxInBreaks: 0
WidescreenStoryboard: 1

[Editor]
DistanceSpacing: 1.5
BeatDivisor: 1
GridSize: 4
TimelineZoom: 1.22

[Metadata]
Title:The Ultimate Medley: Virtuous Runaway Suite
TitleUnicode:終極のメドレー ~超絶技巧暴走組曲~
Artist:Hatsune Miku
ArtistUnicode:Hatsune Miku
Creator:Inactive User
Version:2. Two-faced lovers
Source:Project Diva X
Tags:The Disappearance of Hatsune Miku cosMo@Bousou-P Two-Faced Lovers wowaka Sadistic.Music∞Factory 2D Dream Fever PolyphonicBranch The Intense Voice of Hatsune Miku Storyteller Project Diva X Sega
BeatmapID:1831146
BeatmapSetID:876147

[Difficulty]
HPDrainRate:4
CircleSize:4
OverallDifficulty:8
ApproachRate:9.7
SliderMultiplier:1.5
SliderTickRate:1

[Events]
//Background and Video events
0,0,"Hatsune Miku.jpg",0,0
//Break Periods
//Storyboard Layer 0 (Background)
//Storyboard Layer 1 (Fail)
//Storyboard Layer 2 (Pass)
//Storyboard Layer 3 (Foreground)
//Storyboard Layer 4 (Overlay)
//Storyboard Sound Samples

[TimingPoints]
46579,461.538461538462,4,1,0,50,1,0
46579,-100,4,1,0,50,0,0
48425,444.444444444444,4,1,0,50,1,0
48425,-90.9090909090909,4,1,0,50,0,0
50202,428.571428571429,4,1,0,50,1,0
50202,-83.3333333333333,4,1,0,50,0,0
51916,413.793103448276,4,1,0,50,1,0
51916,-76.9230769230769,4,1,0,50,0,0
53571,400,4,1,0,50,1,0
53571,-71.4285714285714,4,1,0,50,0,0
55171,375,4,1,0,50,1,0
55171,-66.6666666666667,4,1,0,50,0,0
56671,352.941176470588,4,1,0,50,1,0
56671,-62.5,4,1,0,50,0,0
59494,342.857142857143,4,1,0,50,1,0
59494,-58.8235294117647,4,1,0,50,0,0
60865,-55.5555555555556,4,1,0,50,0,0
62236,-52.6315789473684,4,1,0,50,0,0
63608,-50,4,1,0,50,0,0
64979,-47.6190476190476,4,1,0,50,0,0
66351,-45.4545454545455,4,1,0,50,0,0
67722,-43.4782608695652,4,1,0,50,0,0
69094,-41.6666666666667,4,1,0,50,0,0
70465,-40,4,1,0,50,0,0
75265,-36.3636363636364,4,1,0,50,0,0
75951,-40,4,1,0,50,0,0

[HitObjects]
237,298,46579,6,0,L|238:218,1,75
315,42,47040,2,0,L|315:130,1,75
159,226,47502,2,0,L|72:227,1,75
395,118,47963,2,0,L|469:118,1,75
237,298,48425,6,0,L|238:212,1,82.5000025177003
315,42,48869,2,0,L|315:130,1,82.5000025177003
159,226,49313,2,0,L|72:227,1,82.5000025177003
395,118,49758,2,0,L|478:118,1,82.5000025177003
237,298,50202,6,0,L|238:194,1,89.9999972534181
315,42,50630,2,0,L|315:133,1,89.9999972534181
159,226,51059,2,0,L|66:227,1,89.9999972534181
395,118,51487,2,0,L|492:119,1,89.9999972534181
237,298,51916,6,0,L|238:187,1,97.4999955368044
315,42,52329,2,0,L|315:139,1,97.4999955368044
159,226,52743,2,0,P|106:235|58:227,1,97.4999955368044
395,118,53157,1,0,0:0:0:0:
426,110,53260,1,0,0:0:0:0:
458,109,53363,1,0,0:0:0:0:
490,115,53467,1,0,0:0:0:0:
436,218,53571,6,0,P|382:235|321:217,1,104.999996795654
76,166,53971,2,0,P|130:149|191:167,1,104.999996795654
282,372,54371,2,0,P|299:318|281:257,1,104.999996795654
230,12,54771,2,0,P|213:66|231:127,1,104.999996795654
436,218,55171,6,0,P|382:235|321:217,1,112.500004291535
76,166,55546,2,0,P|130:149|191:167,1,112.500004291535
282,372,55921,2,0,P|299:318|281:257,1,112.500004291535
230,12,56296,2,0,P|213:66|231:127,1,112.500004291535
436,218,56671,6,0,P|382:235|321:217,1,120
76,166,57023,2,0,P|128:149|188:166,1,120
282,372,57376,2,0,P|299:318|281:257,1,120
230,12,57729,2,0,P|213:66|231:127,1,120
76,218,58082,6,0,B|130:235|130:235|191:217,1,120
436,166,58435,2,0,B|382:149|382:149|321:167,1,120
230,372,58788,2,0,B|213:318|213:318|231:257,1,120
243,229,59053,1,0,0:0:0:0:
231,186,59141,1,0,0:0:0:0:
218,143,59229,1,0,0:0:0:0:
230,100,59318,1,0,0:0:0:0:
242,57,59406,1,0,0:0:0:0:
230,14,59494,6,0,L|98:16,1,127.50000243187
307,113,59836,2,0,L|439:115,1,127.50000243187
230,212,60179,2,0,L|98:214,1,127.50000243187
307,311,60522,2,0,L|439:313,1,127.50000243187
230,14,60865,6,0,L|88:16,1,134.999995880127
307,113,61208,2,0,L|445:115,1,134.999995880127
230,212,61551,2,0,L|90:214,1,134.999995880127
307,311,61808,1,0,0:0:0:0:
340,311,61894,1,0,0:0:0:0:
374,312,61979,1,0,0:0:0:0:
408,312,62065,1,0,0:0:0:0:
441,313,62151,1,0,0:0:0:0:
262,337,62236,6,0,B|240:306|240:306|93:307,1,142.49999619484
250,47,62579,2,0,B|272:78|272:78|419:77,1,142.49999619484
111,186,62922,2,0,B|142:208|142:208|141:355,1,142.49999619484
401,198,63265,2,0,B|370:176|370:176|371:29,1,142.49999619484
262,337,63608,6,0,B|240:306|240:306|93:307,1,150
250,47,63951,2,0,B|272:78|272:78|419:77,1,150
111,186,64294,2,0,B|142:208|141:355,1,150
401,198,64551,1,0,0:0:0:0:
382,165,64636,1,0,0:0:0:0:
375,129,64722,1,0,0:0:0:0:
372,91,64808,1,0,0:0:0:0:
371,54,64894,1,0,0:0:0:0:
277,71,64979,6,0,B|277:194|277:194|246:159,1,157.499995193482
75,320,65322,2,0,B|75:197|75:197|106:232,1,157.499995193482
301,285,65665,2,0,B|178:285|178:285|213:254,1,157.499995193482
52,83,66008,2,0,B|175:83|175:83|140:114,1,157.499995193482
277,71,66351,6,0,B|277:194|277:194|246:159,1,165.000005035401
75,320,66694,2,0,B|75:197|75:197|106:232,1,165.000005035401
301,285,67036,2,0,B|178:285|178:285|213:254,1,165.000005035401
52,83,67294,1,0,0:0:0:0:
93,83,67379,1,0,0:0:0:0:
134,83,67465,1,0,0:0:0:0:
174,83,67551,1,0,0:0:0:0:
143,110,67636,1,0,0:0:0:0:
259,131,67722,6,0,P|363:114|441:118,1,172.500003290176
105,169,68065,2,0,P|88:65|92:-13,1,172.500003290176
253,253,68408,2,0,P|149:270|71:266,1,172.500003290176
407,215,68751,2,0,P|424:319|420:397,1,172.500003290176
259,131,69094,5,0,0:0:0:0:
347,116,69179,1,0,0:0:0:0:
437,117,69265,1,0,0:0:0:0:
105,169,69435,1,0,0:0:0:0:
90,80,69522,1,0,0:0:0:0:
91,0,69608,1,0,0:0:0:0:
253,253,69779,1,0,0:0:0:0:
164,267,69865,1,0,0:0:0:0:
74,266,69951,1,0,0:0:0:0:
29,187,70036,1,0,0:0:0:0:
22,232,70122,1,0,0:0:0:0:
15,276,70208,1,0,0:0:0:0:
14,321,70294,1,0,0:0:0:0:
16,366,70379,1,0,0:0:0:0:
221,320,70465,6,0,B|204:186|204:186|230:218|271:223,1,187.5
289,234,70722,1,0,0:0:0:0:
336,234,70808,1,0,0:0:0:0:
381,222,70894,1,0,0:0:0:0:
418,194,70979,2,0,P|429:130|383:62,1,93.75
311,51,71151,6,0,L|309:172,1,93.75
201,333,71322,2,0,L|203:212,1,93.75
200,52,71494,2,0,B|83:31|30:106|30:106|87:94|108:151,1,281.25
101,189,71836,6,0,B|157:295|157:295|159:243|187:217,1,187.5
215,205,72094,1,0,0:0:0:0:
261,202,72179,1,0,0:0:0:0:
301,225,72265,1,0,0:0:0:0:
324,265,72351,2,0,P|324:310|294:363,1,93.75
399,329,72522,6,0,L|545:327,1,93.75
322,119,72694,2,0,L|176:121,1,93.75
148,361,72865,2,0,B|96:274|145:157|145:157|112:187|57:177,1,281.25
214,256,73208,6,0,B|280:275|280:275|397:246,1,187.5
430,215,73465,1,0,0:0:0:0:
457,176,73551,1,0,0:0:0:0:
449,130,73636,1,0,0:0:0:0:
421,91,73722,2,0,P|343:60|318:62,1,93.75
97,146,73894,6,0,L|43:58,1,93.75
299,256,74065,2,0,L|353:168,1,93.75
117,336,74236,2,0,B|85:226|85:226|168:313|268:316,1,281.25
202,197,74579,6,0,P|199:114|128:170,1,187.5
123,189,74836,1,0,0:0:0:0:
130,235,74922,1,0,0:0:0:0:
151,277,75008,1,0,0:0:0:0:
178,315,75094,2,0,P|146:344|83:352,1,93.75
48,205,75265,6,0,P|103:92|155:65,1,103.125000983477
334,127,75436,2,0,P|279:240|227:267,1,103.125000983477
157,24,75608,2,0,P|270:79|297:131,1,103.125000983477
235,310,75779,2,0,P|122:255|95:203,1,103.125000983477
194,154,75951,6,0,B|311:188|311:188|387:175,1,187.5
417,156,76208,1,0,0:0:0:0:
454,128,76294,1,0,0:0:0:0:
463,82,76379,1,0,0:0:0:0:
453,36,76465,2,0,P|405:25|308:35,1,93.75
93,20,76636,6,0,L|152:164,1,93.75
326,150,76808,2,0,L|267:294,1,93.75
137,337,76979,2,0,B|280:355|280:355|394:303|454:315,1,281.25
476,375,77322,6,0,P|482:258|442:177,1,187.5
416,168,77579,1,0,0:0:0:0:
369,158,77665,1,0,0:0:0:0:
322,161,77751,1,0,0:0:0:0:
277,175,77836,2,0,P|206:181|159:143,1,93.75
57,24,78008,6,0,L|191:65,1,93.75
455,24,78179,2,0,L|321:65,1,93.75
119,152,78351,2,0,B|175:270|67:270|67:270|98:353|160:366,1,281.25
205,297,78694,6,0,P|296:296|260:362,1,187.5
319,370,78951,1,0,0:0:0:0:
365,375,79036,1,0,0:0:0:0:
408,357,79122,1,0,0:0:0:0:
443,326,79208,2,0,P|475:282|487:222,1,93.75
408,44,79379,6,0,B|371:77|371:77|312:38,1,93.75
38,155,79551,2,0,B|75:188|75:188|134:149,1,93.75
399,241,79722,2,0,B|362:274|362:274|307:191|221:316|133:247,1,281.25
208,163,80065,5,0,0:0:0:0:
263,153,80151,1,0,0:0:0:0:
318,147,80236,1,0,0:0:0:0:
374,141,80322,1,0,0:0:0:0:
486,127,80408,5,0,0:0:0:0:
468,180,80494,1,0,0:0:0:0:
451,233,80579,1,0,0:0:0:0:
433,286,80665,1,0,0:0:0:0:
347,358,80751,5,0,0:0:0:0:
297,384,80836,1,0,0:0:0:0:
240,382,80922,1,0,0:0:0:0:
188,358,81008,1,0,0:0:0:0:
156,250,81094,5,0,0:0:0:0:
130,200,81179,1,0,0:0:0:0:
85,165,81265,1,0,0:0:0:0:
29,155,81351,1,0,0:0:0:0:
72,279,81436,5,0,0:0:0:0:
113,300,81522,1,0,0:0:0:0:
158,309,81608,1,0,0:0:0:0:
204,301,81694,1,0,0:0:0:0:
244,278,81779,2,0,P|333:244|391:240,1,93.75
378,237,81951,5,0,0:0:0:0:
423,227,82036,1,0,0:0:0:0:
464,205,82122,2,0,P|483:157|481:96,1,93.75
468,70,82294,5,0,0:0:0:0:
428,45,82379,1,0,0:0:0:0:
381,41,82465,2,0,L|233:44,1,93.75
240,49,82636,5,0,0:0:0:0:
211,86,82722,1,0,0:0:0:0:
205,132,82808,2,0,L|282:211,1,93.75
316,222,82979,5,0,0:0:0:0:
351,191,83065,1,0,0:0:0:0:
361,145,83151,2,0,P|396:99|463:81,1,93.75
474,87,83322,5,0,0:0:0:0:
502,124,83408,1,0,0:0:0:0:
500,170,83494,2,0,P|457:264|447:277,1,93.75
427,287,83665,5,0,0:0:0:0:
376,327,83751,1,0,0:0:0:0:
308,343,83836,1,0,0:0:0:0:
244,324,83922,1,0,0:0:0:0:
191,284,84008,1,0,0:0:0:0:
167,222,84094,1,0,0:0:0:0:
148,159,84179,2,0,P|87:133|14:127,1,93.75
31,173,84351,5,0,0:0:0:0:
4,210,84436,1,0,0:0:0:0:
7,256,84522,2,0,P|32:299|84:325,1,93.75
116,315,84694,5,0,0:0:0:0:
156,291,84779,1,0,0:0:0:0:
201,280,84865,2,0,P|267:271|336:287,1,93.75
338,289,85036,5,0,0:0:0:0:
378,312,85122,1,0,0:0:0:0:
424,303,85208,1,0,0:0:0:0:
448,262,85294,1,0,0:0:0:0:
441,216,85379,1,0,0:0:0:0:
405,185,85465,1,0,0:0:0:0:
358,182,85551,2,0,P|308:192|242:186,1,93.75
223,169,85722,5,0,0:0:0:0:
187,138,85808,1,0,0:0:0:0:
142,121,85894,2,0,L|35:109,1,93.75
5,91,86065,5,0,0:0:0:0:
4,44,86151,1,0,0:0:0:0:
34,17,86236,2,0,P|86:41|166:42,1,93.75
169,47,86408,5,0,0:0:0:0:
234,46,86494,1,0,0:0:0:0:
298,38,86579,1,0,0:0:0:0:
361,55,86665,1,0,0:0:0:0:
417,89,86751,1,0,0:0:0:0:
454,141,86836,1,0,0:0:0:0:
464,205,86922,2,0,L|468:310,1,93.75
389,255,87094,2,0,L|393:360,1,93.75
314,315,87265,5,0,0:0:0:0:
272,336,87351,1,0,0:0:0:0:
228,351,87436,1,0,0:0:0:0:
181,345,87522,1,0,0:0:0:0:
138,325,87608,2,0,P|71:308|23:302,1,93.75
17,267,87779,5,0,0:0:0:0:
43,228,87865,1,0,0:0:0:0:
87,213,87951,2,0,P|141:218|209:237,1,93.75
226,231,88122,5,0,0:0:0:0:
268,250,88208,1,0,0:0:0:0:
294,288,88294,2,0,L|344:367,1,93.75
390,376,88465,5,0,0:0:0:0:
434,361,88551,1,0,0:0:0:0:
461,323,88636,2,0,P|480:280|471:202,1,93.75
461,190,88808,5,0,0:0:0:0:
415,177,88894,1,0,0:0:0:0:
369,185,88979,2,0,P|323:229|281:237,1,93.75
248,247,89151,5,0,0:0:0:0:
183,239,89236,1,0,0:0:0:0:
131,198,89322,1,0,0:0:0:0:
109,135,89408,1,0,0:0:0:0:
110,69,89494,1,0,0:0:0:0:
140,16,89579,1,0,0:0:0:0:
178,64,89665,2,0,P|228:149|293:179,1,93.75
266,161,89836,5,0,0:0:0:0:
313,161,89922,1,0,0:0:0:0:
349,169,90008,1,0,0:0:0:0:
382,186,90094,1,0,0:0:0:0:
398,208,90179,1,0,0:0:0:0:
405,235,90265,1,0,0:0:0:0:
401,253,90351,1,0,0:0:0:0:
394,270,90436,5,0,0:0:0:0:
383,285,90522,1,0,0:0:0:0:
368,296,90608,1,0,0:0:0:0:
351,304,90694,1,0,0:0:0:0:
333,309,90779,1,0,0:0:0:0:
314,310,90865,1,0,0:0:0:0:
295,309,90951,1,0,0:0:0:0:
239,249,91036,5,0,0:0:0:0:
222,239,91122,1,0,0:0:0:0:
205,230,91208,1,0,0:0:0:0:
186,224,91294,1,0,0:0:0:0:
167,222,91379,2,0,P|118:219|68:224,1,93.75
247,338,91551,5,0,0:0:0:0:
263,346,91636,2,0,L|355:387,1,93.75
371,159,91808,5,0,0:0:0:0:
370,140,91894,2,0,L|365:25,1,93.75
97,22,92065,5,0,0:0:0:0:
85,36,92151,1,0,0:0:0:0:
75,51,92236,2,0,L|-15:169,1,93.75
256,192,92408,12,0,93951,0:0:0:0:
