osu file format v14

[General]
AudioFilename: audio.mp3
AudioLeadIn: 0
PreviewTime: 151036
Countdown: 0
SampleSet: None
StackLeniency: 0.7
Mode: 0
LetterboxInBreaks: 0
WidescreenStoryboard: 0

[Editor]
Bookmarks: 24169,35735,58868,70073,151398,180314,197663,203446,256940,274290,287482
DistanceSpacing: 1.6
BeatDivisor: 4
GridSize: 4
TimelineZoom: 1.250001

[Metadata]
Title:The Garnet
TitleUnicode:The Garnet
Artist:Hatsune Miku
ArtistUnicode:Hatsune Miku
Creator:przepson
Version:Sayonara
Source:
Tags:
BeatmapID:1346127
BeatmapSetID:634416

[Difficulty]
HPDrainRate:6.5
CircleSize:4.1
OverallDifficulty:8
ApproachRate:9.1
SliderMultiplier:1.4
SliderTickRate:1

[Events]
//Background and Video events
0,0,"sad.jpg",0,0
//Break Periods
2,216297,225633
//Storyboard Layer 0 (Background)
//Storyboard Layer 1 (Fail)
//Storyboard Layer 2 (Pass)
//Storyboard Layer 3 (Foreground)
//Storyboard Sound Samples

[TimingPoints]
1037,361.44578313253,4,2,0,30,1,0
10976,-153.846153846153,4,2,0,30,0,0
11880,-100,4,2,0,30,0,0
19832,-90.9090909090909,4,2,0,30,0,0
20555,-100,4,2,0,30,0,0
21277,-83.3333333333333,4,2,0,30,0,0
22000,-100,4,2,0,30,0,0
22904,-76.9230769230769,4,2,0,30,0,0
23627,-100,4,2,0,30,0,0
23808,-100,4,2,0,40,0,0
24169,-83.3333333333333,4,1,0,50,0,0
35735,-100,4,1,0,40,0,0
58868,-100,4,1,0,45,0,0
63115,-100,4,1,0,5,0,0
63205,-83.3333333333333,4,1,0,45,0,0
63476,-100,4,1,0,5,0,0
63567,-71.4285714285714,4,1,0,45,0,0
63838,-100,4,1,0,5,0,0
63928,-62.5,4,1,0,45,0,0
64199,-100,4,1,0,5,0,0
64290,-55.5555555555556,4,1,0,45,0,0
64561,-100,4,1,0,5,0,0
64651,-153.846153846153,4,1,0,46,0,0
70344,-100,4,1,0,5,0,0
70434,-76.9230769230769,4,1,0,50,0,1
71699,-153.846153846154,4,1,0,50,0,1
72603,-76.9230769230769,4,1,0,50,0,1
77302,-153.846153846154,4,1,0,50,0,1
78386,-76.9230769230769,4,1,0,50,0,1
80555,-125,4,1,0,50,0,1
81277,-200,4,1,0,50,0,1
81639,-76.9230769230769,4,1,0,50,0,0
87783,-90.9090909090909,4,2,0,22,0,0
88145,-100,4,2,0,22,0,0
88506,-111.111111111111,4,2,0,22,0,0
88868,-142.857142857143,4,2,0,22,0,0
90675,-125,4,2,0,22,0,0
91036,-111.111111111111,4,2,0,22,0,0
91398,-100,4,2,0,22,0,0
91759,-90.9090909090909,4,1,0,50,0,0
92121,-83.3333333333333,4,1,0,50,0,0
92482,-76.9230769230769,4,1,0,50,0,0
93567,-76.9230769230769,4,1,0,50,0,0
116699,-100,4,1,0,50,0,0
119591,-200,4,1,0,50,0,0
120314,-100,4,1,0,50,0,0
136036,-166.666666666667,4,1,0,50,0,0
136217,-100,4,1,0,50,0,0
137302,-66.6666666666667,4,1,0,50,0,0
137663,-100,4,1,0,50,0,0
139832,-100,4,1,0,45,0,0
144530,-83.3333333333333,4,1,0,45,0,0
144802,-100,4,1,0,5,0,0
144892,-71.4285714285714,4,1,0,45,0,0
145163,-100,4,1,0,5,0,0
145253,-62.5,4,1,0,45,0,0
145524,-100,4,1,0,5,0,0
145615,-100,4,1,0,46,0,0
151398,-76.9230769230769,4,1,0,46,0,1
152663,-153.846153846154,4,1,0,46,0,1
153567,-76.9230769230769,4,1,0,46,0,1
155555,-153.846153846154,4,1,0,46,0,1
156277,-76.9230769230769,4,1,0,46,0,1
161518,-153.846153846154,4,1,0,46,0,1
161880,-76.9230769230769,4,1,0,46,0,1
162241,-153.846153846154,4,1,0,46,0,1
162603,-76.9230769230769,4,1,0,46,0,1
162964,-153.846153846154,4,1,0,46,0,1
163326,-76.9230769230769,4,1,0,46,0,1
167302,-153.846153846154,4,1,0,46,0,1
168024,-76.9230769230769,4,1,0,46,0,1
174169,-76.9230769230769,4,1,0,46,0,0
180314,-55.5555555555556,4,1,0,50,0,1
181759,-71.4285714285714,4,1,0,50,0,1
203446,-100,4,1,0,45,0,0
207783,-83.3333333333333,4,1,0,45,0,0
208055,-100,4,1,0,5,0,0
208145,-71.4285714285714,4,1,0,45,0,0
208416,-100,4,1,0,5,0,0
208506,-62.5,4,1,0,45,0,0
208777,-100,4,1,0,5,0,0
208868,-55.5555555555556,4,1,0,45,0,0
209139,-100,4,1,0,5,0,0
209229,-100,4,1,0,45,0,0
214290,-100,4,1,0,50,0,0
228024,-66.6666666666667,4,1,0,50,0,1
228024,-100,4,1,0,50,0,1
228386,-100,4,1,0,50,0,1
232362,-142.857142857143,4,1,0,50,0,1
233085,-100,4,1,0,50,0,1
239229,-100,4,1,0,50,0,0
241036,-200,4,1,0,50,0,0
241940,-100,4,1,0,50,0,0
247543,-200,4,1,0,50,0,0
247904,-100,4,1,0,50,0,0
248265,-200,4,1,0,50,0,0
248988,-100,4,1,0,50,0,0
251157,-100,4,1,0,50,0,1
254952,-100,4,2,0,50,0,0
256940,-66.6666666666667,4,1,0,50,0,1
262723,-83.3333333333333,4,1,0,50,0,0
271398,-76.9230769230769,4,1,0,50,0,0
274290,-83.3333333333333,4,1,0,50,0,1
285856,-100,4,1,0,35,0,0

[HitObjects]
88,240,1037,6,0,P|80:272|88:312,1,70
312,288,2030,2,0,P|352:288|384:304,1,70
360,216,2392,2,0,P|400:216|432:232,1,70
496,276,2753,1,2,0:0:0:0:
448,96,3928,6,0,P|428:76|376:72,1,70
136,84,5012,1,0,0:0:0:0:
92,156,5193,1,0,0:0:0:0:
200,188,5374,1,0,0:0:0:0:
240,260,5555,1,0,0:0:0:0:
408,336,6820,6,0,P|444:308|436:268,1,70
336,60,7904,1,0,0:0:0:0:
260,100,8085,1,0,0:0:0:0:
408,140,8265,1,0,0:0:0:0:
332,100,8446,1,0,0:0:0:0:
280,272,9169,5,0,0:0:0:0:
200,304,9350,1,0,0:0:0:0:
68,260,9530,1,0,0:0:0:0:
212,192,9711,1,2,0:0:0:0:
64,112,10073,2,2,P|60:152|100:196,1,70
216,256,10615,1,0,0:0:0:0:
216,256,10796,1,2,0:0:0:0:
216,256,10976,2,0,P|264:288|304:172,1,227.499989585877
156,88,12603,6,0,B|100:80|100:80|120:152|120:152|92:172,1,140
112,157,13145,1,0,0:0:0:0:
48,232,13326,1,2,0:0:0:0:
292,336,13687,1,0,0:0:0:0:
248,248,13868,1,2,0:0:0:0:
208,160,14049,2,0,B|184:88|184:88|252:104,1,140
300,188,14591,1,0,0:0:0:0:
416,132,14771,1,8,0:0:0:0:
416,132,14952,1,8,0:0:0:0:
308,276,15494,5,0,0:0:0:0:
232,240,15675,1,2,0:0:0:0:
340,204,15856,1,0,0:0:0:0:
264,308,16036,1,0,0:0:0:0:
276,168,16217,1,2,0:0:0:0:
276,168,16579,5,0,0:0:0:0:
276,168,16759,1,2,0:0:0:0:
421,139,16940,2,0,P|420:192|412:220,1,70
380,268,17302,2,6,P|420:196|416:120,2,140,2|2|2,0:0|0:0|0:0,0:0:0:0:
380,268,18205,1,0,0:0:0:0:
224,300,18386,6,0,P|164:256|184:64,1,280
180,72,19470,1,0,0:0:0:0:
180,72,19651,1,2,0:0:0:0:
348,48,19832,6,0,P|376:68|392:320,1,308.000009399414
396,314,20735,1,8,0:0:0:0:
292,328,20916,2,8,L|212:336,1,70
116,340,21277,6,0,P|64:268|128:40,1,335.999989746094
124,48,22362,1,0,0:0:0:0:
124,48,22543,1,0,0:0:0:0:
228,40,22723,1,0,0:0:0:0:
332,52,22904,2,0,P|364:80|304:364,1,363.999983337403
200,344,23808,6,12,L|156:324,1,35
136,316,23988,2,12,L|174:332,1,35
196,244,24169,5,4,0:0:0:0:
108,144,24350,1,0,0:0:0:0:
236,172,24530,1,0,0:0:0:0:
116,228,24711,1,0,0:0:0:0:
216,36,24892,1,10,0:0:0:0:
432,204,25253,2,0,P|408:176|348:140,1,83.9999974365235
432,268,25615,2,0,P|404:299|369:322,1,83.9999974365235
316,236,25976,5,0,0:0:0:0:
316,236,26157,1,0,0:0:0:0:
196,140,26338,5,8,0:0:0:0:
392,36,26518,1,8,0:0:0:0:
232,32,26699,1,8,0:0:0:0:
320,280,26880,1,8,0:0:0:0:
152,228,27061,6,0,P|144:204|96:240,1,83.9999974365235
164,328,27422,2,0,P|156:352|108:316,1,83.9999974365235
220,272,27783,1,0,0:0:0:0:
388,108,28145,2,0,B|348:140|348:140|348:192,1,83.9999974365235
228,108,28506,2,0,B|268:140|268:140|268:192,1,83.9999974365235
308,44,28868,5,0,0:0:0:0:
308,44,29049,1,0,0:0:0:0:
308,232,29229,5,0,0:0:0:0:
48,316,29410,1,0,0:0:0:0:
40,160,29591,1,0,0:0:0:0:
296,336,29771,1,0,0:0:0:0:
84,240,29952,5,0,0:0:0:0:
24,120,30133,1,0,0:0:0:0:
148,168,30314,1,0,0:0:0:0:
104,40,30494,1,0,0:0:0:0:
68,192,30675,1,0,0:0:0:0:
320,100,31036,6,0,L|408:44,1,83.9999974365235
320,168,31398,2,0,L|408:224,1,83.9999974365235
500,136,31759,5,0,0:0:0:0:
500,136,31940,1,0,0:0:0:0:
340,52,32121,5,0,0:0:0:0:
304,208,32302,1,0,0:0:0:0:
268,32,32482,1,0,0:0:0:0:
232,188,32663,1,0,0:0:0:0:
92,120,32844,5,0,0:0:0:0:
208,340,33024,1,0,0:0:0:0:
40,204,33205,1,0,0:0:0:0:
240,176,33386,1,0,0:0:0:0:
228,348,33567,1,0,0:0:0:0:
120,116,33747,1,0,0:0:0:0:
324,288,33928,1,0,0:0:0:0:
324,288,34018,1,0,0:0:0:0:
324,288,34109,1,0,0:0:0:0:
128,240,34290,5,0,0:0:0:0:
92,72,34470,1,0,0:0:0:0:
220,228,34651,1,0,0:0:0:0:
424,176,34832,1,0,0:0:0:0:
264,48,35012,1,0,0:0:0:0:
296,292,35193,1,0,0:0:0:0:
444,32,35374,1,0,0:0:0:0:
184,124,35555,1,0,0:0:0:0:
104,264,35735,5,0,0:0:0:0:
104,264,35916,1,0,0:0:0:0:
240,328,36458,1,0,0:0:0:0:
296,196,36820,2,0,P|276:132|260:116,1,70
196,156,37181,2,0,P|139:119|112:120,1,70
138,119,37543,1,0,2:2:0:0:
84,280,37904,1,0,0:0:0:0:
84,280,38265,1,0,2:2:0:0:
276,332,38627,6,0,L|200:292,1,70
214,299,38988,1,0,2:2:0:0:
68,212,39350,1,0,0:0:0:0:
124,56,39711,2,0,P|136:88|168:124,1,70
240,100,40073,2,0,P|269:116|317:123,1,70
304,123,40434,1,0,2:0:0:0:
340,288,40796,5,0,0:0:0:0:
216,224,40976,1,0,0:0:0:0:
428,136,41157,1,0,0:0:0:0:
204,44,41338,1,0,0:0:0:0:
40,44,41518,6,0,L|40:120,1,70
40,114,41880,1,0,2:0:0:0:
104,268,42241,1,0,0:0:0:0:
272,284,42603,1,0,0:0:0:0:
272,284,42783,1,0,0:0:0:0:
236,208,42964,1,0,0:0:0:0:
236,208,43145,1,0,0:0:0:0:
320,220,43326,6,0,P|360:232|436:172,1,140
434,178,43868,1,0,0:0:0:0:
434,178,44049,1,0,0:0:0:0:
452,96,44229,1,0,0:0:0:0:
320,40,44410,6,0,P|280:56|244:96,1,70
208,192,44771,1,0,0:0:0:0:
84,164,44952,1,0,0:0:0:0:
192,60,45133,1,0,0:0:0:0:
256,196,45314,1,0,0:0:0:0:
116,324,45494,5,0,0:0:0:0:
288,324,45675,2,0,P|340:328|376:296,1,70
116,324,46036,1,0,0:0:0:0:
288,228,46217,1,0,0:0:0:0:
416,172,46398,1,0,0:0:0:0:
376,40,46579,1,0,0:0:0:0:
236,44,46759,1,0,0:0:0:0:
148,156,46940,1,0,0:0:0:0:
148,156,47121,1,0,0:0:0:0:
140,296,47302,6,0,B|140:320|140:320|180:320|180:320|192:300,1,70
264,300,47663,1,0,2:0:0:0:
264,300,48024,1,0,0:0:0:0:
420,240,48386,2,0,P|376:216|332:216,1,70
383,136,48747,2,0,P|418:143|447:162,1,70
300,136,49109,1,0,2:0:0:0:
164,36,49470,1,0,0:0:0:0:
44,152,49832,1,0,0:0:0:0:
152,280,50193,6,0,B|184:312|184:312|216:284,1,70
202,295,50555,1,0,2:0:0:0:
202,295,50916,1,0,0:0:0:0:
372,300,51277,1,0,0:0:0:0:
452,276,51458,1,0,0:0:0:0:
352,200,51639,1,0,0:0:0:0:
272,180,51820,1,0,0:0:0:0:
272,180,52000,1,0,2:0:0:0:
36,196,52362,5,0,0:0:0:0:
164,116,52543,2,0,P|184:164|180:208,1,70
168,332,52904,1,4,2:0:0:0:
252,336,53085,5,0,0:0:0:0:
252,336,53265,1,0,0:0:0:0:
252,336,53446,1,0,2:0:0:0:
396,248,53808,1,0,0:0:0:0:
252,336,54169,2,0,L|196:256,1,70
260,336,54530,2,0,L|316:256,1,70
256,208,54892,1,0,0:0:0:0:
256,40,55253,1,0,0:0:0:0:
136,64,55434,6,0,P|84:80|76:112,1,70
60,208,55796,1,0,0:0:0:0:
60,208,55886,1,0,0:0:0:0:
60,208,55976,1,0,0:0:0:0:
196,304,56157,1,0,0:0:0:0:
196,304,56338,1,0,0:0:0:0:
176,116,56518,1,0,0:0:0:0:
176,116,56699,1,0,0:0:0:0:
416,272,56880,1,0,0:0:0:0:
136,240,57061,1,0,0:0:0:0:
136,240,57241,1,0,0:0:0:0:
40,52,57422,1,0,0:0:0:0:
256,192,57603,12,0,58687,0:0:0:0:
264,272,58868,6,0,P|296:304|384:288,1,140
432,220,59410,1,0,0:0:0:0:
452,136,59591,1,0,0:0:0:0:
408,64,59771,1,0,0:0:0:0:
328,40,59952,1,0,0:0:0:0:
252,80,60133,1,0,0:0:0:0:
168,68,60314,1,0,0:0:0:0:
84,84,60494,1,0,0:0:0:0:
44,160,60675,1,0,0:0:0:0:
44,244,60856,6,0,P|56:292|96:324,1,70
68,307,61217,1,0,0:0:0:0:
152,232,61398,1,0,0:0:0:0:
224,316,61579,1,0,0:0:0:0:
236,204,61759,1,0,0:0:0:0:
316,284,61940,1,0,0:0:0:0:
316,172,62121,1,0,0:0:0:0:
424,204,62302,1,0,0:0:0:0:
440,92,62482,1,0,0:0:0:0:
220,40,62844,6,0,P|172:36|136:96,1,105,0|0,0:0|2:0,0:0:0:0:
196,124,63205,2,0,P|200:176|124:192,1,125.999996154785,0|0,0:0|2:0,0:0:0:0:
112,272,63567,2,0,P|196:280|252:244,1,146.999995513916,0|0,0:0|2:0,0:0:0:0:
288,184,63928,2,0,B|312:152|320:124|320:124|344:156|336:224,1,168,0|0,0:0|2:0,0:0:0:0:
344,296,64290,2,0,P|396:312|448:200,1,188.999994232178,0|0,0:0|2:0,0:0:0:0:
424,144,64651,5,0,0:0:0:0:
424,144,64741,1,0,0:0:0:0:
424,144,64832,1,0,0:0:0:0:
372,60,65012,1,0,0:0:0:0:
180,24,65374,1,0,0:0:0:0:
8,120,65735,1,0,0:0:0:0:
64,200,65916,5,0,2:0:0:0:
56,296,66097,1,0,0:0:0:0:
56,296,66277,1,0,0:0:0:0:
56,296,66458,1,0,0:0:0:0:
252,300,66820,1,4,0:0:0:0:
408,180,67181,1,0,0:0:0:0:
324,72,67362,5,0,0:0:0:0:
276,60,67452,1,0,0:0:0:0:
228,56,67543,1,0,0:0:0:0:
324,72,68085,1,0,0:0:0:0:
276,60,68175,1,0,0:0:0:0:
228,56,68265,1,0,0:0:0:0:
228,56,68446,1,0,0:0:0:0:
140,100,68627,1,0,0:0:0:0:
284,248,68808,1,0,0:0:0:0:
48,176,68988,5,0,0:0:0:0:
56,252,69350,1,0,0:0:0:0:
196,104,69530,1,0,0:0:0:0:
244,88,69621,1,0,0:0:0:0:
292,80,69711,1,0,0:0:0:0:
504,84,69892,1,0,0:0:0:0:
460,228,70073,6,0,P|440:240|396:248,1,68.2499968757631
300,236,70434,5,0,0:0:0:0:
176,88,70615,2,0,P|136:104|120:156,1,90.9999958343508
164,332,70976,1,0,0:0:0:0:
244,296,71157,1,0,0:0:0:0:
432,248,71338,5,0,0:0:0:0:
352,88,71518,2,0,P|328:128|316:136,1,45.4999979171754
252,88,71699,2,0,P|280:196|380:196,1,227.499989585877
428,336,72783,5,0,0:0:0:0:
260,300,72964,1,0,0:0:0:0:
88,312,73145,1,0,0:0:0:0:
100,204,73326,2,0,P|132:176|152:172,1,45.4999979171754
144,100,73506,2,0,P|192:128|208:168,1,90.9999958343508
256,232,73868,1,0,0:0:0:0:
256,232,73958,1,0,0:0:0:0:
256,232,74049,1,0,0:0:0:0:
368,196,74229,2,0,P|384:248|376:292,1,90.9999958343508
312,332,74591,5,0,0:0:0:0:
144,328,74771,1,0,0:0:0:0:
224,220,74952,2,0,P|240:184|252:176,1,45.4999979171754
172,200,75133,2,0,P|188:164|200:156,1,45.4999979171754
120,180,75314,2,0,P|136:144|148:136,1,45.4999979171754
68,160,75494,2,0,P|108:88|172:72,1,136.499993751526
252,64,75856,5,0,0:0:0:0:
280,224,76036,1,0,0:0:0:0:
460,184,76217,2,0,P|472:264|388:328,1,181.999991668702
388,236,76759,2,0,P|356:248|316:304,1,90.9999958343508
268,348,77121,1,0,0:0:0:0:
148,236,77302,1,0,0:0:0:0:
148,236,77482,2,0,B|180:248|220:296|220:296|244:220|312:176,1,227.499989585877
300,88,78567,5,0,0:0:0:0:
300,88,78747,1,0,0:0:0:0:
212,240,78928,1,0,0:0:0:0:
376,288,79109,5,0,0:0:0:0:
36,100,79650,1,0,0:0:0:0:
376,288,79651,1,0,0:0:0:0:
368,40,80012,1,0,0:0:0:0:
339,86,80102,1,0,0:0:0:0:
303,126,80192,1,0,0:0:0:0:
259,159,80283,1,0,0:0:0:0:
209,181,80373,1,0,0:0:0:0:
156,193,80463,1,0,0:0:0:0:
104,200,80555,1,0,0:0:0:0:
104,200,80645,1,0,0:0:0:0:
104,200,80735,2,0,P|104:244|184:312,1,140
228,180,81277,2,0,P|208:216|184:232,1,70
444,316,82000,5,0,0:0:0:0:
440,16,82362,1,0,0:0:0:0:
360,200,82723,1,0,0:0:0:0:
370,298,83085,1,0,0:0:0:0:
231,262,83266,1,0,0:0:0:0:
364,160,83446,6,0,B|364:20|332:20|300:100|300:100|248:108|248:108|244:76|244:76|224:20|196:96|200:148,1,363.999983337403
144,220,84530,1,0,0:0:0:0:
144,220,84711,1,0,0:0:0:0:
376,240,84892,5,0,0:0:0:0:
220,88,85073,1,0,0:0:0:0:
428,200,85253,1,0,0:0:0:0:
212,312,85434,1,0,0:0:0:0:
64,16,85615,1,0,0:0:0:0:
476,40,85976,6,0,P|460:80|404:108,1,90.9999958343508
324,112,86338,1,0,0:0:0:0:
248,212,86518,1,0,0:0:0:0:
188,100,86699,1,0,0:0:0:0:
72,44,86880,1,0,0:0:0:0:
40,168,87061,1,0,0:0:0:0:
40,168,87241,1,0,0:0:0:0:
344,24,87422,1,0,0:0:0:0:
364,296,87783,6,0,P|348:256|312:224,1,77.0000023498536
424,224,88145,2,0,P|395:191|358:171,1,70
452,136,88506,2,0,P|414:115|380:112,1,62.9999980773926
456,48,88868,2,0,P|413:41|400:44,1,48.9999985046387
340,52,89229,5,0,0:0:0:0:
312,72,89410,1,0,0:0:0:0:
280,84,89591,1,0,0:0:0:0:
248,92,89771,1,0,0:0:0:0:
212,96,89952,1,0,0:0:0:0:
180,100,90133,1,0,0:0:0:0:
116,128,90314,1,0,0:0:0:0:
92,192,90494,1,0,0:0:0:0:
172,192,90675,6,0,B|192:180|208:200|232:196,1,56
260,116,91036,2,0,B|281:107|294:130|323:127,1,62.9999980773926
300,224,91398,2,0,B|322:219|331:243|368:244,1,70
388,140,91759,2,0,B|411:139|415:164|456:172,1,77.0000023498536
492,284,92121,2,0,B|468:287|469:313|423:328,1,83.9999974365235
312,264,92482,2,0,B|288:263|284:288|219:304,1,90.9999958343508
208,176,92844,2,0,P|212:136|180:188,1,181.999991668702
344,80,93567,5,0,0:0:0:0:
400,164,93747,1,0,0:0:0:0:
352,252,93928,1,0,0:0:0:0:
260,292,94109,1,0,0:0:0:0:
256,140,94290,1,0,0:0:0:0:
256,140,94470,5,0,0:0:0:0:
120,164,94650,1,0,0:0:0:0:
168,252,94831,1,0,0:0:0:0:
260,292,95012,1,0,0:0:0:0:
256,140,95193,1,0,0:0:0:0:
256,140,95374,1,0,0:0:0:0:
256,140,95555,1,0,0:0:0:0:
408,40,95735,6,0,L|484:104,1,90.9999958343508
476,208,96097,2,0,L|400:272,1,90.9999958343508
384,160,96458,5,0,0:0:0:0:
288,104,96639,1,0,0:0:0:0:
288,104,96729,1,0,0:0:0:0:
288,104,96820,1,0,0:0:0:0:
84,159,97000,1,0,0:0:0:0:
234,160,97181,5,0,0:0:0:0:
234,50,97362,1,0,0:0:0:0:
234,160,97543,1,0,0:0:0:0:
234,268,97723,1,0,0:0:0:0:
234,268,97814,1,0,0:0:0:0:
234,268,97904,1,0,0:0:0:0:
234,160,98085,1,0,0:0:0:0:
234,160,98265,1,0,0:0:0:0:
234,160,98446,1,0,0:0:0:0:
486,368,98627,6,0,L|412:305,1,90.9999958343508
315,268,98988,2,0,L|389:205,1,90.9999958343508
399,90,99350,5,0,0:0:0:0:
305,161,99530,1,0,0:0:0:0:
305,161,99621,1,0,0:0:0:0:
305,161,99711,1,0,0:0:0:0:
352,64,99891,5,0,0:0:0:0:
244,48,100073,1,0,0:0:0:0:
296,144,100253,1,0,0:0:0:0:
304,36,100434,1,0,0:0:0:0:
204,76,100614,1,0,0:0:0:0:
204,76,100705,1,0,0:0:0:0:
204,76,100796,1,0,0:0:0:0:
256,56,100976,1,0,0:0:0:0:
164,116,101157,1,0,0:0:0:0:
228,204,101338,1,0,0:0:0:0:
14,364,101518,6,0,P|39:285|56:272,1,90.9999958343508
109,344,101880,2,0,P|134:306|137:261,1,90.9999958343508
129,134,102241,5,0,0:0:0:0:
236,64,102422,5,0,0:0:0:0:
287,82,102512,1,0,0:0:0:0:
327,119,102603,1,0,0:0:0:0:
263,228,102783,5,0,0:0:0:0:
384,268,102964,5,0,0:0:0:0:
344,316,103055,1,0,0:0:0:0:
280,328,103145,1,0,0:0:0:0:
114,264,103326,5,0,0:0:0:0:
156,312,103417,1,0,0:0:0:0:
216,328,103507,1,0,0:0:0:0:
244,204,103687,5,0,0:0:0:0:
116,204,103868,1,0,0:0:0:0:
216,16,104049,5,0,0:0:0:0:
344,16,104229,1,0,0:0:0:0:
244,76,104410,5,0,0:0:0:0:
244,76,104500,1,0,0:0:0:0:
244,76,104591,1,0,0:0:0:0:
32,32,104771,5,0,0:0:0:0:
32,160,104952,1,0,0:0:0:0:
140,328,105133,5,0,0:0:0:0:
189,305,105223,1,0,0:0:0:0:
229,268,105313,1,0,0:0:0:0:
257,221,105404,1,0,0:0:0:0:
276,172,105494,2,0,L|324:176,2,45.4999979171754
176,128,105856,1,0,0:0:0:0:
388,76,106217,6,0,L|308:24,1,90.9999958343508
388,76,106579,2,0,L|416:188,1,90.9999958343508
388,76,106940,1,0,0:0:0:0:
388,76,107121,1,0,0:0:0:0:
180,40,107302,5,0,0:0:0:0:
184,300,107482,1,0,0:0:0:0:
256,36,107663,1,0,0:0:0:0:
256,296,107844,1,0,0:0:0:0:
404,324,108024,5,0,0:0:0:0:
366,291,108114,1,0,0:0:0:0:
340,248,108204,1,0,0:0:0:0:
330,199,108295,1,0,0:0:0:0:
324,144,108386,2,0,L|272:121,2,45.4999979171754
428,176,108747,1,0,0:0:0:0:
56,336,109109,6,0,P|72:288|120:260,1,90.9999958343508
136,336,109470,1,0,0:0:0:0:
216,336,109651,2,0,P|200:288|152:260,1,90.9999958343508
264,68,110193,6,0,L|344:144,1,90.9999958343508
224,164,110555,2,0,P|264:188|296:236,1,90.9999958343508
376,292,110916,6,0,L|352:340,2,45.4999979171754
268,268,111277,1,0,0:0:0:0:
160,292,111458,2,0,L|184:340,1,45.4999979171754
302,163,112000,2,0,L|248:159,2,45.4999979171754
268,268,112362,1,0,0:0:0:0:
268,268,112543,1,0,0:0:0:0:
344,108,112723,1,0,0:0:0:0:
344,108,112904,1,0,0:0:0:0:
72,40,113085,5,0,0:0:0:0:
240,176,113265,1,0,0:0:0:0:
240,200,113446,1,0,0:0:0:0:
48,52,113626,1,0,0:0:0:0:
72,228,113808,1,0,0:0:0:0:
112,256,113898,1,0,0:0:0:0:
152,288,113988,1,0,0:0:0:0:
308,336,114169,2,0,P|324:292|316:232,1,90.9999958343508
448,144,114530,5,0,0:0:0:0:
312,52,114711,1,0,0:0:0:0:
372,204,114892,1,0,0:0:0:0:
212,236,115073,1,0,0:0:0:0:
124,100,115253,5,0,0:0:0:0:
177,110,115343,1,0,0:0:0:0:
230,121,115433,1,0,0:0:0:0:
187,146,115525,1,0,0:0:0:0:
143,171,115615,1,0,0:0:0:0:
100,195,115706,1,0,0:0:0:0:
60,224,115796,1,0,0:0:0:0:
105,230,115886,1,0,0:0:0:0:
150,236,115976,5,0,0:0:0:0:
195,242,116067,1,0,0:0:0:0:
240,249,116157,1,0,0:0:0:0:
285,255,116247,1,0,0:0:0:0:
336,264,116338,2,0,P|360:292|408:324,1,90.9999958343508
428,228,116699,6,0,P|428:156|240:64,1,280
276,148,117783,2,0,P|312:144|344:176,1,70
296,252,118145,2,0,P|317:281|305:324,1,70
220,280,118506,1,0,0:0:0:0:
126,249,118687,1,0,0:0:0:0:
126,151,118868,1,0,0:0:0:0:
320,280,119229,1,0,0:0:0:0:
320,280,119591,2,0,P|340:292|360:296,2,35
320,280,120314,1,0,0:0:0:0:
448,96,120675,5,0,0:0:0:0:
420,192,120856,1,0,0:0:0:0:
324,188,121036,1,0,0:0:0:0:
268,268,121217,1,0,0:0:0:0:
96,296,121759,5,0,0:0:0:0:
240,224,121940,1,0,0:0:0:0:
88,84,122121,1,0,0:0:0:0:
304,188,122302,1,0,0:0:0:0:
260,100,122482,5,0,0:0:0:0:
308,100,122573,1,0,0:0:0:0:
356,116,122663,1,0,0:0:0:0:
392,148,122753,1,0,0:0:0:0:
416,192,122844,2,0,P|420:248|368:320,1,140
180,332,123567,5,0,0:0:0:0:
308,248,123747,1,0,0:0:0:0:
152,244,123928,1,0,0:0:0:0:
280,160,124109,1,0,0:0:0:0:
372,36,124290,2,0,P|392:68|392:112,1,70
404,252,124651,5,0,0:0:0:0:
384,280,124832,1,0,0:0:0:0:
368,304,125012,1,0,0:0:0:0:
356,324,125193,1,0,0:0:0:0:
200,324,125374,6,0,P|84:312|72:168,1,280
200,156,126277,1,0,0:0:0:0:
260,204,126458,1,0,0:0:0:0:
296,136,126639,2,0,P|336:192|336:204,1,70
340,268,127000,5,0,0:0:0:0:
452,180,127181,1,0,0:0:0:0:
340,268,127362,1,0,0:0:0:0:
228,352,127543,2,0,P|204:312|200:280,1,70
72,348,127904,1,0,0:0:0:0:
112,72,128265,5,0,0:0:0:0:
172,108,128356,1,0,0:0:0:0:
172,108,128401,1,0,0:0:0:0:
172,108,128446,1,0,0:0:0:0:
304,152,128627,1,0,0:0:0:0:
420,72,128808,1,0,0:0:0:0:
476,200,128988,2,0,P|472:244|456:280,1,70
336,332,129350,1,0,0:0:0:0:
196,332,129530,1,0,0:0:0:0:
124,188,129711,6,0,L|100:184,2,17.5
116,108,129892,1,0,0:0:0:0:
196,108,129982,2,0,L|209:96,2,17.5
352,64,130253,1,0,0:0:0:0:
352,64,130434,2,0,P|352:136|416:172,1,140
152,156,131157,6,0,B|168:248|292:288|292:288|240:324|108:312,1,385
68,256,132241,1,0,0:0:0:0:
84,112,132422,1,0,0:0:0:0:
344,56,132603,1,0,0:0:0:0:
344,56,132783,1,0,0:0:0:0:
400,104,132964,1,0,0:0:0:0:
476,264,133326,5,0,0:0:0:0:
372,228,133506,2,0,L|320:192,1,35
380,164,133687,2,0,L|348:180,2,35
240,316,134049,6,0,P|260:276|288:248,1,70
396,196,134410,1,0,0:0:0:0:
264,16,134771,1,0,0:0:0:0:
132,220,135133,6,0,P|132:252|160:296,1,70
272,336,135494,2,0,P|220:344|196:328,1,70
244,208,135856,1,0,0:0:0:0:
264,104,136036,2,0,P|292:120|304:132,1,41.9999987182618
400,160,136398,5,0,0:0:0:0:
388,264,136579,1,0,0:0:0:0:
328,300,136759,1,0,0:0:0:0:
328,300,136850,1,0,0:0:0:0:
392,272,136940,6,0,P|376:232|352:204,1,70
424,64,137302,2,0,P|356:72|316:96,2,105.000004005432
404,168,137844,1,0,0:0:0:0:
308,124,138024,1,0,0:0:0:0:
152,88,138205,2,0,P|152:128|176:156,1,70
128,304,138747,2,0,P|152:324|200:340,1,70
272,288,139109,6,0,B|260:264|244:292|268:328|316:292|292:232|212:240|204:312|228:352|308:356|348:312,1,210
408,232,139832,5,0,0:0:0:0:
488,56,140012,1,0,0:0:0:0:
408,232,140193,1,0,0:0:0:0:
376,116,140374,1,0,0:0:0:0:
408,232,140555,1,0,0:0:0:0:
220,84,140735,1,0,0:0:0:0:
408,232,140916,1,0,0:0:0:0:
292,256,141097,1,0,0:0:0:0:
408,232,141277,2,0,P|436:252|416:296,1,90.9999958343508
272,336,141639,5,0,0:0:0:0:
132,296,141820,1,0,0:0:0:0:
32,192,142000,1,0,0:0:0:0:
172,232,142181,1,0,0:0:0:0:
68,128,142362,1,0,0:0:0:0:
208,168,142543,1,0,0:0:0:0:
108,64,142723,1,0,0:0:0:0:
108,64,142904,1,0,0:0:0:0:
396,36,143265,5,0,0:0:0:0:
456,148,143446,1,0,0:0:0:0:
416,268,143627,1,0,0:0:0:0:
304,332,143808,1,0,0:0:0:0:
176,332,143988,1,0,0:0:0:0:
60,284,144169,1,0,0:0:0:0:
56,104,144530,6,0,P|84:72|180:68,1,125.999996154785,0|0,0:0|2:0,0:0:0:0:
132,132,144892,2,0,P|208:132|248:72,1,146.999995513916,0|0,0:0|2:0,0:0:0:0:
312,124,145253,2,0,P|264:188|168:216,1,168,0|0,0:0|2:0,0:0:0:0:
108,208,145615,5,0,0:0:0:0:
108,208,145705,1,0,0:0:0:0:
108,208,145796,1,0,0:0:0:0:
148,76,145976,1,0,0:0:0:0:
368,36,146338,1,0,0:0:0:0:
368,36,146699,1,0,0:0:0:0:
428,252,147061,1,0,0:0:0:0:
336,316,147241,1,0,0:0:0:0:
428,252,147422,1,0,0:0:0:0:
300,68,147783,1,0,0:0:0:0:
88,140,148145,5,0,0:0:0:0:
60,248,148326,1,0,0:0:0:0:
60,248,148416,1,0,0:0:0:0:
60,248,148506,1,0,0:0:0:0:
252,324,148687,1,0,0:0:0:0:
156,156,148868,1,0,0:0:0:0:
252,324,149049,2,0,L|348:336,1,70
456,192,149410,5,0,0:0:0:0:
416,152,149500,1,0,0:0:0:0:
368,120,149591,1,0,0:0:0:0:
196,40,149771,1,0,0:0:0:0:
264,208,149952,1,0,0:0:0:0:
40,100,150133,1,0,0:0:0:0:
140,324,150314,1,0,0:0:0:0:
140,324,150494,1,0,0:0:0:0:
344,268,150675,1,0,0:0:0:0:
384,228,150765,1,0,0:0:0:0:
416,180,150856,1,0,0:0:0:0:
176,336,151036,1,0,0:0:0:0:
72,120,151217,1,0,0:0:0:0:
260,48,151398,6,0,P|296:48|388:152,1,181.999991668702
288,140,151940,2,0,P|304:196|336:232,1,90.9999958343508
428,316,152302,1,0,0:0:0:0:
224,312,152482,1,0,0:0:0:0:
84,176,152663,2,0,P|104:144|268:172,1,227.499989585877
176,196,153747,5,0,0:0:0:0:
264,256,153928,1,0,0:0:0:0:
344,188,154109,1,0,0:0:0:0:
344,188,154290,2,0,P|344:136|324:96,1,90.9999958343508
152,52,154651,2,0,P|160:108|184:156,1,90.9999958343508
184,288,155012,1,0,0:0:0:0:
88,120,155193,1,0,0:0:0:0:
268,72,155374,2,0,L|304:100,1,45.4999979171754
360,48,155555,2,0,P|360:112|344:152,2,90.9999958343508
140,272,156458,5,0,0:0:0:0:
132,248,156639,1,0,0:0:0:0:
120,212,156820,5,0,0:0:0:0:
104,164,157000,2,0,B|128:132|160:128|212:160,1,90.9999958343508
232,176,157271,1,0,0:0:0:0:
272,212,157362,1,0,0:0:0:0:
432,188,157723,1,0,0:0:0:0:
416,180,157814,1,0,0:0:0:0:
400,180,157904,1,0,0:0:0:0:
304,344,158085,1,0,0:0:0:0:
120,320,158265,1,0,0:0:0:0:
136,136,158446,2,0,P|196:168|240:232,1,136.499993751526
336,136,158808,2,0,P|276:168|232:232,1,136.499993751526
235,222,159350,5,0,0:0:0:0:
404,288,159530,1,0,0:0:0:0:
432,108,159711,1,0,0:0:0:0:
472,284,159892,1,0,0:0:0:0:
288,292,160073,2,0,P|252:312|192:324,1,90.9999958343508
156,148,160434,1,0,0:0:0:0:
124,328,160615,2,0,P|92:296|68:236,1,90.9999958343508
252,232,160976,5,0,0:0:0:0:
372,96,161157,1,0,0:0:0:0:
252,232,161338,1,0,0:0:0:0:
92,92,161518,1,0,0:0:0:0:
88,248,161699,2,0,L|72:272,2,22.7499989585877
412,104,162061,1,0,0:0:0:0:
408,100,162241,2,0,P|368:84|352:80,1,45.4999979171754
412,104,162603,1,0,0:0:0:0:
440,208,162693,5,0,0:0:0:0:
440,208,162783,1,0,0:0:0:0:
440,208,162874,1,0,0:0:0:0:
440,208,162964,2,0,P|428:244|384:284,1,90.9999958343508
360,204,163506,1,0,0:0:0:0:
468,56,163687,1,0,0:0:0:0:
316,48,163868,6,0,P|300:96|284:136,1,90.9999958343508
224,56,164229,2,0,P|204:200|376:92,1,454.999979171754
356,332,165314,1,0,0:0:0:0:
432,208,165494,1,0,0:0:0:0:
424,352,165675,1,0,0:0:0:0:
280,320,165856,6,0,P|240:332|180:316,1,90.9999958343508
232,184,166217,1,0,0:0:0:0:
280,48,166398,2,0,P|240:36|180:52,1,90.9999958343508
232,184,166759,1,0,0:0:0:0:
112,100,166940,1,0,0:0:0:0:
81,144,167030,1,0,0:0:0:0:
76,198,167120,1,0,0:0:0:0:
99,247,167211,1,0,0:0:0:0:
136,288,167302,1,0,0:0:0:0:
136,288,167482,2,0,P|208:328|280:336,1,136.499993751526
380,212,168205,5,0,0:0:0:0:
448,340,168386,1,0,0:0:0:0:
304,340,168567,5,0,0:0:0:0:
192,56,168747,1,0,0:0:0:0:
192,56,168838,1,0,0:0:0:0:
192,56,168928,1,0,0:0:0:0:
148,256,169109,1,0,0:0:0:0:
148,256,169290,2,0,P|164:292|224:312,2,90.9999958343508
276,324,169832,1,0,0:0:0:0:
420,308,170012,2,0,B|476:224|272:96|272:96|272:284,1,454.999979171754
136,208,171097,5,0,0:0:0:0:
188,72,171277,1,0,0:0:0:0:
288,148,171458,1,0,0:0:0:0:
288,148,171549,1,0,0:0:0:0:
348,100,171639,2,0,P|364:160|360:208,1,90.9999958343508
464,296,172000,1,0,0:0:0:0:
320,324,172181,2,0,P|248:332|220:320,2,90.9999958343508
188,260,172723,1,0,0:0:0:0:
104,144,172904,1,0,0:0:0:0:
228,64,173085,6,0,P|268:84|312:152,1,90.9999958343508
298,118,173356,1,0,0:0:0:0:
298,118,173446,1,0,0:0:0:0:
376,284,173627,1,0,0:0:0:0:
184,156,173808,2,0,P|176:212|276:300,1,181.999991668702
368,56,174530,5,0,0:0:0:0:
208,288,174892,1,0,0:0:0:0:
364,152,175253,1,0,0:0:0:0:
272,340,175434,1,0,0:0:0:0:
96,224,175615,1,0,0:0:0:0:
204,44,175796,1,0,0:0:0:0:
328,212,175976,2,0,P|292:256|164:256,1,181.999991668702
168,52,176518,5,0,0:0:0:0:
228,196,176699,1,0,0:0:0:0:
320,68,176880,1,0,0:0:0:0:
424,252,177061,2,0,L|416:200,1,45.4999979171754
404,104,177241,2,0,L|412:168,1,45.4999979171754
316,104,177422,6,0,P|304:180|288:188,1,90.9999958343508
104,112,177783,2,0,P|136:136|176:192,1,90.9999958343508
304,336,178145,2,0,P|256:308|224:268,1,90.9999958343508
236,72,178506,5,0,0:0:0:0:
324,264,178687,1,0,0:0:0:0:
396,68,178868,2,0,L|360:96,1,45.4999979171754
228,192,179049,2,0,L|192:160,1,45.4999979171754
72,56,179229,2,0,L|72:104,1,45.4999979171754
80,264,179410,2,0,L|112:232,1,45.4999979171754
232,112,179591,2,0,L|212:152,1,45.4999979171754
128,296,179771,1,0,0:0:0:0:
176,324,179862,1,0,0:0:0:0:
224,348,179952,1,0,0:0:0:0:
280,352,180043,1,0,0:0:0:0:
332,332,180133,1,0,0:0:0:0:
368,288,180314,6,0,B|416:232|456:40|456:40|288:176|224:80|336:36|336:36|488:220|488:220|260:220,1,1007.99996923828
270,220,181940,1,0,0:0:0:0:
432,340,182121,1,0,0:0:0:0:
432,340,182302,1,0,0:0:0:0:
392,144,182482,2,0,L|440:56,1,97.9999970092774
304,152,182844,2,0,L|296:28,1,97.9999970092774
240,208,183205,2,0,L|176:116,1,97.9999970092774
348,272,183567,1,0,0:0:0:0:
348,272,183747,1,0,0:0:0:0:
104,236,183928,5,0,0:0:0:0:
348,272,184109,1,0,0:0:0:0:
76,160,184290,1,0,0:0:0:0:
376,200,184470,1,0,0:0:0:0:
120,88,184651,1,0,0:0:0:0:
364,112,184832,1,0,0:0:0:0:
208,264,185012,6,0,L|148:308,3,48.9999985046387
96,324,185374,2,0,P|56:352|84:272,1,195.999994018555
208,252,185916,6,0,L|268:264,1,48.9999985046387
248,340,186097,2,0,P|300:352|376:324,1,97.9999970092774
484,264,186458,1,0,0:0:0:0:
348,136,186639,1,0,0:0:0:0:
412,252,186820,1,0,0:0:0:0:
252,132,187000,1,0,0:0:0:0:
336,216,187181,1,0,0:0:0:0:
100,88,187362,1,0,0:0:0:0:
288,264,187543,2,0,P|320:288|448:220,1,195.999994018555
264,124,188085,1,0,0:0:0:0:
200,284,188265,6,0,L|176:336,4,48.9999985046387
228,212,188717,2,0,L|268:116,1,97.9999970092774
296,48,188988,1,0,0:0:0:0:
296,48,189079,1,0,0:0:0:0:
296,48,189169,1,0,0:0:0:0:
480,164,189350,1,0,0:0:0:0:
316,260,189530,2,0,L|272:296,1,48.9999985046387
228,340,189711,2,0,P|184:296|224:248,1,97.9999970092774
264,152,190073,1,0,0:0:0:0:
80,320,190253,6,0,P|56:340|56:360,2,48.9999985046387
32,268,190524,2,0,L|28:212,1,48.9999985046387
96,200,190705,2,0,L|112:128,2,48.9999985046387
188,40,190976,1,0,0:0:0:0:
188,40,191067,1,0,0:0:0:0:
188,40,191157,1,0,0:0:0:0:
444,104,191338,1,0,0:0:0:0:
160,192,191518,1,0,0:0:0:0:
416,320,191699,1,0,0:0:0:0:
168,336,191880,6,0,L|120:352,3,48.9999985046387
76,300,192241,2,0,L|36:264,1,48.9999985046387
104,160,192422,2,0,L|64:112,1,48.9999985046387
124,236,192603,2,0,P|168:252|256:240,1,97.9999970092774
372,164,192964,6,0,L|416:136,1,48.9999985046387
420,260,193145,2,0,L|476:280,1,48.9999985046387
348,236,193326,2,0,P|304:264|284:324,1,97.9999970092774
252,340,193597,1,0,0:0:0:0:
224,300,193687,2,0,P|202:256|161:231,2,97.9999970092774
128,312,194229,2,0,P|76:292|96:172,1,195.999994018555
224,64,194771,6,0,L|236:16,3,48.9999985046387
316,40,195133,2,0,L|304:88,1,48.9999985046387
256,272,195494,5,0,0:0:0:0:
128,308,195765,1,0,0:0:0:0:
56,256,195946,2,0,P|36:228|32:192,2,48.9999985046387
124,184,196217,2,0,L|176:160,1,48.9999985046387
196,88,196398,2,0,L|248:60,1,48.9999985046387
308,100,196579,1,0,0:0:0:0:
284,152,196669,1,0,0:0:0:0:
232,176,196759,1,0,0:0:0:0:
176,188,196850,1,0,0:0:0:0:
140,232,196940,2,0,P|124:256|144:292,3,48.9999985046387
164,324,197302,2,0,P|200:348|280:336,1,97.9999970092774
408,200,197663,5,0,0:0:0:0:
392,160,197753,1,0,0:0:0:0:
372,124,197844,1,0,0:0:0:0:
348,88,197934,2,0,P|336:68|308:40,1,48.9999985046387
244,124,198115,1,0,0:0:0:0:
244,124,198205,1,0,0:0:0:0:
244,124,198296,1,0,0:0:0:0:
272,156,198386,1,0,0:0:0:0:
276,196,198476,1,0,0:0:0:0:
244,224,198567,1,0,0:0:0:0:
204,224,198657,2,0,P|184:224|152:200,4,48.9999985046387
164,128,199109,6,0,L|176:100,1,24.4999992523194
188,136,199199,2,0,L|204:116,1,24.4999992523194
208,152,199290,2,0,L|240:132,1,24.4999992523194
224,172,199380,2,0,L|260:168,1,24.4999992523194
244,224,199470,2,0,L|220:244,1,24.4999992523194
260,244,199561,2,0,L|240:276,1,24.4999992523194
280,260,199651,2,0,L|280:300,1,24.4999992523194
308,268,199741,2,0,L|320:300,1,24.4999992523194
364,252,199832,2,0,L|404:244,3,24.4999992523194
408,192,200012,2,0,L|448:176,3,24.4999992523194
388,132,200193,6,0,L|376:100,1,24.4999992523194
328,116,200283,2,0,L|316:84,1,24.4999992523194
268,100,200374,2,0,L|256:68,1,24.4999992523194
208,84,200464,2,0,L|196:52,1,24.4999992523194
152,88,200555,1,0,0:0:0:0:
104,108,200645,1,0,0:0:0:0:
76,148,200735,1,0,0:0:0:0:
76,200,200826,1,0,0:0:0:0:
96,248,200916,1,0,0:0:0:0:
132,284,201006,1,0,0:0:0:0:
184,288,201097,1,0,0:0:0:0:
228,260,201187,1,0,0:0:0:0:
256,220,201277,6,0,P|272:200|288:172,3,48.9999985046387
380,216,201639,2,0,P|372:244|320:288,1,97.9999970092774
204,312,202000,1,0,0:0:0:0:
152,320,202091,1,0,0:0:0:0:
104,308,202181,1,0,0:0:0:0:
72,268,202271,1,0,0:0:0:0:
56,220,202362,2,0,P|48:192|68:128,1,97.9999970092775
168,28,202723,2,0,P|144:56|208:176,2,195.999994018555
368,64,203808,5,0,0:0:0:0:
448,144,203988,1,0,0:0:0:0:
460,256,204169,1,0,0:0:0:0:
376,328,204350,1,0,0:0:0:0:
264,324,204530,1,0,0:0:0:0:
156,300,204711,1,0,0:0:0:0:
68,232,204892,1,0,0:0:0:0:
52,120,205073,1,0,0:0:0:0:
124,32,205253,1,0,0:0:0:0:
128,144,205434,6,0,P|144:192|184:216,2,70
344,240,205976,1,0,0:0:0:0:
300,124,206157,1,0,0:0:0:0:
196,56,206338,1,0,0:0:0:0:
72,40,206518,1,0,0:0:0:0:
160,132,206699,1,0,0:0:0:0:
248,224,206880,1,0,0:0:0:0:
336,316,207061,1,0,0:0:0:0:
356,64,207422,5,0,0:0:0:0:
404,180,207603,1,0,0:0:0:0:
280,168,207783,2,0,P|240:160|224:72,1,125.999996154785
128,40,208145,2,0,P|128:96|56:168,1,146.999995513916
172,212,208506,2,0,P|212:236|264:344,1,168
140,312,208868,2,0,P|196:260|340:284,1,188.999994232178
303,259,209229,5,0,0:0:0:0:
303,259,209320,1,0,0:0:0:0:
303,259,209410,1,0,0:0:0:0:
428,192,209591,1,0,0:0:0:0:
268,36,209952,1,0,0:0:0:0:
160,60,210133,1,0,0:0:0:0:
92,148,210314,1,0,0:0:0:0:
228,328,210675,1,0,0:0:0:0:
340,312,210856,1,0,0:0:0:0:
428,240,211036,1,0,0:0:0:0:
428,240,211217,1,0,0:0:0:0:
228,328,211398,1,0,0:0:0:0:
72,168,211759,5,0,0:0:0:0:
140,80,211940,1,0,0:0:0:0:
180,44,212030,1,0,0:0:0:0:
236,36,212121,1,0,0:0:0:0:
344,64,212302,1,0,0:0:0:0:
200,216,212482,2,0,P|192:276|248:244,1,140
312,112,213024,1,0,0:0:0:0:
476,24,213205,1,0,0:0:0:0:
180,244,213386,5,0,0:0:0:0:
180,244,213476,1,0,0:0:0:0:
180,244,213567,1,0,0:0:0:0:
388,224,213747,2,0,P|356:248|312:248,1,70
128,236,214109,1,0,0:0:0:0:
332,176,214290,1,0,0:0:0:0:
96,120,214470,1,0,0:0:0:0:
372,72,214651,1,0,0:0:0:0:
72,24,214832,1,0,0:0:0:0:
256,192,215012,12,0,216097,2:0:0:0:
256,192,226217,12,0,227844,2:0:0:0:
188,96,228024,6,0,P|256:72|324:92,1,140
236,232,228567,2,0,P|256:272|348:328,1,140
396,176,229109,1,0,0:0:0:0:
336,360,229290,1,0,0:0:0:0:
264,176,229470,1,0,0:0:0:0:
264,176,229561,1,0,0:0:0:0:
264,176,229651,2,0,P|152:108|64:152,1,210
156,292,230374,5,0,0:0:0:0:
312,336,230555,1,0,0:0:0:0:
164,272,230735,1,0,0:0:0:0:
196,112,230916,2,0,P|228:132|248:164,1,70
404,176,231277,1,0,0:0:0:0:
484,36,231458,1,0,0:0:0:0:
324,316,231820,1,0,0:0:0:0:
84,104,232181,5,0,0:0:0:0:
140,112,232271,1,0,0:0:0:0:
192,136,232362,2,0,P|208:188|324:268,1,195.999994018555
296,156,233265,5,0,0:0:0:0:
188,276,233446,1,0,0:0:0:0:
156,116,233627,1,0,0:0:0:0:
156,116,233717,1,0,0:0:0:0:
200,56,233808,6,0,P|252:40|340:56,1,140
444,172,234350,1,0,0:0:0:0:
156,312,234711,1,0,0:0:0:0:
28,64,234892,1,0,0:0:0:0:
304,348,235073,1,0,0:0:0:0:
304,348,235163,1,0,0:0:0:0:
304,348,235253,1,0,0:0:0:0:
172,188,235434,2,0,P|184:228|324:348,1,210
224,216,236157,5,0,0:0:0:0:
248,176,236338,1,0,0:0:0:0:
272,216,236518,1,0,0:0:0:0:
404,308,236699,2,0,P|364:328|328:324,1,70
180,312,237061,2,0,P|204:328|256:324,1,70
244,328,237332,1,0,0:0:0:0:
244,328,237422,2,0,P|272:308|288:244,1,70
316,84,237783,5,0,0:0:0:0:
160,120,237964,1,0,0:0:0:0:
320,108,238145,1,0,0:0:0:0:
312,148,238235,1,0,0:0:0:0:
304,188,238326,2,0,P|292:208|240:216,1,70
232,260,238597,1,0,0:0:0:0:
216,300,238687,1,0,0:0:0:0:
204,340,238777,2,0,P|172:344|176:240,1,175
228,84,239591,5,0,0:0:0:0:
424,348,239952,1,0,0:0:0:0:
92,100,240133,2,0,P|88:136|96:176,1,70
93,169,240674,1,0,0:0:0:0:
244,205,240855,1,0,0:0:0:0:
325,336,241036,2,0,P|348:320|352:280,2,70
276,96,242121,5,0,0:0:0:0:
396,52,242302,2,0,P|412:96|416:128,1,70
308,188,242663,1,0,0:0:0:0:
484,252,242844,1,0,0:0:0:0:
300,296,243024,1,0,0:0:0:0:
80,168,243205,1,0,0:0:0:0:
152,64,243567,6,0,P|208:56|232:64,1,70
332,120,243928,2,0,P|312:156|280:180,1,70
164,192,244290,1,0,0:0:0:0:
56,256,244470,2,0,P|64:292|88:324,1,70
208,340,244832,2,0,P|280:348|352:336,1,140
316,216,245374,5,0,0:0:0:0:
316,216,245735,1,0,0:0:0:0:
16,212,245916,1,0,0:0:0:0:
316,216,246097,2,0,P|276:224|260:260,1,70
176,88,246458,5,0,0:0:0:0:
96,252,246639,1,0,0:0:0:0:
384,48,246820,1,0,0:0:0:0:
256,352,247181,1,0,0:0:0:0:
300,292,247362,1,0,0:0:0:0:
332,52,247543,6,0,P|296:76|280:104,1,70
24,356,248265,2,0,P|48:316|144:288,1,140
248,144,249169,5,0,0:0:0:0:
308,316,249350,1,0,0:0:0:0:
368,144,249530,1,0,0:0:0:0:
204,224,249711,2,0,P|164:248|80:196,1,140
208,76,250253,1,0,0:0:0:0:
28,296,250434,1,0,0:0:0:0:
292,352,250615,2,0,P|364:340|440:352,1,140
384,172,251157,5,0,0:0:0:0:
196,212,251338,1,0,0:0:0:0:
372,100,251518,1,0,0:0:0:0:
224,276,251699,1,0,0:0:0:0:
432,124,251880,1,0,0:0:0:0:
168,152,252061,1,0,0:0:0:0:
440,196,252241,1,0,0:0:0:0:
160,88,252422,1,0,0:0:0:0:
432,264,252603,2,0,P|408:292|368:304,1,70
48,220,252964,2,0,P|80:180|112:172,1,70
452,28,253326,2,0,P|468:64|472:104,1,70
200,60,253687,5,0,0:0:0:0:
184,120,253777,1,0,0:0:0:0:
184,184,253868,1,0,0:0:0:0:
192,248,253958,1,0,0:0:0:0:
220,304,254049,1,0,0:0:0:0:
112,84,254952,5,0,0:0:0:0:
240,140,255133,1,0,0:0:0:0:
108,192,255314,1,0,0:0:0:0:
232,256,255494,1,0,0:0:0:0:
496,356,255856,1,0,0:0:0:0:
448,224,256036,1,0,0:0:0:0:
172,264,256398,2,0,P|196:240|300:212,1,140
340,40,256940,6,0,P|424:76|488:176,1,210.000008010865
256,192,257482,1,0,0:0:0:0:
172,344,257663,2,0,P|88:308|24:208,1,210.000008010865
340,344,258386,6,0,P|424:308|488:208,1,210.000008010865
256,192,258928,1,0,0:0:0:0:
171,40,259109,2,0,P|78:84|24:172,1,210.000008010865
256,192,259651,1,0,0:0:0:0:
96,32,259832,6,0,B|0:96|116:152|76:220,1,210.000008010865
28,356,260374,1,0,0:0:0:0:
76,224,260555,1,0,0:0:0:0:
76,224,260735,1,0,0:0:0:0:
324,332,260916,1,0,0:0:0:0:
144,148,261097,5,0,0:0:0:0:
144,148,261187,1,0,0:0:0:0:
144,148,261277,1,0,0:0:0:0:
336,48,261458,1,0,0:0:0:0:
384,344,261639,1,0,0:0:0:0:
240,76,261820,1,0,0:0:0:0:
240,76,261910,1,0,0:0:0:0:
240,76,262000,2,0,B|168:80|144:92|116:24|116:24|80:28|80:84,1,210.000008010865
260,240,262723,5,0,0:0:0:0:
424,128,262904,1,0,0:0:0:0:
216,144,263085,1,0,0:0:0:0:
368,244,263265,1,0,0:0:0:0:
148,224,263446,1,0,0:0:0:0:
360,76,263808,2,0,P|424:96|452:136,1,83.9999974365235
360,308,264169,2,0,P|401:301|434:277,1,83.9999974365235
288,192,264530,5,0,0:0:0:0:
288,192,264711,1,0,0:0:0:0:
168,44,264892,5,0,0:0:0:0:
72,256,265073,1,0,0:0:0:0:
224,112,265253,1,0,0:0:0:0:
140,360,265434,1,0,0:0:0:0:
280,252,265615,5,0,0:0:0:0:
440,256,265796,1,0,0:0:0:0:
412,196,265886,1,0,0:0:0:0:
364,156,265976,1,0,0:0:0:0:
364,344,266157,1,0,0:0:0:0:
296,172,266338,1,0,0:0:0:0:
68,116,266699,2,0,P|84:68|140:48,1,83.9999974365235
68,268,267061,2,0,P|84:316|140:336,1,83.9999974365235
204,192,267422,5,0,0:0:0:0:
204,192,267603,1,0,0:0:0:0:
372,108,267783,5,0,0:0:0:0:
472,344,267964,1,0,0:0:0:0:
264,220,268145,1,0,0:0:0:0:
464,96,268326,1,0,0:0:0:0:
352,316,268506,5,0,0:0:0:0:
236,336,268687,1,0,0:0:0:0:
256,280,268777,1,0,0:0:0:0:
272,224,268868,1,0,0:0:0:0:
156,244,269049,1,0,0:0:0:0:
344,208,269229,1,0,0:0:0:0:
180,64,269591,2,0,L|152:148,1,83.9999974365235
332,64,269952,2,0,L|360:148,1,83.9999974365235
256,220,270314,5,0,0:0:0:0:
256,220,270494,1,0,0:0:0:0:
104,320,270675,5,0,0:0:0:0:
28,124,270856,1,0,0:0:0:0:
104,320,271036,1,0,0:0:0:0:
392,264,271217,1,0,0:0:0:0:
172,120,271398,5,0,0:0:0:0:
172,120,271488,1,0,0:0:0:0:
172,120,271579,1,0,0:0:0:0:
384,72,271759,1,0,0:0:0:0:
288,256,271940,1,0,0:0:0:0:
244,28,272121,1,0,0:0:0:0:
184,272,272302,1,0,0:0:0:0:
144,44,272482,1,0,0:0:0:0:
412,136,272663,1,0,0:0:0:0:
260,288,272844,5,0,0:0:0:0:
196,292,272934,1,0,0:0:0:0:
144,256,273024,1,0,0:0:0:0:
28,32,273205,1,0,0:0:0:0:
192,176,273386,1,0,0:0:0:0:
364,40,273567,1,0,0:0:0:0:
364,40,273657,1,0,0:0:0:0:
364,40,273747,1,0,0:0:0:0:
424,320,273928,1,0,0:0:0:0:
424,320,274109,1,0,0:0:0:0:
224,324,274290,5,0,0:0:0:0:
196,296,274380,1,0,0:0:0:0:
172,264,274470,1,0,0:0:0:0:
160,228,274561,1,0,0:0:0:0:
156,188,274651,2,0,P|156:164|172:104,1,83.9999974365235
170,106,275012,1,0,0:0:0:0:
392,72,275374,2,0,L|496:60,1,83.9999974365235
392,312,275735,2,0,L|496:324,1,83.9999974365235
308,192,276097,5,0,0:0:0:0:
308,192,276277,1,0,0:0:0:0:
100,64,276458,5,0,0:0:0:0:
16,256,276639,1,0,0:0:0:0:
216,320,276820,1,0,0:0:0:0:
276,120,277000,1,0,0:0:0:0:
476,228,277181,5,0,0:0:0:0:
456,252,277271,1,0,0:0:0:0:
432,276,277362,1,0,0:0:0:0:
404,296,277452,1,0,0:0:0:0:
372,308,277543,2,0,P|344:316|288:304,1,83.9999974365235
236,268,277904,1,0,0:0:0:0:
64,84,278265,2,0,L|156:56,1,83.9999974365235
64,300,278627,2,0,L|156:328,1,83.9999974365235
308,192,278988,5,0,0:0:0:0:
308,192,279169,1,0,0:0:0:0:
160,104,279350,5,0,0:0:0:0:
452,176,279530,1,0,0:0:0:0:
100,204,279711,1,0,0:0:0:0:
432,72,279892,1,0,0:0:0:0:
168,40,280073,5,0,0:0:0:0:
144,64,280163,1,0,0:0:0:0:
124,92,280253,1,0,0:0:0:0:
112,124,280344,1,0,0:0:0:0:
104,156,280434,2,0,P|96:196|104:244,2,83.9999974365235
340,332,281157,2,0,P|372:288|392:240,1,83.9999974365235
340,52,281518,2,0,P|372:96|392:144,1,83.9999974365235
496,192,281880,5,0,0:0:0:0:
496,192,282061,1,0,0:0:0:0:
320,112,282241,5,0,0:0:0:0:
416,228,282422,1,0,0:0:0:0:
132,56,282603,1,0,0:0:0:0:
352,276,282783,1,0,0:0:0:0:
352,276,282874,1,0,0:0:0:0:
352,276,282964,1,0,0:0:0:0:
68,344,283145,1,0,0:0:0:0:
300,56,283326,6,0,L|332:16,2,41.9999987182618
220,280,283687,1,0,0:0:0:0:
100,52,283868,1,0,0:0:0:0:
92,108,283958,1,0,0:0:0:0:
112,164,284049,1,0,0:0:0:0:
156,204,284139,1,0,0:0:0:0:
212,224,284229,1,0,0:0:0:0:
428,76,284410,2,0,L|464:12,2,41.9999987182618
368,320,284771,1,0,0:0:0:0:
108,152,284952,5,0,0:0:0:0:
108,152,285043,1,0,0:0:0:0:
108,152,285133,1,0,0:0:0:0:
420,220,285314,1,0,0:0:0:0:
88,240,285494,1,0,0:0:0:0:
492,108,285675,1,0,0:0:0:0:
212,56,285856,6,0,P|156:56|136:76,3,70
96,128,286579,1,0,0:0:0:0:
96,128,286759,1,0,0:0:0:0:
64,204,286940,2,0,P|56:252|80:292,1,70
148,268,287302,2,0,P|172:308|208:320,1,70
