osu file format v14

[General]
AudioFilename: audio.mp3
AudioLeadIn: 0
PreviewTime: -1
Countdown: 1
SampleSet: Normal
StackLeniency: 0.7
Mode: 0
LetterboxInBreaks: 0
WidescreenStoryboard: 0

[Editor]
Bookmarks: 20102,41641,67794,79910,80102,81641,94525,100102
DistanceSpacing: 1
BeatDivisor: 2
GridSize: 4
TimelineZoom: 1.7

[Metadata]
Title:Oblivion
TitleUnicode:Oblivion
Artist:Hatsune Miku
ArtistUnicode:Hatsune Miku
Creator:Rubiha
Version:Insane
Source:Grimes
Tags:
BeatmapID:1600813
BeatmapSetID:761266

[Difficulty]
HPDrainRate:6
CircleSize:5
OverallDifficulty:8
ApproachRate:9
SliderMultiplier:2.5
SliderTickRate:1

[Events]
//Background and Video events
0,0,"tj-9magmc3k.jpg",0,0
//Break Periods
2,63359,67174
2,69512,73328
//Storyboard Layer 0 (Background)
//Storyboard Layer 1 (Fail)
//Storyboard Layer 2 (Pass)
//Storyboard Layer 3 (Foreground)
//Storyboard Sound Samples

[TimingPoints]
1621,384.615384615385,4,1,0,40,1,0

[HitObjects]
160,104,20082,6,0,L|308:108,1,125
412,112,20467,1,4,0:0:0:0:
412,112,20659,1,0,0:0:0:0:
308,180,20851,2,0,L|160:184,1,125
59,205,21236,1,4,0:0:0:0:
59,205,21428,1,0,0:0:0:0:
165,271,21621,6,0,L|297:331,1,125
401,301,22005,1,4,0:0:0:0:
401,301,22197,1,0,0:0:0:0:
440,182,22390,2,0,P|372:184|318:205,1,125
263,93,22774,1,4,0:0:0:0:
263,93,22967,1,0,0:0:0:0:
165,170,23159,6,0,L|222:286,1,125
347,170,23544,2,0,L|290:286,1,125,4|0,0:0|0:0,0:0:0:0:
172,246,23928,2,0,L|161:374,1,125
340,246,24313,2,0,L|350:370,1,125,4|0,0:0|0:0,0:0:0:0:
172,138,24697,6,0,L|161:10,1,125
340,138,25082,2,0,L|350:13,1,125,4|0,0:0|0:0,0:0:0:0:
191,242,25467,2,0,L|78:322,1,125
321,242,25851,2,0,L|434:322,1,125,4|0,0:0|0:0,0:0:0:0:
252,237,26236,6,0,P|136:213|162:187,1,250,0|4,0:0|0:0,0:0:0:0:
272,169,26813,1,0,0:0:0:0:
383,113,27005,2,0,P|365:9|280:71,1,250,0|4,0:0|0:0,0:0:0:0:
301,192,27582,1,0,0:0:0:0:
384,284,27774,2,0,P|487:300|456:200,1,250,0|4,0:0|0:0,0:0:0:0:
333,168,28351,1,0,0:0:0:0:
208,150,28544,2,0,P|123:87|217:40,1,250,0|4,0:0|0:0,0:0:0:0:
368,239,29313,6,0,L|394:385,2,125,0|0|4,0:0|0:0|0:0,0:0:0:0:
342,116,29890,1,0,0:0:0:0:
274,220,30082,2,0,P|260:290|283:354,1,125
32,119,30851,6,0,P|76:66|130:35,1,125
215,122,31236,2,0,P|162:154|123:203,1,125,4|0,0:0|0:0,0:0:0:0:
246,227,31621,2,0,P|302:188|363:173,1,125
476,207,32005,2,0,P|425:242|365:260,1,125,4|0,0:0|0:0,0:0:0:0:
425,69,32390,6,0,L|343:192,1,125
87,315,32967,2,0,L|156:210,1,125
403,252,33544,5,4,0:0:0:0:
289,200,33736,1,0,0:0:0:0:
175,147,33928,2,0,L|39:90,1,125
183,118,34313,2,0,L|52:49,1,125,4|0,0:0|0:0,0:0:0:0:
192,92,34697,2,0,L|67:12,1,125
301,332,35467,5,0,0:0:0:0:
122,274,35659,1,0,0:0:0:0:
122,87,35851,1,4,0:0:0:0:
301,29,36044,1,0,0:0:0:0:
428,165,36236,5,0,0:0:0:0:
379,345,36428,1,0,0:0:0:0:
197,295,36620,1,4,0:0:0:0:
204,73,36813,5,0,0:0:0:0:
246,190,37005,1,0,0:0:0:0:
50,130,37197,1,0,0:0:0:0:
50,317,37389,1,4,0:0:0:0:
204,73,37582,5,0,0:0:0:0:
175,358,37774,1,0,0:0:0:0:
126,50,37967,1,0,0:0:0:0:
250,335,38159,1,4,0:0:0:0:
65,104,38351,1,0,0:0:0:0:
279,257,38544,6,0,P|341:135|304:134,1,250,0|4,0:0|0:0,0:0:0:0:
219,186,39121,1,0,0:0:0:0:
108,130,39313,2,0,P|124:26|211:86,1,250,0|4,0:0|0:0,0:0:0:0:
190,209,39890,1,0,0:0:0:0:
107,301,40082,2,0,P|3:316|35:216,1,250,0|4,0:0|0:0,0:0:0:0:
158,185,40659,1,0,0:0:0:0:
283,167,40852,2,0,P|368:105|275:55,1,250,0|4,0:0|0:0,0:0:0:0:
114,247,41621,6,0,L|88:393,2,125,0|0|4,0:0|0:0|0:0,0:0:0:0:
140,124,42198,1,0,0:0:0:0:
208,228,42390,2,0,P|222:298|199:362,1,125
364,52,43159,6,0,P|378:112|363:172,1,125
148,52,43544,2,0,P|133:112|148:172,1,125,4|0,0:0|0:0,0:0:0:0:
464,200,43928,2,0,P|433:253|381:287,1,125
48,200,44313,2,0,P|78:253|130:287,1,125,4|0,0:0|0:0,0:0:0:0:
256,284,44697,2,0,B|240:244|240:244|272:204|272:204|240:164|240:164|255:23,1,250,0|4,0:0|0:0,0:0:0:0:
404,260,45467,6,0,P|424:324|468:384,1,125
480,248,45851,1,4,0:0:0:0:
432,132,46044,1,0,0:0:0:0:
340,216,46236,6,0,L|364:88,1,125
271,179,46621,2,0,L|261:49,1,125,4|0,0:0|0:0,0:0:0:0:
193,159,47005,2,0,L|149:36,1,125
168,349,47774,6,0,B|274:349|274:349|356:309,1,187.5
387,264,48159,2,0,B|433:177|433:177|351:84,1,187.5,4|0,0:0|0:0,0:0:0:0:
312,98,48544,2,0,B|275:158|275:158|214:181|214:181|200:255|200:255,1,187.5
206,295,48928,2,0,B|263:329|263:329|255:269|255:269|315:305|315:305,1,187.5,4|0,0:0|0:0,0:0:0:0:
360,266,49313,6,0,B|402:318|402:318|459:277|459:277|427:229,1,187.5
414,174,49697,2,0,B|374:122|374:122|294:237|294:237,1,187.5,4|0,0:0|0:0,0:0:0:0:
241,216,50082,2,0,L|200:62,1,125
84,77,50467,2,0,B|83:73|124:237,1,125,4|0,0:0|0:0,0:0:0:0:
133,357,50851,6,0,L|187:185,1,125
209,118,51236,1,4,0:0:0:0:
209,118,51428,1,0,0:0:0:0:
307,195,51621,6,0,L|486:195,1,125
474,313,52006,1,4,0:0:0:0:
474,313,52198,1,0,0:0:0:0:
361,367,52390,6,0,L|361:188,1,125
479,200,52775,1,4,0:0:0:0:
479,200,52967,1,0,0:0:0:0:
370,137,53159,5,0,0:0:0:0:
245,137,53351,2,0,B|163:116|51:192|22:69,1,250
142,35,53928,2,0,B|236:9|330:75|443:40,1,250,0|4,0:0|0:0,0:0:0:0:
443,294,54697,5,0,0:0:0:0:
193,280,55082,1,4,0:0:0:0:
66,63,55467,5,0,0:0:0:0:
235,186,55659,1,0,0:0:0:0:
5,236,55851,1,4,0:0:0:0:
253,83,56044,1,0,0:0:0:0:
129,360,56236,5,0,0:0:0:0:
136,87,56428,1,0,0:0:0:0:
195,345,56621,1,4,0:0:0:0:
32,28,57005,6,0,P|16:92|33:164,1,125
133,213,57390,1,4,0:0:0:0:
253,246,57582,1,0,0:0:0:0:
377,244,57774,1,0,0:0:0:0:
477,169,57967,1,0,0:0:0:0:
437,50,58159,1,4,0:0:0:0:
325,106,58351,1,0,0:0:0:0:
316,231,58544,6,0,L|307:364,1,125
182,349,58928,1,4,0:0:0:0:
179,223,59121,1,0,0:0:0:0:
177,98,59313,1,0,0:0:0:0:
77,173,59505,1,0,0:0:0:0:
64,297,59697,1,4,0:0:0:0:
182,349,59890,1,0,0:0:0:0:
306,346,60082,2,0,P|372:323|452:164,1,250,0|4,0:0|0:0,0:0:0:0:
206,38,60851,2,0,P|98:96|59:212,1,250,0|4,0:0|0:0,0:0:0:0:
246,377,61621,5,0,0:0:0:0:
378,244,61813,1,0,0:0:0:0:
246,111,62005,1,4,0:0:0:0:
113,244,62197,1,0,0:0:0:0:
378,244,62390,5,0,0:0:0:0:
172,244,62582,1,0,0:0:0:0:
441,245,62774,1,4,0:0:0:0:
1,244,63159,1,0,0:0:0:0:
266,377,67774,5,0,0:0:0:0:
134,244,67966,1,0,0:0:0:0:
266,111,68158,1,4,0:0:0:0:
399,244,68350,1,0,0:0:0:0:
134,244,68543,5,0,0:0:0:0:
340,244,68735,1,0,0:0:0:0:
71,245,68927,1,4,0:0:0:0:
511,244,69312,1,0,0:0:0:0:
195,71,73928,5,0,0:0:0:0:
63,204,74120,1,0,0:0:0:0:
195,337,74312,1,4,0:0:0:0:
328,204,74504,1,0,0:0:0:0:
63,204,74697,5,0,0:0:0:0:
269,204,74889,1,0,0:0:0:0:
0,203,75081,1,4,0:0:0:0:
440,204,75466,1,0,0:0:0:0:
152,332,76044,6,0,P|84:345|21:335,3,125,0|0|0|4,0:0|0:0|0:0|0:0,0:0:0:0:
21,212,76813,1,0,0:0:0:0:
29,87,77005,2,0,P|97:74|160:84,3,125,0|0|4|0,0:0|0:0|0:0|0:0,0:0:0:0:
180,203,77774,1,0,0:0:0:0:
266,293,77967,2,0,L|315:131,1,125,0|4,0:0|0:0,0:0:0:0:
60,237,78544,6,0,L|11:399,1,125
128,288,78928,1,4,0:0:0:0:
128,288,79121,1,0,0:0:0:0:
173,171,79313,2,0,L|223:291,1,125
467,243,79890,5,0,0:0:0:0:
480,119,80082,2,0,P|436:66|382:35,1,125
297,122,80467,2,0,P|350:154|389:203,1,125,4|0,0:0|0:0,0:0:0:0:
266,227,80852,2,0,P|210:188|149:173,1,125
36,207,81236,2,0,P|87:242|147:260,1,125,4|0,0:0|0:0,0:0:0:0:
87,69,81621,6,0,L|169:192,1,125
425,315,82198,2,0,L|356:210,1,125
109,252,82775,5,4,0:0:0:0:
223,200,82967,1,0,0:0:0:0:
337,147,83159,2,0,L|473:90,1,125
304,224,83544,2,0,L|362:334,1,125,4|0,0:0|0:0,0:0:0:0:
252,112,83928,2,0,L|324:0,1,125
172,132,84505,5,0,0:0:0:0:
256,308,84697,1,0,0:0:0:0:
340,132,84890,1,0,0:0:0:0:
172,272,85082,5,4,0:0:0:0:
256,76,85274,1,0,0:0:0:0:
340,272,85467,1,0,0:0:0:0:
172,132,85659,5,0,0:0:0:0:
256,348,85851,1,4,0:0:0:0:
340,132,86044,1,0,0:0:0:0:
172,332,86236,5,0,0:0:0:0:
256,96,86428,1,0,0:0:0:0:
340,332,86621,1,4,0:0:0:0:
172,132,86813,5,0,0:0:0:0:
256,380,87005,1,0,0:0:0:0:
340,132,87198,1,0,0:0:0:0:
96,320,87390,5,4,0:0:0:0:
388,228,87583,1,0,0:0:0:0:
96,152,87775,1,0,0:0:0:0:
292,168,88351,5,0,0:0:0:0:
250,286,88543,2,0,P|335:348|355:245,1,250,0|4,0:0|0:0,0:0:0:0:
255,172,89120,1,0,0:0:0:0:
131,164,89312,2,0,P|45:224|138:274,1,250,0|4,0:0|0:0,0:0:0:0:
248,212,89889,1,0,0:0:0:0:
351,137,90082,2,0,P|454:122|423:222,1,250,0|4,0:0|0:0,0:0:0:0:
173,237,90851,6,0,P|188:176|173:116,1,125
105,12,91235,1,4,0:0:0:0:
75,133,91428,2,0,L|53:256,2,125
291,257,92197,5,0,0:0:0:0:
377,347,92390,2,0,L|487:268,1,125
125,232,92774,2,0,L|135:105,1,125,4|0,2:0|2:0,2:0:0:0:
377,347,93159,2,0,L|429:227,1,125
125,232,93544,2,0,L|63:104,1,125,4|0,0:0|0:0,0:0:0:0:
306,119,93928,2,0,B|310:161|310:161|268:191|268:191|288:238|288:238|249:335,1,250,0|4,0:0|0:0,0:0:0:0:
108,259,94697,6,0,P|88:323|44:383,1,125
32,247,95081,1,4,0:0:0:0:
80,131,95274,1,0,0:0:0:0:
172,215,95466,6,0,L|148:87,1,125
271,207,95851,2,0,L|261:337,1,125,4|0,0:0|0:0,0:0:0:0:
366,195,96235,2,0,L|410:72,1,125
375,326,96813,5,0,0:0:0:0:
137,326,97005,1,0,0:0:0:0:
440,308,97197,1,0,0:0:0:0:
149,262,97390,5,4,0:0:0:0:
387,262,97582,1,0,0:0:0:0:
84,244,97774,1,0,0:0:0:0:
377,198,97967,5,0,0:0:0:0:
139,198,98159,1,4,0:0:0:0:
442,180,98351,1,0,0:0:0:0:
160,323,98544,5,0,0:0:0:0:
454,244,98736,1,0,0:0:0:0:
28,256,98928,1,4,0:0:0:0:
376,331,99121,5,0,0:0:0:0:
83,148,99313,1,0,0:0:0:0:
442,316,99505,1,0,0:0:0:0:
20,186,99697,5,4,0:0:0:0:
384,262,99890,1,0,0:0:0:0:
0,320,100082,1,0,0:0:0:0:
