osu file format v14

[General]
AudioFilename: audio.mp3
AudioLeadIn: 0
PreviewTime: 50097
Countdown: 0
SampleSet: Soft
StackLeniency: 0.7
Mode: 0
LetterboxInBreaks: 0
WidescreenStoryboard: 1

[Editor]
DistanceSpacing: 1.6
BeatDivisor: 4
GridSize: 4
TimelineZoom: 1.4

[Metadata]
Title:No Title (Cut Ver.)
TitleUnicode:No Title (Cut Ver.)
Artist:Hatsune Miku
ArtistUnicode:初音ミク
Creator:Satou Kazuma01
Version:Light Insane
Source:
Tags:title- title+ Reol Hatsune Miku Giga-P dmARTS Anyosupenyosuyaya
BeatmapID:1629602
BeatmapSetID:775485

[Difficulty]
HPDrainRate:5
CircleSize:4
OverallDifficulty:7.5
ApproachRate:8.8
SliderMultiplier:1.6
SliderTickRate:1

[Events]
//Background and Video events
0,0,"LIGHT Insanae.jpg",0,0
//Break Periods
//Storyboard Layer 0 (Background)
//Storyboard Layer 1 (Fail)
//Storyboard Layer 2 (Pass)
//Storyboard Layer 3 (Foreground)
//Storyboard Sound Samples

[TimingPoints]
2397,300,4,2,1,40,1,0
2397,-142.857142857143,4,2,1,40,0,0
50397,-105.263157894737,4,2,2,70,0,1
54897,-105.263157894737,4,2,1,70,0,1
59997,-105.263157894737,4,2,2,70,0,1
64497,-105.263157894737,4,2,1,70,0,1
69597,-125,4,2,1,50,0,0

[Colours]
Combo1 : 71,85,99
Combo2 : 168,168,168
Combo3 : 255,255,185
Combo4 : 132,255,193

[HitObjects]
352,264,2397,6,2,B|400:228|400:228|416:140|416:140|384:112,1,167.999994873047
236,72,3297,2,0,L|236:148,1,55.9999982910157
88,64,3597,6,2,B|84:152|84:152|152:232,1,167.999994873047
160,288,4347,2,0,P|224:276|260:232,1,111.999996582031
212,112,4797,5,2,0:0:0:0:
336,72,5247,2,0,L|436:152,2,111.999996582031,2|0|2,0:0|0:0|0:0,0:0:0:0:
256,120,5997,6,0,L|260:188,1,55.9999982910157,2|0,0:0|0:0,0:0:0:0:
112,216,6447,2,0,P|180:232|224:208,1,111.999996582031,2|0,0:0|0:0,0:0:0:0:
296,248,6897,1,2,0:0:0:0:
408,108,7197,6,0,B|352:80|352:80|284:80,1,111.999996582031,4|2,0:0|0:0,0:0:0:0:
302,80,7647,1,0,0:0:0:0:
200,48,8097,2,0,B|152:72|152:72|148:100,1,55.9999982910157,2|0,0:0|0:0,0:0:0:0:
396,40,8397,6,0,L|440:96,1,55.9999982910157,0|2,0:0|0:0,0:0:0:0:
288,76,8847,2,0,B|284:112|284:112|260:136|260:136|292:176,1,111.999996582031,2|0,0:0|0:0,0:0:0:0:
248,252,9297,2,0,P|220:272|188:268,1,55.9999982910157,10|0,0:0|0:0,0:0:0:0:
208,160,9597,5,0,0:0:0:0:
84,80,9897,1,2,0:0:0:0:
196,40,10047,1,0,0:0:0:0:
312,112,10347,1,0,0:0:0:0:
412,64,10497,2,0,P|432:116|436:136,1,55.9999982910157,2|0,0:0|0:0,0:0:0:0:
376,208,10797,5,0,0:3:0:0:
212,216,10947,1,0,0:3:0:0:
212,216,11022,1,0,0:3:0:0:
212,216,11097,1,0,0:3:0:0:
248,120,11247,1,0,0:0:0:0:
212,52,11397,6,0,P|160:64|140:80,1,55.9999982910157,8|0,0:1|0:0,0:0:0:0:
104,96,11697,2,0,L|104:176,1,55.9999982910157,8|0,0:1|0:1,0:1:0:0:
396,72,11997,6,0,L|332:68,1,55.9999982910157,4|0,0:0|0:0,0:0:0:0:
288,124,12297,2,0,L|288:192,1,55.9999982910157,2|0,0:0|0:0,0:0:0:0:
156,216,12597,2,0,B|196:216|196:216|220:244|220:244|248:196,1,111.999996582031,0|2,0:0|0:0,0:0:0:0:
320,212,13047,1,0,0:0:0:0:
408,168,13197,6,0,L|408:96,1,55.9999982910157
408,168,13497,2,0,L|344:128,1,55.9999982910157,2|0,0:0|0:0,0:0:0:0:
276,236,13947,1,0,0:0:0:0:
252,132,14097,2,0,L|192:140,1,55.9999982910157,8|0,0:0|0:0,0:0:0:0:
280,28,14397,6,0,L|360:48,1,55.9999982910157
424,76,14697,2,0,P|408:120|384:128,1,55.9999982910157,2|0,0:0|0:0,0:0:0:0:
408,208,14997,2,0,L|392:272,1,55.9999982910157
308,212,15297,2,0,L|292:288,1,55.9999982910157,2|0,0:0|0:0,0:0:0:0:
228,48,15597,6,0,L|156:48,1,55.9999982910157
240,120,15897,2,0,L|172:120,1,55.9999982910157,2|0,0:0|0:0,0:0:0:0:
244,120,16197,2,0,L|244:236,1,111.999996582031,0|10,0:0|0:0,0:0:0:0:
216,324,16797,6,0,L|288:320,1,55.9999982910157
104,224,17097,2,0,L|156:196,1,55.9999982910157,2|0,0:0|0:0,0:0:0:0:
260,180,17397,2,0,L|256:112,1,55.9999982910157
168,64,17697,2,0,L|112:88,1,55.9999982910157,2|0,0:0|0:0,0:0:0:0:
84,232,17997,6,0,L|72:152,1,55.9999982910157
84,232,18297,2,0,L|120:180,1,55.9999982910157,2|0,0:0|0:0,0:0:0:0:
196,180,18597,2,0,B|264:224|264:224|296:176,1,111.999996582031,0|8,0:0|0:0,0:0:0:0:
384,176,19197,6,0,L|372:100,1,55.9999982910157
292,64,19497,2,0,L|292:136,1,55.9999982910157,2|0,0:0|0:0,0:0:0:0:
288,204,19797,1,0,0:0:0:0:
208,204,19947,1,0,0:0:0:0:
144,296,20097,2,0,L|224:296,1,55.9999982910157,2|0,0:0|0:0,0:0:0:0:
412,124,20397,6,0,P|412:188|420:200,1,55.9999982910157,0|2,0:0|0:0,0:0:0:0:
400,228,20622,1,2,0:0:0:0:
384,264,20697,2,0,L|312:260,1,55.9999982910157,2|0,0:0|0:0,0:0:0:0:
248,248,20997,2,0,L|248:184,2,55.9999982910157,0|0|8,0:0|0:0|0:0,0:0:0:0:
132,284,21597,6,0,P|224:316|240:308,1,111.999996582031,4|2,0:0|0:0,0:0:0:0:
244,172,22197,1,0,0:0:0:0:
372,212,22497,2,0,L|376:148,1,55.9999982910157,2|0,0:0|0:0,0:0:0:0:
416,92,22797,2,0,P|360:84|340:92,1,55.9999982910157
320,136,23097,2,0,L|272:104,1,55.9999982910157,2|0,0:0|0:0,0:0:0:0:
216,88,23397,2,0,L|212:216,1,111.999996582031,0|8,0:0|0:0,0:0:0:0:
108,304,23997,6,0,B|68:256|68:256|72:200,1,111.999996582031,0|2,0:0|0:0,0:0:0:0:
72,76,24597,1,0,0:0:0:0:
180,152,24897,2,0,L|248:184,1,55.9999982910157,2|0,0:0|0:0,0:0:0:0:
204,268,25197,2,0,P|224:288|256:292,1,55.9999982910157
308,296,25497,2,0,L|376:284,2,55.9999982910157,2|0|0,0:0|0:0|0:0,0:0:0:0:
296,200,26097,1,8,0:0:0:0:
188,272,26397,6,0,P|148:240|152:168,1,111.999996582031,0|2,0:0|0:0,0:0:0:0:
240,64,26847,2,0,B|288:48|288:48|296:64,1,55.9999982910157
240,168,27147,1,0,0:0:0:0:
228,324,27297,2,0,B|260:300|260:300|252:268,1,55.9999982910157,2|0,0:0|0:0,0:0:0:0:
136,324,27597,6,0,P|112:276|112:256,1,55.9999982910157
172,248,27897,2,0,L|172:172,1,55.9999982910157,2|0,0:0|0:0,0:0:0:0:
256,168,28197,2,0,L|336:168,2,55.9999982910157,0|0|8,0:0|0:0|0:0,0:0:0:0:
300,312,28797,6,0,B|320:300|320:300|368:300,1,55.9999982910157
432,244,29097,2,0,L|428:172,1,55.9999982910157,2|0,0:0|0:0,0:0:0:0:
232,212,29397,2,0,P|336:184|340:176,1,111.999996582031,0|2,0:0|0:0,0:0:0:0:
372,60,29997,5,0,0:3:0:0:
196,140,30147,1,2,0:0:0:0:
196,140,30222,1,2,0:0:0:0:
196,140,30297,1,2,0:0:0:0:
196,140,30447,1,0,0:0:0:0:
112,212,30597,6,0,P|164:224|184:212,2,55.9999982910157,8|0|8,0:1|0:1|0:1,0:1:0:0:
224,240,31047,1,0,0:0:0:0:
276,288,31197,6,0,P|336:248|348:212,1,111.999996582031,4|2,0:0|0:0,0:0:0:0:
296,192,31647,2,0,L|256:128,2,55.9999982910157
208,212,32097,1,2,0:0:0:0:
128,200,32247,6,0,P|128:120|160:108,1,111.999996582031
240,128,32697,2,0,L|260:188,2,55.9999982910157,2|0|0,0:0|0:0|0:0,0:0:0:0:
316,120,33147,2,0,L|356:108,2,27.9999991455078,0|0|8,0:0|0:0|0:0,0:0:0:0:
300,204,33447,1,0,0:0:0:0:
200,332,33597,6,0,P|136:288|132:292,1,111.999996582031,0|2,0:0|0:0,0:0:0:0:
136,228,34047,2,0,L|136:164,2,55.9999982910157
256,248,34497,1,2,0:0:0:0:
296,156,34647,6,0,P|284:112|344:76,1,111.999996582031
388,140,35097,1,2,0:0:0:0:
460,232,35247,1,0,0:0:0:0:
384,296,35397,2,0,L|308:292,3,55.9999982910157,0|0|8|0,0:0|0:0|0:0|0:0,0:0:0:0:
288,116,35997,6,0,P|232:148|224:160,2,55.9999982910157,4|0|2,0:0|0:0|0:0,0:0:0:0:
432,128,36447,2,0,L|440:208,1,55.9999982910157
328,220,36747,1,0,0:0:0:0:
216,276,36897,2,0,L|204:208,1,55.9999982910157,2|0,0:0|0:0,0:0:0:0:
244,32,37197,6,0,L|320:32,1,55.9999982910157
272,112,37497,2,0,L|272:184,1,55.9999982910157,2|0,0:0|0:0,0:0:0:0:
216,232,37797,2,0,L|336:228,1,111.999996582031,0|8,0:0|0:0,0:0:0:0:
272,300,38247,1,0,0:0:0:0:
196,312,38397,6,0,B|160:296|160:296|156:256,1,55.9999982910157
288,296,38697,2,0,L|240:252,1,55.9999982910157,2|0,0:0|0:0,0:0:0:0:
336,236,38997,2,0,L|288:188,1,55.9999982910157
404,204,39297,2,0,L|348:152,1,55.9999982910157,2|0,0:0|0:0,0:0:0:0:
236,144,39597,5,0,0:0:0:0:
140,144,39747,2,0,L|132:108,2,27.9999991455078,0|0|2,0:0|0:0|0:0,0:0:0:0:
152,220,40047,1,0,0:0:0:0:
240,272,40197,2,0,L|308:264,2,55.9999982910157,0|0|8,0:0|0:0|0:0,0:0:0:0:
260,180,40647,1,0,0:0:0:0:
272,56,40797,6,0,P|336:76|376:112,1,111.999996582031,4|2,0:0|0:0,0:0:0:0:
272,164,41247,1,0,0:0:0:0:
252,240,41397,2,0,L|184:236,2,55.9999982910157,0|0|2,0:0|0:0|0:0,0:0:0:0:
132,264,41847,6,0,P|92:224|96:164,1,111.999996582031
192,132,42297,2,0,L|248:144,2,55.9999982910157,2|0|0,0:0|0:0|0:0,0:0:0:0:
168,212,42747,1,0,0:0:0:0:
248,276,42897,2,0,B|276:280|276:280|292:248,1,55.9999982910157,8|0,0:0|0:0,0:0:0:0:
368,256,43197,6,0,B|396:216|396:216|392:188,1,55.9999982910157
424,132,43497,2,0,P|372:128|360:144,1,55.9999982910157,2|0,0:0|0:0,0:0:0:0:
292,208,43797,2,0,L|280:140,1,55.9999982910157
204,132,44097,2,0,L|176:204,1,55.9999982910157,2|0,0:0|0:0,0:0:0:0:
208,260,44397,6,0,L|252:240,3,27.9999991455078
320,232,44697,2,0,P|332:200|332:168,1,55.9999982910157,2|0,0:0|0:0,0:0:0:0:
328,88,44997,2,0,P|264:120|248:168,1,111.999996582031,0|8,0:0|0:0,0:0:0:0:
324,168,45447,1,0,0:0:0:0:
156,240,45597,6,0,P|208:248|252:200,1,111.999996582031,0|2,0:0|0:0,0:0:0:0:
316,264,46047,2,0,L|316:192,1,55.9999982910157
412,104,46497,2,0,L|340:96,1,55.9999982910157,2|0,0:0|0:0,0:0:0:0:
268,88,46797,6,0,L|256:152,2,55.9999982910157,0|0|2,0:0|0:0|0:0,0:0:0:0:
296,208,47397,1,0,0:0:0:0:
192,268,47697,2,0,L|248:284,1,55.9999982910157,8|0,0:0|0:0,0:0:0:0:
96,152,47997,5,2,0:0:0:0:
408,268,48297,1,2,0:0:0:0:
272,120,48447,1,2,0:0:0:0:
128,264,48747,1,0,0:0:0:0:
356,200,48897,1,2,0:0:0:0:
236,60,49047,1,2,0:0:0:0:
128,100,49197,5,0,0:3:0:0:
128,100,49272,1,0,0:3:0:0:
128,100,49347,1,0,0:3:0:0:
128,100,49422,1,0,0:3:0:0:
128,100,49497,2,0,L|136:160,1,55.9999982910157,2|0,0:3|0:3,0:3:0:0:
236,148,49797,2,0,B|240:180|240:180|328:176,1,111.999996582031,8|8,0:1|0:1,0:1:0:0:
319,176,50247,1,8,0:0:0:0:
464,68,50397,6,12,L|436:236,1,151.999995941162
280,220,50847,2,0,L|256:64,1,151.999995941162,8|0,0:0|0:0,0:0:0:0:
96,72,51297,2,2,L|96:160,1,75.9999979705811
216,304,51597,6,8,B|184:276|184:276|200:160,1,151.999995941162
268,88,52047,2,0,B|308:116|308:116|352:216,1,151.999995941162,8|0,0:0|0:0,0:0:0:0:
464,216,52497,2,2,L|456:136,1,75.9999979705811
372,20,52797,6,8,P|344:92|344:168,1,151.999995941162
232,168,53247,2,0,P|160:140|64:176,1,151.999995941162,8|0,0:0|0:0,0:0:0:0:
144,264,53697,2,2,L|224:268,1,75.9999979705811
364,320,53997,6,8,B|360:264|360:264|312:160,1,151.999995941162
319,176,54447,2,0,B|336:116|336:116|408:216,1,151.999995941162,8|0,0:0|0:0,0:0:0:0:
480,148,54897,2,0,L|472:72,1,75.9999979705811,8|0,0:0|0:0,0:0:0:0:
376,44,55197,6,0,L|292:68,1,75.9999979705811
304,184,55497,1,2,0:0:0:0:
188,104,55647,1,0,0:0:0:0:
116,196,55797,2,0,L|156:272,2,75.9999979705811,0|0|2,0:0|0:0|0:0,0:0:0:0:
244,252,56247,1,0,0:0:0:0:
348,304,56397,6,0,B|368:264|368:264|368:212,2,75.9999979705811,0|0|2,0:0|0:0|0:0,0:0:0:0:
188,292,56847,2,0,B|144:244|144:244|144:144,1,151.999995941162
304,128,57297,2,0,L|368:188,1,75.9999979705811,8|0,0:0|0:0,0:0:0:0:
408,76,57597,5,0,0:0:0:0:
280,76,57747,1,0,0:0:0:0:
184,48,57897,2,0,L|188:140,2,75.9999979705811,2|0|0,0:0|0:0|0:0,0:0:0:0:
84,188,58347,2,0,L|172:220,2,75.9999979705811,0|2|0,0:0|0:0|0:0,0:0:0:0:
216,252,58797,6,0,P|272:264|316:248,1,75.9999979705811,0|2,0:0|0:0,0:0:0:0:
348,216,59022,1,2,0:0:0:0:
372,152,59097,2,0,P|316:128|284:140,1,75.9999979705811,2|0,0:0|0:0,0:0:0:0:
212,136,59397,2,0,L|224:216,1,75.9999979705811
144,220,59697,2,0,L|148:312,1,75.9999979705811,8|0,0:0|0:0,0:0:0:0:
364,296,59997,6,12,P|376:232|408:148,1,151.999995941162,12|8,0:0|0:0,0:0:0:0:
300,104,60447,2,8,P|312:168|284:276,1,151.999995941162,8|0,0:0|0:0,0:0:0:0:
208,144,60897,2,2,L|208:236,1,75.9999979705811
176,324,61197,6,8,L|328:324,1,151.999995941162
332,192,61647,2,0,L|160:188,1,151.999995941162,8|0,0:0|0:0,0:0:0:0:
204,68,62097,2,2,L|304:68,1,75.9999979705811
436,104,62397,6,8,L|436:288,1,151.999995941162
360,260,62847,2,0,L|364:92,1,151.999995941162,8|0,0:0|0:0,0:0:0:0:
288,100,63297,2,2,L|288:204,1,75.9999979705811
116,308,63597,6,8,B|96:276|96:272|104:156,1,151.999995941162
184,312,64047,2,0,L|352:308,1,151.999995941162,8|0,0:0|0:0,0:0:0:0:
424,308,64497,2,8,L|420:216,1,75.9999979705811,8|0,0:0|0:0,0:0:0:0:
392,152,64797,6,0,B|320:180|320:180|296:264,1,151.999995941162,0|2,0:0|0:0,0:0:0:0:
216,264,65247,2,0,L|208:172,2,75.9999979705811
104,120,65697,1,2,0:0:0:0:
228,128,65847,1,0,0:0:0:0:
432,156,65997,6,0,B|384:200|384:200|352:204,1,75.9999979705811
296,188,66297,2,0,L|296:284,1,75.9999979705811,2|0,0:0|0:0,0:0:0:0:
216,296,66597,1,0,0:0:0:0:
136,232,66747,1,0,0:0:0:0:
60,144,66897,2,0,L|160:136,1,75.9999979705811,8|0,0:0|0:0,0:0:0:0:
272,88,67197,5,0,0:0:0:0:
376,144,67347,1,0,0:0:0:0:
268,180,67497,1,2,0:0:0:0:
152,116,67647,2,0,P|120:168|140:268,1,151.999995941162
228,264,68097,2,0,L|312:268,1,75.9999979705811,2|0,0:0|0:0,0:0:0:0:
444,208,68397,6,0,L|412:164,3,37.9999989852906
416,148,68697,2,0,P|360:136|316:136,1,75.9999979705811,2|0,0:0|0:0,0:0:0:0:
144,80,68997,1,8,0:1:0:0:
144,188,69147,1,0,0:0:0:0:
252,140,69297,1,8,0:1:0:0:
256,248,69447,1,0,0:0:0:0:
368,292,69597,6,0,P|404:208|400:172,1,128,4|2,0:0|0:0,0:0:0:0:
360,112,70047,2,0,P|264:160|244:248,1,192,0|2,0:0|0:0,0:0:0:0:
242,235,70647,1,0,0:0:0:0:
96,308,70797,5,0,0:0:0:0:
96,200,70947,1,0,0:0:0:0:
120,64,71097,1,2,0:0:0:0:
136,160,71247,2,0,B|200:192|200:192|264:160,1,128
328,204,71697,2,0,L|328:296,1,64,8|0,0:0|0:0,0:0:0:0:
236,348,71997,6,0,P|180:312|180:252,1,128,0|2,0:0|0:0,0:0:0:0:
144,184,72447,2,0,L|260:124,1,128
324,112,72897,2,0,L|360:188,1,64,2|0,0:0|0:0,0:0:0:0:
304,308,73197,6,0,P|260:312|256:280,2,64,0|0|2,0:0|0:0|0:0,0:0:0:0:
384,288,73647,2,0,P|420:208|420:168,1,128
352,92,74097,1,8,0:0:0:0:
304,176,74397,6,0,P|240:168|200:112,1,128,0|2,0:0|0:0,0:0:0:0:
140,112,74847,2,0,L|144:248,1,128
140,332,75297,2,0,L|228:312,1,64,2|0,0:0|0:0,0:0:0:0:
340,344,75597,6,0,B|324:268|324:268|376:224,1,128,0|2,0:0|0:0,0:0:0:0:
352,100,76047,2,0,B|300:184|300:184|268:184,1,128
212,240,76497,2,0,L|208:164,1,64,8|0,0:0|0:0,0:0:0:0:
92,284,76797,6,0,P|136:292|240:280,1,128,0|2,0:0|0:0,0:0:0:0:
340,296,77247,1,0,0:0:0:0:
340,296,77547,1,0,0:0:0:0:
340,296,77697,2,0,L|344:216,1,64,2|0,0:0|0:0,0:0:0:0:
304,124,77997,6,0,L|276:144,3,32,0|0|2|2,0:0|0:0|0:0|0:0,0:0:0:0:
277,142,78297,2,0,P|236:160|220:188,1,64,2|0,0:0|0:0,0:0:0:0:
88,60,78597,2,0,L|144:16,1,64,8|0,0:1|0:1,0:1:0:0:
400,332,78897,2,0,L|460:264,1,64,8|0,0:1|0:1,0:1:0:0:
260,152,79197,5,4,0:0:0:0:
