osu file format v14

[General]
AudioFilename: NEVERLAND.mp3
AudioLeadIn: 0
PreviewTime: 77571
Countdown: 1
SampleSet: None
StackLeniency: 0.7
Mode: 1
LetterboxInBreaks: 1
WidescreenStoryboard: 0

[Editor]
DistanceSpacing: 1
BeatDivisor: 4
GridSize: 16
TimelineZoom: 1

[Metadata]
Title:NEVERLAND
TitleUnicode:NEVERLAND
Artist:Hatsune Miku
ArtistUnicode:Hatsune Miku
Creator:-[ ix Ishida xi ]-
Version:-[ ix IshidaTaikonari xi ]-
Source:
Tags:
BeatmapID:1713201
BeatmapSetID:816981

[Difficulty]
HPDrainRate:5
CircleSize:5
OverallDifficulty:5
ApproachRate:5
SliderMultiplier:1.6
SliderTickRate:1

[Events]
//Background and Video events
0,0,"Neverland.png",0,0
//Break Periods
//Storyboard Layer 0 (Background)
//Storyboard Layer 1 (Fail)
//Storyboard Layer 2 (Pass)
//Storyboard Layer 3 (Foreground)
//Storyboard Sound Samples

[TimingPoints]
1308,315.789473684211,4,1,0,10,1,0
3676,-100,4,1,0,65,0,0
4071,-100,4,1,0,30,0,0
6281,-100,4,1,0,65,0,0
6597,-100,4,1,0,30,0,0
8176,-100,4,1,0,65,0,0
31623,-117.647058823529,4,1,0,45,0,0
51834,-100,4,1,0,45,0,0
72044,-133.333333333333,4,1,0,45,0,0
74571,-111.111111111111,4,1,0,45,0,0
75992,-100,4,1,0,45,0,0
77097,-100,4,1,0,75,0,1
77136,-100,4,1,0,75,0,0
77176,-100,4,1,0,75,0,1
77215,-100,4,1,0,75,0,0
77255,-100,4,1,0,75,0,1
77294,-100,4,1,0,75,0,0
77334,-100,4,1,0,75,0,1
77373,-100,4,1,0,75,0,0
77413,-100,4,1,0,75,0,1
77452,-100,4,1,0,75,0,0
77729,-66.6666666666667,4,1,0,75,0,1
77768,-66.6666666666667,4,1,0,75,0,0
77886,-66.6666666666667,4,1,0,75,0,1
77926,-66.6666666666667,4,1,0,75,0,0
78202,-83.3333333333333,4,1,0,75,0,1
98531,-83.3333333333333,4,1,0,75,0,0
98571,-66.6666666666667,4,1,0,75,0,1
98610,-100,4,1,0,55,0,0
103702,-133.333333333333,4,1,0,45,0,0
113729,-117.647058823529,4,1,0,45,0,0
116255,-105.263157894737,4,1,0,45,0,0
116729,-95.2380952380952,4,1,0,45,0,0
117044,-86.9565217391304,4,1,0,45,0,0
117360,-80,4,1,0,45,0,0
117676,-74.0740740740741,4,1,0,65,0,0
118150,-66.6666666666667,4,1,0,65,0,0
118781,-66.6666666666667,4,1,0,65,0,1
118821,-100,4,1,0,65,0,0
136465,-66.6666666666667,4,1,0,65,0,1
136505,-66.6666666666667,4,1,0,30,0,0
138281,-66.6666666666667,4,1,0,65,0,0
138992,-200,4,1,0,40,0,0
143886,-166.666666666667,4,1,0,40,0,0
144202,-142.857142857143,4,1,0,40,0,0
145308,-125,4,1,0,40,0,0
146571,-111.111111111111,4,1,0,40,0,0
147992,-100,4,1,0,55,0,0
148939,-83.3333333333333,4,1,0,65,0,1
179136,-83.3333333333333,4,1,0,65,0,0
179176,-83.3333333333333,4,1,0,65,0,1
179215,-83.3333333333333,4,1,0,65,0,0

[HitObjects]
256,192,3834,5,4,0:0:0:0:
320,192,3992,1,0,0:0:0:0:
384,208,4150,1,2,0:0:0:0:
400,144,4308,1,0,0:0:0:0:
400,208,4465,1,0,0:0:0:0:
464,176,4623,1,2,0:0:0:0:
480,160,4781,1,0,0:0:0:0:
416,192,4939,1,0,0:0:0:0:
464,176,5097,1,2,0:0:0:0:
464,176,5255,1,0,0:0:0:0:
416,192,5413,1,0,0:0:0:0:
464,176,5571,1,2,0:0:0:0:
448,240,5729,1,0,0:0:0:0:
448,176,5886,1,0,0:0:0:0:
464,176,6044,1,2,0:0:0:0:
352,256,6360,1,4,0:0:0:0:
352,192,6518,1,0,0:0:0:0:
416,176,6676,1,2,0:0:0:0:
480,160,6834,1,0,0:0:0:0:
432,208,6992,1,0,0:0:0:0:
432,208,7150,1,2,0:0:0:0:
448,176,7308,1,0,0:0:0:0:
400,224,7465,1,0,0:0:0:0:
464,176,7623,1,2,0:0:0:0:
448,176,7781,1,0,0:0:0:0:
416,176,7939,1,0,0:0:0:0:
480,160,8097,1,2,0:0:0:0:
432,208,8255,1,2,0:0:0:0:
448,272,8413,1,0,0:0:0:0:
304,112,8729,1,4,0:0:0:0:
432,160,9044,1,0,0:0:0:0:
464,224,9202,1,2,0:0:0:0:
448,160,9360,1,0,0:0:0:0:
432,208,9518,1,0,0:0:0:0:
368,224,9676,1,0,0:0:0:0:
432,192,9834,1,2,0:0:0:0:
496,160,9992,1,0,0:0:0:0:
432,144,10150,1,0,0:0:0:0:
368,224,10308,1,0,0:0:0:0:
432,208,10465,1,2,0:0:0:0:
480,160,10623,1,0,0:0:0:0:
416,176,10781,1,0,0:0:0:0:
384,176,10860,1,0,0:0:0:0:
352,192,10939,1,0,0:0:0:0:
352,192,11018,1,0,0:0:0:0:
352,192,11097,1,0,0:0:0:0:
352,192,11176,1,0,0:0:0:0:
432,192,11255,1,2,0:0:0:0:
432,192,11571,1,0,0:0:0:0:
336,0,11729,1,2,0:0:0:0:
416,176,11886,1,0,0:0:0:0:
432,208,12044,1,2,0:0:0:0:
432,208,12360,1,2,0:0:0:0:
432,208,12518,1,0,0:0:0:0:
416,176,12676,1,0,0:0:0:0:
432,208,12992,1,0,0:0:0:0:
432,192,13150,1,2,0:0:0:0:
448,176,13465,1,0,0:0:0:0:
400,224,13623,1,0,0:0:0:0:
432,208,13781,1,2,0:0:0:0:
416,176,14097,1,2,0:0:0:0:
432,192,14255,1,0,0:0:0:0:
368,224,14413,1,0,0:0:0:0:
432,176,14571,1,2,0:0:0:0:
432,192,14729,1,2,0:0:0:0:
496,192,14886,1,0,0:0:0:0:
416,176,15044,1,0,0:0:0:0:
400,144,15123,1,0,0:0:0:0:
432,208,15202,1,2,0:0:0:0:
304,160,15518,1,0,0:0:0:0:
368,160,15676,1,0,0:0:0:0:
416,176,15834,1,0,0:0:0:0:
400,208,15913,1,0,0:0:0:0:
400,208,15992,1,0,0:0:0:0:
416,176,16071,1,0,0:0:0:0:
416,208,16150,1,0,0:0:0:0:
416,208,16229,1,0,0:0:0:0:
400,176,16308,1,0,0:0:0:0:
432,160,16623,1,0,0:0:0:0:
400,208,16781,1,2,0:0:0:0:
416,144,16939,1,2,0:0:0:0:
400,176,17018,1,2,0:0:0:0:
416,176,17097,1,2,0:0:0:0:
464,128,17255,1,2,0:0:0:0:
432,192,17413,1,2,0:0:0:0:
448,256,17571,1,0,0:0:0:0:
432,160,17729,1,0,0:0:0:0:
464,176,17965,1,0,0:0:0:0:
432,192,18044,1,2,0:0:0:0:
496,208,18202,1,0,0:0:0:0:
432,224,18360,1,0,0:0:0:0:
416,176,18439,1,2,0:0:0:0:
400,208,18518,1,2,0:0:0:0:
400,208,18597,1,2,0:0:0:0:
400,208,18676,1,2,0:0:0:0:
400,272,18834,1,2,0:0:0:0:
432,192,19150,1,0,0:0:0:0:
384,240,19308,1,0,0:0:0:0:
464,176,19465,1,2,0:0:0:0:
400,208,19781,1,0,0:0:0:0:
336,224,19939,1,0,0:0:0:0:
432,192,20097,1,2,0:0:0:0:
448,192,20413,1,0,0:0:0:0:
400,208,20571,1,0,0:0:0:0:
416,272,20729,1,2,0:0:0:0:
432,128,21044,1,0,0:0:0:0:
384,176,21202,1,0,0:0:0:0:
400,240,21360,1,2,0:0:0:0:
400,208,21676,1,0,0:0:0:0:
448,144,21834,1,0,0:0:0:0:
400,208,21992,1,0,0:0:0:0:
464,208,22150,1,2,0:0:0:0:
320,192,22465,1,2,0:0:0:0:
384,192,22623,1,0,0:0:0:0:
400,208,22702,1,0,0:0:0:0:
432,208,22781,1,0,0:0:0:0:
384,160,22939,1,0,0:0:0:0:
432,208,23097,1,2,0:0:0:0:
416,144,23255,1,2,0:0:0:0:
400,208,23334,1,2,0:0:0:0:
400,240,23413,1,2,0:0:0:0:
464,208,23571,1,0,0:0:0:0:
448,144,23729,1,2,0:0:0:0:
432,208,23886,1,0,0:0:0:0:
464,80,24202,1,0,0:0:0:0:
400,240,24360,1,2,0:0:0:0:
448,192,24518,1,0,0:0:0:0:
480,176,24597,1,2,0:0:0:0:
448,192,24676,1,2,0:0:0:0:
448,192,24834,1,2,0:0:0:0:
384,192,24992,1,2,0:0:0:0:
448,176,25150,1,0,0:0:0:0:
384,176,25308,1,0,0:0:0:0:
416,240,25465,1,0,0:0:0:0:
400,208,25544,1,0,0:0:0:0:
448,192,25623,1,2,0:0:0:0:
400,208,25781,1,0,0:0:0:0:
384,64,26097,1,0,0:0:0:0:
384,192,26255,1,0,0:0:0:0:
448,192,26413,1,2,0:0:0:0:
448,176,26729,1,2,0:0:0:0:
512,176,26886,1,0,0:0:0:0:
448,192,27044,1,0,0:0:0:0:
416,256,27202,1,2,0:0:0:0:
448,176,27360,1,2,0:0:0:0:
480,160,27439,1,0,0:0:0:0:
448,176,27518,1,0,0:0:0:0:
416,240,27676,1,0,0:0:0:0:
480,208,27834,1,6,0:0:0:0:
448,192,27992,1,0,0:0:0:0:
384,160,28150,1,0,0:0:0:0:
384,224,28308,1,0,0:0:0:0:
400,192,28386,1,0,0:0:0:0:
432,208,28465,1,6,0:0:0:0:
496,240,28623,1,2,0:0:0:0:
480,160,28702,1,0,0:0:0:0:
448,176,28781,1,0,0:0:0:0:
464,176,28939,1,4,0:0:0:0:
480,160,29255,1,2,0:0:0:0:
480,160,29413,1,0,0:0:0:0:
448,192,29571,1,2,0:0:0:0:
464,192,29729,1,0,0:0:0:0:
416,240,29886,1,2,0:0:0:0:
384,224,29965,1,2,0:0:0:0:
432,208,30044,1,0,0:0:0:0:
448,176,30202,1,2,0:0:0:0:
432,176,30360,1,0,0:0:0:0:
432,208,30518,1,0,0:0:0:0:
432,208,30597,1,2,0:0:0:0:
400,224,30676,1,2,0:0:0:0:
480,224,30992,1,4,0:0:0:0:
464,192,31150,1,0,0:0:0:0:
448,224,31229,1,0,0:0:0:0:
464,192,31308,1,2,0:0:0:0:
432,208,31465,1,2,0:0:0:0:
400,224,31623,1,2,0:0:0:0:
336,240,31781,1,0,0:0:0:0:
400,208,31939,1,2,0:0:0:0:
432,144,32097,1,0,0:0:0:0:
416,208,32255,1,0,0:0:0:0:
400,208,32413,1,0,0:0:0:0:
400,208,32492,1,0,0:0:0:0:
368,192,32571,1,2,0:0:0:0:
432,208,32729,1,0,0:0:0:0:
400,144,32886,1,0,0:0:0:0:
384,208,33044,1,0,0:0:0:0:
400,176,33123,1,0,0:0:0:0:
432,176,33202,1,2,0:0:0:0:
368,144,33360,1,0,0:0:0:0:
432,176,33518,1,2,0:0:0:0:
416,208,33597,1,2,0:0:0:0:
448,192,33676,1,0,0:0:0:0:
416,128,33834,1,0,0:0:0:0:
368,192,33913,1,0,0:0:0:0:
368,192,33992,1,0,0:0:0:0:
368,224,34071,1,0,0:0:0:0:
368,224,34150,1,2,0:0:0:0:
432,208,34308,1,0,0:0:0:0:
480,160,34465,1,2,0:0:0:0:
448,192,34623,1,0,0:0:0:0:
416,208,34702,1,0,0:0:0:0:
448,208,34781,1,2,0:0:0:0:
480,160,34939,1,0,0:0:0:0:
448,192,35097,1,2,0:0:0:0:
432,208,35255,1,0,0:0:0:0:
384,256,35413,1,2,0:0:0:0:
448,192,35571,1,0,0:0:0:0:
464,160,35650,1,2,0:0:0:0:
448,192,35729,1,2,0:0:0:0:
448,192,35886,1,0,0:0:0:0:
416,208,36044,1,0,0:0:0:0:
416,208,36202,1,0,0:0:0:0:
384,192,36281,1,0,0:0:0:0:
448,192,36360,1,0,0:0:0:0:
480,160,36439,1,2,0:0:0:0:
464,192,36518,1,0,0:0:0:0:
464,160,36597,1,2,0:0:0:0:
416,208,36676,1,2,0:0:0:0:
464,160,36834,1,0,0:0:0:0:
448,192,36992,1,2,0:0:0:0:
448,192,37150,1,0,0:0:0:0:
432,224,37229,1,2,0:0:0:0:
464,160,37308,1,0,0:0:0:0:
416,208,37465,1,0,0:0:0:0:
448,192,37544,1,2,0:0:0:0:
416,208,37623,1,2,0:0:0:0:
384,144,37781,1,2,0:0:0:0:
432,224,37939,1,0,0:0:0:0:
432,160,38097,1,2,0:0:0:0:
384,208,38255,1,2,0:0:0:0:
448,176,38413,1,0,0:0:0:0:
416,160,38492,1,0,0:0:0:0:
400,192,38571,1,0,0:0:0:0:
416,256,38729,1,0,0:0:0:0:
400,224,38808,1,0,0:0:0:0:
416,192,38886,1,2,0:0:0:0:
416,208,38965,1,2,0:0:0:0:
432,224,39044,1,0,0:0:0:0:
432,224,39202,1,6,0:0:0:0:
480,176,39360,1,0,0:0:0:0:
416,192,39518,1,0,0:0:0:0:
448,176,39676,1,0,0:0:0:0:
400,192,39755,1,0,0:0:0:0:
400,224,39834,1,0,0:0:0:0:
512,128,39992,1,2,0:0:0:0:
464,176,40150,1,0,0:0:0:0:
464,176,40308,1,2,0:0:0:0:
416,224,40465,1,6,0:0:0:0:
464,224,40702,1,2,0:0:0:0:
368,192,40939,1,0,0:0:0:0:
416,224,41097,1,0,0:0:0:0:
352,240,41255,1,0,0:0:0:0:
320,240,41334,1,0,0:0:0:0:
352,224,41413,1,0,0:0:0:0:
384,288,41571,1,2,0:0:0:0:
432,240,41729,1,6,0:0:0:0:
368,256,41886,1,0,0:0:0:0:
416,208,42044,1,0,0:0:0:0:
480,160,42202,1,0,0:0:0:0:
448,160,42281,1,0,0:0:0:0:
432,208,42360,1,0,0:0:0:0:
480,160,42518,1,2,0:0:0:0:
480,160,42676,1,0,0:0:0:0:
464,224,42834,1,2,0:0:0:0:
432,160,42992,1,0,0:0:0:0:
432,160,43071,1,0,0:0:0:0:
416,192,43150,1,0,0:0:0:0:
416,208,43229,1,0,0:0:0:0:
432,176,43308,1,2,0:0:0:0:
432,208,43386,1,0,0:0:0:0:
384,240,43544,1,0,0:0:0:0:
384,240,43623,1,0,0:0:0:0:
416,208,43781,1,0,0:0:0:0:
416,208,43860,1,0,0:0:0:0:
416,208,43939,1,0,0:0:0:0:
416,208,44097,1,2,0:0:0:0:
464,160,44255,1,0,0:0:0:0:
416,208,44413,1,0,0:0:0:0:
384,224,44492,1,0,0:0:0:0:
416,208,44571,1,2,0:0:0:0:
432,208,44729,1,0,0:0:0:0:
400,272,44886,1,0,0:0:0:0:
400,240,44965,1,0,0:0:0:0:
432,224,45044,1,2,0:0:0:0:
480,176,45202,1,0,0:0:0:0:
480,112,45360,1,0,0:0:0:0:
416,208,45518,1,2,0:0:0:0:
480,208,45676,1,0,0:0:0:0:
480,176,45755,1,2,0:0:0:0:
432,224,45913,1,0,0:0:0:0:
432,160,46071,1,0,0:0:0:0:
416,208,46150,1,0,0:0:0:0:
352,224,46308,1,0,0:0:0:0:
384,208,46386,1,0,0:0:0:0:
480,176,46465,1,2,0:0:0:0:
480,176,46623,1,0,0:0:0:0:
432,224,46781,1,4,0:0:0:0:
416,208,46939,1,0,0:0:0:0:
432,224,47097,1,2,0:0:0:0:
432,224,47255,1,0,0:0:0:0:
400,208,47334,1,0,0:0:0:0:
368,240,47413,1,0,0:0:0:0:
432,224,47571,1,2,0:0:0:0:
464,176,47729,1,0,0:0:0:0:
432,240,47886,1,2,0:0:0:0:
400,208,48044,1,2,0:0:0:0:
368,240,48123,1,2,0:0:0:0:
400,224,48202,1,0,0:0:0:0:
464,192,48360,1,2,0:0:0:0:
400,192,48518,1,2,0:0:0:0:
368,192,48597,1,2,0:0:0:0:
464,192,48676,1,0,0:0:0:0:
464,192,48834,1,2,0:0:0:0:
464,176,48992,1,0,0:0:0:0:
432,192,49071,1,0,0:0:0:0:
432,192,49150,1,2,0:0:0:0:
464,176,49229,1,0,0:0:0:0:
432,160,49308,1,0,0:0:0:0:
464,176,49465,1,2,0:0:0:0:
448,208,49544,1,0,0:0:0:0:
448,208,49702,1,2,0:0:0:0:
448,208,49781,1,0,0:0:0:0:
384,240,49939,1,0,0:0:0:0:
416,240,50018,1,2,0:0:0:0:
432,208,50097,1,0,0:0:0:0:
480,160,50255,1,2,0:0:0:0:
464,192,50413,1,0,0:0:0:0:
464,192,50571,1,4,0:0:0:0:
464,256,50729,1,2,0:0:0:0:
448,224,50808,1,2,0:0:0:0:
464,176,50886,1,0,0:0:0:0:
464,176,51044,1,2,0:0:0:0:
432,160,51123,1,2,0:0:0:0:
464,192,51202,1,0,0:0:0:0:
400,176,51360,1,0,0:0:0:0:
368,176,51439,1,0,0:0:0:0:
400,192,51518,1,2,0:0:0:0:
384,224,51597,1,2,0:0:0:0:
384,224,51676,1,2,0:0:0:0:
384,224,51755,1,2,0:0:0:0:
384,192,51834,1,2,0:0:0:0:
432,160,51992,1,0,0:0:0:0:
448,224,52150,1,2,0:0:0:0:
480,160,52308,1,0,0:0:0:0:
448,192,52386,1,0,0:0:0:0:
432,224,52465,1,0,0:0:0:0:
464,192,52623,1,2,0:0:0:0:
480,160,52781,1,0,0:0:0:0:
448,192,52860,1,0,0:0:0:0:
448,192,52939,1,2,0:0:0:0:
432,160,53097,1,2,0:0:0:0:
464,192,53255,1,0,0:0:0:0:
400,224,53413,1,2,0:0:0:0:
320,240,53571,1,0,0:0:0:0:
352,224,53650,1,0,0:0:0:0:
352,224,53729,1,0,0:0:0:0:
432,224,53886,1,2,0:0:0:0:
464,192,54044,1,0,0:0:0:0:
432,224,54123,1,0,0:0:0:0:
416,192,54202,1,2,0:0:0:0:
416,192,54360,1,2,0:0:0:0:
480,160,54518,1,0,0:0:0:0:
448,176,54597,1,0,0:0:0:0:
432,208,54676,1,2,0:0:0:0:
432,208,54834,1,0,0:0:0:0:
368,256,54992,1,0,0:0:0:0:
400,224,55071,1,0,0:0:0:0:
432,208,55150,1,2,0:0:0:0:
432,224,55308,1,0,0:0:0:0:
432,224,55465,1,2,0:0:0:0:
416,192,55623,1,2,0:0:0:0:
400,224,55702,1,0,0:0:0:0:
448,192,55781,1,0,0:0:0:0:
400,224,55860,1,0,0:0:0:0:
432,208,55939,1,2,0:0:0:0:
448,176,56097,1,0,0:0:0:0:
448,192,56176,1,2,0:0:0:0:
464,192,56334,1,0,0:0:0:0:
432,208,56413,1,2,0:0:0:0:
464,192,56571,1,0,0:0:0:0:
512,128,56729,1,2,0:0:0:0:
448,192,56886,1,2,0:0:0:0:
416,192,56965,1,2,0:0:0:0:
448,176,57044,1,0,0:0:0:0:
416,192,57123,1,0,0:0:0:0:
400,224,57202,1,2,0:0:0:0:
432,208,57360,1,0,0:0:0:0:
400,176,57439,1,0,0:0:0:0:
432,160,57518,1,2,0:0:0:0:
432,208,57676,1,0,0:0:0:0:
352,176,57834,1,0,0:0:0:0:
320,176,57913,1,0,0:0:0:0:
352,192,57992,1,2,0:0:0:0:
432,160,58150,1,2,0:0:0:0:
432,160,58229,1,2,0:0:0:0:
432,208,58308,1,0,0:0:0:0:
448,192,58465,1,2,0:0:0:0:
448,176,58623,1,0,0:0:0:0:
480,160,58702,1,2,0:0:0:0:
448,192,58781,1,2,0:0:0:0:
480,160,58939,1,0,0:0:0:0:
400,160,59097,1,0,0:0:0:0:
480,160,59255,1,2,0:0:0:0:
400,176,59413,1,2,0:0:0:0:
416,256,59571,1,0,0:0:0:0:
400,224,59650,1,0,0:0:0:0:
432,208,59729,1,2,0:0:0:0:
480,160,59886,1,0,0:0:0:0:
400,224,60044,1,0,0:0:0:0:
400,224,60123,1,0,0:0:0:0:
432,208,60202,1,2,0:0:0:0:
416,128,60360,1,0,0:0:0:0:
416,160,60439,1,0,0:0:0:0:
448,160,60518,1,2,0:0:0:0:
432,208,60597,1,2,0:0:0:0:
464,176,60676,1,0,0:0:0:0:
416,240,60834,1,2,0:0:0:0:
480,160,60913,1,0,0:0:0:0:
464,176,61071,1,2,0:0:0:0:
432,176,61150,1,0,0:0:0:0:
416,208,61229,1,0,0:0:0:0:
416,240,61308,1,0,0:0:0:0:
432,208,61386,1,2,0:0:0:0:
464,176,61465,1,0,0:0:0:0:
432,208,61623,1,2,0:0:0:0:
464,224,61702,1,0,0:0:0:0:
464,176,61781,1,2,0:0:0:0:
448,208,61860,1,0,0:0:0:0:
432,208,61939,1,0,0:0:0:0:
464,176,62097,1,2,0:0:0:0:
432,176,62255,1,0,0:0:0:0:
432,208,62334,1,0,0:0:0:0:
464,176,62413,1,2,0:0:0:0:
400,224,62571,1,0,0:0:0:0:
416,240,62650,1,0,0:0:0:0:
432,208,62729,1,2,0:0:0:0:
448,176,62808,1,0,0:0:0:0:
432,176,62886,1,0,0:0:0:0:
480,128,63044,1,2,0:0:0:0:
432,208,63202,1,0,0:0:0:0:
416,240,63360,1,0,0:0:0:0:
400,224,63439,1,0,0:0:0:0:
432,208,63518,1,2,0:0:0:0:
512,176,63676,1,0,0:0:0:0:
432,208,63834,1,0,0:0:0:0:
400,224,63913,1,0,0:0:0:0:
416,192,63992,1,0,0:0:0:0:
496,160,64150,1,2,0:0:0:0:
448,176,64308,1,2,0:0:0:0:
432,208,64386,1,2,0:0:0:0:
416,192,64465,1,0,0:0:0:0:
432,208,64623,1,0,0:0:0:0:
448,128,64781,1,2,0:0:0:0:
480,144,64939,1,0,0:0:0:0:
400,224,65018,1,0,0:0:0:0:
416,192,65097,1,2,0:0:0:0:
432,208,65255,1,0,0:0:0:0:
480,144,65413,1,2,0:0:0:0:
400,176,65571,1,2,0:0:0:0:
496,160,65729,1,6,0:0:0:0:
416,256,65965,1,2,0:0:0:0:
480,160,66202,1,0,0:0:0:0:
416,208,66360,1,0,0:0:0:0:
432,208,66518,1,0,0:0:0:0:
400,240,66597,1,0,0:0:0:0:
432,208,66676,1,2,0:0:0:0:
496,160,66834,1,0,0:0:0:0:
464,224,66992,1,4,0:0:0:0:
432,208,67150,1,0,0:0:0:0:
416,256,67229,1,0,0:0:0:0:
448,224,67308,1,2,0:0:0:0:
448,144,67465,1,0,0:0:0:0:
464,176,67544,1,0,0:0:0:0:
400,208,67623,1,0,0:0:0:0:
400,208,67702,1,0,0:0:0:0:
432,208,67781,1,2,0:0:0:0:
480,144,67939,1,0,0:0:0:0:
432,208,68097,1,2,0:0:0:0:
432,208,68255,1,2,0:0:0:0:
400,208,68334,1,2,0:0:0:0:
480,144,68413,1,0,0:0:0:0:
448,224,68571,1,2,0:0:0:0:
432,208,68729,1,0,0:0:0:0:
400,208,68808,1,0,0:0:0:0:
384,240,68886,1,0,0:0:0:0:
448,176,69044,1,2,0:0:0:0:
464,176,69202,1,0,0:0:0:0:
432,208,69281,1,0,0:0:0:0:
432,208,69360,1,2,0:0:0:0:
416,128,69518,1,2,0:0:0:0:
448,176,69597,1,0,0:0:0:0:
400,208,69676,1,0,0:0:0:0:
432,176,69755,1,0,0:0:0:0:
432,208,69834,1,2,0:0:0:0:
448,176,69992,1,0,0:0:0:0:
432,208,70071,1,0,0:0:0:0:
480,208,70150,1,2,0:0:0:0:
464,128,70308,1,2,0:0:0:0:
432,208,70465,1,2,0:0:0:0:
464,192,70544,1,0,0:0:0:0:
432,208,70702,1,0,0:0:0:0:
432,208,70781,1,0,0:0:0:0:
448,128,70939,1,0,0:0:0:0:
432,176,71018,1,0,0:0:0:0:
448,176,71097,1,2,0:0:0:0:
464,192,71255,1,0,0:0:0:0:
384,208,71413,1,2,0:0:0:0:
352,224,71492,1,2,0:0:0:0:
448,176,71571,1,0,0:0:0:0:
416,208,71650,1,0,0:0:0:0:
448,208,71729,1,2,0:0:0:0:
464,192,71808,1,0,0:0:0:0:
448,160,71886,1,0,0:0:0:0:
464,176,71965,1,0,0:0:0:0:
432,176,72044,1,6,0:0:0:0:
416,256,72281,1,0,0:0:0:0:
416,208,72518,1,0,0:0:0:0:
416,208,72597,1,0,0:0:0:0:
400,240,72676,1,2,0:0:0:0:
416,208,72834,1,0,0:0:0:0:
400,272,72992,1,2,0:0:0:0:
384,256,73071,1,2,0:0:0:0:
416,208,73150,1,0,0:0:0:0:
432,176,73308,1,0,0:0:0:0:
352,128,73544,1,0,0:0:0:0:
432,176,73623,1,2,0:0:0:0:
480,144,73781,1,0,0:0:0:0:
448,192,73939,1,2,0:0:0:0:
416,208,74018,1,2,0:0:0:0:
432,192,74097,1,0,0:0:0:0:
416,208,74255,1,2,0:0:0:0:
448,192,74413,1,0,0:0:0:0:
480,176,74492,1,2,0:0:0:0:
448,192,74571,1,0,0:0:0:0:
432,176,74729,1,0,0:0:0:0:
480,144,74886,1,0,0:0:0:0:
432,176,75044,1,0,0:0:0:0:
432,192,75123,1,0,0:0:0:0:
448,208,75202,1,6,0:0:0:0:
448,208,75360,1,2,0:0:0:0:
416,208,75518,1,2,0:0:0:0:
368,192,75676,1,0,0:0:0:0:
448,192,75992,1,0,0:0:0:0:
480,144,76150,1,2,0:0:0:0:
480,144,76308,1,0,0:0:0:0:
448,160,76386,1,0,0:0:0:0:
416,176,76465,1,0,0:0:0:0:
416,208,76623,1,0,0:0:0:0:
464,176,76781,1,2,0:0:0:0:
416,208,76939,1,0,0:0:0:0:
384,208,77018,1,0,0:0:0:0:
448,192,77097,1,2,0:0:0:0:
384,208,77176,1,2,0:0:0:0:
384,208,77255,1,2,0:0:0:0:
384,208,77334,1,2,0:0:0:0:
416,208,77413,1,0,0:0:0:0:
448,192,77729,1,4,0:0:0:0:
416,176,77886,1,0,0:0:0:0:
416,176,78202,1,4,0:0:0:0:
416,176,78518,1,0,0:0:0:0:
512,192,78676,1,2,0:0:0:0:
464,112,78834,1,0,0:0:0:0:
448,160,78913,1,0,0:0:0:0:
416,176,78992,1,0,0:0:0:0:
464,256,79150,1,0,0:0:0:0:
448,192,79308,1,2,0:0:0:0:
448,160,79465,1,0,0:0:0:0:
448,192,79544,1,2,0:0:0:0:
416,176,79623,1,0,0:0:0:0:
448,192,79781,1,0,0:0:0:0:
496,112,79939,1,2,0:0:0:0:
416,160,80097,1,2,0:0:0:0:
384,192,80176,1,2,0:0:0:0:
384,192,80255,1,2,0:0:0:0:
432,272,80413,1,0,0:0:0:0:
400,176,80571,1,0,0:0:0:0:
384,192,80650,1,0,0:0:0:0:
416,176,80729,1,0,0:0:0:0:
416,176,81044,1,0,0:0:0:0:
416,176,81202,1,0,0:0:0:0:
400,176,81360,1,0,0:0:0:0:
400,272,81518,1,0,0:0:0:0:
384,192,81676,1,0,0:0:0:0:
384,192,81834,1,0,0:0:0:0:
384,192,81992,1,0,0:0:0:0:
384,192,82071,1,0,0:0:0:0:
432,176,82150,1,2,0:0:0:0:
480,96,82308,1,2,0:0:0:0:
464,192,82465,1,0,0:0:0:0:
464,96,82623,1,2,0:0:0:0:
432,176,82781,1,0,0:0:0:0:
400,208,82860,1,0,0:0:0:0:
400,208,82939,1,0,0:0:0:0:
352,224,83018,1,0,0:0:0:0:
384,192,83097,1,2,0:0:0:0:
368,240,83176,1,2,0:0:0:0:
400,208,83255,1,2,0:0:0:0:
448,128,83334,1,0,0:0:0:0:
464,192,83413,1,6,0:0:0:0:
400,208,83571,1,0,0:0:0:0:
400,160,83650,1,0,0:0:0:0:
400,208,83729,1,2,0:0:0:0:
400,208,83886,1,2,0:0:0:0:
432,176,83965,1,0,0:0:0:0:
400,208,84044,1,0,0:0:0:0:
400,208,84202,1,0,0:0:0:0:
400,208,84281,1,0,0:0:0:0:
448,192,84360,1,2,0:0:0:0:
432,176,84518,1,0,0:0:0:0:
384,192,84597,1,2,0:0:0:0:
416,160,84676,1,0,0:0:0:0:
432,176,84834,1,0,0:0:0:0:
400,208,84992,1,0,0:0:0:0:
400,208,85071,1,0,0:0:0:0:
432,176,85150,1,2,0:0:0:0:
400,208,85308,1,2,0:0:0:0:
400,208,85386,1,2,0:0:0:0:
480,144,85465,1,0,0:0:0:0:
432,176,85544,1,0,0:0:0:0:
384,160,85623,1,0,0:0:0:0:
400,208,85781,1,2,0:0:0:0:
448,208,85860,1,0,0:0:0:0:
400,224,85939,1,6,0:0:0:0:
400,208,86255,1,2,0:0:0:0:
400,208,86413,1,2,0:0:0:0:
432,176,86571,1,0,0:0:0:0:
400,208,86650,1,0,0:0:0:0:
448,192,86729,1,2,0:0:0:0:
480,144,86808,1,0,0:0:0:0:
432,176,86886,1,0,0:0:0:0:
352,240,87044,1,0,0:0:0:0:
400,208,87123,1,0,0:0:0:0:
400,224,87202,1,0,0:0:0:0:
400,208,87360,1,0,0:0:0:0:
448,192,87518,1,2,0:0:0:0:
464,176,87676,1,0,0:0:0:0:
432,176,87834,1,2,0:0:0:0:
432,176,87913,1,2,0:0:0:0:
480,160,87992,1,0,0:0:0:0:
432,192,88071,1,0,0:0:0:0:
432,144,88150,1,2,0:0:0:0:
400,208,88229,1,2,0:0:0:0:
448,192,88308,1,0,0:0:0:0:
256,192,88623,1,0,0:0:0:0:
352,208,88781,1,0,0:0:0:0:
432,176,88939,1,2,0:0:0:0:
352,224,89097,1,2,0:0:0:0:
432,176,89255,1,0,0:0:0:0:
384,208,89334,1,0,0:0:0:0:
352,240,89413,1,0,0:0:0:0:
432,176,89571,1,2,0:0:0:0:
432,176,89729,1,0,0:0:0:0:
368,240,89886,1,0,0:0:0:0:
400,208,89965,1,0,0:0:0:0:
448,192,90044,1,2,0:0:0:0:
512,176,90360,1,6,0:0:0:0:
464,176,90439,1,0,0:0:0:0:
416,192,90518,1,0,0:0:0:0:
416,192,90597,1,0,0:0:0:0:
400,208,90676,1,0,0:0:0:0:
464,176,90834,1,2,0:0:0:0:
448,192,91150,1,0,0:0:0:0:
464,176,91308,1,2,0:0:0:0:
464,176,91465,1,0,0:0:0:0:
448,192,91623,1,0,0:0:0:0:
416,192,91702,1,0,0:0:0:0:
384,224,91781,1,0,0:0:0:0:
464,176,91939,1,2,0:0:0:0:
448,192,92097,1,0,0:0:0:0:
464,176,92255,1,2,0:0:0:0:
432,208,92334,1,2,0:0:0:0:
464,176,92413,1,0,0:0:0:0:
448,192,92571,1,2,0:0:0:0:
464,144,92729,1,0,0:0:0:0:
432,176,92808,1,0,0:0:0:0:
416,192,92886,1,0,0:0:0:0:
432,208,93044,1,2,0:0:0:0:
448,192,93202,1,0,0:0:0:0:
432,176,93360,1,4,0:0:0:0:
448,192,93676,1,0,0:0:0:0:
368,240,93834,1,0,0:0:0:0:
464,208,93992,1,0,0:0:0:0:
432,208,94071,1,0,0:0:0:0:
384,208,94150,1,0,0:0:0:0:
464,256,94308,1,0,0:0:0:0:
368,224,94465,1,0,0:0:0:0:
400,144,94623,1,0,0:0:0:0:
384,208,94781,1,0,0:0:0:0:
384,304,94939,1,0,0:0:0:0:
432,224,95097,1,2,0:0:0:0:
464,128,95255,1,0,0:0:0:0:
368,304,95571,1,0,0:0:0:0:
432,224,95729,1,0,0:0:0:0:
400,208,95886,1,2,0:0:0:0:
448,240,96044,1,2,0:0:0:0:
432,192,96123,1,2,0:0:0:0:
448,144,96202,1,2,0:0:0:0:
480,160,96360,1,0,0:0:0:0:
400,208,96518,1,0,0:0:0:0:
448,192,96597,1,2,0:0:0:0:
448,128,96676,1,0,0:0:0:0:
480,144,96834,1,0,0:0:0:0:
448,192,96992,1,0,0:0:0:0:
448,192,97150,1,0,0:0:0:0:
464,208,97308,1,6,0:0:0:0:
464,352,97518,1,2,0:0:0:0:
448,208,97729,1,2,0:0:0:0:
400,160,97834,1,2,0:0:0:0:
400,288,97939,1,4,0:0:0:0:
416,240,98018,1,0,0:0:0:0:
416,192,98097,1,0,0:0:0:0:
384,224,98176,1,0,0:0:0:0:
464,208,98255,1,2,0:0:0:0:
480,160,98334,1,0,0:0:0:0:
448,192,98413,1,0,0:0:0:0:
416,192,98492,1,2,0:0:0:0:
480,176,98571,1,6,0:0:0:0:
384,224,98729,1,0,0:0:0:0:
320,176,98886,1,0,0:0:0:0:
416,240,99044,1,0,0:0:0:0:
480,160,99360,1,2,0:0:0:0:
480,160,99676,1,0,0:0:0:0:
480,160,99755,1,2,0:0:0:0:
416,240,99834,1,0,0:0:0:0:
448,176,99992,1,0,0:0:0:0:
448,176,100150,1,2,0:0:0:0:
448,176,100465,1,2,0:0:0:0:
496,112,100623,1,0,0:0:0:0:
464,144,100702,1,0,0:0:0:0:
464,144,100781,1,2,0:0:0:0:
432,176,100860,1,2,0:0:0:0:
400,208,100939,1,2,0:0:0:0:
448,176,101018,1,0,0:0:0:0:
416,192,101097,1,0,0:0:0:0:
432,176,101413,1,0,0:0:0:0:
416,208,101492,1,0,0:0:0:0:
384,224,101571,1,0,0:0:0:0:
400,208,101650,1,0,0:0:0:0:
464,144,101729,1,2,0:0:0:0:
448,176,101886,1,0,0:0:0:0:
480,176,102044,1,2,0:0:0:0:
416,192,102202,1,2,0:0:0:0:
416,208,102281,1,2,0:0:0:0:
448,192,102360,1,0,0:0:0:0:
336,192,102597,1,0,0:0:0:0:
432,176,102676,1,0,0:0:0:0:
448,192,102834,1,2,0:0:0:0:
336,192,102992,1,2,0:0:0:0:
448,144,103229,1,2,0:0:0:0:
336,192,103465,1,2,0:0:0:0:
448,144,103623,1,6,0:0:0:0:
464,176,104097,1,0,0:0:0:0:
416,144,104255,1,2,0:0:0:0:
464,176,104571,1,0,0:0:0:0:
448,240,104729,1,0,0:0:0:0:
480,160,104886,1,2,0:0:0:0:
448,208,105044,1,0,0:0:0:0:
480,160,105123,1,2,0:0:0:0:
480,160,105281,1,0,0:0:0:0:
448,176,105360,1,0,0:0:0:0:
416,192,105439,1,0,0:0:0:0:
448,192,105518,1,2,0:0:0:0:
400,144,105676,1,2,0:0:0:0:
416,192,105755,1,2,0:0:0:0:
448,176,105834,1,0,0:0:0:0:
416,192,105992,1,0,0:0:0:0:
448,240,106150,1,4,0:0:0:0:
496,144,106308,1,2,0:0:0:0:
480,160,106386,1,0,0:0:0:0:
448,208,106465,1,2,0:0:0:0:
480,160,106623,1,0,0:0:0:0:
448,208,106781,1,2,0:0:0:0:
416,160,106939,1,2,0:0:0:0:
416,192,107097,1,2,0:0:0:0:
448,176,107255,1,0,0:0:0:0:
416,160,107413,1,0,0:0:0:0:
400,192,107492,1,0,0:0:0:0:
400,192,107571,1,0,0:0:0:0:
432,192,107650,1,2,0:0:0:0:
448,176,107729,1,0,0:0:0:0:
416,192,107808,1,0,0:0:0:0:
416,192,107886,1,0,0:0:0:0:
448,192,107965,1,2,0:0:0:0:
448,176,108044,1,0,0:0:0:0:
416,192,108123,1,0,0:0:0:0:
400,192,108202,1,0,0:0:0:0:
448,208,108281,1,2,0:0:0:0:
448,176,108360,1,0,0:0:0:0:
416,192,108439,1,0,0:0:0:0:
384,192,108518,1,0,0:0:0:0:
400,224,108597,1,2,0:0:0:0:
400,192,108676,1,0,0:0:0:0:
480,304,108992,1,2,0:0:0:0:
448,176,109150,1,0,0:0:0:0:
448,192,109465,1,2,0:0:0:0:
448,176,109623,1,2,0:0:0:0:
496,144,109781,1,0,0:0:0:0:
448,192,109939,1,6,0:0:0:0:
448,192,110097,1,0,0:0:0:0:
352,256,110413,1,2,0:0:0:0:
400,224,110571,1,2,0:0:0:0:
448,192,110729,1,0,0:0:0:0:
416,208,110808,1,0,0:0:0:0:
416,208,110886,1,2,0:0:0:0:
416,208,111044,1,0,0:0:0:0:
496,128,111360,1,2,0:0:0:0:
448,160,111518,1,2,0:0:0:0:
448,192,111676,1,0,0:0:0:0:
400,224,111755,1,0,0:0:0:0:
448,160,111834,1,2,0:0:0:0:
512,176,111992,1,0,0:0:0:0:
416,208,112150,1,0,0:0:0:0:
416,208,112229,1,0,0:0:0:0:
432,192,112308,1,2,0:0:0:0:
416,208,112465,1,2,0:0:0:0:
496,160,112623,1,0,0:0:0:0:
416,208,112781,1,2,0:0:0:0:
480,192,112939,1,2,0:0:0:0:
480,160,113018,1,0,0:0:0:0:
448,176,113097,1,0,0:0:0:0:
448,192,113255,1,2,0:0:0:0:
432,192,113413,1,2,0:0:0:0:
416,208,113492,1,2,0:0:0:0:
480,160,113571,1,0,0:0:0:0:
448,208,113729,1,6,0:0:0:0:
448,176,113965,1,0,0:0:0:0:
432,144,114044,1,2,0:0:0:0:
416,176,114123,1,2,0:0:0:0:
400,208,114202,1,2,0:0:0:0:
480,160,114281,1,0,0:0:0:0:
464,176,114360,1,2,0:0:0:0:
432,192,114518,1,0,0:0:0:0:
432,192,114597,1,0,0:0:0:0:
448,176,114676,1,2,0:0:0:0:
400,208,114755,1,2,0:0:0:0:
400,208,114834,1,2,0:0:0:0:
448,208,114913,1,0,0:0:0:0:
480,160,114992,1,2,0:0:0:0:
416,208,115071,1,0,0:0:0:0:
400,208,115150,1,0,0:0:0:0:
400,208,115229,1,0,0:0:0:0:
368,192,115308,1,0,0:0:0:0:
336,192,115386,1,0,0:0:0:0:
320,208,115465,1,0,0:0:0:0:
432,192,115544,1,2,0:0:0:0:
416,176,115623,1,0,0:0:0:0:
400,208,115702,1,0,0:0:0:0:
384,224,115781,1,0,0:0:0:0:
432,192,115860,1,2,0:0:0:0:
448,176,115939,1,0,0:0:0:0:
400,208,116018,1,0,0:0:0:0:
384,224,116097,1,0,0:0:0:0:
432,192,116176,1,2,0:0:0:0:
448,208,116255,1,6,0:0:0:0:
480,160,116413,1,0,0:0:0:0:
432,192,116571,1,0,0:0:0:0:
448,208,116729,1,6,0:0:0:0:
480,160,116886,1,0,0:0:0:0:
464,224,117044,1,6,0:0:0:0:
432,192,117202,1,0,0:0:0:0:
416,256,117360,1,6,0:0:0:0:
480,160,117676,1,6,0:0:0:0:
480,160,117834,1,2,0:0:0:0:
432,192,117992,1,2,0:0:0:0:
384,240,118150,1,2,0:0:0:0:
432,192,118229,1,2,0:0:0:0:
368,208,118308,1,0,0:0:0:0:
400,192,118386,1,0,0:0:0:0:
432,192,118465,1,2,0:0:0:0:
480,160,118544,1,0,0:0:0:0:
432,192,118623,1,0,0:0:0:0:
432,192,118702,1,0,0:0:0:0:
400,144,118781,1,6,0:0:0:0:
400,192,119018,1,2,0:0:0:0:
496,192,119097,1,0,0:0:0:0:
448,160,119255,1,2,0:0:0:0:
464,0,119571,1,0,0:0:0:0:
432,192,119729,1,0,0:0:0:0:
432,192,119886,1,2,0:0:0:0:
368,240,120044,1,0,0:0:0:0:
432,192,120202,1,2,0:0:0:0:
432,192,120281,1,2,0:0:0:0:
464,176,120360,1,0,0:0:0:0:
496,176,120518,1,2,0:0:0:0:
416,208,120676,1,2,0:0:0:0:
384,224,120755,1,2,0:0:0:0:
480,144,120834,1,0,0:0:0:0:
416,192,120992,1,0,0:0:0:0:
496,160,121150,1,2,0:0:0:0:
432,192,121308,1,2,0:0:0:0:
480,144,121465,1,0,0:0:0:0:
416,208,121623,1,0,0:0:0:0:
480,144,121781,1,2,0:0:0:0:
496,128,121939,1,0,0:0:0:0:
416,192,122097,1,0,0:0:0:0:
416,208,122255,1,0,0:0:0:0:
432,192,122413,1,2,0:0:0:0:
496,160,122492,1,2,0:0:0:0:
464,176,122571,1,2,0:0:0:0:
496,128,122729,1,0,0:0:0:0:
432,176,122886,1,0,0:0:0:0:
512,160,123044,1,2,0:0:0:0:
464,224,123202,1,2,0:0:0:0:
432,240,123281,1,2,0:0:0:0:
480,144,123360,1,0,0:0:0:0:
416,192,123439,1,0,0:0:0:0:
432,192,123518,1,2,0:0:0:0:
432,192,123597,1,0,0:0:0:0:
464,176,123676,1,2,0:0:0:0:
464,176,123755,1,0,0:0:0:0:
432,192,123834,1,0,0:0:0:0:
320,80,124150,1,0,0:0:0:0:
432,176,124308,1,2,0:0:0:0:
480,144,124465,1,0,0:0:0:0:
416,192,124623,1,0,0:0:0:0:
416,192,124781,1,0,0:0:0:0:
464,176,124939,1,2,0:0:0:0:
432,176,125097,1,0,0:0:0:0:
464,176,125255,1,2,0:0:0:0:
480,144,125413,1,0,0:0:0:0:
496,144,125571,1,2,0:0:0:0:
464,176,125650,1,2,0:0:0:0:
512,144,125729,1,0,0:0:0:0:
432,144,125886,1,0,0:0:0:0:
384,208,126044,1,0,0:0:0:0:
480,144,126123,1,0,0:0:0:0:
448,176,126202,1,2,0:0:0:0:
432,256,126360,1,0,0:0:0:0:
432,96,126676,1,0,0:0:0:0:
480,144,126834,1,2,0:0:0:0:
480,144,126992,1,0,0:0:0:0:
416,192,127150,1,0,0:0:0:0:
448,176,127308,1,0,0:0:0:0:
480,96,127465,1,2,0:0:0:0:
464,128,127544,1,2,0:0:0:0:
480,144,127623,1,0,0:0:0:0:
480,144,127781,1,2,0:0:0:0:
448,176,128097,1,2,0:0:0:0:
448,176,128255,1,0,0:0:0:0:
464,96,128413,1,0,0:0:0:0:
416,192,128492,1,0,0:0:0:0:
416,192,128571,1,0,0:0:0:0:
448,176,128729,1,2,0:0:0:0:
464,176,128886,1,6,0:0:0:0:
448,176,129044,1,0,0:0:0:0:
384,224,129202,1,0,0:0:0:0:
448,176,129360,1,2,0:0:0:0:
384,320,129676,1,2,0:0:0:0:
416,256,129834,1,0,0:0:0:0:
464,176,129992,1,2,0:0:0:0:
384,176,130150,1,0,0:0:0:0:
416,208,130229,1,0,0:0:0:0:
448,192,130308,1,2,0:0:0:0:
464,176,130465,1,0,0:0:0:0:
496,96,130623,1,2,0:0:0:0:
448,192,130702,1,2,0:0:0:0:
464,176,130781,1,0,0:0:0:0:
448,192,130939,1,0,0:0:0:0:
416,256,131097,1,0,0:0:0:0:
384,256,131255,1,2,0:0:0:0:
400,224,131334,1,0,0:0:0:0:
464,176,131413,1,2,0:0:0:0:
464,176,131518,1,0,0:0:0:0:
400,224,131623,1,0,0:0:0:0:
464,176,131729,1,2,0:0:0:0:
448,192,131834,1,0,0:0:0:0:
464,176,131939,1,2,0:0:0:0:
416,176,132044,1,2,0:0:0:0:
400,224,132150,1,0,0:0:0:0:
448,192,132255,1,0,0:0:0:0:
480,144,132360,1,2,0:0:0:0:
464,176,132465,1,0,0:0:0:0:
464,176,132571,1,2,0:0:0:0:
448,192,132676,1,4,0:0:0:0:
400,224,132834,1,0,0:0:0:0:
368,256,132913,1,0,0:0:0:0:
400,224,132992,1,0,0:0:0:0:
448,160,133150,1,2,0:0:0:0:
400,224,133229,1,2,0:0:0:0:
464,176,133308,1,0,0:0:0:0:
480,144,133465,1,2,0:0:0:0:
464,176,133623,1,0,0:0:0:0:
432,192,133702,1,0,0:0:0:0:
416,224,133781,1,2,0:0:0:0:
432,304,133939,1,6,0:0:0:0:
448,192,134097,1,0,0:0:0:0:
480,144,134255,1,2,0:0:0:0:
480,144,134413,1,0,0:0:0:0:
448,160,134492,1,0,0:0:0:0:
432,192,134571,1,0,0:0:0:0:
464,176,134729,1,2,0:0:0:0:
512,112,134886,1,0,0:0:0:0:
480,144,134965,1,0,0:0:0:0:
416,224,135044,1,2,0:0:0:0:
432,192,135202,1,0,0:0:0:0:
400,176,135281,1,0,0:0:0:0:
368,192,135360,1,0,0:0:0:0:
336,224,135439,1,0,0:0:0:0:
464,176,135518,1,2,0:0:0:0:
480,144,135623,1,0,0:0:0:0:
464,176,135729,1,2,0:0:0:0:
464,176,135834,1,0,0:0:0:0:
400,176,135939,1,0,0:0:0:0:
480,144,136044,1,2,0:0:0:0:
432,160,136150,1,2,0:0:0:0:
432,240,136308,1,2,0:0:0:0:
464,176,136465,1,6,0:0:0:0:
352,208,136623,1,2,0:0:0:0:
464,224,136781,1,0,0:0:0:0:
384,128,136939,1,2,0:0:0:0:
384,256,137097,1,2,0:0:0:0:
368,144,137255,1,0,0:0:0:0:
464,224,137413,1,2,0:0:0:0:
400,128,137571,1,0,0:0:0:0:
432,240,137729,1,4,0:0:0:0:
480,128,137886,1,2,0:0:0:0:
416,224,138044,1,2,0:0:0:0:
464,112,138202,1,2,0:0:0:0:
464,240,138360,1,4,0:0:0:0:
400,144,138518,1,6,0:0:0:0:
448,160,138834,1,4,0:0:0:0:
384,208,139150,1,0,0:0:0:0:
368,240,139308,1,0,0:0:0:0:
368,240,139465,1,0,0:0:0:0:
352,208,139623,1,0,0:0:0:0:
368,176,139781,1,0,0:0:0:0:
336,192,139939,1,0,0:0:0:0:
368,176,140097,1,0,0:0:0:0:
368,176,140255,1,0,0:0:0:0:
400,176,140413,1,0,0:0:0:0:
432,192,140571,1,2,0:0:0:0:
368,240,140886,1,2,0:0:0:0:
432,192,141044,1,0,0:0:0:0:
400,160,141202,1,0,0:0:0:0:
336,192,141360,1,6,0:0:0:0:
416,224,141676,1,2,0:0:0:0:
384,256,141834,1,2,0:0:0:0:
400,224,141992,1,2,0:0:0:0:
432,192,142150,1,2,0:0:0:0:
416,224,142308,1,2,0:0:0:0:
432,192,142465,1,0,0:0:0:0:
400,224,142623,1,0,0:0:0:0:
432,224,142781,1,6,0:0:0:0:
432,192,142939,1,2,0:0:0:0:
464,192,143097,1,0,0:0:0:0:
464,192,143255,1,2,0:0:0:0:
432,160,143413,1,0,0:0:0:0:
432,160,143492,1,0,0:0:0:0:
432,192,143571,1,0,0:0:0:0:
432,192,143650,1,0,0:0:0:0:
448,176,143729,1,2,0:0:0:0:
480,144,143886,1,0,0:0:0:0:
432,192,144202,1,0,0:0:0:0:
448,176,144360,1,2,0:0:0:0:
448,176,144518,1,0,0:0:0:0:
416,192,144676,1,0,0:0:0:0:
384,224,144834,1,0,0:0:0:0:
416,208,144992,1,2,0:0:0:0:
448,176,145150,1,0,0:0:0:0:
416,176,145308,1,0,0:0:0:0:
416,192,145465,1,0,0:0:0:0:
480,144,145623,1,2,0:0:0:0:
480,144,145781,1,0,0:0:0:0:
416,176,145939,1,0,0:0:0:0:
400,208,146097,1,0,0:0:0:0:
368,208,146176,1,0,0:0:0:0:
416,192,146255,1,2,0:0:0:0:
416,208,146413,1,0,0:0:0:0:
432,240,146571,1,4,0:0:0:0:
464,208,146729,1,0,0:0:0:0:
480,176,146886,1,2,0:0:0:0:
480,144,147044,1,0,0:0:0:0:
464,176,147202,1,0,0:0:0:0:
432,208,147360,1,0,0:0:0:0:
432,208,147439,1,0,0:0:0:0:
480,176,147518,1,2,0:0:0:0:
480,144,147676,1,0,0:0:0:0:
432,208,147992,1,2,0:0:0:0:
432,208,148071,1,2,0:0:0:0:
416,224,148150,1,2,0:0:0:0:
400,240,148229,1,2,0:0:0:0:
416,224,148308,1,0,0:0:0:0:
416,224,148465,1,0,0:0:0:0:
432,208,148544,1,2,0:0:0:0:
416,192,148623,1,2,0:0:0:0:
400,208,148702,1,2,0:0:0:0:
384,224,148781,1,2,0:0:0:0:
368,224,148860,1,2,0:0:0:0:
432,208,148939,1,6,0:0:0:0:
288,192,149255,1,0,0:0:0:0:
224,208,149413,1,0,0:0:0:0:
416,192,149571,1,2,0:0:0:0:
448,160,149886,1,0,0:0:0:0:
384,224,150044,1,0,0:0:0:0:
448,160,150202,1,2,0:0:0:0:
448,160,150518,1,0,0:0:0:0:
384,224,150676,1,0,0:0:0:0:
448,160,150834,1,2,0:0:0:0:
432,192,150913,1,2,0:0:0:0:
448,160,150992,1,0,0:0:0:0:
416,192,151150,1,0,0:0:0:0:
416,224,151229,1,0,0:0:0:0:
432,192,151308,1,2,0:0:0:0:
432,160,151386,1,2,0:0:0:0:
480,144,151465,1,0,0:0:0:0:
432,192,151781,1,0,0:0:0:0:
480,144,151939,1,2,0:0:0:0:
480,144,152097,1,0,0:0:0:0:
448,160,152176,1,0,0:0:0:0:
416,176,152255,1,0,0:0:0:0:
368,224,152413,1,0,0:0:0:0:
432,192,152571,1,2,0:0:0:0:
480,128,152729,1,0,0:0:0:0:
416,176,152808,1,0,0:0:0:0:
448,176,152886,1,2,0:0:0:0:
432,192,153044,1,2,0:0:0:0:
480,144,153202,1,0,0:0:0:0:
448,208,153360,1,2,0:0:0:0:
384,192,153518,1,0,0:0:0:0:
416,208,153597,1,0,0:0:0:0:
416,208,153676,1,0,0:0:0:0:
480,192,153834,1,6,0:0:0:0:
480,144,153992,1,0,0:0:0:0:
352,192,154308,1,0,0:0:0:0:
416,192,154465,1,2,0:0:0:0:
480,144,154623,1,0,0:0:0:0:
448,160,154702,1,2,0:0:0:0:
416,192,154781,1,2,0:0:0:0:
448,128,154939,1,2,0:0:0:0:
400,176,155097,1,2,0:0:0:0:
448,160,155255,1,0,0:0:0:0:
384,192,155413,1,0,0:0:0:0:
464,192,155729,1,2,0:0:0:0:
400,192,155886,1,0,0:0:0:0:
416,192,155965,1,0,0:0:0:0:
416,192,156044,1,0,0:0:0:0:
416,192,156202,1,0,0:0:0:0:
416,208,156360,1,2,0:0:0:0:
384,272,156518,1,0,0:0:0:0:
432,224,156676,1,6,0:0:0:0:
464,160,156834,1,0,0:0:0:0:
448,192,156913,1,0,0:0:0:0:
464,160,156992,1,2,0:0:0:0:
496,176,157150,1,6,0:0:0:0:
464,160,157308,1,0,0:0:0:0:
464,160,157465,1,2,0:0:0:0:
432,176,157544,1,0,0:0:0:0:
416,192,157623,1,0,0:0:0:0:
384,208,157702,1,0,0:0:0:0:
416,192,157781,1,0,0:0:0:0:
416,208,157860,1,0,0:0:0:0:
416,208,157939,1,0,0:0:0:0:
432,176,158097,1,0,0:0:0:0:
432,176,158176,1,0,0:0:0:0:
464,176,158255,1,2,0:0:0:0:
496,112,158413,1,0,0:0:0:0:
464,128,158492,1,0,0:0:0:0:
416,192,158571,1,2,0:0:0:0:
400,224,158650,1,2,0:0:0:0:
464,160,158729,1,0,0:0:0:0:
400,224,158808,1,0,0:0:0:0:
464,160,158886,1,2,0:0:0:0:
416,192,158965,1,2,0:0:0:0:
448,208,159044,1,0,0:0:0:0:
416,192,159360,1,0,0:0:0:0:
432,176,159518,1,0,0:0:0:0:
432,176,159676,1,0,0:0:0:0:
416,192,159834,1,0,0:0:0:0:
416,192,159992,1,0,0:0:0:0:
416,192,160150,1,0,0:0:0:0:
416,192,160308,1,0,0:0:0:0:
384,192,160386,1,0,0:0:0:0:
384,192,160465,1,0,0:0:0:0:
448,224,160623,1,0,0:0:0:0:
400,176,160781,1,2,0:0:0:0:
416,240,160939,1,2,0:0:0:0:
416,240,161018,1,2,0:0:0:0:
464,256,161097,1,4,0:0:0:0:
432,192,161255,1,0,0:0:0:0:
384,240,161413,1,0,0:0:0:0:
496,176,161571,1,6,0:0:0:0:
352,192,161886,1,0,0:0:0:0:
496,176,162044,1,2,0:0:0:0:
464,240,162202,1,0,0:0:0:0:
432,224,162281,1,0,0:0:0:0:
400,208,162360,1,0,0:0:0:0:
336,176,162518,1,0,0:0:0:0:
400,160,162676,1,2,0:0:0:0:
464,192,162834,1,2,0:0:0:0:
464,192,162913,1,2,0:0:0:0:
432,256,162992,1,6,0:0:0:0:
432,224,163150,1,2,0:0:0:0:
432,144,163308,1,2,0:0:0:0:
432,208,163465,1,2,0:0:0:0:
432,208,163544,1,2,0:0:0:0:
464,176,163623,1,0,0:0:0:0:
400,208,163781,1,0,0:0:0:0:
368,224,163860,1,0,0:0:0:0:
352,256,163939,1,0,0:0:0:0:
400,208,164097,1,6,0:0:0:0:
496,160,164413,1,2,0:0:0:0:
432,160,164571,1,2,0:0:0:0:
368,176,164729,1,2,0:0:0:0:
416,240,164886,1,6,0:0:0:0:
464,176,165044,1,2,0:0:0:0:
400,208,165202,1,2,0:0:0:0:
464,160,165360,1,2,0:0:0:0:
480,176,165518,1,4,0:0:0:0:
432,240,165676,1,0,0:0:0:0:
464,160,165834,1,2,0:0:0:0:
400,192,165992,1,0,0:0:0:0:
464,64,166308,1,0,0:0:0:0:
432,128,166465,1,0,0:0:0:0:
464,160,166623,1,0,0:0:0:0:
416,224,166781,1,6,0:0:0:0:
480,192,166939,1,2,0:0:0:0:
496,128,167097,1,0,0:0:0:0:
432,160,167255,1,0,0:0:0:0:
400,176,167334,1,0,0:0:0:0:
432,192,167413,1,2,0:0:0:0:
496,144,167571,1,0,0:0:0:0:
448,192,167729,1,0,0:0:0:0:
416,224,167808,1,0,0:0:0:0:
432,192,167886,1,0,0:0:0:0:
368,208,168044,1,6,0:0:0:0:
448,192,168202,1,2,0:0:0:0:
384,224,168360,1,2,0:0:0:0:
320,224,168518,1,2,0:0:0:0:
400,176,168676,1,0,0:0:0:0:
368,176,168755,1,0,0:0:0:0:
432,160,168834,1,2,0:0:0:0:
368,208,168913,1,2,0:0:0:0:
368,224,168992,1,0,0:0:0:0:
336,240,169071,1,0,0:0:0:0:
336,240,169150,1,0,0:0:0:0:
464,160,169465,1,0,0:0:0:0:
400,176,169623,1,0,0:0:0:0:
448,240,169781,1,0,0:0:0:0:
400,176,169939,1,0,0:0:0:0:
464,208,170097,1,0,0:0:0:0:
400,176,170255,1,0,0:0:0:0:
400,176,170413,1,0,0:0:0:0:
352,192,170492,1,0,0:0:0:0:
400,176,170571,1,2,0:0:0:0:
400,176,170650,1,2,0:0:0:0:
400,224,170729,1,2,0:0:0:0:
464,208,170808,1,0,0:0:0:0:
464,160,170886,1,2,0:0:0:0:
464,160,170965,1,2,0:0:0:0:
464,160,171044,1,0,0:0:0:0:
432,192,171123,1,0,0:0:0:0:
464,160,171202,1,2,0:0:0:0:
512,160,171281,1,0,0:0:0:0:
432,192,171360,1,0,0:0:0:0:
432,192,171439,1,0,0:0:0:0:
400,160,171518,1,0,0:0:0:0:
432,192,171676,1,2,0:0:0:0:
432,192,171992,1,2,0:0:0:0:
496,128,172150,1,0,0:0:0:0:
432,192,172308,1,0,0:0:0:0:
384,208,172386,1,0,0:0:0:0:
416,176,172465,1,2,0:0:0:0:
320,176,172623,1,2,0:0:0:0:
416,160,172781,1,0,0:0:0:0:
384,192,172860,1,0,0:0:0:0:
432,176,172939,1,2,0:0:0:0:
432,272,173097,1,6,0:0:0:0:
448,176,173255,1,2,0:0:0:0:
432,192,173413,1,4,0:0:0:0:
432,192,173571,1,0,0:0:0:0:
384,208,173650,1,0,0:0:0:0:
352,240,173729,1,0,0:0:0:0:
448,208,173886,1,2,0:0:0:0:
480,112,174044,1,0,0:0:0:0:
480,208,174202,1,6,0:0:0:0:
432,192,174518,1,0,0:0:0:0:
352,240,174676,1,0,0:0:0:0:
448,208,174834,1,2,0:0:0:0:
480,304,174992,1,6,0:0:0:0:
480,208,175150,1,0,0:0:0:0:
384,224,175308,1,0,0:0:0:0:
480,192,175465,1,2,0:0:0:0:
384,224,175623,1,6,0:0:0:0:
448,208,175781,1,0,0:0:0:0:
400,240,175860,1,0,0:0:0:0:
400,240,175939,1,0,0:0:0:0:
448,208,176097,1,2,0:0:0:0:
480,112,176255,1,0,0:0:0:0:
480,208,176413,1,2,0:0:0:0:
384,192,176571,1,2,0:0:0:0:
464,144,176729,1,0,0:0:0:0:
400,240,177044,1,0,0:0:0:0:
400,240,177123,1,0,0:0:0:0:
432,208,177202,1,2,0:0:0:0:
368,192,177308,1,2,0:0:0:0:
432,192,177413,1,0,0:0:0:0:
448,128,177518,1,2,0:0:0:0:
432,176,177597,1,2,0:0:0:0:
480,176,177676,1,0,0:0:0:0:
384,192,177755,1,0,0:0:0:0:
432,192,177834,1,2,0:0:0:0:
464,160,177913,1,0,0:0:0:0:
432,208,177992,1,0,0:0:0:0:
432,208,178071,1,0,0:0:0:0:
432,176,178150,1,0,0:0:0:0:
400,208,178229,1,0,0:0:0:0:
400,208,178308,1,0,0:0:0:0:
464,160,178386,1,2,0:0:0:0:
432,176,178465,1,0,0:0:0:0:
368,240,178544,1,0,0:0:0:0:
368,240,178623,1,0,0:0:0:0:
400,208,178702,1,2,0:0:0:0:
464,160,178781,1,0,0:0:0:0:
416,160,178860,1,0,0:0:0:0:
432,192,178939,1,0,0:0:0:0:
432,176,179018,1,2,0:0:0:0:
480,176,179097,1,2,0:0:0:0:
400,208,179176,1,0,0:0:0:0:
