osu file format v14

[General]
AudioFilename: audio.mp3
AudioLeadIn: 0
PreviewTime: 57726
Countdown: 0
SampleSet: None
StackLeniency: 0.7
Mode: 0
LetterboxInBreaks: 0
WidescreenStoryboard: 1

[Editor]
DistanceSpacing: 0.5
BeatDivisor: 4
GridSize: 16
TimelineZoom: 5.799996

[Metadata]
Title:Love Circulation
TitleUnicode:Love Circulation
Artist:Hatsune Miku
ArtistUnicode:Hatsune Miku
Creator:aonidn1
Version:Hyper
Source:Project Diva
Tags:Hatsune Miku Vocaloid
BeatmapID:1090693
BeatmapSetID:513290

[Difficulty]
HPDrainRate:6.5
CircleSize:4.3
OverallDifficulty:8.2
ApproachRate:9.2
SliderMultiplier:1.8
SliderTickRate:1

[Events]
//Background and Video events
Video,90,"Video.mp4"
0,0,"BG.jpg",0,0
//Break Periods
//Storyboard Layer 0 (Background)
//Storyboard Layer 1 (Fail)
//Storyboard Layer 2 (Pass)
//Storyboard Layer 3 (Foreground)
//Storyboard Sound Samples

[TimingPoints]
1515,500,4,2,1,100,1,0
1515,-58.8235294117647,4,2,2,100,0,0
9140,-58.8235294117647,4,2,1,100,0,0
9327,-58.8235294117647,4,2,1,100,0,0
9755,500,4,2,1,100,1,0
9755,-58.8235294117647,4,2,1,100,0,0
16942,-58.8235294117647,4,2,0,100,0,0
17317,-58.8235294117647,4,2,1,100,0,0
17692,-58.8235294117647,4,2,3,100,0,0
17817,-58.8235294117647,4,2,1,100,0,0
25692,-58.8235294117647,4,2,3,50,0,0
25817,-58.8235294117647,4,2,1,100,0,0
41692,-58.8235294117647,4,2,3,50,0,0
41817,-58.8235294117647,4,2,1,100,0,0
49692,-58.8235294117647,4,2,3,50,0,0
49817,-58.8235294117647,4,2,1,100,0,0
57755,500,4,2,1,100,1,0
57755,-58.8235294117647,4,2,2,70,0,1
57817,-58.8235294117647,4,2,1,100,0,1
73755,500,4,2,1,100,1,0
73755,-58.8235294117647,4,2,3,50,0,0
73880,-58.8235294117647,4,2,1,100,0,0
74942,-58.8235294117647,4,2,0,100,0,0
75380,-58.8235294117647,4,2,1,100,0,0
76942,-58.8235294117647,4,2,0,100,0,0
77380,-58.8235294117647,4,2,1,100,0,0
80942,-58.8235294117647,4,2,0,100,0,0
81380,-58.8235294117647,4,2,1,100,0,0
82942,-58.8235294117647,4,2,0,100,0,0
83380,-58.8235294117647,4,2,1,100,0,0
84942,-58.8235294117647,4,2,0,100,0,0
85380,-58.8235294117647,4,2,1,100,0,0

[Colours]
Combo1 : 203,203,152
Combo2 : 255,206,157
Combo3 : 168,255,168
Combo4 : 151,255,255

[HitObjects]
256,16,733,5,0,0:0:0:0:
256,368,1233,1,0,0:0:0:0:
256,192,1483,5,0,0:0:0:0:
256,192,1608,1,0,0:0:0:0:
176,112,1733,2,0,P|96:112|16:144,1,153.000002918243,0|8,0:0|0:0,0:0:0:0:
112,192,2108,2,0,P|208:192|288:176,1,153.000002918243
320,112,2483,2,0,P|400:112|480:96,2,153.000002918243,8|0|8,0:0|0:0|0:0,0:0:0:0:
224,96,3108,1,0,0:0:0:0:
32,176,3483,5,8,0:0:0:0:
80,240,3608,1,0,0:0:0:0:
160,256,3733,2,0,P|240:256|336:224,1,153.000002918243,0|8,0:0|0:0,0:0:0:0:
432,144,4108,2,0,P|336:144|256:176,1,153.000002918243
176,304,4483,2,0,P|272:304|352:272,2,153.000002918243,8|0|8,0:0|0:0|0:0,0:0:0:0:
80,240,5108,1,0,0:0:0:0:
160,96,5483,5,8,0:0:0:0:
224,48,5608,1,0,0:0:0:0:
304,80,5733,2,0,P|384:80|464:64,1,153.000002918243,0|8,0:0|0:0,0:0:0:0:
288,160,6108,2,0,P|288:256|320:320,1,153.000002918243
400,192,6483,2,0,P|400:112|432:32,2,153.000002918243,8|0|8,0:0|0:0|0:0,0:0:0:0:
448,304,7108,1,0,0:0:0:0:
368,352,7233,1,0,0:0:0:0:
288,320,7358,1,0,0:0:0:0:
224,256,7483,5,8,0:0:0:0:
224,256,7733,2,0,P|144:256|64:224,1,153.000002918243,0|8,0:0|0:0,0:0:0:0:
16,96,8108,2,0,P|96:96|192:128,1,153.000002918243
256,192,8483,2,0,P|336:192|432:160,2,153.000002918243,8|0|8,0:0|0:0|0:0,0:0:0:0:
112,64,9233,1,8,0:0:0:0:
48,304,9755,6,0,P|144:304|192:272,1,153.000002918243
256,192,10255,1,8,0:0:0:0:
208,80,10505,1,0,0:0:0:0:
176,80,10630,1,0,0:0:0:0:
144,80,10755,2,0,P|64:80|0:112,1,153.000002918243
128,272,11255,2,0,P|288:208|256:96,1,306.000005836487,8|0,0:0|0:0,0:0:0:0:
128,96,12005,2,0,P|128:176|176:256,1,153.000002918243,0|8,0:0|0:0,0:0:0:0:
352,320,12505,5,0,0:0:0:0:
352,288,12630,1,0,0:0:0:0:
352,256,12755,2,0,P|352:176|384:96,1,153.000002918243
256,16,13255,2,0,P|160:80|272:208,1,306.000005836487,8|0,0:0|0:0,0:0:0:0:
384,112,14005,2,0,L|480:256,1,153.000002918243,0|8,0:0|0:0,0:0:0:0:
336,336,14505,5,0,0:0:0:0:
304,336,14630,1,0,0:0:0:0:
272,336,14755,2,0,P|192:336|112:320,1,153.000002918243
16,160,15255,2,0,P|112:64|224:176,1,306.000005836487,8|0,0:0|0:0,0:0:0:0:
240,288,16005,1,0,0:0:0:0:
96,192,16255,1,8,0:0:0:0:
176,96,16505,1,0,0:0:0:0:
208,80,16630,1,0,0:0:0:0:
240,64,16755,2,0,P|320:32|416:32,1,153.000002918243,0|8,0:0|0:0,0:0:0:0:
512,192,17255,5,8,0:0:0:0:
432,320,17755,2,0,P|272:304|272:144,1,306.000005836487,8|8,0:0|0:0,0:0:0:0:
336,96,18505,1,0,0:0:0:0:
368,112,18630,1,0,0:0:0:0:
384,144,18755,2,0,P|384:224|352:304,1,153.000002918243
256,192,19255,1,8,0:0:0:0:
160,96,19505,2,0,P|64:96|0:144,1,153.000002918243
160,272,20005,2,0,P|256:272|336:240,1,153.000002918243,0|8,0:0|0:0,0:0:0:0:
432,160,20505,5,0,0:0:0:0:
432,160,20630,1,0,0:0:0:0:
432,160,20755,2,0,P|336:160|240:192,1,153.000002918243
256,352,21255,2,0,P|128:224|224:112,1,306.000005836487,8|0,0:0|0:0,0:0:0:0:
272,48,22005,1,0,0:0:0:0:
384,128,22255,2,0,P|368:240|384:320,1,153.000002918243,8|0,0:0|0:0,0:0:0:0:
372,278,22630,1,0,0:0:0:0:
372,278,22755,1,0,0:0:0:0:
224,288,23005,6,0,P|224:192|192:112,1,153.000002918243,0|8,0:0|0:0,0:0:0:0:
80,32,23505,1,0,0:0:0:0:
16,160,23755,2,0,P|160:256|208:176,1,306.000005836487,0|8,0:0|0:0,0:0:0:0:
256,48,24505,5,0,0:0:0:0:
272,48,24630,1,0,0:0:0:0:
288,48,24755,2,0,L|464:144,1,153.000002918243
464,272,25255,2,0,B|368:272|368:272|304:304|304:304|144:304,1,306.000005836487,8|8,0:0|0:0,0:0:0:0:
80,272,26005,1,0,0:0:0:0:
128,192,26255,2,0,P|128:96|160:32,1,153.000002918243,8|0,0:0|0:0,0:0:0:0:
256,32,26755,1,0,0:0:0:0:
400,160,27005,1,0,0:0:0:0:
256,272,27255,6,0,P|80:272|80:160,1,306.000005836487,8|0,0:0|0:0,0:0:0:0:
128,80,28005,2,0,P|224:80|304:48,1,153.000002918243,0|8,0:0|0:0,0:0:0:0:
416,48,28505,1,0,0:0:0:0:
336,192,28755,1,0,0:0:0:0:
448,304,29005,1,0,0:0:0:0:
320,336,29255,2,0,B|208:336|208:336|144:352|144:352|16:352,1,306.000005836487,8|0,0:0|0:0,0:0:0:0:
32,192,30005,6,0,P|112:192|224:160,1,153.000002918243,0|8,0:0|0:0,0:0:0:0:
432,48,30505,2,0,P|336:48|240:96,1,153.000002918243
144,192,31005,1,0,0:0:0:0:
256,320,31255,2,0,P|416:320|496:192,1,306.000005836487,8|0,0:0|0:0,0:0:0:0:
496,96,32005,2,0,P|416:96|352:128,1,153.000002918243,0|8,0:0|0:0,0:0:0:0:
272,288,32505,2,0,P|176:288|80:240,1,153.000002918243
32,176,33005,1,0,0:0:0:0:
256,32,33255,2,0,B|256:112|256:112|224:192|224:192|224:336,1,306.000005836487,8|0,0:0|0:0,0:0:0:0:
336,336,34005,6,0,P|432:336|512:288,1,153.000002918243,0|8,0:0|0:0,0:0:0:0:
256,192,34505,2,0,P|160:192|64:224,1,153.000002918243
0,320,35005,1,0,0:0:0:0:
112,64,35255,2,0,P|192:224|320:224,1,306.000005836487,8|0,0:0|0:0,0:0:0:0:
464,48,36005,1,0,0:0:0:0:
256,192,36255,1,8,0:0:0:0:
384,320,36505,2,0,P|304:320|224:288,1,153.000002918243
112,240,37005,1,0,0:0:0:0:
48,144,37255,2,0,P|160:48|256:176,1,306.000005836487,8|0,0:0|0:0,0:0:0:0:
320,272,38005,5,0,0:0:0:0:
464,48,38255,1,8,0:0:0:0:
464,192,38505,2,0,P|384:192|320:160,1,153.000002918243
256,32,39005,1,0,0:0:0:0:
112,80,39255,2,0,B|112:160|112:160|144:240|144:240|208:288|208:288|288:288,1,306.000005836487,8|0,0:0|0:0,0:0:0:0:
368,240,40005,2,0,L|368:64,1,153.000002918243,0|8,0:0|0:0,0:0:0:0:
256,16,40505,2,0,L|256:192,1,153.000002918243
256,336,41005,1,0,0:0:0:0:
96,272,41255,2,0,P|48:112|176:48,1,306.000005836487,8|8,0:0|0:0,0:0:0:0:
320,48,42005,5,0,0:0:0:0:
192,160,42255,1,8,0:0:0:0:
320,256,42505,1,0,0:0:0:0:
288,256,42630,1,0,0:0:0:0:
256,256,42755,2,0,P|160:256|96:192,1,153.000002918243
64,112,43255,1,8,0:0:0:0:
256,16,43505,1,0,0:0:0:0:
368,144,43755,2,0,P|368:224|416:320,1,153.000002918243
496,336,44255,1,8,0:0:0:0:
464,192,44505,5,0,0:0:0:0:
448,176,44630,1,0,0:0:0:0:
432,160,44755,2,0,P|368:96|288:80,1,153.000002918243
96,64,45255,1,8,0:0:0:0:
336,240,45505,1,0,0:0:0:0:
176,320,45755,1,0,0:0:0:0:
176,320,45880,2,0,P|80:272|48:192,1,153.000002918243
48,208,46255,1,8,0:0:0:0:
32,176,46380,1,0,0:0:0:0:
48,144,46505,6,0,P|128:144|208:112,1,153.000002918243
240,128,46880,2,0,P|240:208|288:288,1,153.000002918243
304,288,47255,1,8,0:0:0:0:
336,288,47380,1,0,0:0:0:0:
368,272,47505,2,0,P|416:192|416:112,1,153.000002918243
384,112,47880,6,0,P|304:112|224:80,1,153.000002918243
208,80,48255,1,8,0:0:0:0:
176,80,48380,1,0,0:0:0:0:
144,96,48505,2,0,P|144:176|176:272,1,153.000002918243
256,352,49005,1,0,0:0:0:0:
432,48,49255,1,8,0:0:0:0:
256,192,49505,1,0,0:0:0:0:
416,304,49755,2,0,B|416:192|352:112|352:112|224:64,1,306.000005836487,8|8,0:0|0:0,0:0:0:0:
96,48,50505,5,0,0:0:0:0:
96,80,50630,1,0,0:0:0:0:
96,112,50755,2,0,P|96:192|128:288,1,153.000002918243
256,352,51255,1,8,0:0:0:0:
384,48,51505,1,0,0:0:0:0:
256,192,51755,2,0,P|352:192|448:160,1,153.000002918243
480,64,52255,1,8,0:0:0:0:
256,32,52505,5,0,0:0:0:0:
256,64,52630,1,0,0:0:0:0:
256,96,52755,2,0,P|256:192|288:288,1,153.000002918243
400,352,53255,1,8,0:0:0:0:
448,144,53505,1,0,0:0:0:0:
336,32,53755,1,0,0:0:0:0:
304,32,53880,2,0,P|224:32|160:64,1,153.000002918243
144,96,54255,5,8,0:0:0:0:
160,128,54380,1,0,0:0:0:0:
192,144,54505,2,0,P|272:144|352:176,1,153.000002918243
352,192,54880,2,0,P|352:272|288:336,1,153.000002918243
272,336,55255,1,8,0:0:0:0:
240,336,55380,1,0,0:0:0:0:
208,320,55505,2,0,P|208:240|192:160,1,153.000002918243
176,144,55880,1,0,0:0:0:0:
144,144,56005,2,0,P|64:144|16:80,1,153.000002918243,0|8,0:0|0:0,0:0:0:0:
96,32,56505,5,0,0:0:0:0:
256,192,56755,1,0,0:0:0:0:
32,320,57005,1,0,0:0:0:0:
96,192,57255,2,0,P|240:96|352:192,1,306.000005836487,8|4,0:0|0:0,0:0:0:0:
448,336,58036,1,0,0:0:0:0:
320,256,58286,1,8,0:0:0:0:
464,128,58536,1,0,0:0:0:0:
432,128,58661,1,0,0:0:0:0:
400,128,58786,2,0,P|320:128|240:176,1,153.000002918243
144,336,59286,5,8,0:0:0:0:
32,48,59536,1,0,0:0:0:0:
256,224,59786,2,0,P|336:224|432:192,1,153.000002918243
256,96,60286,2,0,P|160:96|80:144,1,153.000002918243,8|0,0:0|0:0,0:0:0:0:
109,119,60661,1,0,0:0:0:0:
109,119,60786,1,0,0:0:0:0:
32,224,61036,1,0,0:0:0:0:
144,320,61286,2,0,P|224:320|304:288,1,153.000002918243,8|0,0:0|0:0,0:0:0:0:
448,144,61786,6,0,P|368:144|272:192,1,153.000002918243
176,272,62286,1,8,0:0:0:0:
352,304,62536,1,0,0:0:0:0:
368,304,62661,1,0,0:0:0:0:
384,304,62786,2,0,L|384:112,1,153.000002918243
384,32,63286,1,8,0:0:0:0:
192,112,63536,1,0,0:0:0:0:
384,240,63786,1,0,0:0:0:0:
192,288,64036,2,0,P|112:288|32:224,1,153.000002918243,0|8,0:0|0:0,0:0:0:0:
32,112,64536,5,0,0:0:0:0:
64,112,64661,1,0,0:0:0:0:
96,112,64786,2,0,P|176:112|256:176,1,153.000002918243
256,304,65286,2,0,P|416:304|416:160,1,306.000005836487,8|0,0:0|0:0,0:0:0:0:
352,48,66036,1,0,0:0:0:0:
128,192,66286,1,8,0:0:0:0:
352,304,66536,1,0,0:0:0:0:
352,272,66661,1,0,0:0:0:0:
352,240,66786,2,0,P|352:144|336:80,1,153.000002918243
224,32,67286,5,8,0:0:0:0:
64,352,67536,1,0,0:0:0:0:
64,96,67786,1,0,0:0:0:0:
256,288,68036,2,0,P|336:288|400:256,1,153.000002918243,0|8,0:0|0:0,0:0:0:0:
480,128,68536,1,0,0:0:0:0:
448,128,68661,1,0,0:0:0:0:
416,128,68786,2,0,L|240:128,1,153.000002918243
32,128,69286,5,8,0:0:0:0:
176,320,69536,1,0,0:0:0:0:
176,48,69786,2,0,L|176:224,1,153.000002918243
256,272,70286,2,0,P|352:272|416:240,1,153.000002918243,8|0,0:0|0:0,0:0:0:0:
448,144,70786,2,0,P|304:144|208:272,2,306.000005836487,0|8|0,0:0|0:0|0:0,0:0:0:0:
496,240,72036,5,0,0:0:0:0:
256,352,72286,1,8,0:0:0:0:
368,80,72536,1,0,0:0:0:0:
336,80,72661,1,0,0:0:0:0:
304,80,72786,2,0,P|208:80|144:128,1,153.000002918243
80,272,73286,2,0,P|256:272|336:160,1,306.000005836487,8|8,0:0|0:0,0:0:0:0:
400,32,74036,5,0,0:0:0:0:
144,80,74286,1,8,0:0:0:0:
256,192,74536,1,0,0:0:0:0:
256,192,74661,1,0,0:0:0:0:
256,192,74786,2,0,P|256:272|224:336,1,153.000002918243,0|8,0:0|0:0,0:0:0:0:
80,352,75286,2,0,B|80:256|80:256|96:192|96:192|96:112|48:32,1,306.000005836487,8|0,0:0|0:0,0:0:0:0:
48,32,76036,1,0,0:0:0:0:
208,192,76286,2,0,P|304:192|384:160,1,153.000002918243,8|0,0:0|0:0,0:0:0:0:
384,160,76661,5,0,0:0:0:0:
400,128,76786,2,0,P|336:64|272:64,1,153.000002918243,0|8,0:0|0:0,0:0:0:0:
64,112,77286,2,0,P|128:272|272:272,1,306.000005836487,8|0,0:0|0:0,0:0:0:0:
384,224,78036,1,0,0:0:0:0:
448,48,78286,2,0,P|352:48|272:96,1,153.000002918243,8|0,0:0|0:0,0:0:0:0:
301,71,78661,1,0,0:0:0:0:
301,71,78786,1,0,0:0:0:0:
304,240,79036,2,0,P|192:240|96:192,1,153.000002918243,0|8,0:0|0:0,0:0:0:0:
128,208,79411,5,0,0:0:0:0:
112,176,79536,1,0,0:0:0:0:
176,80,79786,2,0,P|272:80|336:192,1,229.500004377365
320,208,80286,2,0,P|240:208|176:240,1,153.000002918243,8|0,0:0|0:0,0:0:0:0:
144,256,80661,1,0,0:0:0:0:
112,240,80786,2,0,P|112:160|144:96,1,153.000002918243,0|8,0:0|0:0,0:0:0:0:
320,48,81286,2,0,P|448:160|448:320,1,306.000005836487,8|0,0:0|0:0,0:0:0:0:
256,352,82036,5,0,0:0:0:0:
256,192,82286,2,0,P|96:192|32:112,1,229.500004377365,8|0,0:0|0:0,0:0:0:0:
48,112,82786,2,0,P|128:48|192:48,1,153.000002918243,0|8,0:0|0:0,0:0:0:0:
256,112,83286,2,0,P|400:112|464:256,1,306.000005836487,8|0,0:0|0:0,0:0:0:0:
464,352,84036,1,0,0:0:0:0:
336,288,84286,6,0,P|336:192|240:96,1,229.500004377365,8|0,0:0|0:0,0:0:0:0:
224,112,84786,2,0,P|96:112|32:48,1,153.000002918243,0|8,0:0|0:0,0:0:0:0:
16,16,85286,1,8,0:0:0:0:
176,192,85536,1,0,0:0:0:0:
176,192,85661,1,0,0:0:0:0:
176,192,85786,2,0,P|240:272|368:272,1,229.500004377365
384,256,86286,2,0,P|384:176|336:96,1,153.000002918243,8|0,0:0|0:0,0:0:0:0:
320,96,86661,1,0,0:0:0:0:
288,112,86786,2,0,P|288:192|160:288,1,229.500004377365
160,272,87286,6,0,P|160:192|96:128,1,153.000002918243,8|0,0:0|0:0,0:0:0:0:
80,128,87661,1,0,0:0:0:0:
48,144,87786,1,0,0:0:0:0:
32,176,87911,2,0,P|32:288|64:336,1,153.000002918243
96,336,88286,2,0,P|176:336|272:224,1,229.500004377365
320,64,88786,1,0,0:0:0:0:
