osu file format v14

[General]
AudioFilename: audio.mp3
AudioLeadIn: 0
PreviewTime: 118423
Countdown: 0
SampleSet: None
StackLeniency: 0.5
Mode: 0
LetterboxInBreaks: 0
WidescreenStoryboard: 1

[Editor]
Bookmarks: 134787,135014,135241
DistanceSpacing: 1
BeatDivisor: 4
GridSize: 4
TimelineZoom: 1

[Metadata]
Title:Little Scarlet Bad Girl
TitleUnicode:Little Scarlet Bad Girl
Artist:Hatsune Miku
ArtistUnicode:Hatsune Miku
Creator:Kryss
Version:Hard
Source:Desktop Cinderella
Tags:vocaloid Hachioji P q*Left
BeatmapID:1640672
BeatmapSetID:777235

[Difficulty]
HPDrainRate:4
CircleSize:4
OverallDifficulty:5
ApproachRate:8
SliderMultiplier:1
SliderTickRate:1

[Events]
//Background and Video events
0,0,"badmiku.png",0,0
//Break Periods
//Storyboard Layer 0 (Background)
//Storyboard Layer 1 (Fail)
//Storyboard Layer 2 (Pass)
//Storyboard Layer 3 (Foreground)
//Storyboard Sound Samples

[TimingPoints]
2060,227.272727272727,4,1,0,60,1,0
118423,-100,4,1,0,60,0,1
132969,-100,4,1,0,60,0,0

[HitObjects]
40,40,2059,6,0,L|125:99,1,100
256,32,2514,1,0,0:0:0:0:
256,32,2628,2,0,L|344:93,1,100
472,40,2969,5,0,0:0:0:0:
472,40,3082,2,0,L|383:101,1,100
256,32,3423,1,0,0:0:0:0:
256,32,3537,2,0,L|157:101,1,100
40,156,3878,5,0,0:0:0:0:
40,156,3991,2,0,L|128:217,1,100
256,148,4332,1,0,0:0:0:0:
256,148,4446,2,0,L|354:216,1,100
480,148,4787,5,0,0:0:0:0:
480,148,4900,2,0,L|391:209,2,100
256,148,5469,1,0,0:0:0:0:
256,148,5696,1,0,0:0:0:0:
40,280,5809,5,0,0:0:0:0:
40,280,5922,2,0,L|128:341,1,100
256,272,6263,1,0,0:0:0:0:
256,272,6378,2,0,L|354:340,1,100
472,280,6719,5,0,0:0:0:0:
472,280,6832,2,0,L|383:341,1,100
256,272,7173,1,0,0:0:0:0:
256,272,7287,2,0,L|157:203,1,100
40,156,7628,5,0,0:0:0:0:
40,156,7741,2,0,L|128:94,1,100
256,164,8082,1,0,0:0:0:0:
256,164,8196,2,0,L|354:95,1,100
480,152,8537,6,0,L|391:90,2,100
256,156,9106,1,0,0:0:0:0:
256,304,9333,5,0,0:0:0:0:
256,156,9559,2,0,L|256:208,1,50
108,192,9900,1,0,0:0:0:0:
108,192,10014,1,0,0:0:0:0:
108,192,10128,1,0,0:0:0:0:
108,192,10241,1,0,0:0:0:0:
256,156,10469,2,0,L|256:208,1,50
404,192,10809,5,0,0:0:0:0:
404,192,10923,1,0,0:0:0:0:
404,192,11037,1,0,0:0:0:0:
404,192,11150,1,0,0:0:0:0:
256,156,11378,2,0,L|256:208,1,50
256,56,11719,5,0,0:0:0:0:
256,56,11832,1,0,0:0:0:0:
256,56,11946,1,0,0:0:0:0:
256,56,12059,1,0,0:0:0:0:
256,56,12173,2,0,L|204:56,2,50
240,204,12628,5,0,0:0:0:0:
230,217,12741,1,0,0:0:0:0:
221,230,12855,1,0,0:0:0:0:
212,243,12969,1,0,0:0:0:0:
203,256,13082,1,0,0:0:0:0:
191,272,13196,2,0,L|161:314,14,50
284,152,15014,5,0,0:0:0:0:
295,135,15128,1,0,0:0:0:0:
304,122,15241,1,0,0:0:0:0:
313,109,15355,1,0,0:0:0:0:
323,96,15469,1,0,0:0:0:0:
332,83,15582,2,0,L|361:40,5,50
256,192,16605,2,0,B|309:190|309:190|368:161,1,100
400,80,17059,2,0,B|352:54|352:54|287:49,1,100
204,52,17514,6,0,B|157:55|157:55|110:80,1,100
160,169,17968,2,0,B|202:190|202:190|256:192,1,100
400,304,18423,6,0,B|352:329|352:329|287:334,1,100
204,332,18878,2,0,B|157:328|157:328|110:303,1,100
110,80,19332,6,0,L|171:63,3,50
300,80,19787,2,0,L|396:105,1,100
256,192,20241,6,0,B|202:193|202:193|143:222,1,100
112,304,20695,2,0,B|159:329|159:329|224:334,1,100
308,332,21150,6,0,B|354:328|354:328|401:303,1,100
351,214,21604,2,0,B|309:193|309:193|256:192,1,100
112,80,22059,6,0,B|159:54|159:54|224:49,1,100
308,52,22514,2,0,B|354:55|354:55|401:80,1,100
402,304,22968,6,0,L|340:320,3,50
212,304,23423,2,0,L|115:278,1,100
256,192,23878,6,0,B|257:245|257:245|286:304,1,100
368,336,24332,2,0,B|393:288|393:288|398:223,1,100
396,140,24787,6,0,B|392:93|392:93|367:46,1,100
278,96,25241,2,0,B|257:138|257:138|256:192,1,100
144,336,25696,6,0,B|118:288|118:288|113:223,1,100
116,140,26151,2,0,B|119:93|119:93|144:46,1,100
368,46,26605,6,0,L|384:107,3,50
368,236,27060,2,0,L|342:332,1,100
169,332,27514,6,0,B|145:284|145:284|142:218,1,100
144,140,27968,2,0,B|147:86|147:86|177:29,1,100
342,45,28423,6,0,B|364:86|364:86|368:140,1,100
368,237,28878,2,0,B|366:284|366:284|343:332,1,100
256,192,29332,2,0,P|230:159|183:141,1,75
256,192,29673,6,0,P|223:217|205:264,1,75
256,192,30014,6,0,P|281:224|328:242,1,75
256,192,30355,6,0,P|288:166|306:119,1,75
256,192,30696,2,0,L|256:344,1,150
200,104,31150,5,0,0:0:0:0:
120,38,31378,2,0,B|91:38|91:38|60:48,1,50
58,94,31605,1,0,0:0:0:0:
152,125,31832,2,0,B|123:125|123:125|92:135,1,50
90,181,32059,6,0,B|70:185|70:185|35:206,2,50
184,192,32514,1,0,0:0:0:0:
236,192,32628,1,0,0:0:0:0:
284,192,32741,1,0,0:0:0:0:
304,256,32969,6,0,B|322:277|322:277|349:294,1,50
386,268,33196,1,0,0:0:0:0:
350,176,33423,2,0,B|368:197|368:197|395:214,1,50
432,188,33650,6,0,B|448:200|448:200|486:213,2,50
332,192,34105,1,0,0:0:0:0:
280,192,34219,1,0,0:0:0:0:
232,192,34332,1,0,0:0:0:0:
256,96,34559,2,0,L|256:36,1,50
348,84,35015,2,0,L|390:126,1,50
420,152,35242,1,0,0:0:0:0:
412,251,35469,2,0,L|369:294,1,50
340,320,35696,6,0,L|340:380,2,50
256,264,36150,1,0,0:0:0:0:
256,64,36605,5,0,0:0:0:0:
164,84,36833,2,0,L|121:126,1,50
92,152,37060,1,0,0:0:0:0:
100,251,37287,2,0,L|142:293,1,50
172,320,37514,6,0,L|172:380,2,50
256,264,37969,1,0,0:0:0:0:
256,212,38083,1,0,0:0:0:0:
256,164,38196,1,0,0:0:0:0:
320,88,38423,6,0,B|336:71|336:71|317:51|317:51|300:68|300:68|320:88,1,100
272,64,38764,1,0,0:0:0:0:
220,64,38878,1,0,0:0:0:0:
136,120,39105,1,0,0:0:0:0:
68,192,39332,5,0,0:0:0:0:
68,192,39446,1,0,0:0:0:0:
164,308,39787,5,0,0:0:0:0:
164,308,39900,1,0,0:0:0:0:
164,308,40014,1,0,0:0:0:0:
164,308,40128,1,0,0:0:0:0:
164,308,40241,1,0,0:0:0:0:
308,352,40582,5,0,0:0:0:0:
308,352,40696,1,0,0:0:0:0:
380,284,40923,6,0,L|340:244,1,50
296,235,41150,1,0,0:0:0:0:
258,265,41264,2,0,L|218:225,1,50
223,229,41491,1,0,0:0:0:0:
187,194,41605,1,0,0:0:0:0:
260,128,41832,5,0,0:0:0:0:
271,116,41946,1,0,0:0:0:0:
282,105,42059,1,0,0:0:0:0:
293,94,42173,1,0,0:0:0:0:
305,82,42287,2,0,L|340:46,14,50
104,84,44332,6,0,L|54:84,3,50
118,84,44787,1,0,0:0:0:0:
134,84,44900,1,0,0:0:0:0:
150,84,45014,1,0,0:0:0:0:
166,84,45128,1,0,0:0:0:0:
182,84,45241,2,0,L|302:84,1,100
476,112,45696,5,0,0:0:0:0:
476,112,45809,2,0,B|426:88|426:88|379:86,1,100
290,144,46150,1,0,0:0:0:0:
290,144,46263,2,0,B|340:120|340:120|386:118,1,100
476,212,46605,5,0,0:0:0:0:
476,212,46718,2,0,B|426:188|426:188|379:186,1,100
292,244,47059,1,0,0:0:0:0:
292,244,47173,2,0,B|342:220|342:220|388:218,1,100
476,312,47514,5,0,0:0:0:0:
476,312,47627,2,0,B|426:288|426:288|379:286,1,100
292,344,47968,1,0,0:0:0:0:
292,344,48082,2,0,B|342:320|342:320|388:318,1,100
256,244,48423,1,0,0:0:0:0:
345,190,48650,5,0,0:0:0:0:
345,190,48878,2,0,B|356:192|320:188|320:188|264:164|264:164|248:164|248:164|192:188|192:188|156:192,1,200
160,191,49559,1,0,0:0:0:0:
160,191,49787,2,0,B|192:188|192:188|248:164|248:164|264:164|264:164|320:188|320:188|356:192|345:190,1,200
256,348,50469,1,0,0:0:0:0:
256,348,50696,1,0,0:0:0:0:
256,348,50923,1,0,0:0:0:0:
356,348,51150,5,0,0:0:0:0:
356,348,51263,2,0,B|406:324|406:324|452:322,1,100
480,280,51605,5,0,0:0:0:0:
480,280,51718,2,0,B|430:256|430:256|383:254,1,100
384,204,52059,5,0,0:0:0:0:
384,204,52173,2,0,B|434:180|434:180|480:178,1,100
480,128,52514,5,0,0:0:0:0:
480,128,52628,2,0,B|430:104|430:104|383:102,1,100
325,109,52968,2,0,B|275:85|275:85|228:83,1,100
36,108,53309,1,0,0:0:0:0:
36,108,53422,2,0,B|86:84|86:84|132:82,1,100
222,176,53764,5,0,0:0:0:0:
222,176,53877,2,0,B|172:152|172:152|125:150,1,100
38,208,54218,1,0,0:0:0:0:
38,208,54332,2,0,B|88:184|88:184|134:182,1,100
222,276,54673,5,0,0:0:0:0:
222,276,54786,2,0,B|172:252|172:252|125:250,1,100
38,308,55127,1,0,0:0:0:0:
38,308,55241,2,0,B|88:284|88:284|134:282,1,100
256,244,55696,1,0,0:0:0:0:
156,192,55923,5,0,0:0:0:0:
156,192,56150,2,0,B|192:188|192:188|248:164|248:164|264:164|264:164|320:188|320:188|356:192|356:192,1,200
345,190,56832,1,0,0:0:0:0:
345,190,57060,2,0,B|356:192|320:188|320:188|264:164|264:164|248:164|248:164|192:188|192:188|156:192,1,200
256,348,57741,1,0,0:0:0:0:
256,348,57969,5,0,0:0:0:0:
256,348,58196,5,0,0:0:0:0:
256,192,58423,6,0,L|312:192,12,50
72,40,60241,1,0,0:0:0:0:
192,32,60469,2,0,B|245:32|245:32|305:59,1,100
396,104,60923,2,0,B|353:123|353:123|300:123,1,100
180,124,61378,2,0,B|137:104|137:104|84:104,1,100
76,224,61832,2,0,B|122:250|122:250|187:257,1,100
288,260,62287,6,0,B|342:257|342:257|400:229,1,100
304,144,62742,2,0,B|257:134|257:134|205:144,1,100
80,316,63196,6,0,L|141:299,3,50
188,300,63651,2,0,L|284:325,1,100
396,276,64105,2,0,B|353:256|353:256|300:256,1,100
180,264,64560,2,0,B|137:283|137:283|84:283,1,100
84,164,65014,2,0,B|130:137|130:137|195:130,1,100
296,132,65469,6,0,B|350:134|350:134|408:162,1,100
300,236,65924,2,0,B|253:245|253:245|201:235,1,100
200,116,66378,2,0,B|246:106|246:106|298:116,1,100
432,316,66832,6,0,L|383:303,3,50
324,300,67287,2,0,L|227:326,1,100
108,328,67742,6,0,B|86:279|86:279|87:213,1,100
88,112,68196,2,0,B|113:64|113:64|164:23,1,100
204,144,68651,6,0,B|250:152|250:152|302:140,1,100
362,36,69105,6,0,B|397:64|397:64|423:112,1,100
425,232,69559,2,0,B|425:278|425:278|404:327,1,100
302,243,70014,6,0,B|250:231|250:231|204:240,1,100
80,316,70469,6,0,L|141:299,3,50
144,244,70924,2,0,L|118:148,1,100
36,60,71378,6,0,B|84:36|84:36|150:33,1,100
204,128,71832,2,0,B|256:140|256:140|320:124,1,100
372,32,72287,2,0,B|425:33|425:33|487:63,1,100
452,180,72741,2,0,B|428:195|428:195|384:196,1,50
184,92,72969,6,0,L|148:127,1,50
156,264,73309,6,0,L|191:299,1,50
328,292,73650,6,0,L|363:256,1,50
356,120,73991,6,0,L|320:84,1,50
256,164,74332,2,0,P|255:219|259:164,1,150
392,346,75014,2,0,B|421:346|421:346|452:336,1,50
454,290,75241,1,0,0:0:0:0:
360,259,75468,2,0,B|389:259|389:259|420:249,1,50
422,203,75695,6,0,B|442:199|442:199|477:178,2,50
328,192,76150,1,0,0:0:0:0:
276,192,76264,1,0,0:0:0:0:
228,192,76377,1,0,0:0:0:0:
208,128,76605,6,0,B|190:107|190:107|163:90,1,50
126,116,76832,1,0,0:0:0:0:
162,208,77059,2,0,B|144:187|144:187|117:170,1,50
80,196,77286,6,0,B|64:184|64:184|26:171,2,50
180,192,77741,1,0,0:0:0:0:
232,192,77855,1,0,0:0:0:0:
280,192,77968,1,0,0:0:0:0:
256,288,78195,2,0,L|256:348,1,50
164,300,78651,2,0,L|122:258,1,50
92,232,78878,1,0,0:0:0:0:
100,133,79105,2,0,L|143:90,1,50
172,64,79332,6,0,L|172:4,2,50
256,120,79786,1,0,0:0:0:0:
256,320,80241,5,0,0:0:0:0:
348,300,80469,2,0,L|391:258,1,50
420,232,80696,1,0,0:0:0:0:
412,133,80923,2,0,L|370:91,1,50
340,64,81150,6,0,L|340:4,2,50
256,120,81605,1,0,0:0:0:0:
256,172,81719,1,0,0:0:0:0:
256,220,81832,1,0,0:0:0:0:
192,296,82059,6,0,B|176:313|176:313|195:333|195:333|212:316|212:316|192:296,1,100
240,320,82400,1,0,0:0:0:0:
292,320,82514,1,0,0:0:0:0:
376,264,82741,1,0,0:0:0:0:
444,192,82968,5,0,0:0:0:0:
444,192,83082,1,0,0:0:0:0:
348,76,83423,5,0,0:0:0:0:
348,76,83536,1,0,0:0:0:0:
348,76,83650,1,0,0:0:0:0:
348,76,83764,1,0,0:0:0:0:
348,76,83877,1,0,0:0:0:0:
204,32,84218,5,0,0:0:0:0:
204,32,84332,1,0,0:0:0:0:
132,100,84559,6,0,L|172:140,1,50
216,149,84786,1,0,0:0:0:0:
254,119,84900,2,0,L|294:159,1,50
289,155,85127,1,0,0:0:0:0:
325,190,85241,1,0,0:0:0:0:
252,256,85468,5,0,0:0:0:0:
241,268,85582,1,0,0:0:0:0:
230,279,85695,1,0,0:0:0:0:
219,290,85809,1,0,0:0:0:0:
207,302,85923,2,0,L|172:338,14,50
408,300,87969,6,0,L|458:300,3,50
394,300,88424,1,0,0:0:0:0:
378,300,88537,1,0,0:0:0:0:
362,300,88651,1,0,0:0:0:0:
346,300,88765,1,0,0:0:0:0:
330,300,88878,2,0,L|210:300,1,100
36,272,89332,5,0,0:0:0:0:
36,272,89445,2,0,B|86:296|86:296|133:298,1,100
222,240,89786,1,0,0:0:0:0:
222,240,89901,2,0,B|172:264|172:264|126:266,1,100
36,172,90241,5,0,0:0:0:0:
36,172,90354,2,0,B|86:196|86:196|133:198,1,100
220,140,90695,1,0,0:0:0:0:
220,140,90809,2,0,B|170:164|170:164|124:166,1,100
36,72,91150,5,0,0:0:0:0:
36,72,91264,2,0,B|86:96|86:96|133:98,1,100
220,40,91604,1,0,0:0:0:0:
220,40,91718,2,0,B|170:64|170:64|124:66,1,100
256,140,92059,1,0,0:0:0:0:
167,194,92286,5,0,0:0:0:0:
167,194,92514,2,0,B|156:192|192:196|192:196|248:220|248:220|264:220|264:220|320:196|320:196|356:192,1,200
352,193,93195,1,0,0:0:0:0:
352,193,93423,2,0,B|320:196|320:196|264:220|264:220|248:220|248:220|192:196|192:196|156:192|167:194,1,200
256,36,94105,1,0,0:0:0:0:
256,36,94332,1,0,0:0:0:0:
256,36,94559,1,0,0:0:0:0:
156,36,94786,5,0,0:0:0:0:
156,36,94901,2,0,B|106:60|106:60|60:62,1,100
32,104,95241,5,0,0:0:0:0:
32,104,95354,2,0,B|82:128|82:128|129:130,1,100
128,180,95695,5,0,0:0:0:0:
128,180,95809,2,0,B|78:204|78:204|32:206,1,100
32,256,96150,5,0,0:0:0:0:
32,256,96264,2,0,B|82:280|82:280|129:282,1,100
187,275,96604,2,0,B|237:299|237:299|284:301,1,100
476,276,96945,1,0,0:0:0:0:
476,276,97060,2,0,B|426:300|426:300|380:302,1,100
290,208,97400,5,0,0:0:0:0:
290,208,97514,2,0,B|340:232|340:232|387:234,1,100
474,176,97854,1,0,0:0:0:0:
474,176,97968,2,0,B|424:200|424:200|378:202,1,100
290,108,98309,5,0,0:0:0:0:
290,108,98423,2,0,B|340:132|340:132|387:134,1,100
474,76,98763,1,0,0:0:0:0:
474,76,98877,2,0,B|424:100|424:100|378:102,1,100
256,140,99332,1,0,0:0:0:0:
356,192,99559,5,0,0:0:0:0:
356,192,99787,2,0,B|320:196|320:196|264:220|264:220|248:220|248:220|192:196|192:196|156:192|156:192,1,200
167,194,100468,1,0,0:0:0:0:
167,194,100696,2,0,B|156:192|192:196|192:196|248:220|248:220|264:220|264:220|320:196|320:196|356:192,1,200
352,72,101378,1,0,0:0:0:0:
288,36,101605,1,0,0:0:0:0:
416,36,101832,1,0,0:0:0:0:
436,156,102059,1,0,0:0:0:0:
316,200,102287,1,0,0:0:0:0:
352,312,102400,1,0,0:0:0:0:
288,348,102627,1,0,0:0:0:0:
416,348,102854,1,0,0:0:0:0:
256,192,103423,1,0,0:0:0:0:
36,272,103877,5,0,0:0:0:0:
36,272,103991,2,0,B|86:296|86:296|133:298,1,100
222,240,104331,1,0,0:0:0:0:
222,240,104446,2,0,B|172:264|172:264|126:266,1,100
36,172,104786,5,0,0:0:0:0:
36,172,104900,2,0,B|86:196|86:196|133:198,1,100
220,140,105240,1,0,0:0:0:0:
220,140,105354,2,0,B|170:164|170:164|124:166,1,100
36,72,105695,5,0,0:0:0:0:
36,72,105809,2,0,B|86:96|86:96|133:98,1,100
220,40,106149,1,0,0:0:0:0:
220,40,106263,2,0,B|170:64|170:64|124:66,1,100
256,140,106604,1,0,0:0:0:0:
167,194,106831,5,0,0:0:0:0:
167,194,107059,2,0,B|156:192|192:196|192:196|248:220|248:220|264:220|264:220|320:196|320:196|356:192,1,200
352,193,107740,1,0,0:0:0:0:
352,193,107968,2,0,B|320:196|320:196|264:220|264:220|248:220|248:220|192:196|192:196|156:192|167:194,1,200
256,36,108650,1,0,0:0:0:0:
256,36,108877,1,0,0:0:0:0:
256,36,109104,1,0,0:0:0:0:
156,36,109331,5,0,0:0:0:0:
156,36,109446,2,0,B|106:60|106:60|60:62,1,100
32,104,109786,5,0,0:0:0:0:
32,104,109900,2,0,B|82:128|82:128|129:130,1,100
128,180,110240,5,0,0:0:0:0:
128,180,110355,2,0,B|78:204|78:204|32:206,1,100
32,256,110695,5,0,0:0:0:0:
32,256,110809,2,0,B|82:280|82:280|129:282,1,100
187,275,111150,2,0,B|237:299|237:299|284:301,1,100
476,276,111490,1,0,0:0:0:0:
476,276,111605,2,0,B|426:300|426:300|380:302,1,100
290,208,111945,5,0,0:0:0:0:
290,208,112059,2,0,B|340:232|340:232|387:234,1,100
474,176,112399,1,0,0:0:0:0:
474,176,112514,2,0,B|424:200|424:200|378:202,1,100
290,108,112854,5,0,0:0:0:0:
290,108,112969,2,0,B|340:132|340:132|387:134,1,100
474,76,113308,1,0,0:0:0:0:
474,76,113423,2,0,B|424:100|424:100|378:102,1,100
256,140,113877,1,0,0:0:0:0:
356,192,114104,5,0,0:0:0:0:
356,192,114332,2,0,B|320:196|320:196|264:220|264:220|248:220|248:220|192:196|192:196|156:192|156:192,1,200
167,194,115013,1,0,0:0:0:0:
167,194,115241,2,0,B|156:192|192:196|192:196|248:220|248:220|264:220|264:220|320:196|320:196|356:192,1,200
256,36,115922,1,0,0:0:0:0:
256,36,116150,5,0,0:0:0:0:
256,36,116377,5,0,0:0:0:0:
256,192,116605,6,0,L|200:192,12,50
124,192,118423,5,0,0:0:0:0:
256,192,118650,1,0,0:0:0:0:
364,192,118878,2,0,L|424:192,1,50
416,72,119219,1,0,0:0:0:0:
296,72,119446,2,0,L|236:72,1,50
124,72,119787,1,0,0:0:0:0:
124,192,120014,1,0,0:0:0:0:
124,312,120241,5,0,0:0:0:0:
244,312,120469,1,0,0:0:0:0:
364,312,120696,2,0,L|424:312,1,50
412,192,121037,1,0,0:0:0:0:
256,192,121150,2,0,L|316:192,3,50
124,192,121605,1,0,0:0:0:0:
124,312,121832,1,0,0:0:0:0:
244,312,122059,5,0,0:0:0:0:
256,192,122287,2,0,L|312:192,2,50
296,72,122741,1,0,0:0:0:0:
416,72,122969,1,0,0:0:0:0:
256,192,123196,2,0,L|312:192,2,50
124,192,123650,1,0,0:0:0:0:
124,72,123878,1,0,0:0:0:0:
124,192,124559,5,0,0:0:0:0:
124,192,124673,1,0,0:0:0:0:
200,156,124900,2,0,B|243:118|243:118|265:137|265:137|291:154|291:154|331:122,1,150
388,192,125469,1,0,0:0:0:0:
388,192,125582,1,0,0:0:0:0:
388,192,125695,5,0,0:0:0:0:
256,192,125922,1,0,0:0:0:0:
148,192,126150,2,0,L|88:192,1,50
96,72,126491,1,0,0:0:0:0:
216,72,126718,2,0,L|276:72,1,50
388,72,127059,1,0,0:0:0:0:
388,192,127286,1,0,0:0:0:0:
388,312,127513,5,0,0:0:0:0:
268,312,127741,1,0,0:0:0:0:
148,312,127968,2,0,L|88:312,1,50
100,192,128309,1,0,0:0:0:0:
256,192,128423,2,0,L|196:192,3,50
388,192,128877,1,0,0:0:0:0:
388,312,129104,1,0,0:0:0:0:
268,312,129331,5,0,0:0:0:0:
256,192,129559,2,0,L|200:192,2,50
216,72,130013,1,0,0:0:0:0:
96,72,130241,1,0,0:0:0:0:
256,192,130468,2,0,L|200:192,2,50
388,192,130922,1,0,0:0:0:0:
388,72,131150,1,0,0:0:0:0:
256,192,131605,5,0,0:0:0:0:
256,192,132059,2,0,L|308:192,4,50
424,192,132969,6,0,B|382:224|382:224|330:246,1,100
220,232,133423,6,0,B|261:199|261:199|313:177,1,100
400,252,133878,6,0,B|367:210|367:210|345:158,1,100
360,48,134332,6,0,B|392:89|392:89|414:141,1,100
308,196,134787,6,0,B|266:228|266:228|214:250,1,100
104,236,135241,6,0,B|145:203|145:203|197:181,1,100
284,256,135696,6,0,B|251:214|251:214|229:162,1,100
244,52,136150,6,0,B|276:93|276:93|298:145,1,100
244,244,136605,6,0,B|202:276|202:276|150:298,1,100
40,284,137059,6,0,B|81:251|81:251|133:229,1,100
220,304,137514,6,0,B|187:262|187:262|165:210,1,100
180,100,137968,6,0,B|212:141|212:141|234:193,1,100
116,156,138423,6,0,B|157:123|157:123|209:101,1,100
320,116,138877,6,0,B|278:148|278:148|226:170,1,100
140,96,139332,6,0,B|172:137|172:137|194:189,1,100
180,300,139786,6,0,B|147:258|147:258|125:206,1,100
96,100,140241,5,0,0:0:0:0:
232,36,140582,1,0,0:0:0:0:
232,36,140696,1,0,0:0:0:0:
332,36,140923,1,0,0:0:0:0:
416,92,141150,1,0,0:0:0:0:
404,103,141264,1,0,0:0:0:0:
393,114,141378,1,0,0:0:0:0:
382,125,141491,1,0,0:0:0:0:
370,137,141605,1,0,0:0:0:0:
288,192,141832,1,0,0:0:0:0:
288,192,141946,1,0,0:0:0:0:
288,192,142059,1,0,0:0:0:0:
188,192,142287,1,0,0:0:0:0:
188,192,142400,1,0,0:0:0:0:
188,192,142514,1,0,0:0:0:0:
96,228,142741,1,0,0:0:0:0:
153,338,142969,1,0,0:0:0:0:
164,327,143082,1,0,0:0:0:0:
176,316,143196,1,0,0:0:0:0:
187,304,143309,1,0,0:0:0:0:
198,293,143423,1,0,0:0:0:0:
272,192,143650,5,0,0:0:0:0:
292,192,143764,1,0,0:0:0:0:
308,192,143878,1,0,0:0:0:0:
324,192,143991,1,0,0:0:0:0:
340,192,144105,2,0,L|396:192,12,50
388,192,146605,5,0,0:0:0:0:
364,192,146719,1,0,0:0:0:0:
344,192,146832,1,0,0:0:0:0:
320,192,146946,1,0,0:0:0:0:
296,192,147059,2,0,L|196:192,1,100
96,192,147514,1,0,0:0:0:0:
152,192,148878,5,0,0:0:0:0:
352,192,149332,1,0,0:0:0:0:
152,192,150241,5,0,0:0:0:0:
256,84,150582,1,0,0:0:0:0:
256,236,150923,1,0,0:0:0:0:
256,136,151150,1,0,0:0:0:0:
152,192,152741,5,0,0:0:0:0:
252,192,152969,1,0,0:0:0:0:
152,192,153878,5,0,0:0:0:0:
256,84,154219,1,0,0:0:0:0:
256,232,154559,1,0,0:0:0:0:
368,192,154787,5,0,0:0:0:0:
188,192,155128,1,0,0:0:0:0:
308,192,155355,1,0,0:0:0:0:
308,192,155469,1,0,0:0:0:0:
128,192,155809,1,0,0:0:0:0:
308,192,156150,1,0,0:0:0:0:
408,192,156378,1,0,0:0:0:0:
408,192,156491,1,0,0:0:0:0:
408,192,156605,1,0,0:0:0:0:
128,192,156946,1,0,0:0:0:0:
308,192,157287,1,0,0:0:0:0:
128,192,157628,1,0,0:0:0:0:
308,192,157969,1,0,0:0:0:0:
200,144,158196,5,0,0:0:0:0:
188,132,158309,1,0,0:0:0:0:
177,121,158423,1,0,0:0:0:0:
166,110,158537,1,0,0:0:0:0:
154,98,158650,2,0,L|103:47,13,50
196,188,161605,6,0,L|252:188,3,50
476,112,162059,5,0,0:0:0:0:
476,112,162173,2,0,B|426:88|426:88|379:86,1,100
290,144,162514,1,0,0:0:0:0:
290,144,162628,2,0,B|340:120|340:120|386:118,1,100
476,212,162968,5,0,0:0:0:0:
476,212,163081,2,0,B|426:188|426:188|379:186,1,100
292,244,163422,1,0,0:0:0:0:
292,244,163536,2,0,B|342:220|342:220|388:218,1,100
476,312,163877,5,0,0:0:0:0:
476,312,163991,2,0,B|426:288|426:288|379:286,1,100
292,344,164332,1,0,0:0:0:0:
292,344,164446,2,0,B|342:320|342:320|388:318,1,100
256,244,164787,1,0,0:0:0:0:
345,190,165013,5,0,0:0:0:0:
345,190,165241,2,0,B|356:192|320:188|320:188|264:164|264:164|248:164|248:164|192:188|192:188|156:192,1,200
160,191,165922,1,0,0:0:0:0:
160,191,166150,2,0,B|192:188|192:188|248:164|248:164|264:164|264:164|320:188|320:188|356:192|345:190,1,200
256,348,166832,1,0,0:0:0:0:
256,348,167059,1,0,0:0:0:0:
256,348,167286,1,0,0:0:0:0:
356,348,167513,5,0,0:0:0:0:
356,348,167628,2,0,B|406:324|406:324|452:322,1,100
480,280,167968,5,0,0:0:0:0:
480,280,168082,2,0,B|430:256|430:256|383:254,1,100
384,204,168422,5,0,0:0:0:0:
384,204,168537,2,0,B|434:180|434:180|480:178,1,100
480,128,168877,5,0,0:0:0:0:
480,128,168991,2,0,B|430:104|430:104|383:102,1,100
325,109,169332,2,0,B|275:85|275:85|228:83,1,100
36,108,169672,1,0,0:0:0:0:
36,108,169787,2,0,B|86:84|86:84|132:82,1,100
222,176,170127,5,0,0:0:0:0:
222,176,170241,2,0,B|172:152|172:152|125:150,1,100
38,208,170581,1,0,0:0:0:0:
38,208,170695,2,0,B|88:184|88:184|134:182,1,100
222,276,171036,5,0,0:0:0:0:
222,276,171150,2,0,B|172:252|172:252|125:250,1,100
38,308,171490,1,0,0:0:0:0:
38,308,171605,2,0,B|88:284|88:284|134:282,1,100
256,244,172059,1,0,0:0:0:0:
156,192,172286,5,0,0:0:0:0:
156,192,172514,2,0,B|192:188|192:188|248:164|248:164|264:164|264:164|320:188|320:188|356:192|356:192,1,200
345,190,173195,1,0,0:0:0:0:
345,190,173423,2,0,B|356:192|320:188|320:188|264:164|264:164|248:164|248:164|192:188|192:188|156:192,1,200
352,72,174105,1,0,0:0:0:0:
288,36,174332,1,0,0:0:0:0:
416,36,174559,1,0,0:0:0:0:
436,156,174786,1,0,0:0:0:0:
316,200,175014,1,0,0:0:0:0:
352,312,175127,1,0,0:0:0:0:
288,348,175354,1,0,0:0:0:0:
416,348,175581,1,0,0:0:0:0:
256,192,176150,1,0,0:0:0:0:
308,44,176605,5,0,0:0:0:0:
308,44,176719,2,0,B|256:32|256:32|207:43,1,100
156,104,177059,5,0,0:0:0:0:
156,104,177173,2,0,B|208:116|208:116|256:104,1,100
308,164,177514,5,0,0:0:0:0:
308,164,177628,2,0,B|256:152|256:152|207:163,1,100
156,224,177969,5,0,0:0:0:0:
156,224,178082,2,0,B|208:236|208:236|256:224,1,100
308,280,178423,5,0,0:0:0:0:
308,280,178537,2,0,B|256:268|256:268|207:279,1,100
156,340,178878,5,0,0:0:0:0:
156,340,178992,2,0,B|208:352|208:352|256:340,1,100
332,344,179332,5,0,0:0:0:0:
332,344,179446,2,0,B|344:292|344:292|332:243,1,100
404,208,179787,5,0,0:0:0:0:
404,208,179901,2,0,B|416:156|416:156|404:107,1,100
360,44,180241,5,0,0:0:0:0:
360,44,180355,2,0,B|308:32|308:32|259:43,1,100
204,104,180696,5,0,0:0:0:0:
204,104,180810,2,0,B|256:116|256:116|304:104,1,100
356,160,181150,5,0,0:0:0:0:
356,160,181263,2,0,B|304:148|304:148|255:159,1,100
204,220,181605,5,0,0:0:0:0:
204,220,181719,2,0,B|256:232|256:232|304:220,1,100
356,280,182059,5,0,0:0:0:0:
356,280,182173,2,0,B|304:268|304:268|255:279,1,100
204,340,182514,5,0,0:0:0:0:
204,340,182628,2,0,B|256:352|256:352|304:340,1,100
256,276,182969,5,0,0:0:0:0:
256,276,183083,2,0,B|204:264|204:264|155:275,1,100
104,336,183423,5,0,0:0:0:0:
104,336,183537,2,0,B|58:307|58:307|32:264,1,100
112,244,183878,5,0,0:0:0:0:
112,244,183992,2,0,B|124:192|124:192|112:143,1,100
124,68,184332,5,0,0:0:0:0:
124,68,184446,2,0,B|176:56|176:56|224:67,1,100
300,64,184787,5,0,0:0:0:0:
300,64,184901,2,0,B|345:52|345:52|397:64,1,100
399,146,185241,5,0,0:0:0:0:
399,146,185355,2,0,B|388:192|388:192|400:244,1,100
477,267,185696,5,0,0:0:0:0:
477,267,185810,2,0,B|453:307|453:307|408:336,1,100
353,275,186150,5,0,0:0:0:0:
353,275,186264,2,0,B|308:264|308:264|256:276,1,100
204,340,186605,5,0,0:0:0:0:
204,340,186719,2,0,B|256:352|256:352|304:340,1,100
356,280,187059,5,0,0:0:0:0:
356,280,187173,2,0,B|304:268|304:268|255:279,1,100
204,220,187514,5,0,0:0:0:0:
204,220,187628,2,0,B|256:232|256:232|304:220,1,100
356,160,187969,5,0,0:0:0:0:
356,160,188082,2,0,B|304:148|304:148|255:159,1,100
204,104,188423,5,0,0:0:0:0:
204,104,188537,2,0,B|256:116|256:116|304:104,1,100
360,44,188878,5,0,0:0:0:0:
360,44,188992,2,0,B|308:32|308:32|259:43,1,100
204,104,189333,6,0,L|148:104,12,50
428,192,191150,5,0,0:0:0:0:
308,192,191378,1,0,0:0:0:0:
288,192,191491,1,0,0:0:0:0:
268,192,191605,1,0,0:0:0:0:
148,192,191832,1,0,0:0:0:0:
184,76,192060,5,0,0:0:0:0:
203,70,192173,1,0,0:0:0:0:
222,65,192287,1,0,0:0:0:0:
340,68,192514,1,0,0:0:0:0:
359,73,192627,1,0,0:0:0:0:
378,78,192741,1,0,0:0:0:0:
428,192,192969,5,0,0:0:0:0:
428,312,193196,1,0,0:0:0:0:
307,306,193423,1,0,0:0:0:0:
288,312,193536,1,0,0:0:0:0:
268,317,193650,1,0,0:0:0:0:
148,316,193878,1,0,0:0:0:0:
128,310,193991,1,0,0:0:0:0:
109,305,194105,1,0,0:0:0:0:
64,192,194332,1,0,0:0:0:0:
184,192,194559,1,0,0:0:0:0:
304,192,194787,5,0,0:0:0:0:
424,192,195014,1,0,0:0:0:0:
378,78,195241,1,0,0:0:0:0:
358,72,195354,1,0,0:0:0:0:
339,67,195468,1,0,0:0:0:0:
222,65,195696,1,0,0:0:0:0:
202,70,195809,1,0,0:0:0:0:
183,75,195923,1,0,0:0:0:0:
148,192,196150,1,0,0:0:0:0:
268,192,196378,1,0,0:0:0:0:
388,192,196605,5,0,0:0:0:0:
268,192,196832,1,0,0:0:0:0:
328,296,197059,1,0,0:0:0:0:
322,315,197172,1,0,0:0:0:0:
317,334,197286,1,0,0:0:0:0:
196,336,197514,1,0,0:0:0:0:
190,316,197627,1,0,0:0:0:0:
185,297,197741,1,0,0:0:0:0:
128,192,197969,1,0,0:0:0:0:
248,192,198196,1,0,0:0:0:0:
368,192,198423,5,0,0:0:0:0:
188,192,198764,1,0,0:0:0:0:
188,192,198878,1,0,0:0:0:0:
68,192,199105,1,0,0:0:0:0:
188,192,199332,1,0,0:0:0:0:
188,192,199446,1,0,0:0:0:0:
308,192,199673,1,0,0:0:0:0:
308,192,199787,1,0,0:0:0:0:
256,84,200014,1,0,0:0:0:0:
256,84,200128,1,0,0:0:0:0:
256,84,200241,1,0,0:0:0:0:
256,264,200582,1,0,0:0:0:0:
256,264,200696,1,0,0:0:0:0:
160,192,200923,1,0,0:0:0:0:
280,196,201150,1,0,0:0:0:0:
280,196,201264,1,0,0:0:0:0:
100,192,201605,1,0,0:0:0:0:
164,92,201832,5,0,0:0:0:0:
179,87,201946,1,0,0:0:0:0:
194,83,202059,1,0,0:0:0:0:
210,79,202173,1,0,0:0:0:0:
229,74,202287,1,0,0:0:0:0:
245,70,202400,1,0,0:0:0:0:
264,65,202514,6,0,L|321:49,24,50
256,192,205696,12,0,220241,0:0:0:0:
