osu file format v14

[General]
AudioFilename: audio.mp3
AudioLeadIn: 0
PreviewTime: 17142
Countdown: 1
SampleSet: None
StackLeniency: 0.6
Mode: 0
LetterboxInBreaks: 0
WidescreenStoryboard: 1

[Editor]
DistanceSpacing: 1
BeatDivisor: 4
GridSize: 16
TimelineZoom: 1.5

[Metadata]
Title:Ievan Polkka
TitleUnicode:Ievan Polkka
Artist:Hatsune Miku
ArtistUnicode:Hatsune Miku
Creator:Ferexis
Version:Hard
Source:
Tags:
BeatmapID:1992973
BeatmapSetID:954636

[Difficulty]
HPDrainRate:6
CircleSize:4
OverallDifficulty:6
ApproachRate:8.2
SliderMultiplier:2.3
SliderTickRate:1

[Events]
//Background and Video events
//Break Periods
//Storyboard Layer 0 (Background)
//Storyboard Layer 1 (Fail)
//Storyboard Layer 2 (Pass)
//Storyboard Layer 3 (Foreground)
//Storyboard Sound Samples

[TimingPoints]
1134,504.201680672269,4,2,0,40,1,0
9201,-100,4,2,0,80,0,0
13234,-100,4,2,0,80,0,0
16260,-100,4,2,0,80,0,0
17268,-100,4,2,0,80,0,1
33402,-100,4,2,0,80,0,0
49537,-100,4,2,0,80,0,0
57604,-100,4,2,0,80,0,0
65167,-66.6666666666667,4,2,0,80,0,0
65671,-100,4,1,0,100,0,1
80797,-100,4,1,0,100,0,0

[HitObjects]
48,48,1134,6,0,L|160:96,1,115
144,176,1638,2,0,L|256:128,1,115
240,48,2142,2,0,L|352:96,1,115
336,176,2646,1,0,0:0:0:0:
448,192,2898,1,0,0:0:0:0:
464,336,3150,6,0,L|352:288,1,115
368,208,3654,2,0,L|256:256,1,115
272,336,4158,2,0,L|160:288,1,115
176,208,4662,1,0,0:0:0:0:
64,192,4915,1,0,0:0:0:0:
96,80,5167,6,0,P|144:112|176:64,1,115
256,144,5671,2,0,P|294:108|336:140,1,115
416,80,6176,2,0,P|457:112|496:76,1,115
448,176,6680,1,0,0:0:0:0:
336,192,6932,1,0,0:0:0:0:
416,304,7184,6,0,P|368:272|336:320,1,115
256,240,7688,2,0,P|217:275|175:243,1,115
96,304,8193,2,0,P|54:271|15:307,1,115
64,208,8697,1,0,0:0:0:0:
160,176,8949,1,0,0:0:0:0:
144,288,9201,6,0,L|272:272,2,115
64,208,9957,1,0,0:0:0:0:
160,160,10209,2,0,P|240:176|256:144,1,115
176,64,10713,2,0,P|96:48|80:80,1,115
368,96,11218,6,0,L|240:112,2,115
448,176,11974,1,0,0:0:0:0:
352,224,12226,2,0,P|272:208|256:240,1,115
336,320,12730,2,0,P|416:336|432:304,1,115
432,288,13108,1,0,0:0:0:0:
416,240,13234,6,0,L|352:128,1,115
304,32,13739,1,0,0:0:0:0:
256,144,13991,1,0,0:0:0:0:
192,48,14243,2,0,P|160:80|144:176,1,115
176,256,14747,2,0,P|208:304|256:256,1,115
96,240,15251,6,0,L|160:128,1,115
208,32,15756,1,0,0:0:0:0:
256,144,16008,1,0,0:0:0:0:
320,48,16260,1,0,0:0:0:0:
224,208,17268,6,0,L|320:272,1,115
208,288,17772,2,0,P|144:288|112:224,1,115
144,80,18276,2,0,P|144:112|176:144,1,57.5
208,144,18528,2,0,P|208:112|176:80,1,57.5
288,160,18781,1,0,0:0:0:0:
384,96,19033,2,0,L|432:160,1,57.5
448,192,19285,6,0,P|448:256|416:320,1,115
352,224,19789,1,0,0:0:0:0:
336,336,20041,1,0,0:0:0:0:
256,256,20293,2,0,P|256:192|288:128,1,115
352,224,20797,1,0,0:0:0:0:
368,112,21049,2,0,P|320:112|288:80,1,57.5
256,80,21302,6,0,P|192:112|128:96,1,115
272,224,21806,1,0,0:0:0:0:
176,160,22058,2,0,L|112:192,1,57.5
96,224,22310,2,0,P|112:272|192:272,1,115
224,272,22688,2,0,L|288:304,2,57.5
208,224,23066,1,0,0:0:0:0:
208,176,23192,1,0,0:0:0:0:
224,128,23318,6,0,P|240:96|272:80,1,57.5
320,96,23570,2,0,P|309:122|286:139,1,57.5
223,99,23823,6,0,P|253:81|289:85,1,57.5
320,124,24075,2,0,P|297:140|269:143,1,57.5
240,192,24327,5,0,0:0:0:0:
352,272,24579,1,0,0:0:0:0:
224,320,24831,1,0,0:0:0:0:
224,320,25083,6,0,L|128:304,1,57.5
112,288,25335,2,0,L|48:176,1,115
128,96,25839,2,0,L|192:208,1,115
326,195,26344,2,0,L|384:96,2,115
240,272,27100,6,0,L|176:288,1,57.5
128,256,27352,2,0,P|96:208|96:160,1,57.5
160,208,27604,2,0,P|192:256|192:304,1,57.5
117,243,27856,2,0,P|116:185|142:145,1,57.5
170,220,28108,2,0,P|171:278|145:318,1,57.5
208,320,28360,2,0,P|256:336|320:288,2,115
