osu file format v13

[General]
AudioFilename: PV.mp3
AudioLeadIn: 0
PreviewTime: -1
Countdown: 0
SampleSet: None
StackLeniency: 0.3
Mode: 0
LetterboxInBreaks: 0
WidescreenStoryboard: 1

[Editor]
DistanceSpacing: 1
BeatDivisor: 8
GridSize: 4
TimelineZoom: 2.5

[Metadata]
Title:High Pitch Tongue Twister Vocal Range Speak Speed Test
TitleUnicode:高音滑舌厨音域早口テスト
Artist:Hatsune Miku
ArtistUnicode:初音ミク
Creator:Doomsday is Bad
Version:Adie's "Lets Stream"
Source:木村わいP
Tags:木村わいP Hatsune Miku singalongasyouplay
BeatmapID:1462135
BeatmapSetID:690953

[Difficulty]
HPDrainRate:0
CircleSize:3
OverallDifficulty:7
ApproachRate:10
SliderMultiplier:2.4
SliderTickRate:3

[Events]
//Background and Video events
Video,0,"KAWAII MIKU~.avi"
0,0,"smile.PNG",0,0
//Break Periods
//Storyboard Layer 0 (Background)
//Storyboard Layer 1 (Fail)
//Storyboard Layer 2 (Pass)
//Storyboard Layer 3 (Foreground)
//Storyboard Sound Samples
//Background Colour Transformations
3,100,163,162,255

[TimingPoints]
396,375,4,1,0,75,1,0
24315,333.333333333333,4,1,0,75,1,0
42896,300,4,1,0,75,1,0
59634,272.727272727273,4,1,0,75,1,0
74850,240,4,1,0,75,1,0

[HitObjects]
96,106,302,5,0,0:0:0:0:
136,77,396,1,0,0:0:0:0:
203,118,583,1,0,0:0:0:0:
246,185,771,1,0,0:0:0:0:
256,264,958,1,0,0:0:0:0:
197,326,1146,5,0,0:0:0:0:
269,292,1333,1,0,0:0:0:0:
320,231,1521,1,0,0:0:0:0:
338,153,1708,1,0,0:0:0:0:
434,148,1896,5,0,0:0:0:0:
434,148,1942,1,0,0:0:0:0:
255,66,2271,1,0,0:0:0:0:
255,66,2317,1,0,0:0:0:0:
105,162,2646,1,0,0:0:0:0:
105,162,2692,1,0,0:0:0:0:
136,72,3396,5,0,0:0:0:0:
376,72,3771,1,0,0:0:0:0:
376,312,4146,5,0,0:0:0:0:
136,312,4521,1,0,0:0:0:0:
136,72,4896,5,0,0:0:0:0:
376,72,5271,1,0,0:0:0:0:
376,312,5646,5,0,0:0:0:0:
136,312,6021,1,0,0:0:0:0:
136,72,6396,5,0,0:0:0:0:
376,72,6771,1,0,0:0:0:0:
376,312,7146,5,0,0:0:0:0:
136,312,7521,1,0,0:0:0:0:
136,72,7896,5,0,0:0:0:0:
376,72,8271,1,0,0:0:0:0:
376,312,8646,5,0,0:0:0:0:
136,312,9021,1,0,0:0:0:0:
136,72,9396,5,0,0:0:0:0:
376,72,9771,1,0,0:0:0:0:
376,312,10146,5,0,0:0:0:0:
136,312,10521,1,0,0:0:0:0:
136,72,10896,5,0,0:0:0:0:
376,72,11271,1,0,0:0:0:0:
376,312,11646,5,0,0:0:0:0:
136,312,12021,1,0,0:0:0:0:
136,72,12396,5,0,0:0:0:0:
376,72,12771,1,0,0:0:0:0:
376,312,13146,5,0,0:0:0:0:
136,312,13521,1,0,0:0:0:0:
256,192,13896,5,0,0:0:0:0:
136,72,15396,5,0,0:0:0:0:
156,72,15489,1,0,0:0:0:0:
176,72,15583,1,0,0:0:0:0:
196,72,15677,1,0,0:0:0:0:
216,72,15771,1,0,0:0:0:0:
236,72,15864,1,0,0:0:0:0:
256,72,15958,1,0,0:0:0:0:
276,72,16052,1,0,0:0:0:0:
296,72,16146,1,0,0:0:0:0:
316,72,16239,1,0,0:0:0:0:
336,72,16333,1,0,0:0:0:0:
356,72,16427,1,0,0:0:0:0:
376,72,16521,1,0,0:0:0:0:
376,312,16896,5,0,0:0:0:0:
356,312,16989,1,0,0:0:0:0:
336,312,17083,1,0,0:0:0:0:
316,312,17177,1,0,0:0:0:0:
296,312,17271,1,0,0:0:0:0:
276,312,17364,1,0,0:0:0:0:
256,312,17458,1,0,0:0:0:0:
236,312,17552,1,0,0:0:0:0:
216,312,17646,1,0,0:0:0:0:
196,312,17739,1,0,0:0:0:0:
176,312,17833,1,0,0:0:0:0:
155,312,17927,1,0,0:0:0:0:
136,312,18021,1,0,0:0:0:0:
136,72,18396,5,0,0:0:0:0:
156,72,18489,1,0,0:0:0:0:
176,72,18583,1,0,0:0:0:0:
196,72,18677,1,0,0:0:0:0:
216,72,18771,1,0,0:0:0:0:
236,72,18864,1,0,0:0:0:0:
256,72,18958,1,0,0:0:0:0:
276,72,19052,1,0,0:0:0:0:
296,72,19146,1,0,0:0:0:0:
316,72,19239,1,0,0:0:0:0:
336,72,19333,1,0,0:0:0:0:
356,72,19427,1,0,0:0:0:0:
376,72,19521,1,0,0:0:0:0:
376,312,19896,5,0,0:0:0:0:
356,312,19989,1,0,0:0:0:0:
336,312,20083,1,0,0:0:0:0:
316,312,20177,1,0,0:0:0:0:
296,312,20271,1,0,0:0:0:0:
276,312,20364,1,0,0:0:0:0:
256,312,20458,1,0,0:0:0:0:
236,312,20552,1,0,0:0:0:0:
216,312,20646,1,0,0:0:0:0:
196,312,20739,1,0,0:0:0:0:
176,312,20833,1,0,0:0:0:0:
155,312,20927,1,0,0:0:0:0:
136,312,21021,1,0,0:0:0:0:
136,72,21396,5,0,0:0:0:0:
376,72,21771,1,0,0:0:0:0:
376,312,22146,5,0,0:0:0:0:
136,312,22521,1,0,0:0:0:0:
136,72,22896,5,0,0:0:0:0:
376,72,23271,1,0,0:0:0:0:
256,192,23646,5,0,0:0:0:0:
376,72,24315,5,0,0:0:0:0:
136,72,24648,1,0,0:0:0:0:
136,312,24981,5,0,0:0:0:0:
376,312,25314,1,0,0:0:0:0:
376,72,25648,5,0,0:0:0:0:
136,72,25981,1,0,0:0:0:0:
136,312,26314,5,0,0:0:0:0:
376,312,26647,1,0,0:0:0:0:
376,72,26981,5,0,0:0:0:0:
136,72,27314,1,0,0:0:0:0:
136,312,27647,5,0,0:0:0:0:
376,312,27980,1,0,0:0:0:0:
376,72,28314,5,0,0:0:0:0:
136,72,28647,1,0,0:0:0:0:
136,312,28980,5,0,0:0:0:0:
376,312,29313,1,0,0:0:0:0:
376,72,29648,5,0,0:0:0:0:
136,72,29981,1,0,0:0:0:0:
136,312,30314,5,0,0:0:0:0:
376,312,30647,1,0,0:0:0:0:
376,72,30981,5,0,0:0:0:0:
136,72,31314,1,0,0:0:0:0:
136,312,31647,5,0,0:0:0:0:
376,312,31980,1,0,0:0:0:0:
376,72,32315,5,0,0:0:0:0:
136,72,32648,1,0,0:0:0:0:
136,312,32981,5,0,0:0:0:0:
376,312,33314,1,0,0:0:0:0:
256,192,33648,5,0,0:0:0:0:
136,72,34981,5,0,0:0:0:0:
156,72,35064,1,0,0:0:0:0:
176,72,35147,1,0,0:0:0:0:
196,72,35231,1,0,0:0:0:0:
216,72,35314,1,0,0:0:0:0:
236,72,35397,1,0,0:0:0:0:
256,72,35481,1,0,0:0:0:0:
276,72,35564,1,0,0:0:0:0:
296,72,35647,1,0,0:0:0:0:
316,72,35731,1,0,0:0:0:0:
336,72,35814,1,0,0:0:0:0:
356,72,35897,1,0,0:0:0:0:
376,72,35981,1,0,0:0:0:0:
376,92,36064,1,0,0:0:0:0:
376,112,36147,1,0,0:0:0:0:
376,132,36231,1,0,0:0:0:0:
376,152,36314,1,0,0:0:0:0:
376,172,36397,1,0,0:0:0:0:
376,192,36481,1,0,0:0:0:0:
376,212,36564,1,0,0:0:0:0:
376,232,36647,1,0,0:0:0:0:
376,252,36731,1,0,0:0:0:0:
376,272,36814,1,0,0:0:0:0:
376,292,36897,1,0,0:0:0:0:
376,312,36981,1,0,0:0:0:0:
356,312,37064,1,0,0:0:0:0:
336,312,37147,1,0,0:0:0:0:
316,312,37231,1,0,0:0:0:0:
296,312,37314,1,0,0:0:0:0:
276,312,37397,1,0,0:0:0:0:
256,312,37481,1,0,0:0:0:0:
236,312,37564,1,0,0:0:0:0:
216,312,37647,1,0,0:0:0:0:
196,312,37731,1,0,0:0:0:0:
176,312,37814,1,0,0:0:0:0:
156,312,37897,1,0,0:0:0:0:
136,312,37981,1,0,0:0:0:0:
136,292,38064,1,0,0:0:0:0:
136,272,38147,1,0,0:0:0:0:
136,252,38231,1,0,0:0:0:0:
136,232,38314,1,0,0:0:0:0:
136,212,38397,1,0,0:0:0:0:
136,192,38481,1,0,0:0:0:0:
136,172,38564,1,0,0:0:0:0:
136,152,38647,1,0,0:0:0:0:
136,132,38731,1,0,0:0:0:0:
136,112,38814,1,0,0:0:0:0:
136,92,38897,1,0,0:0:0:0:
136,72,38981,1,0,0:0:0:0:
376,72,40315,5,0,0:0:0:0:
136,72,40648,1,0,0:0:0:0:
136,312,40981,5,0,0:0:0:0:
376,312,41314,1,0,0:0:0:0:
376,72,41648,5,0,0:0:0:0:
136,72,41981,1,0,0:0:0:0:
256,192,42314,5,0,0:0:0:0:
376,312,42896,5,0,0:0:0:0:
136,312,43196,1,0,0:0:0:0:
136,72,43496,5,0,0:0:0:0:
376,72,43796,1,0,0:0:0:0:
376,312,44096,5,0,0:0:0:0:
136,312,44396,1,0,0:0:0:0:
136,72,44696,5,0,0:0:0:0:
376,72,44996,1,0,0:0:0:0:
376,312,45296,5,0,0:0:0:0:
136,312,45596,1,0,0:0:0:0:
136,72,45896,5,0,0:0:0:0:
376,72,46196,1,0,0:0:0:0:
376,312,46496,5,0,0:0:0:0:
136,312,46796,1,0,0:0:0:0:
136,72,47096,5,0,0:0:0:0:
376,72,47396,1,0,0:0:0:0:
376,312,47696,5,0,0:0:0:0:
136,312,47996,1,0,0:0:0:0:
136,72,48296,5,0,0:0:0:0:
376,72,48596,1,0,0:0:0:0:
376,312,48896,5,0,0:0:0:0:
136,312,49196,1,0,0:0:0:0:
136,72,49496,5,0,0:0:0:0:
376,72,49796,1,0,0:0:0:0:
376,312,50096,5,0,0:0:0:0:
136,312,50396,1,0,0:0:0:0:
136,72,50696,5,0,0:0:0:0:
376,72,50996,1,0,0:0:0:0:
256,192,51296,5,0,0:0:0:0:
136,72,52196,5,0,0:0:0:0:
154,72,52271,1,0,0:0:0:0:
172,72,52346,1,0,0:0:0:0:
191,72,52421,1,0,0:0:0:0:
209,72,52496,1,0,0:0:0:0:
228,72,52571,1,0,0:0:0:0:
246,72,52646,1,0,0:0:0:0:
265,72,52721,1,0,0:0:0:0:
283,72,52796,1,0,0:0:0:0:
302,72,52871,1,0,0:0:0:0:
320,72,52946,1,0,0:0:0:0:
339,72,53021,1,0,0:0:0:0:
357,72,53096,1,0,0:0:0:0:
376,72,53171,1,0,0:0:0:0:
376,90,53246,1,0,0:0:0:0:
376,109,53321,1,0,0:0:0:0:
376,127,53396,1,0,0:0:0:0:
376,145,53471,1,0,0:0:0:0:
376,164,53546,1,0,0:0:0:0:
376,182,53621,1,0,0:0:0:0:
376,201,53696,1,0,0:0:0:0:
376,219,53771,1,0,0:0:0:0:
376,238,53846,1,0,0:0:0:0:
376,256,53921,1,0,0:0:0:0:
376,275,53996,1,0,0:0:0:0:
376,293,54071,1,0,0:0:0:0:
375,312,54146,1,0,0:0:0:0:
357,312,54221,1,0,0:0:0:0:
338,312,54296,1,0,0:0:0:0:
320,312,54371,1,0,0:0:0:0:
302,312,54446,1,0,0:0:0:0:
283,312,54521,1,0,0:0:0:0:
265,312,54596,1,0,0:0:0:0:
246,312,54671,1,0,0:0:0:0:
228,312,54746,1,0,0:0:0:0:
209,312,54821,1,0,0:0:0:0:
191,312,54896,1,0,0:0:0:0:
172,312,54971,1,0,0:0:0:0:
154,312,55046,1,0,0:0:0:0:
136,311,55121,1,0,0:0:0:0:
136,293,55196,1,0,0:0:0:0:
136,274,55271,1,0,0:0:0:0:
136,256,55346,1,0,0:0:0:0:
136,238,55421,1,0,0:0:0:0:
136,219,55496,1,0,0:0:0:0:
136,201,55571,1,0,0:0:0:0:
136,182,55646,1,0,0:0:0:0:
136,164,55721,1,0,0:0:0:0:
136,145,55796,1,0,0:0:0:0:
136,127,55871,1,0,0:0:0:0:
136,108,55946,1,0,0:0:0:0:
136,90,56021,1,0,0:0:0:0:
136,71,56096,1,0,0:0:0:0:
376,312,57296,5,0,0:0:0:0:
136,312,57596,1,0,0:0:0:0:
136,72,57896,5,0,0:0:0:0:
376,72,58196,1,0,0:0:0:0:
376,312,58496,5,0,0:0:0:0:
136,312,58796,1,0,0:0:0:0:
256,192,59096,5,0,0:0:0:0:
136,312,59634,5,0,0:0:0:0:
376,312,59906,1,0,0:0:0:0:
376,72,60179,5,0,0:0:0:0:
136,72,60452,1,0,0:0:0:0:
136,312,60724,5,0,0:0:0:0:
376,312,60996,1,0,0:0:0:0:
376,72,61269,5,0,0:0:0:0:
136,72,61542,1,0,0:0:0:0:
136,312,61815,5,0,0:0:0:0:
376,312,62087,1,0,0:0:0:0:
376,72,62360,5,0,0:0:0:0:
136,72,62633,1,0,0:0:0:0:
136,312,62906,5,0,0:0:0:0:
376,312,63178,1,0,0:0:0:0:
376,72,63451,5,0,0:0:0:0:
136,72,63724,1,0,0:0:0:0:
136,312,63996,5,0,0:0:0:0:
376,312,64268,1,0,0:0:0:0:
376,72,64541,5,0,0:0:0:0:
136,72,64814,1,0,0:0:0:0:
136,312,65087,5,0,0:0:0:0:
376,312,65359,1,0,0:0:0:0:
376,72,65632,5,0,0:0:0:0:
136,72,65905,1,0,0:0:0:0:
136,312,66179,5,0,0:0:0:0:
376,312,66451,1,0,0:0:0:0:
376,72,66724,5,0,0:0:0:0:
136,72,66997,1,0,0:0:0:0:
256,192,67269,5,0,0:0:0:0:
136,72,68429,5,0,0:0:0:0:
157,72,68497,1,0,0:0:0:0:
179,72,68565,1,0,0:0:0:0:
201,72,68633,1,0,0:0:0:0:
223,72,68701,1,0,0:0:0:0:
245,72,68769,1,0,0:0:0:0:
266,72,68838,1,0,0:0:0:0:
288,72,68906,1,0,0:0:0:0:
310,72,68974,1,0,0:0:0:0:
332,72,69042,1,0,0:0:0:0:
354,72,69110,1,0,0:0:0:0:
376,72,69179,1,0,0:0:0:0:
376,311,69452,5,0,0:0:0:0:
356,311,69520,1,0,0:0:0:0:
336,311,69588,1,0,0:0:0:0:
316,311,69656,1,0,0:0:0:0:
296,311,69724,1,0,0:0:0:0:
276,311,69792,1,0,0:0:0:0:
256,311,69861,1,0,0:0:0:0:
236,311,69929,1,0,0:0:0:0:
216,311,69997,1,0,0:0:0:0:
196,311,70065,1,0,0:0:0:0:
176,311,70133,1,0,0:0:0:0:
156,311,70202,1,0,0:0:0:0:
136,311,70270,1,0,0:0:0:0:
136,72,70611,5,0,0:0:0:0:
157,72,70679,1,0,0:0:0:0:
179,72,70747,1,0,0:0:0:0:
201,72,70815,1,0,0:0:0:0:
223,72,70883,1,0,0:0:0:0:
245,72,70951,1,0,0:0:0:0:
266,72,71020,1,0,0:0:0:0:
288,72,71088,1,0,0:0:0:0:
310,72,71156,1,0,0:0:0:0:
332,72,71224,1,0,0:0:0:0:
354,72,71292,1,0,0:0:0:0:
376,72,71361,1,0,0:0:0:0:
376,311,71634,5,0,0:0:0:0:
352,311,71702,1,0,0:0:0:0:
328,311,71770,1,0,0:0:0:0:
304,311,71838,1,0,0:0:0:0:
280,311,71906,1,0,0:0:0:0:
256,312,71974,1,0,0:0:0:0:
232,312,72043,1,0,0:0:0:0:
208,312,72111,1,0,0:0:0:0:
184,312,72179,1,0,0:0:0:0:
160,312,72247,1,0,0:0:0:0:
136,312,72315,1,0,0:0:0:0:
136,312,72724,5,0,0:0:0:0:
376,312,72996,1,0,0:0:0:0:
376,72,73269,5,0,0:0:0:0:
136,72,73542,1,0,0:0:0:0:
136,312,73815,5,0,0:0:0:0:
376,312,74087,1,0,0:0:0:0:
256,192,74360,5,0,0:0:0:0:
136,72,74850,5,0,0:0:0:0:
151,72,74910,1,0,0:0:0:0:
166,72,74970,1,0,0:0:0:0:
181,72,75030,1,0,0:0:0:0:
196,72,75090,1,0,0:0:0:0:
212,72,75150,1,0,0:0:0:0:
227,72,75210,1,0,0:0:0:0:
242,72,75270,1,0,0:0:0:0:
257,72,75330,1,0,0:0:0:0:
273,72,75390,1,0,0:0:0:0:
288,72,75450,1,0,0:0:0:0:
303,72,75510,1,0,0:0:0:0:
318,72,75570,1,0,0:0:0:0:
334,72,75630,1,0,0:0:0:0:
349,72,75690,1,0,0:0:0:0:
364,72,75750,1,0,0:0:0:0:
376,75,75810,1,0,0:0:0:0:
376,91,75870,1,0,0:0:0:0:
376,106,75930,1,0,0:0:0:0:
376,121,75990,1,0,0:0:0:0:
376,136,76050,1,0,0:0:0:0:
376,152,76110,1,0,0:0:0:0:
376,167,76170,1,0,0:0:0:0:
376,182,76230,1,0,0:0:0:0:
376,197,76290,1,0,0:0:0:0:
376,212,76350,1,0,0:0:0:0:
376,228,76410,1,0,0:0:0:0:
376,243,76470,1,0,0:0:0:0:
376,258,76530,1,0,0:0:0:0:
376,273,76590,1,0,0:0:0:0:
376,289,76650,1,0,0:0:0:0:
376,304,76710,1,0,0:0:0:0:
368,312,76770,1,0,0:0:0:0:
353,312,76830,1,0,0:0:0:0:
337,312,76890,1,0,0:0:0:0:
322,312,76950,1,0,0:0:0:0:
307,312,77010,1,0,0:0:0:0:
292,312,77070,1,0,0:0:0:0:
276,312,77130,1,0,0:0:0:0:
261,312,77190,1,0,0:0:0:0:
246,312,77250,1,0,0:0:0:0:
231,312,77310,1,0,0:0:0:0:
216,312,77370,1,0,0:0:0:0:
200,312,77430,1,0,0:0:0:0:
185,312,77490,1,0,0:0:0:0:
170,312,77550,1,0,0:0:0:0:
155,312,77610,1,0,0:0:0:0:
139,312,77670,1,0,0:0:0:0:
136,300,77730,1,0,0:0:0:0:
136,285,77790,1,0,0:0:0:0:
136,270,77850,1,0,0:0:0:0:
136,254,77910,1,0,0:0:0:0:
136,239,77970,1,0,0:0:0:0:
136,224,78030,1,0,0:0:0:0:
136,209,78090,1,0,0:0:0:0:
136,193,78150,1,0,0:0:0:0:
136,178,78210,1,0,0:0:0:0:
136,163,78270,1,0,0:0:0:0:
136,148,78330,1,0,0:0:0:0:
136,132,78390,1,0,0:0:0:0:
136,117,78450,1,0,0:0:0:0:
136,102,78510,1,0,0:0:0:0:
136,87,78570,1,0,0:0:0:0:
136,72,78630,1,0,0:0:0:0:
135,39,78690,5,0,0:0:0:0:
276,195,78810,1,0,0:0:0:0:
260,76,78930,1,0,0:0:0:0:
212,280,79050,1,0,0:0:0:0:
386,162,79170,5,0,0:0:0:0:
336,366,79290,1,0,0:0:0:0:
275,263,79410,1,0,0:0:0:0:
457,368,79530,1,0,0:0:0:0:
395,265,79650,5,0,0:0:0:0:
163,205,79770,1,0,0:0:0:0:
374,90,79890,1,0,0:0:0:0:
139,41,80010,1,0,0:0:0:0:
116,335,80250,5,0,0:0:0:0:
247,212,80370,1,0,0:0:0:0:
369,345,80490,1,0,0:0:0:0:
198,287,80610,5,0,0:0:0:0:
198,287,80640,1,0,0:0:0:0:
375,252,80730,1,0,0:0:0:0:
375,252,80760,1,0,0:0:0:0:
224,154,80850,1,0,0:0:0:0:
224,154,80880,1,0,0:0:0:0:
329,8,80970,1,0,0:0:0:0:
329,8,81000,1,0,0:0:0:0:
292,214,81210,5,0,0:0:0:0:
271,332,81330,1,0,0:0:0:0:
272,332,81360,2,0,B|272:323|272:323|278:335|278:335|265:336|265:336|272:323|272:323|278:335|278:335|265:336|265:336|271:324|271:324|278:335|278:335|265:336|265:336|271:324|271:324|278:335|278:335|265:336|265:336|271:324|271:324|278:335|278:335|265:336|265:336|271:324|271:324|278:335|278:335|265:336|265:336|271:324|271:324|278:335|278:335|265:336|265:336|271:324|271:324|278:335|278:335|265:336|265:336|271:324|271:324|278:335|278:335|265:336|265:336|271:324|271:324|278:335|278:335|265:336|265:336|271:324|271:324|278:335|278:335|265:336|265:336|271:324|271:324|278:335|278:335|265:336|265:336|271:324|271:324|278:335|278:335|265:336|265:336|271:324|271:324|278:335|278:335|265:336|265:336|271:324|271:324|278:335|278:335|265:336|265:336|271:324|271:324|278:335|278:335|265:336|265:336|271:324|271:324|278:335|278:335|265:336|265:336|271:324|271:324|278:335|278:335|265:336|265:336|271:324|271:324|278:335|278:335|265:336|265:336|272:336,1,780
