osu file format v14

[General]
AudioFilename: audio.mp3
AudioLeadIn: 0
PreviewTime: 22250
Countdown: 1
SampleSet: Normal
StackLeniency: 0.7
Mode: 1
LetterboxInBreaks: 0
WidescreenStoryboard: 0

[Editor]
Bookmarks: 22700,32200,41900,51500,56300,61100,69500,76700,95900,98300,107900
DistanceSpacing: 0.9
BeatDivisor: 4
GridSize: 8
TimelineZoom: 2.399999

[Metadata]
Title:Hatsune Miku no Shoushitsu -Gekijouban-
TitleUnicode:Hatsune Miku no Shoushitsu -Gekijouban-
Artist:Hatsune Miku
ArtistUnicode:Hatsune Miku
Creator:HiroK
Version:Tilted
Source:Taiko no Tatsujin
Tags:
BeatmapID:1385207
BeatmapSetID:653468

[Difficulty]
HPDrainRate:6
CircleSize:5
OverallDifficulty:6
ApproachRate:5
SliderMultiplier:1.6
SliderTickRate:1

[Events]
//Background and Video events
0,0,"aaaaa.jpg",0,100
//Break Periods
//Storyboard Layer 0 (Background)
//Storyboard Layer 1 (Fail)
//Storyboard Layer 2 (Pass)
//Storyboard Layer 3 (Foreground)
//Storyboard Sound Samples

[TimingPoints]
1100,600,4,1,0,80,1,0
10700,300,4,1,0,80,1,0
22700,-100,4,1,0,80,0,1
32200,-100,4,1,0,80,0,0
95900,-100,4,1,0,80,0,1
105500,-100,4,1,0,80,0,0
107900,285.714285714286,4,1,0,80,1,0
107900,-100,4,1,0,80,0,1
112471,272.727272727273,4,1,0,80,1,0
112471,-105.263157894737,4,1,0,80,0,1
116834,260.869565217391,4,1,0,80,1,1
116834,-111.111111111111,4,1,0,80,0,1
121007,250,4,1,0,80,1,1
121007,-117.647058823529,4,1,0,80,0,1
125007,240,4,1,0,80,1,0
125007,-125,4,1,0,80,0,0

[HitObjects]
256,192,10700,5,0,0:0:0:0:
256,192,11000,1,0,0:0:0:0:
256,192,11300,1,0,0:0:0:0:
256,192,11500,1,0,0:0:0:0:
256,192,11600,1,2,0:0:0:0:
256,192,11800,1,2,0:0:0:0:
256,192,11900,1,0,0:0:0:0:
256,192,12200,1,0,0:0:0:0:
256,192,12500,1,0,0:0:0:0:
256,192,12700,1,2,0:0:0:0:
256,192,12800,1,2,0:0:0:0:
256,192,13000,1,2,0:0:0:0:
256,192,13100,1,0,0:0:0:0:
256,192,13400,1,0,0:0:0:0:
256,192,13700,1,0,0:0:0:0:
256,192,13900,1,2,0:0:0:0:
256,192,14000,1,2,0:0:0:0:
256,192,14200,1,2,0:0:0:0:
256,192,14300,1,0,0:0:0:0:
368,184,14600,1,0,0:0:0:0:
256,192,14800,1,2,0:0:0:0:
256,192,14900,1,0,0:0:0:0:
256,192,15100,1,0,0:0:0:0:
256,192,15200,1,2,0:0:0:0:
256,192,15400,1,2,0:0:0:0:
256,192,15500,1,0,0:0:0:0:
256,192,15800,1,0,0:0:0:0:
256,192,16100,1,0,0:0:0:0:
256,192,16300,1,0,0:0:0:0:
256,192,16400,1,0,0:0:0:0:
256,192,16600,1,2,0:0:0:0:
256,192,16700,1,0,0:0:0:0:
256,192,16750,1,0,0:0:0:0:
256,192,16800,1,0,0:0:0:0:
256,192,16900,1,2,0:0:0:0:
256,192,17000,1,0,0:0:0:0:
256,192,17200,1,0,0:0:0:0:
256,192,17300,1,0,0:0:0:0:
328,176,17500,1,0,0:0:0:0:
256,192,17600,1,0,0:0:0:0:
248,168,17700,1,0,0:0:0:0:
256,192,17800,1,0,0:0:0:0:
256,192,17900,1,6,0:0:0:0:
256,192,18200,1,0,0:0:0:0:
256,192,18500,1,6,0:0:0:0:
256,192,18800,1,0,0:0:0:0:
256,192,19000,1,0,0:0:0:0:
256,192,19100,1,2,0:0:0:0:
256,192,19200,1,0,0:0:0:0:
256,192,19300,1,0,0:0:0:0:
256,192,19400,1,2,0:0:0:0:
256,192,19500,1,0,0:0:0:0:
256,192,19600,1,0,0:0:0:0:
256,192,19700,1,2,0:0:0:0:
256,192,19800,1,2,0:0:0:0:
256,192,19900,1,2,0:0:0:0:
256,192,20000,1,2,0:0:0:0:
256,192,20100,1,2,0:0:0:0:
256,192,20200,1,2,0:0:0:0:
256,192,20300,1,0,0:0:0:0:
256,192,22300,1,2,0:0:0:0:
256,192,22350,1,2,0:0:0:0:
256,192,22400,1,2,0:0:0:0:
256,192,22600,1,2,0:0:0:0:
256,192,22700,1,0,0:0:0:0:
216,184,22800,1,0,0:0:0:0:
216,184,22900,1,0,0:0:0:0:
216,184,23000,1,2,0:0:0:0:
216,184,23100,1,0,0:0:0:0:
256,192,23200,1,2,0:0:0:0:
256,192,23300,1,0,0:0:0:0:
256,192,23350,1,0,0:0:0:0:
256,192,23400,1,2,0:0:0:0:
248,168,23500,1,2,0:0:0:0:
248,168,23600,1,0,0:0:0:0:
256,192,23700,1,0,0:0:0:0:
256,192,23800,1,0,0:0:0:0:
288,160,23900,1,2,0:0:0:0:
288,160,23975,1,2,0:0:0:0:
288,160,24050,1,0,0:0:0:0:
288,160,24125,1,2,0:0:0:0:
288,160,24200,1,0,0:0:0:0:
256,192,24300,1,2,0:0:0:0:
256,192,24350,1,2,0:0:0:0:
256,192,24400,1,2,0:0:0:0:
224,176,24500,1,0,0:0:0:0:
264,176,24600,1,2,0:0:0:0:
264,176,24650,1,2,0:0:0:0:
264,176,24700,1,2,0:0:0:0:
288,160,24800,1,0,0:0:0:0:
264,176,24900,1,0,0:0:0:0:
264,176,25000,1,0,0:0:0:0:
264,176,25100,1,2,0:0:0:0:
264,176,25200,1,0,0:0:0:0:
264,176,25300,1,0,0:0:0:0:
264,176,25400,1,2,0:0:0:0:
264,176,25450,1,2,0:0:0:0:
264,176,25500,1,2,0:0:0:0:
248,168,25600,1,0,0:0:0:0:
248,168,25700,1,2,0:0:0:0:
248,168,25800,1,0,0:0:0:0:
264,160,25850,1,0,0:0:0:0:
264,176,25900,1,0,0:0:0:0:
264,176,26000,1,0,0:0:0:0:
264,176,26100,1,2,0:0:0:0:
264,176,26200,1,2,0:0:0:0:
264,176,26300,1,0,0:0:0:0:
264,176,26350,1,0,0:0:0:0:
264,176,26400,1,0,0:0:0:0:
264,176,26500,1,2,0:0:0:0:
248,168,26600,1,0,0:0:0:0:
208,152,26700,1,2,0:0:0:0:
176,136,26800,1,0,0:0:0:0:
208,160,26900,1,0,0:0:0:0:
240,184,27000,1,2,0:0:0:0:
240,184,27100,1,0,0:0:0:0:
240,184,27200,1,0,0:0:0:0:
264,176,27300,1,2,0:0:0:0:
240,184,27400,1,0,0:0:0:0:
240,184,27500,1,2,0:0:0:0:
240,184,27550,1,2,0:0:0:0:
240,184,27600,1,2,0:0:0:0:
264,176,27700,1,0,0:0:0:0:
264,176,27800,1,2,0:0:0:0:
240,184,27900,1,0,0:0:0:0:
240,184,28000,1,0,0:0:0:0:
264,176,28100,1,6,0:0:0:0:
264,176,28300,1,6,0:0:0:0:
264,176,28400,1,0,0:0:0:0:
264,184,28450,1,0,0:0:0:0:
240,184,28500,1,0,0:0:0:0:
240,184,28600,1,2,0:0:0:0:
280,200,28700,1,0,0:0:0:0:
264,176,28800,1,0,0:0:0:0:
264,176,28900,1,2,0:0:0:0:
264,176,29000,1,2,0:0:0:0:
264,176,29100,1,0,0:0:0:0:
264,176,29200,1,0,0:0:0:0:
264,176,29300,1,2,0:0:0:0:
264,176,29450,1,2,0:0:0:0:
320,168,29600,1,2,0:0:0:0:
264,176,29650,1,0,0:0:0:0:
264,176,29700,1,0,0:0:0:0:
264,176,29750,1,2,0:0:0:0:
264,176,29900,1,2,0:0:0:0:
264,176,30000,1,2,0:0:0:0:
264,176,30100,1,0,0:0:0:0:
264,176,30200,1,2,0:0:0:0:
264,176,30300,1,0,0:0:0:0:
264,176,30400,1,0,0:0:0:0:
264,176,30500,1,2,0:0:0:0:
264,176,30550,1,2,0:0:0:0:
264,176,30600,1,2,0:0:0:0:
232,176,30700,1,0,0:0:0:0:
264,176,30800,1,0,0:0:0:0:
264,176,30900,1,2,0:0:0:0:
232,176,31000,1,0,0:0:0:0:
232,176,31100,1,2,0:0:0:0:
256,176,31175,1,0,0:0:0:0:
248,192,31250,1,2,0:0:0:0:
256,184,31325,1,2,0:0:0:0:
256,184,31400,1,0,0:0:0:0:
256,176,31450,1,0,0:0:0:0:
256,176,31500,1,2,0:0:0:0:
232,176,31600,1,0,0:0:0:0:
232,176,31700,1,0,0:0:0:0:
232,176,31800,1,0,0:0:0:0:
272,192,31850,1,0,0:0:0:0:
232,176,31900,1,0,0:0:0:0:
232,176,32000,1,2,0:0:0:0:
272,192,32100,1,2,0:0:0:0:
272,192,32200,1,2,0:0:0:0:
272,192,32300,1,0,0:0:0:0:
272,192,32350,1,0,0:0:0:0:
272,192,32400,1,0,0:0:0:0:
272,192,32500,1,0,0:0:0:0:
232,184,32600,1,2,0:0:0:0:
272,192,32700,1,0,0:0:0:0:
232,184,32800,1,0,0:0:0:0:
272,192,32900,1,0,0:0:0:0:
232,184,33000,1,2,0:0:0:0:
232,184,33100,1,0,0:0:0:0:
232,184,33200,1,2,0:0:0:0:
232,184,33500,1,0,0:0:0:0:
232,184,33650,1,2,0:0:0:0:
232,184,33725,1,0,0:0:0:0:
232,184,33800,1,2,0:0:0:0:
232,184,33900,1,0,0:0:0:0:
232,184,34000,1,0,0:0:0:0:
232,184,34100,1,2,0:0:0:0:
232,184,34200,1,0,0:0:0:0:
232,184,34300,1,0,0:0:0:0:
232,184,34400,1,2,0:0:0:0:
248,192,34600,1,0,0:0:0:0:
232,184,34700,1,2,0:0:0:0:
232,184,34900,1,0,0:0:0:0:
232,184,35000,1,2,0:0:0:0:
232,184,35200,1,2,0:0:0:0:
208,152,35300,1,0,0:0:0:0:
232,184,35350,1,0,0:0:0:0:
232,184,35400,1,0,0:0:0:0:
272,176,35500,1,2,0:0:0:0:
232,192,35600,1,0,0:0:0:0:
272,176,35700,1,0,0:0:0:0:
296,208,35800,1,0,0:0:0:0:
272,176,35900,1,2,0:0:0:0:
272,176,35950,1,2,0:0:0:0:
272,176,36000,1,2,0:0:0:0:
272,176,36100,1,0,0:0:0:0:
272,176,36200,1,0,0:0:0:0:
272,176,36300,1,2,0:0:0:0:
272,176,36400,1,0,0:0:0:0:
272,176,36500,1,2,0:0:0:0:
232,160,36700,1,0,0:0:0:0:
232,160,36900,1,2,0:0:0:0:
272,144,37000,1,2,0:0:0:0:
288,152,37100,1,0,0:0:0:0:
288,152,37250,1,2,0:0:0:0:
288,152,37400,1,0,0:0:0:0:
272,144,37500,1,0,0:0:0:0:
272,144,37600,1,0,0:0:0:0:
232,160,37700,1,6,0:0:0:0:
272,168,37900,1,0,0:0:0:0:
240,192,38000,1,2,0:0:0:0:
240,192,38100,1,2,0:0:0:0:
240,192,38200,1,0,0:0:0:0:
272,168,38300,1,0,0:0:0:0:
240,192,38500,1,2,0:0:0:0:
272,168,38600,1,0,0:0:0:0:
272,168,38700,1,0,0:0:0:0:
232,168,38800,1,0,0:0:0:0:
272,168,38900,1,6,0:0:0:0:
272,168,39100,1,0,0:0:0:0:
272,168,39200,1,0,0:0:0:0:
232,168,39300,1,2,0:0:0:0:
256,200,39400,1,2,0:0:0:0:
240,192,39500,1,0,0:0:0:0:
240,192,39600,1,2,0:0:0:0:
272,176,39700,1,2,0:0:0:0:
312,160,39800,1,0,0:0:0:0:
272,176,39900,1,2,0:0:0:0:
312,160,40000,1,0,0:0:0:0:
256,200,40100,1,2,0:0:0:0:
256,200,40150,1,0,0:0:0:0:
256,200,40200,1,2,0:0:0:0:
256,200,40300,1,0,0:0:0:0:
256,200,40400,1,2,0:0:0:0:
256,200,40500,1,0,0:0:0:0:
224,176,40600,1,2,0:0:0:0:
256,192,40700,1,0,0:0:0:0:
256,200,40750,1,0,0:0:0:0:
256,200,40800,1,0,0:0:0:0:
256,200,40900,1,0,0:0:0:0:
256,200,41000,1,2,0:0:0:0:
256,200,41100,1,0,0:0:0:0:
256,144,41200,1,0,0:0:0:0:
256,200,41300,1,2,0:0:0:0:
256,200,41375,1,2,0:0:0:0:
256,200,41450,1,0,0:0:0:0:
208,176,41525,1,0,0:0:0:0:
208,176,41600,1,2,0:0:0:0:
256,184,41900,1,2,0:0:0:0:
256,200,42200,1,2,0:0:0:0:
256,184,42500,1,0,0:0:0:0:
256,184,42800,1,0,0:0:0:0:
256,200,43100,1,0,0:0:0:0:
256,184,43400,1,0,0:0:0:0:
256,184,43700,1,2,0:0:0:0:
320,280,44000,1,2,0:0:0:0:
256,184,44300,1,2,0:0:0:0:
320,280,44600,1,0,0:0:0:0:
272,184,44900,1,0,0:0:0:0:
272,184,45200,1,2,0:0:0:0:
272,184,45500,1,0,0:0:0:0:
272,184,45700,1,2,0:0:0:0:
272,184,45800,1,0,0:0:0:0:
272,184,46100,1,0,0:0:0:0:
272,184,46400,1,4,0:0:0:0:
272,184,46550,1,0,0:0:0:0:
272,184,46700,1,6,0:0:0:0:
272,184,47000,1,0,0:0:0:0:
272,184,47200,1,0,0:0:0:0:
272,184,47300,1,2,0:0:0:0:
272,184,47450,1,0,0:0:0:0:
272,184,47600,1,0,0:0:0:0:
272,184,47750,1,2,0:0:0:0:
272,184,47900,1,0,0:0:0:0:
272,184,48050,1,2,0:0:0:0:
272,184,48125,1,2,0:0:0:0:
272,184,48200,1,0,0:0:0:0:
216,184,48350,1,0,0:0:0:0:
272,184,48500,1,2,0:0:0:0:
272,184,48800,1,0,0:0:0:0:
272,184,48950,1,2,0:0:0:0:
272,184,49100,1,0,0:0:0:0:
272,184,49400,1,0,0:0:0:0:
216,200,49550,1,0,0:0:0:0:
272,184,49700,1,2,0:0:0:0:
272,184,50000,1,0,0:0:0:0:
272,184,50150,1,0,0:0:0:0:
296,232,50300,1,2,0:0:0:0:
272,184,50350,1,2,0:0:0:0:
256,184,50400,1,2,0:0:0:0:
240,192,50450,1,0,0:0:0:0:
240,192,50600,1,0,0:0:0:0:
240,192,50750,1,2,0:0:0:0:
240,192,50800,1,2,0:0:0:0:
240,192,50850,1,2,0:0:0:0:
240,192,50900,1,0,0:0:0:0:
256,184,51050,1,2,0:0:0:0:
256,184,51125,1,2,0:0:0:0:
256,184,51200,1,0,0:0:0:0:
240,192,51350,1,2,0:0:0:0:
240,192,51500,1,0,0:0:0:0:
256,184,51650,1,2,0:0:0:0:
256,184,51725,1,2,0:0:0:0:
256,184,51800,1,0,0:0:0:0:
256,184,51950,1,2,0:0:0:0:
256,184,52100,1,0,0:0:0:0:
256,184,52175,1,0,0:0:0:0:
256,184,52250,1,2,0:0:0:0:
256,184,52400,1,0,0:0:0:0:
256,184,52550,1,2,0:0:0:0:
256,184,52700,1,2,0:0:0:0:
256,184,52775,1,0,0:0:0:0:
256,184,52850,1,2,0:0:0:0:
256,184,52925,1,2,0:0:0:0:
256,184,53000,1,0,0:0:0:0:
288,240,53150,1,2,0:0:0:0:
288,240,53300,1,0,0:0:0:0:
288,240,53450,1,2,0:0:0:0:
288,240,53525,1,2,0:0:0:0:
288,240,53600,1,0,0:0:0:0:
288,240,53675,1,0,0:0:0:0:
288,240,53750,1,2,0:0:0:0:
256,192,53900,1,0,0:0:0:0:
256,192,54050,1,2,0:0:0:0:
256,192,54125,1,2,0:0:0:0:
256,192,54200,1,0,0:0:0:0:
256,192,54275,1,0,0:0:0:0:
256,192,54350,1,2,0:0:0:0:
264,224,54425,1,0,0:0:0:0:
256,192,54500,1,0,0:0:0:0:
256,192,54650,1,2,0:0:0:0:
256,192,54800,1,0,0:0:0:0:
256,192,54950,1,2,0:0:0:0:
256,192,55100,1,0,0:0:0:0:
256,192,55175,1,0,0:0:0:0:
256,192,55250,1,2,0:0:0:0:
256,192,55325,1,0,0:0:0:0:
256,192,55400,1,2,0:0:0:0:
256,192,55550,1,0,0:0:0:0:
256,192,55700,1,0,0:0:0:0:
256,192,55850,1,2,0:0:0:0:
256,192,56000,1,2,0:0:0:0:
256,192,56300,1,2,0:0:0:0:
256,192,56450,1,0,0:0:0:0:
256,192,56525,1,0,0:0:0:0:
256,192,56600,1,2,0:0:0:0:
256,192,56750,1,2,0:0:0:0:
256,192,56900,1,0,0:0:0:0:
256,192,56975,1,2,0:0:0:0:
256,192,57050,1,0,0:0:0:0:
288,200,57125,1,0,0:0:0:0:
256,192,57200,1,2,0:0:0:0:
288,200,57350,1,0,0:0:0:0:
256,152,57500,1,2,0:0:0:0:
280,184,57600,1,0,0:0:0:0:
280,184,57700,1,0,0:0:0:0:
280,184,57800,1,2,0:0:0:0:
280,184,57900,1,0,0:0:0:0:
280,184,58000,1,0,0:0:0:0:
280,184,58100,1,2,0:0:0:0:
256,192,58175,1,2,0:0:0:0:
256,192,58250,1,0,0:0:0:0:
256,192,58325,1,2,0:0:0:0:
256,192,58400,1,0,0:0:0:0:
256,192,58500,1,2,0:0:0:0:
256,192,58600,1,2,0:0:0:0:
256,192,58700,1,0,0:0:0:0:
280,184,58750,1,0,0:0:0:0:
280,184,58800,1,0,0:0:0:0:
280,184,58900,1,2,0:0:0:0:
280,184,59000,1,0,0:0:0:0:
280,184,59100,1,0,0:0:0:0:
280,184,59200,1,0,0:0:0:0:
256,192,59300,1,2,0:0:0:0:
256,192,59350,1,2,0:0:0:0:
256,192,59400,1,0,0:0:0:0:
200,184,59500,1,2,0:0:0:0:
256,192,59600,1,0,0:0:0:0:
256,192,59700,1,0,0:0:0:0:
280,184,59800,1,0,0:0:0:0:
256,192,59900,1,2,0:0:0:0:
256,192,59950,1,2,0:0:0:0:
256,192,60000,1,2,0:0:0:0:
240,184,60050,1,0,0:0:0:0:
256,192,60100,1,0,0:0:0:0:
240,176,60150,1,0,0:0:0:0:
240,176,60200,1,2,0:0:0:0:
256,192,60300,1,0,0:0:0:0:
240,176,60400,1,0,0:0:0:0:
240,176,60500,1,2,0:0:0:0:
240,176,60550,1,2,0:0:0:0:
240,160,60600,1,2,0:0:0:0:
240,160,60700,1,0,0:0:0:0:
256,192,60800,1,2,0:0:0:0:
248,176,60850,1,2,0:0:0:0:
256,192,60900,1,2,0:0:0:0:
256,160,60950,1,2,0:0:0:0:
256,160,61000,1,0,0:0:0:0:
256,192,61400,1,2,0:0:0:0:
256,192,61600,1,0,0:0:0:0:
256,192,61700,1,0,0:0:0:0:
256,192,61900,1,0,0:0:0:0:
256,192,62000,1,2,0:0:0:0:
256,192,62200,1,2,0:0:0:0:
256,192,62300,1,0,0:0:0:0:
256,192,62500,1,6,0:0:0:0:
256,192,62700,1,6,0:0:0:0:
256,192,62900,1,0,0:0:0:0:
256,192,63100,1,0,0:0:0:0:
256,192,63200,1,6,0:0:0:0:
256,192,63500,1,2,0:0:0:0:
256,192,63700,1,0,0:0:0:0:
256,192,63800,1,0,0:0:0:0:
256,192,64000,1,2,0:0:0:0:
256,192,64100,1,0,0:0:0:0:
256,192,64150,1,0,0:0:0:0:
256,192,64200,1,0,0:0:0:0:
240,200,64250,1,0,0:0:0:0:
256,192,64300,1,2,0:0:0:0:
256,192,64400,1,0,0:0:0:0:
240,200,64550,1,2,0:0:0:0:
224,176,64700,1,0,0:0:0:0:
200,232,64850,1,0,0:0:0:0:
256,192,65000,1,2,0:0:0:0:
240,200,65150,1,2,0:0:0:0:
256,192,65300,1,0,0:0:0:0:
256,192,65400,1,2,0:0:0:0:
296,176,65500,1,2,0:0:0:0:
256,192,65600,1,2,0:0:0:0:
256,192,65700,1,0,0:0:0:0:
256,192,65800,1,2,0:0:0:0:
256,192,65900,1,2,0:0:0:0:
256,192,66000,1,0,0:0:0:0:
256,192,66100,1,2,0:0:0:0:
256,192,66200,1,2,0:0:0:0:
256,192,66350,1,0,0:0:0:0:
256,192,66400,1,0,0:0:0:0:
256,192,66450,1,0,0:0:0:0:
256,192,66500,1,2,0:0:0:0:
256,192,66700,1,0,0:0:0:0:
256,192,66800,1,6,0:0:0:0:
256,192,67000,1,0,0:0:0:0:
256,192,67100,1,2,0:0:0:0:
256,192,67150,1,2,0:0:0:0:
256,192,67200,1,2,0:0:0:0:
256,192,67300,1,0,0:0:0:0:
256,192,67400,1,0,0:0:0:0:
256,192,67500,1,0,0:0:0:0:
240,168,67550,1,0,0:0:0:0:
240,200,67600,1,0,0:0:0:0:
240,168,67700,1,2,0:0:0:0:
240,168,68000,1,0,0:0:0:0:
256,192,68150,1,0,0:0:0:0:
256,192,68300,1,6,0:0:0:0:
256,192,68450,1,0,0:0:0:0:
256,192,68600,1,6,0:0:0:0:
256,192,68750,1,0,0:0:0:0:
256,192,68900,1,0,0:0:0:0:
256,192,69000,1,0,0:0:0:0:
256,192,69100,1,0,0:0:0:0:
256,192,69200,1,2,0:0:0:0:
256,192,69300,1,2,0:0:0:0:
256,192,69400,1,2,0:0:0:0:
256,192,69500,1,4,0:0:0:0:
256,192,69800,1,0,0:0:0:0:
256,192,70100,1,0,0:0:0:0:
256,192,70250,1,2,0:0:0:0:
256,192,70300,1,2,0:0:0:0:
256,192,70350,1,2,0:0:0:0:
256,192,70400,1,0,0:0:0:0:
208,160,70550,1,6,0:0:0:0:
256,200,70700,1,0,0:0:0:0:
256,192,70850,1,6,0:0:0:0:
256,192,71150,1,0,0:0:0:0:
200,184,71300,1,6,0:0:0:0:
256,192,71500,1,0,0:0:0:0:
256,192,71600,1,2,0:0:0:0:
256,192,71750,1,2,0:0:0:0:
216,232,71900,1,0,0:0:0:0:
256,192,72200,1,2,0:0:0:0:
256,192,72500,1,0,0:0:0:0:
256,192,72650,1,0,0:0:0:0:
280,176,72725,1,0,0:0:0:0:
304,160,72800,1,6,0:0:0:0:
256,192,72950,1,6,0:0:0:0:
280,176,73100,1,0,0:0:0:0:
256,192,73250,1,2,0:0:0:0:
256,192,73325,1,0,0:0:0:0:
256,192,73400,1,2,0:0:0:0:
256,192,73550,1,2,0:0:0:0:
256,192,73625,1,0,0:0:0:0:
256,192,73700,1,0,0:0:0:0:
256,192,73775,1,0,0:0:0:0:
256,192,73850,1,2,0:0:0:0:
256,192,74000,1,0,0:0:0:0:
248,160,74075,1,0,0:0:0:0:
248,160,74150,1,2,0:0:0:0:
248,160,74300,1,2,0:0:0:0:
248,160,74450,1,6,0:0:0:0:
248,160,74600,1,0,0:0:0:0:
248,160,74750,1,2,0:0:0:0:
248,160,74900,1,6,0:0:0:0:
248,160,75050,1,0,0:0:0:0:
264,216,75200,1,6,0:0:0:0:
248,160,75350,1,0,0:0:0:0:
264,248,75500,1,6,0:0:0:0:
256,192,75650,1,0,0:0:0:0:
256,192,75725,1,0,0:0:0:0:
232,176,75800,1,2,0:0:0:0:
256,192,75950,1,0,0:0:0:0:
256,192,76025,1,0,0:0:0:0:
256,192,76100,1,2,0:0:0:0:
256,192,76175,1,2,0:0:0:0:
256,192,76250,1,2,0:0:0:0:
256,192,76325,1,2,0:0:0:0:
256,192,76400,1,0,0:0:0:0:
256,192,76475,1,0,0:0:0:0:
256,192,76550,1,2,0:0:0:0:
312,184,76700,1,4,0:0:0:0:
256,192,77000,1,0,0:0:0:0:
256,192,77150,1,0,0:0:0:0:
256,192,77300,1,2,0:0:0:0:
256,192,77525,1,0,0:0:0:0:
256,192,77600,1,0,0:0:0:0:
256,192,77750,1,2,0:0:0:0:
256,192,77900,1,0,0:0:0:0:
256,192,78050,1,2,0:0:0:0:
256,192,78200,1,0,0:0:0:0:
256,192,78350,1,0,0:0:0:0:
256,192,78500,1,2,0:0:0:0:
256,192,78800,1,0,0:0:0:0:
256,192,78950,1,2,0:0:0:0:
256,192,79100,1,0,0:0:0:0:
256,192,79400,1,0,0:0:0:0:
256,192,79550,1,0,0:0:0:0:
256,192,79700,1,2,0:0:0:0:
256,192,80000,1,0,0:0:0:0:
256,192,80150,1,2,0:0:0:0:
256,192,80300,1,0,0:0:0:0:
256,192,80450,1,2,0:0:0:0:
256,192,80500,1,0,0:0:0:0:
256,192,80550,1,0,0:0:0:0:
256,192,80600,1,2,0:0:0:0:
256,192,80750,1,0,0:0:0:0:
256,192,80900,1,2,0:0:0:0:
256,192,80975,1,0,0:0:0:0:
256,192,81050,1,0,0:0:0:0:
256,192,81125,1,0,0:0:0:0:
256,192,81200,1,2,0:0:0:0:
256,192,81250,1,2,0:0:0:0:
256,192,81300,1,0,0:0:0:0:
256,192,81350,1,2,0:0:0:0:
256,192,81400,1,2,0:0:0:0:
256,192,81450,1,2,0:0:0:0:
256,192,81500,1,0,0:0:0:0:
256,192,81800,1,0,0:0:0:0:
280,72,82100,1,2,0:0:0:0:
256,192,82400,1,0,0:0:0:0:
256,192,82550,1,2,0:0:0:0:
256,192,82700,1,0,0:0:0:0:
256,192,82850,1,2,0:0:0:0:
256,192,83000,1,0,0:0:0:0:
256,192,83300,1,2,0:0:0:0:
256,192,83600,1,0,0:0:0:0:
256,192,83750,1,2,0:0:0:0:
256,192,83825,1,2,0:0:0:0:
256,192,83900,1,0,0:0:0:0:
376,216,84200,1,2,0:0:0:0:
320,200,84350,1,0,0:0:0:0:
264,192,84500,1,0,0:0:0:0:
256,192,84800,1,0,0:0:0:0:
264,192,84950,1,2,0:0:0:0:
264,192,85100,1,0,0:0:0:0:
264,192,85250,1,2,0:0:0:0:
264,192,85400,1,2,0:0:0:0:
296,240,85550,1,0,0:0:0:0:
256,192,85700,1,2,0:0:0:0:
256,192,85750,1,2,0:0:0:0:
256,192,85800,1,2,0:0:0:0:
256,192,85850,1,0,0:0:0:0:
264,192,85925,1,0,0:0:0:0:
264,192,86000,1,2,0:0:0:0:
264,192,86050,1,2,0:0:0:0:
264,192,86100,1,0,0:0:0:0:
264,192,86150,1,0,0:0:0:0:
248,136,86300,1,0,0:0:0:0:
280,248,86600,1,2,0:0:0:0:
256,192,86750,1,0,0:0:0:0:
272,216,86825,1,0,0:0:0:0:
280,248,86900,1,0,0:0:0:0:
272,216,87050,1,0,0:0:0:0:
272,216,87200,1,2,0:0:0:0:
272,216,87500,1,0,0:0:0:0:
272,216,87650,1,0,0:0:0:0:
272,216,87800,1,2,0:0:0:0:
272,216,87950,1,2,0:0:0:0:
248,200,88025,1,2,0:0:0:0:
248,200,88100,1,0,0:0:0:0:
272,216,88250,1,0,0:0:0:0:
248,200,88400,1,2,0:0:0:0:
248,200,88550,1,2,0:0:0:0:
248,200,88700,1,4,0:0:0:0:
360,160,89000,1,0,0:0:0:0:
304,160,89150,1,0,0:0:0:0:
248,168,89300,1,6,0:0:0:0:
248,200,89600,1,2,0:0:0:0:
248,200,89750,1,0,0:0:0:0:
248,200,89900,1,6,0:0:0:0:
248,200,90050,1,0,0:0:0:0:
248,200,90125,1,0,0:0:0:0:
248,200,90200,1,2,0:0:0:0:
248,200,90350,1,6,0:0:0:0:
248,200,90650,1,2,0:0:0:0:
248,200,90725,1,2,0:0:0:0:
248,200,90800,1,2,0:0:0:0:
248,200,90875,1,0,0:0:0:0:
248,200,90950,1,0,0:0:0:0:
248,200,91025,1,0,0:0:0:0:
248,200,91100,1,2,0:0:0:0:
248,200,91400,1,2,0:0:0:0:
248,200,91550,1,0,0:0:0:0:
248,200,91700,1,0,0:0:0:0:
248,200,92000,1,6,0:0:0:0:
248,200,92150,1,0,0:0:0:0:
192,192,92300,1,0,0:0:0:0:
192,192,92450,1,6,0:0:0:0:
192,192,92600,1,0,0:0:0:0:
192,192,92750,1,0,0:0:0:0:
192,192,92900,1,6,0:0:0:0:
192,192,93200,1,0,0:0:0:0:
312,176,93500,1,6,0:0:0:0:
192,192,93800,1,2,0:0:0:0:
248,176,93950,1,2,0:0:0:0:
192,200,94100,1,0,0:0:0:0:
248,176,94400,1,2,0:0:0:0:
248,176,94550,1,0,0:0:0:0:
248,176,94700,1,6,0:0:0:0:
248,176,94850,1,0,0:0:0:0:
248,176,95000,1,0,0:0:0:0:
248,176,95150,1,2,0:0:0:0:
248,176,95300,1,2,0:0:0:0:
248,176,95375,1,2,0:0:0:0:
248,176,95450,1,0,0:0:0:0:
248,176,95525,1,0,0:0:0:0:
248,176,95600,1,2,0:0:0:0:
248,176,95675,1,0,0:0:0:0:
248,176,95750,1,2,0:0:0:0:
248,176,95825,1,2,0:0:0:0:
248,176,95900,1,0,0:0:0:0:
288,168,96000,1,2,0:0:0:0:
288,168,96100,1,2,0:0:0:0:
288,168,96200,1,0,0:0:0:0:
248,176,96300,1,2,0:0:0:0:
264,208,96400,1,2,0:0:0:0:
264,208,96500,1,0,0:0:0:0:
248,176,96600,1,0,0:0:0:0:
248,176,96700,1,2,0:0:0:0:
248,176,96800,1,0,0:0:0:0:
248,176,96900,1,2,0:0:0:0:
264,184,97000,1,2,0:0:0:0:
264,184,97100,1,0,0:0:0:0:
248,176,97200,1,0,0:0:0:0:
264,184,97300,1,2,0:0:0:0:
248,176,97400,1,0,0:0:0:0:
272,176,97450,1,0,0:0:0:0:
248,176,97500,1,0,0:0:0:0:
248,176,97600,1,0,0:0:0:0:
248,176,97700,1,2,0:0:0:0:
245,189,97750,1,2,0:0:0:0:
264,136,97800,1,2,0:0:0:0:
248,176,97900,1,2,0:0:0:0:
248,176,98000,1,0,0:0:0:0:
264,184,98100,1,0,0:0:0:0:
248,176,98200,1,2,0:0:0:0:
248,176,98300,1,0,0:0:0:0:
248,184,98375,1,0,0:0:0:0:
248,192,98450,1,2,0:0:0:0:
248,192,98525,1,0,0:0:0:0:
248,192,98600,1,2,0:0:0:0:
248,192,98675,1,2,0:0:0:0:
245,189,98750,1,0,0:0:0:0:
248,192,98825,1,0,0:0:0:0:
248,184,98900,1,2,0:0:0:0:
248,184,98975,1,0,0:0:0:0:
264,184,99050,1,2,0:0:0:0:
264,184,99125,1,2,0:0:0:0:
264,184,99200,1,0,0:0:0:0:
264,200,99275,1,0,0:0:0:0:
264,200,99350,1,2,0:0:0:0:
264,200,99425,1,0,0:0:0:0:
264,200,99500,1,2,0:0:0:0:
256,184,99575,1,2,0:0:0:0:
256,184,99650,1,2,0:0:0:0:
256,184,99725,1,0,0:0:0:0:
256,184,99800,1,2,0:0:0:0:
256,184,99875,1,2,0:0:0:0:
256,184,99950,1,0,0:0:0:0:
256,184,100025,1,0,0:0:0:0:
256,184,100100,1,2,0:0:0:0:
256,184,100175,1,2,0:0:0:0:
256,184,100250,1,0,0:0:0:0:
256,192,100325,1,0,0:0:0:0:
256,184,100400,1,2,0:0:0:0:
256,184,100500,1,2,0:0:0:0:
256,184,100600,1,0,0:0:0:0:
256,184,100700,1,2,0:0:0:0:
256,184,100775,1,2,0:0:0:0:
256,184,100850,1,2,0:0:0:0:
256,184,100925,1,2,0:0:0:0:
256,184,101000,1,0,0:0:0:0:
256,184,101075,1,0,0:0:0:0:
256,184,101150,1,2,0:0:0:0:
256,184,101225,1,2,0:0:0:0:
256,184,101300,1,0,0:0:0:0:
256,184,101375,1,0,0:0:0:0:
264,184,101450,1,2,0:0:0:0:
264,184,101525,1,0,0:0:0:0:
264,184,101600,1,2,0:0:0:0:
264,184,101675,1,0,0:0:0:0:
264,184,101750,1,2,0:0:0:0:
264,184,101825,1,2,0:0:0:0:
264,184,101900,1,0,0:0:0:0:
264,184,101975,1,0,0:0:0:0:
288,160,102050,1,0,0:0:0:0:
288,160,102125,1,0,0:0:0:0:
256,176,102200,1,2,0:0:0:0:
256,176,102275,1,0,0:0:0:0:
256,176,102350,1,0,0:0:0:0:
256,176,102425,1,0,0:0:0:0:
256,176,102500,1,2,0:0:0:0:
256,176,102575,1,2,0:0:0:0:
248,176,102650,1,0,0:0:0:0:
248,176,102725,1,2,0:0:0:0:
264,176,102800,1,2,0:0:0:0:
264,176,102875,1,0,0:0:0:0:
256,168,102950,1,2,0:0:0:0:
256,168,103025,1,0,0:0:0:0:
256,176,103100,1,2,0:0:0:0:
256,176,103150,1,2,0:0:0:0:
256,176,103200,1,2,0:0:0:0:
232,160,103300,1,0,0:0:0:0:
248,168,103400,1,2,0:0:0:0:
248,168,103500,1,2,0:0:0:0:
248,184,103600,1,0,0:0:0:0:
248,184,103700,1,2,0:0:0:0:
248,184,103750,1,2,0:0:0:0:
248,184,103800,1,2,0:0:0:0:
264,192,103900,1,0,0:0:0:0:
248,192,104000,1,0,0:0:0:0:
248,192,104100,1,2,0:0:0:0:
248,192,104200,1,0,0:0:0:0:
264,192,104300,1,2,0:0:0:0:
256,184,104375,1,2,0:0:0:0:
256,184,104450,1,0,0:0:0:0:
256,184,104525,1,0,0:0:0:0:
256,184,104600,1,2,0:0:0:0:
256,184,104675,1,2,0:0:0:0:
256,184,104750,5,0,0:0:0:0:
248,184,104825,1,0,0:0:0:0:
256,176,104900,1,2,0:0:0:0:
264,176,104950,1,2,0:0:0:0:
256,184,105000,1,2,0:0:0:0:
256,184,105050,1,0,0:0:0:0:
248,192,105125,1,0,0:0:0:0:
248,176,105200,1,2,0:0:0:0:
248,176,105250,1,0,0:0:0:0:
248,176,105300,1,0,0:0:0:0:
224,176,105350,1,2,0:0:0:0:
224,176,105400,1,0,0:0:0:0:
248,176,105450,1,0,0:0:0:0:
248,160,105500,1,2,0:0:0:0:
256,192,105950,5,2,0:0:0:0:
256,192,106050,1,2,0:0:0:0:
256,192,106150,1,0,0:0:0:0:
256,192,106250,1,2,0:0:0:0:
256,192,106350,1,0,0:0:0:0:
256,192,106475,12,0,107775,0:0:0:0:
256,200,107900,5,0,0:0:0:0:
256,192,108090,1,0,0:0:0:0:
256,192,108186,1,2,0:0:0:0:
256,192,108376,1,2,0:0:0:0:
256,192,108471,1,0,0:0:0:0:
256,200,108661,1,0,0:0:0:0:
248,208,108852,1,2,0:0:0:0:
256,192,109042,1,2,0:0:0:0:
256,192,109114,1,0,0:0:0:0:
256,192,109185,1,2,0:0:0:0:
256,192,109257,1,2,0:0:0:0:
256,192,109328,1,0,0:0:0:0:
264,208,109471,1,2,0:0:0:0:
256,192,109519,1,2,0:0:0:0:
256,192,109566,1,2,0:0:0:0:
256,192,109614,1,0,0:0:0:0:
256,200,109757,1,2,0:0:0:0:
256,192,109852,1,2,0:0:0:0:
248,176,109947,1,0,0:0:0:0:
256,176,110042,1,0,0:0:0:0:
256,176,110138,1,2,0:0:0:0:
256,184,110376,1,0,0:0:0:0:
256,184,110471,1,2,0:0:0:0:
264,208,110614,1,0,0:0:0:0:
248,216,110757,1,2,0:0:0:0:
256,184,110947,1,2,0:0:0:0:
232,184,111042,1,0,0:0:0:0:
264,192,111114,1,2,0:0:0:0:
264,216,111185,1,2,0:0:0:0:
240,208,111257,1,2,0:0:0:0:
264,192,111328,1,0,0:0:0:0:
232,160,111376,1,0,0:0:0:0:
232,160,111423,1,0,0:0:0:0:
232,160,111519,1,2,0:0:0:0:
232,192,111614,1,0,0:0:0:0:
248,192,111709,1,0,0:0:0:0:
248,192,111804,1,0,0:0:0:0:
248,176,111900,1,2,0:0:0:0:
248,176,111995,1,0,0:0:0:0:
248,176,112090,1,2,0:0:0:0:
248,176,112185,1,2,0:0:0:0:
240,176,112280,1,0,0:0:0:0:
240,176,112376,1,2,0:0:0:0:
256,184,112471,1,0,0:0:0:0:
256,184,112516,1,0,0:0:0:0:
256,184,112561,1,0,0:0:0:0:
256,184,112652,1,0,0:0:0:0:
256,184,112743,1,0,0:0:0:0:
256,184,112834,1,2,0:0:0:0:
256,192,112925,1,0,0:0:0:0:
256,192,113016,1,6,0:0:0:0:
256,192,113198,1,6,0:0:0:0:
256,192,113380,1,6,0:0:0:0:
256,192,113561,1,0,0:0:0:0:
256,192,113652,1,2,0:0:0:0:
256,192,113743,1,0,0:0:0:0:
256,200,113834,1,2,0:0:0:0:
240,192,113902,1,0,0:0:0:0:
240,192,113971,1,0,0:0:0:0:
240,192,114039,1,2,0:0:0:0:
240,192,114107,1,0,0:0:0:0:
240,192,114243,1,0,0:0:0:0:
240,192,114380,1,2,0:0:0:0:
240,192,114516,1,2,0:0:0:0:
240,200,114652,1,0,0:0:0:0:
240,192,114721,1,0,0:0:0:0:
240,192,114789,1,2,0:0:0:0:
272,208,114857,1,2,0:0:0:0:
264,208,114925,1,0,0:0:0:0:
264,208,114993,1,0,0:0:0:0:
264,208,115061,1,2,0:0:0:0:
264,208,115130,1,0,0:0:0:0:
264,208,115198,1,0,0:0:0:0:
264,208,115266,1,0,0:0:0:0:
264,208,115334,1,2,0:0:0:0:
264,208,115402,1,0,0:0:0:0:
264,208,115471,1,0,0:0:0:0:
272,184,115539,1,0,0:0:0:0:
272,184,115607,1,2,0:0:0:0:
256,192,115743,1,0,0:0:0:0:
272,208,115789,1,0,0:0:0:0:
272,208,115834,1,0,0:0:0:0:
256,184,115925,1,2,0:0:0:0:
288,192,116016,1,0,0:0:0:0:
240,208,116107,1,0,0:0:0:0:
240,208,116198,1,2,0:0:0:0:
248,184,116289,1,2,0:0:0:0:
256,192,116380,1,2,0:0:0:0:
256,192,116471,1,0,0:0:0:0:
256,192,116561,1,2,0:0:0:0:
256,192,116652,1,0,0:0:0:0:
272,208,116743,1,2,0:0:0:0:
256,192,116834,1,0,0:0:0:0:
240,192,117007,1,0,0:0:0:0:
256,192,117094,1,2,0:0:0:0:
256,192,117268,1,2,0:0:0:0:
256,200,117355,1,0,0:0:0:0:
248,192,117529,1,2,0:0:0:0:
248,192,117703,1,0,0:0:0:0:
248,192,117877,1,0,0:0:0:0:
256,184,117942,1,2,0:0:0:0:
248,184,118007,1,2,0:0:0:0:
248,192,118073,1,2,0:0:0:0:
248,192,118138,1,0,0:0:0:0:
256,192,118225,1,2,0:0:0:0:
208,192,118268,1,2,0:0:0:0:
256,192,118312,1,2,0:0:0:0:
224,184,118399,1,0,0:0:0:0:
224,192,118486,1,2,0:0:0:0:
272,176,118660,1,2,0:0:0:0:
248,184,118834,1,0,0:0:0:0:
248,192,119007,1,2,0:0:0:0:
248,192,119094,1,0,0:0:0:0:
264,184,119181,1,2,0:0:0:0:
256,192,119268,1,2,0:0:0:0:
256,192,119355,1,0,0:0:0:0:
256,192,119442,1,0,0:0:0:0:
240,176,119529,1,0,0:0:0:0:
264,208,119573,1,0,0:0:0:0:
256,192,119616,1,0,0:0:0:0:
256,184,119703,1,2,0:0:0:0:
264,176,119790,1,2,0:0:0:0:
256,184,119877,1,0,0:0:0:0:
256,184,119964,1,2,0:0:0:0:
256,192,120051,1,2,0:0:0:0:
288,152,120138,1,0,0:0:0:0:
264,168,120225,1,2,0:0:0:0:
264,168,120312,1,2,0:0:0:0:
256,176,120399,1,0,0:0:0:0:
256,176,120486,1,2,0:0:0:0:
248,184,120573,1,2,0:0:0:0:
264,176,120660,1,2,0:0:0:0:
264,176,120747,1,0,0:0:0:0:
264,176,120834,1,2,0:0:0:0:
264,176,120920,1,2,0:0:0:0:
264,176,121007,1,0,0:0:0:0:
256,184,121090,1,0,0:0:0:0:
256,184,121173,1,0,0:0:0:0:
272,168,121257,1,2,0:0:0:0:
280,168,121340,1,0,0:0:0:0:
264,176,121423,1,0,0:0:0:0:
264,176,121507,1,6,0:0:0:0:
256,192,121673,1,6,0:0:0:0:
256,192,121840,1,2,0:0:0:0:
256,176,122007,1,2,0:0:0:0:
256,176,122048,1,2,0:0:0:0:
256,184,122090,1,2,0:0:0:0:
256,184,122173,1,0,0:0:0:0:
256,176,122257,1,0,0:0:0:0:
256,176,122340,1,2,0:0:0:0:
256,176,122423,1,0,0:0:0:0:
256,176,122507,1,2,0:0:0:0:
256,184,122590,1,2,0:0:0:0:
256,184,122673,1,0,0:0:0:0:
256,184,122757,1,0,0:0:0:0:
256,152,122840,1,2,0:0:0:0:
272,168,122923,1,0,0:0:0:0:
272,168,123007,1,2,0:0:0:0:
256,168,123048,1,0,0:0:0:0:
272,160,123090,1,2,0:0:0:0:
272,160,123173,1,0,0:0:0:0:
272,160,123257,1,2,0:0:0:0:
272,160,123340,1,0,0:0:0:0:
272,160,123423,1,0,0:0:0:0:
272,160,123507,1,2,0:0:0:0:
272,160,123590,1,0,0:0:0:0:
272,160,123673,1,0,0:0:0:0:
272,160,123757,1,2,0:0:0:0:
272,160,123840,1,2,0:0:0:0:
272,168,123923,1,2,0:0:0:0:
272,168,124007,1,0,0:0:0:0:
264,184,124048,1,0,0:0:0:0:
264,184,124090,1,0,0:0:0:0:
264,184,124173,1,2,0:0:0:0:
264,184,124257,1,0,0:0:0:0:
264,184,124340,1,0,0:0:0:0:
264,184,124423,1,2,0:0:0:0:
264,184,124507,1,0,0:0:0:0:
248,208,124590,1,2,0:0:0:0:
256,200,124673,1,2,0:0:0:0:
256,200,124757,1,0,0:0:0:0:
256,200,124840,1,2,0:0:0:0:
256,200,124923,1,0,0:0:0:0:
264,184,125007,1,2,0:0:0:0:
256,192,125087,1,2,0:0:0:0:
256,200,125167,1,0,0:0:0:0:
256,200,125247,1,0,0:0:0:0:
256,200,125327,1,0,0:0:0:0:
256,200,125407,1,0,0:0:0:0:
256,200,125487,1,2,0:0:0:0:
256,200,125567,1,0,0:0:0:0:
256,200,125647,1,2,0:0:0:0:
256,200,125727,1,2,0:0:0:0:
248,184,125807,1,0,0:0:0:0:
248,184,125887,1,2,0:0:0:0:
256,192,125967,12,2,129807,0:0:0:0:
