osu file format v14

[General]
AudioFilename: FlowertoneShort.mp3
AudioLeadIn: 0
PreviewTime: 130540
Countdown: 0
SampleSet: Normal
StackLeniency: 0.7
Mode: 0
LetterboxInBreaks: 1
WidescreenStoryboard: 1

[Editor]
Bookmarks: 64459
DistanceSpacing: 1
BeatDivisor: 4
GridSize: 4
TimelineZoom: 2.199999

[Metadata]
Title:Flowertone Short ver.
TitleUnicode:Flowertone Short ver.
Artist:Hatsune Miku
ArtistUnicode:Hatsune Miku
Creator:GfMRT
Version:CK68th25 - Hard
Source:Flowertone
Tags:Kofun P
BeatmapID:1529708
BeatmapSetID:185802

[Difficulty]
HPDrainRate:5
CircleSize:4
OverallDifficulty:5
ApproachRate:8
SliderMultiplier:1.80000000596047
SliderTickRate:1

[Events]
//Background and Video events
0,0,"Flowertone.jpg",0,0
//Break Periods
2,40740,46277
2,47227,47898
2,103983,104655
2,105605,117628
//Storyboard Layer 0 (Background)
//Storyboard Layer 1 (Fail)
//Storyboard Layer 2 (Pass)
//Storyboard Layer 3 (Foreground)
//Storyboard Sound Samples

[TimingPoints]
0,405.405405405405,4,1,0,60,1,0
0,-100,4,1,0,60,0,0
53716,-100,4,2,0,60,0,0
58378,-76.9230769230769,4,2,0,60,0,0
58986,-100,4,2,0,60,0,0
66081,-90.9090909090909,4,1,0,60,0,0
79459,-133.333333333333,4,2,0,60,0,0
84324,-100,4,2,0,60,0,0
98918,-100,4,2,0,60,0,0
103783,-100,4,1,0,60,0,0
128918,-66.6666666666667,4,1,0,60,0,0
131351,-100,4,1,0,60,0,1
157297,-100,4,1,0,60,0,0

[Colours]
Combo1 : 0,64,128
Combo2 : 0,128,255
Combo3 : 128,255,255
Combo4 : 192,192,192

[HitObjects]
256,192,25945,12,0,27162,0:0:0:0:
104,100,27567,5,0,0:0:0:0:
244,136,27972,1,0,0:0:0:0:
140,236,28378,1,0,0:0:0:0:
12,304,28783,2,0,P|44:336|108:352,1,90.0000002980235
192,324,29189,1,0,0:0:0:0:
336,240,29594,6,0,P|384:224|432:240,1,90.0000002980235
288,160,29999,2,0,P|320:112|384:112,1,90.0000002980235
192,144,30405,2,0,P|192:96|224:64,1,90.0000002980235
128,80,30810,5,0,0:0:0:0:
128,224,31013,1,0,0:0:0:0:
208,128,31216,1,0,0:0:0:0:
208,272,31418,1,0,0:0:0:0:
288,176,31621,1,0,0:0:0:0:
288,304,31824,1,0,0:0:0:0:
368,224,32027,1,0,0:0:0:0:
368,336,32229,6,0,P|432:288|432:240,1,90.0000002980235
448,208,32635,1,0,0:0:0:0:
432,112,32837,1,0,0:0:0:0:
415,95,32939,1,0,0:0:0:0:
395,86,33040,1,0,0:0:0:0:
304,80,33243,2,0,P|336:112|320:176,1,90.0000002980235
248,144,33648,1,0,0:0:0:0:
193,218,34054,6,0,P|162:291|174:321,1,90.0000002980235,0|0,0:0|0:0,0:0:0:0:
80,208,34459,2,0,P|49:281|61:311,1,90.0000002980235
64,72,34864,2,0,P|63:125|102:161,1,90.0000002980235
233,126,35270,2,0,L|154:60,2,90.0000002980235,0|0|0,0:0|0:0|0:0,0:0:0:0:
54,257,36081,5,0,0:0:0:0:
224,316,36486,5,0,0:0:0:0:
320,164,36891,5,0,0:0:0:0:
400,232,37297,6,0,L|400:131,1,90.0000002980235
184,144,37702,2,0,L|184:245,1,90.0000002980235
292,232,38108,2,0,L|292:132,1,90.0000002980235
76,144,38513,2,0,L|76:245,1,90.0000002980235
132,92,38918,5,0,0:0:0:0:
276,40,39121,1,0,0:0:0:0:
236,188,39324,2,0,P|212:240|180:248,1,90.0000002980235
80,272,39729,2,0,P|36:204|48:172,1,90.0000002980235
104,128,40135,2,0,B|144:100|144:100|208:152,1,90.0000002980235
256,192,40540,5,0,0:0:0:0:
384,276,47027,5,0,0:0:0:0:
176,228,48648,5,0,0:0:0:0:
304,104,49459,5,0,0:0:0:0:
304,280,49864,1,0,0:0:0:0:
112,304,50270,6,0,L|224:304,1,90.0000002980235
200,268,50675,2,0,L|92:244,1,90.0000002980235
120,212,51080,2,0,L|224:164,1,90.0000002980235
200,140,51486,2,0,L|112:72,1,90.0000002980235
128,48,51891,6,0,L|248:48,2,90.0000002980235
308,48,52702,1,0,0:0:0:0:
260,240,53108,1,0,0:0:0:0:
160,64,53513,5,0,0:0:0:0:
100,132,53716,2,0,P|84:212|148:308,1,180.000000596047
308,268,54527,2,0,P|324:188|260:92,1,180.000000596047
204,204,55337,1,0,0:0:0:0:
364,284,55743,5,0,0:0:0:0:
276,292,55945,2,0,P|232:320|164:312,1,90.0000002980235
168,288,56249,2,0,P|124:316|56:308,1,90.0000002980235
60,280,56554,1,0,0:0:0:0:
60,192,56756,6,0,P|92:144|140:144,1,90.0000002980235
200,96,57162,1,0,0:0:0:0:
196,184,57364,1,0,0:0:0:0:
116,228,57567,6,0,P|148:276|196:276,1,90.0000002980235
256,324,57973,1,0,0:0:0:0:
252,236,58175,1,0,0:0:0:0:
364,272,58378,2,0,P|412:151|320:53,1,233.999990063192
260,72,58986,5,0,0:0:0:0:
168,72,59189,2,0,B|148:60|148:60|136:88|136:88|100:52|52:92,1,135.000000447035
48,112,59594,1,0,0:0:0:0:
108,180,59797,5,0,0:0:0:0:
160,108,59999,2,0,B|208:100|272:112|304:132|340:188|296:256|248:276|196:284|140:260,1,360.000001192094
68,280,61013,2,0,P|100:228|96:176,1,90.0000002980235
180,184,61418,2,0,L|328:184,1,135.000000447035
328,184,61824,2,0,L|476:184,1,135.000000447035
508,184,62229,5,0,0:0:0:0:
428,224,62432,2,0,L|280:224,2,135.000000447035
352,176,63243,5,0,0:0:0:0:
420,120,63445,2,0,L|496:120,2,45.0000001490117
344,72,63851,2,0,L|272:72,2,45.0000001490117
340,164,64256,1,0,0:0:0:0:
260,208,64459,1,0,0:0:0:0:
340,252,64662,1,0,0:0:0:0:
352,160,64864,6,0,B|330:119|305:105|279:93|248:90|223:89|190:114|202:132|154:155|142:194|162:219|191:255|231:294|280:277|318:255|339:215|347:173|340:137|297:116|256:112|218:130|222:189|258:192|227:180|266:192,1,540.000001788141
140,118,66486,5,0,0:0:0:0:
60,196,66689,2,0,B|52:236|68:272|108:264|140:228,1,99.0000033490662
204,216,67094,2,0,B|196:256|212:292|252:284|284:248,1,99.0000033490662
348,236,67499,2,0,B|340:276|356:312|396:304|428:268,1,99.0000033490662
488,248,67905,2,0,B|528:196|512:130|464:92,1,148.500005023599
468,96,68310,1,0,0:0:0:0:
380,52,68513,1,0,0:0:0:0:
352,148,68716,5,0,0:0:0:0:
260,112,68918,2,0,P|160:80|116:32,2,148.500005023599
344,60,69729,6,0,B|376:120|376:120|312:120|312:120|360:200,2,198.000006698132
248,40,70743,2,0,L|112:68,1,99.0000033490662
56,8,71148,2,0,L|-16:120,1,99.0000033490662
28,196,71554,1,0,0:0:0:0:
128,240,71756,1,0,0:0:0:0:
232,212,71959,6,0,P|232:244|192:268,1,49.5000016745331
232,292,72162,2,0,B|280:292|312:260|316:216,1,99.0000033490662
332,268,72466,2,0,B|380:268|412:236|416:192,1,99.0000033490662
416,180,72770,1,0,0:0:0:0:
360,88,72972,6,0,B|344:76|328:88|328:88|312:76|296:88|296:88|280:76|264:88|264:88|248:76|232:88|232:88|216:76|192:80,2,148.500005023599
300,180,73783,6,0,B|316:168|332:180|332:180|348:168|364:180|364:180|380:168|396:180|396:180|412:168|428:180|428:180|444:168|468:172,2,148.500005023599
360,272,74594,6,0,P|336:288|288:280,4,49.5000016745331
264,292,75202,1,0,0:0:0:0:
164,292,75405,6,0,P|117:182|136:128,1,148.500005023599
156,124,75810,1,0,0:0:0:0:
240,72,76013,1,0,0:0:0:0:
340,60,76216,6,0,P|387:119|372:176,1,99.0000033490662
288,144,76621,1,0,0:0:0:0:
236,228,76824,2,0,P|189:169|204:112,1,99.0000033490662
288,144,77229,1,0,0:0:0:0:
340,60,77432,6,0,P|387:119|372:176,1,99.0000033490662
268,240,77837,6,0,P|221:181|236:124,1,99.0000033490662
320,156,78242,1,0,0:0:0:0:
372,72,78445,2,0,P|419:131|404:188,1,99.0000033490662
320,156,78850,1,0,0:0:0:0:
268,240,79054,5,0,0:0:0:0:
308,332,79256,1,0,0:0:0:0:
208,320,79459,6,0,B|296:280|136:252|136:252,1,135.000005596877
84,248,80067,2,0,B|-4:208|160:180|160:180,1,135.000005596877
204,152,80675,2,0,L|144:112,1,67.5000027984384
88,84,81081,6,0,B|116:48|116:48|144:64|160:32|160:32|204:40,2,135.000005596877
80,288,82297,5,0,0:0:0:0:
148,296,82499,1,0,0:0:0:0:
204,260,82702,2,0,P|126:179|136:164,1,135.000005596877
188,204,83310,2,0,P|110:123|120:108,1,135.000005596877
172,144,83918,2,0,B|180:112|179:107|139:91,1,67.5000027984384
64,56,84324,6,0,B|88:112|128:52|128:52|156:112|192:52|192:52|200:40,1,180.000000596047
280,56,85135,1,0,0:0:0:0:
156,24,85540,2,0,L|112:104,1,90.0000002980235
32,60,85945,6,0,P|-1:134|5:146,1,90.0000002980235
0,224,86351,1,0,0:0:0:0:
52,300,86554,2,0,P|85:226|79:214,1,90.0000002980235
76,136,86959,1,0,0:0:0:0:
160,168,87162,2,0,L|268:192,1,90.0000002980235
316,128,87567,6,0,P|198:130|146:195,1,180.000000596047
318,176,88378,2,0,P|202:200|146:152,1,180.000000596047
248,80,89189,2,0,B|232:92|232:92|264:80|264:80|248:96|240:120|240:120|268:112|268:112|252:132|276:168,2,180.000000596047
452,28,90405,2,0,L|472:120,1,90.0000002980235
200,224,91621,6,0,P|174:313|79:344,1,180.000000596047
182,295,92432,6,0,P|208:206|303:175,1,180.000000596047,0|0,0:0|0:0,0:0:0:0:
208,124,93040,2,0,B|262:29|262:29|339:186,1,270.00000089407
264,228,93851,1,0,0:0:0:0:
164,228,94054,6,0,B|260:164|260:164|356:308|468:212,1,360.000001192094
284,256,95270,5,0,0:0:0:0:
284,256,95472,1,0,0:0:0:0:
196,264,95675,2,0,P|212:184|360:224,1,270.00000089407
340,296,96486,2,0,P|328:344|276:288,2,135.000000447035
336,216,97297,6,0,L|152:276,1,180.000000596047
152,220,98108,2,0,L|152:112,1,90.0000002980235
212,220,98513,6,0,L|212:112,1,90.0000002980235
92,176,98918,2,0,L|287:179,1,180.000000596047
304,92,99527,1,0,0:0:0:0:
360,24,99729,2,0,L|296:44,2,45.0000001490117
416,60,100135,1,0,0:0:0:0:
380,200,100540,6,0,L|316:220,4,45.0000001490117
196,328,101351,6,0,L|260:348,4,45.0000001490117
168,176,102162,1,0,0:0:0:0:
256,192,102567,12,0,103783,0:0:0:0:
256,192,105405,5,0,0:0:0:0:
191,152,118378,5,0,0:0:0:0:
104,236,118783,2,0,P|183:279|270:236,1,180.000000596047
201,143,119594,6,0,L|264:88,2,45.0000001490117
117,224,119999,2,0,P|196:267|283:224,1,180.000000596047
213,135,120810,5,0,0:0:0:0:
389,232,121216,1,0,0:0:0:0:
456,316,121418,1,0,0:0:0:0:
352,344,121621,2,0,B|332:312|332:312|316:336|316:336|348:336,1,90.0000002980235
394,291,122027,6,0,L|392:184,1,90.0000002980235
478,210,122432,2,0,P|399:167|312:210,1,180.000000596047
381,281,123243,6,0,L|332:324,2,45.0000001490117
465,200,123648,2,0,P|386:157|299:200,1,180.000000596047
392,78,124459,1,0,0:0:0:0:
160,112,124864,5,0,0:0:0:0:
112,168,125067,1,0,0:0:0:0:
164,216,125270,1,0,0:0:0:0:
212,164,125472,1,0,0:0:0:0:
123,72,125675,5,0,0:0:0:0:
82,201,125878,1,0,0:0:0:0:
206,241,126081,2,0,P|300:220|312:208,1,90.0000002980235
392,165,126486,5,0,0:0:0:0:
397,153,126588,1,0,0:0:0:0:
393,141,126689,1,0,0:0:0:0:
387,130,126790,1,0,0:0:0:0:
380,124,126891,2,0,L|284:200,1,90.0000002980235
417,232,127297,6,0,L|364:132,1,90.0000002980235
344,56,127703,1,0,0:0:0:0:
276,148,127905,1,0,0:0:0:0:
244,48,128108,5,0,0:0:0:0:
140,80,128310,1,0,0:0:0:0:
92,176,128513,1,0,0:0:0:0:
204,148,128716,1,0,0:0:0:0:
302,134,128918,6,0,L|141:255,1,135.000005596877
179,235,129222,1,0,0:0:0:0:
164,252,129324,2,0,L|325:131,1,135.000005596877,0|0,0:0|0:0,0:0:0:0:
368,201,129729,6,0,L|248:288,1,135.000005596877
244,308,130135,2,0,L|360:224,1,135.000005596877
432,272,130540,6,0,L|271:393,1,135.000005596877
302,361,130844,1,0,0:0:0:0:
279,367,130946,2,0,L|440:246,1,135.000005596877,0|0,0:0|0:0,0:0:0:0:
182,342,131351,6,0,P|111:299|78:188,2,180.000000596047
184,232,132364,1,0,0:0:0:0:
276,288,132567,2,0,B|330:281|342:305,4,45.0000001490117
184,232,133175,1,0,0:0:0:0:
272,172,133378,2,0,L|365:111,1,90.0000002980235
256,64,133783,1,0,0:0:0:0:
256,172,133986,1,0,0:0:0:0:
152,152,134188,5,0,0:0:0:0:
144,52,134391,1,0,0:0:0:0:
252,48,134594,2,0,P|333:64|346:93,1,90.0000002980235
352,64,134898,1,0,0:0:0:0:
360,80,134999,1,0,0:0:0:0:
288,160,135202,1,0,0:0:0:0:
204,228,135405,6,0,L|81:245,1,90.0000002980235
110,344,135810,1,0,0:0:0:0:
216,320,136013,2,0,P|337:290|383:227,1,180.000000596047
328,152,136621,1,0,0:0:0:0:
436,136,136823,1,0,0:0:0:0:
424,244,137026,2,0,L|356:248,2,45.0000001490117,0|0|0,0:0|0:0|0:0,0:0:0:0:
296,320,137432,6,0,B|351:251|379:359,1,90.0000002980235
239,225,137837,2,0,B|294:294|322:186,1,90.0000002980235
353,169,138242,1,0,0:0:0:0:
411,242,138445,2,0,B|519:159|393:90,1,180.000000596047
364,200,139053,2,0,B|444:168|332:136,1,90.0000002980235
344,76,139459,2,0,L|316:172,1,90.0000002980235
292,256,139864,2,0,L|208:168,1,90.0000002980235
160,112,140269,2,0,L|136:212,1,90.0000002980235
116,296,140675,2,0,L|16:248,1,90.0000002980235
32,160,141080,6,0,P|112:96|176:128,2,180.000000596047,0|0|0,0:0|0:0|0:0,0:0:0:0:
368,72,142296,5,0,0:0:0:0:
392,144,142499,2,0,L|440:224,2,90.0000002980235,0|0|0,0:0|0:0|0:0,0:0:0:0:
440,88,143107,2,0,L|336:160,1,90.0000002980235
332,210,143513,5,0,0:0:0:0:
309,211,143614,1,0,0:0:0:0:
286,212,143715,1,0,0:0:0:0:
263,213,143817,1,0,0:0:0:0:
240,214,143918,2,0,L|117:220,1,90.0000002980235,0|0,0:0|0:0,0:0:0:0:
256,192,144323,12,0,146756,0:0:0:0:
328,124,147161,5,0,0:0:0:0:
212,192,147364,1,0,0:0:0:0:
167,85,147567,2,0,B|237:98|269:155|269:155|315:249|407:249|407:249,1,270.00000089407
420,320,148378,1,0,0:0:0:0:
240,316,148783,2,0,P|292:337|335:313,1,90.0000002980235
374,243,149188,1,0,0:0:0:0:
104,256,149594,5,0,0:0:0:0:
244,40,149999,5,0,0:0:0:0:
336,248,150405,5,0,0:0:0:0:
336,160,150607,1,0,0:0:0:0:
248,180,150810,1,0,0:0:0:0:
248,180,150911,1,0,0:0:0:0:
248,180,151013,2,0,L|248:296,1,90.0000002980235
156,272,151418,2,0,L|96:272,2,45.0000001490117
220,336,151824,1,0,0:0:0:0:
288,276,152027,6,0,L|384:276,1,90.0000002980235
460,300,152432,6,0,P|481:249|450:196,1,90.0000002980235
388,112,152837,2,0,P|337:151|332:216,1,90.0000002980235
292,304,153242,2,0,P|241:266|241:222,1,90.0000002980235
216,108,153648,2,0,P|165:147|160:212,1,90.0000002980235
84,248,154054,6,0,B|72:228|72:228|104:200,4,45.0000001490117
124,296,154661,5,0,0:0:0:0:
128,172,154864,1,0,0:0:0:0:
256,192,155067,12,0,156891,0:0:0:0:
368,260,157296,6,0,L|156:260,1,180.000000596047
284,160,158107,1,0,0:0:0:0:
58,125,158514,5,0,0:0:0:0:
113,185,158715,1,0,0:0:0:0:
180,124,158918,2,0,L|257:223,1,90.0000002980235
292,124,159325,1,0,0:0:0:0:
196,80,159526,1,0,0:0:0:0:
92,48,159729,2,0,P|72:104|112:160,1,90.0000002980235
164,176,160135,2,0,B|224:136|224:136|200:112,1,90.0000002980235
160,52,160540,5,0,0:0:0:0:
272,52,160743,1,0,0:0:0:0:
216,144,160945,1,0,0:0:0:0:
332,144,161148,1,0,0:0:0:0:
264,228,161351,2,0,L|140:192,1,90.0000002980235
180,116,161756,2,0,L|236:137,2,37.5000001490117
68,176,162161,6,0,P|64:244|108:276,1,90.0000002980235
220,328,162567,1,0,0:0:0:0:
176,260,162769,1,0,0:0:0:0:
132,328,162972,2,0,L|232:268,1,90.0000002980235
176,196,163378,2,0,L|276:136,1,90.0000002980235
256,68,163783,6,0,L|256:172,1,90.0000002980235
128,220,164189,1,0,0:0:0:0:
132,132,164391,1,0,0:0:0:0:
208,176,164594,2,0,L|304:176,1,90.0000002980235
392,80,165000,1,0,0:0:0:0:
420,184,165202,1,0,0:0:0:0:
364,276,165405,1,0,0:0:0:0:
177,232,165810,6,0,L|275:233,1,90.0000002980235
329,236,166216,2,0,L|329:137,1,90.0000002980235
331,80,166621,2,0,L|226:81,1,90.0000002980235
177,79,167026,1,0,0:0:0:0:
172,232,167229,6,0,L|109:264,2,45.0000001490117,0|0|0,0:0|0:0|0:0,0:0:0:0:
292,268,167634,2,0,L|348:292,2,45.0000001490117,0|0|0,0:0|0:0|0:0,0:0:0:0:
388,184,168040,2,0,L|448:156,2,45.0000001490117
376,292,168445,1,0,0:0:0:0:
340,188,168648,5,0,0:0:0:0:
264,264,168850,1,0,0:0:0:0:
232,160,169054,1,0,0:0:0:0:
148,232,169256,1,0,0:0:0:0:
124,128,169459,2,0,B|152:52|152:52|272:88,1,180.000000596047
256,164,170067,6,0,L|312:216,2,45.0000001490117,0|0|0,0:0|0:0|0:0,0:0:0:0:
