osu file format v14

[General]
AudioFilename: tpz.mp3
AudioLeadIn: 1500
PreviewTime: 161821
Countdown: 0
SampleSet: Normal
StackLeniency: 0.7
Mode: 0
LetterboxInBreaks: 0
WidescreenStoryboard: 1

[Editor]
Bookmarks: 20108,38322,56608,65750,74893,97750,106893,189179
DistanceSpacing: 1
BeatDivisor: 4
GridSize: 4
TimelineZoom: 2.999999

[Metadata]
Title:Electric Love (t+pazolite Overcute Remix)
TitleUnicode:Electric Love (t+pazolite Overcute Remix)
Artist:Hatsune Miku
ArtistUnicode:Hatsune Miku
Creator:tomatas95
Version:Electric Cute Love
Source:
Tags:vocaloid electronic hatsune miku
BeatmapID:2096943
BeatmapSetID:1001737

[Difficulty]
HPDrainRate:5
CircleSize:3
OverallDifficulty:8
ApproachRate:9.4
SliderMultiplier:1.8
SliderTickRate:1

[Events]
//Background and Video events
0,0,"BG.jpg",0,0
//Break Periods
2,98020,105852
2,143591,152138
//Storyboard Layer 0 (Background)
//Storyboard Layer 1 (Fail)
//Storyboard Layer 2 (Pass)
//Storyboard Layer 3 (Foreground)
//Storyboard Sound Samples

[TimingPoints]
678,285.714285714286,4,2,0,60,1,0
1820,-100,4,1,0,60,0,0
20106,-100,4,1,0,60,0,1
29177,-100,4,1,0,60,0,1
29249,-100,4,1,0,60,0,1
38392,-100,4,1,0,60,0,0
56106,-66.6666666666667,4,2,0,25,0,0
56678,-100,4,2,0,50,0,0
65820,-200,4,2,0,50,0,0
68678,-125,4,2,0,50,0,0
70392,-100,4,1,0,35,0,0
72678,-100,4,1,0,35,0,0
73820,-100,4,1,0,45,0,0
74678,-100,4,1,0,65,0,0
74963,-100,4,1,0,60,0,1
84035,-100,4,1,0,60,0,0
84106,-100,4,1,0,60,0,1
93249,-133.333333333333,4,1,0,60,0,1
97820,-100,4,1,0,60,0,0
106392,-200,4,2,0,25,0,0
106963,-100,4,1,0,60,0,0
115535,-200,4,2,0,25,0,0
116106,-200,4,2,0,50,0,0
129820,-100,4,1,0,35,0,0
133249,-100,4,1,0,45,0,0
134107,-100,4,1,0,65,0,0
134392,-100,4,1,0,60,0,1
136606,-100,4,1,0,60,0,0
136678,-100,4,1,0,60,0,1
138892,-100,4,1,0,60,0,1
138963,-100,4,1,0,60,0,1
141178,-100,4,1,0,60,0,1
141249,-100,4,1,0,60,0,1
143535,-100,4,1,0,60,0,0
152678,-100,4,2,0,50,0,0
157249,-100,4,1,0,35,0,0
160678,-100,4,1,0,45,0,0
161535,-200,4,1,0,65,0,0
161820,-80,4,1,0,60,0,1
170392,-80,4,1,0,60,0,1
170963,-80,4,1,0,60,0,1
180035,-100,4,1,0,60,0,0
180106,-100,4,1,0,60,0,1
184678,-100,4,1,0,60,0,0
189249,-100,4,1,0,60,0,0
189320,-100,4,1,0,60,0,0

[Colours]
Combo1 : 255,255,0
Combo2 : 255,128,64
Combo3 : 255,0,0

[HitObjects]
260,196,1820,6,2,P|204:233|159:211,1,90
55,262,2106,1,0,0:0:0:0:
41,142,2249,2,0,L|71:115,3,30
153,33,2535,1,0,0:0:0:0:
239,104,2678,2,2,L|338:103,1,90
464,30,2963,5,0,0:0:0:0:
488,147,3106,2,2,P|454:188|406:188,1,90
316,175,3392,1,0,0:0:0:0:
191,161,3535,1,8,0:0:0:0:
146,168,3606,1,8,0:0:0:0:
106,188,3677,1,8,0:0:0:0:
75,220,3749,1,8,0:0:0:0:
54,260,3820,1,8,0:0:0:0:
14,362,3963,1,0,0:0:0:0:
149,353,4106,5,8,0:0:0:0:
253,271,4249,2,2,P|318:269|345:280,1,90
464,275,4535,2,0,L|494:248,3,30
439,147,4820,1,0,0:0:0:0:
312,148,4963,1,0,0:0:0:0:
377,62,5106,2,0,L|368:49,6,15
372,189,5392,5,0,0:0:0:0:
248,230,5535,1,0,0:0:0:0:
252,22,5678,2,0,L|251:120,1,90
255,137,5892,1,0,0:0:0:0:
255,137,5963,1,0,0:0:0:0:
154,239,6106,2,0,P|182:285|255:295,1,90
329,263,6392,5,0,0:0:0:0:
484,342,6535,2,0,P|464:297|470:247,1,90
510,174,6820,2,0,L|476:169,3,30
397,81,7106,1,0,0:0:0:0:
287,39,7249,2,0,P|233:26|180:45,1,90
256,117,7535,2,0,L|256:218,1,90
216,312,7820,1,0,0:0:0:0:
81,260,7963,1,0,0:0:0:0:
200,177,8106,5,0,0:0:0:0:
190,133,8177,1,0,0:0:0:0:
167,94,8248,1,0,0:0:0:0:
133,65,8320,1,0,0:0:0:0:
91,49,8391,1,0,0:0:0:0:
22,127,8535,5,0,0:0:0:0:
176,87,8678,2,0,L|295:70,1,90
307,67,8892,1,0,0:0:0:0:
307,67,8963,1,0,0:0:0:0:
262,186,9106,2,0,P|251:241|298:269,1,90
312,281,9320,1,0,0:0:0:0:
353,298,9391,1,0,0:0:0:0:
397,298,9462,1,0,0:0:0:0:
438,279,9534,1,0,0:0:0:0:
312,281,9678,6,0,L|214:310,1,90
116,242,9963,1,0,0:0:0:0:
23,356,10106,1,0,0:0:0:0:
178,352,10249,1,0,0:0:0:0:
252,263,10392,2,0,L|207:174,1,90
149,22,10678,2,0,L|186:114,1,90
251,264,10963,6,0,P|311:311|400:270,1,180
326,227,11392,2,0,L|334:202,6,15
289,349,11678,1,0,0:0:0:0:
155,339,11820,2,0,P|107:318|79:270,1,90
20,181,12106,5,0,0:0:0:0:
140,98,12249,1,0,0:0:0:0:
225,182,12392,1,0,0:0:0:0:
316,95,12535,1,0,0:0:0:0:
405,169,12678,1,0,0:0:0:0:
437,200,12749,1,0,0:0:0:0:
464,236,12820,1,0,0:0:0:0:
485,275,12892,1,0,0:0:0:0:
501,317,12963,1,0,0:0:0:0:
367,352,13106,5,0,0:0:0:0:
254,266,13249,2,0,L|263:149,1,90
334,53,13535,1,0,0:0:0:0:
186,69,13678,2,0,L|165:54,6,15
48,36,13963,1,0,0:0:0:0:
48,80,14034,1,0,0:0:0:0:
48,125,14105,1,0,0:0:0:0:
27,251,14249,6,0,L|55:242,3,30
160,299,14535,2,0,P|220:283|270:307,1,90
346,348,14820,1,0,0:0:0:0:
473,327,14963,1,0,0:0:0:0:
473,327,15035,1,0,0:0:0:0:
473,327,15106,1,0,0:0:0:0:
386,202,15249,2,0,P|343:214|300:203,1,90
160,157,15535,5,0,0:0:0:0:
223,39,15678,2,0,P|265:26|308:37,1,90
293,141,15963,1,0,0:0:0:0:
293,141,16035,1,0,0:0:0:0:
293,141,16106,1,0,0:0:0:0:
424,152,16249,1,0,0:0:0:0:
469,41,16392,1,0,0:0:0:0:
335,40,16535,2,0,L|227:88,1,90
133,113,16820,5,0,0:0:0:0:
31,207,16963,1,0,0:0:0:0:
155,250,17106,1,0,0:0:0:0:
227,162,17249,1,0,0:0:0:0:
262,134,17320,1,0,0:0:0:0:
304,118,17391,1,0,0:0:0:0:
349,115,17463,1,0,0:0:0:0:
393,124,17534,1,0,0:0:0:0:
373,228,17678,5,0,0:0:0:0:
481,348,17820,2,0,L|383:352,1,90
346,349,18035,1,0,0:0:0:0:
346,349,18106,1,0,0:0:0:0:
258,256,18249,2,0,L|258:142,1,90
258,133,18463,1,0,0:0:0:0:
268,90,18534,1,0,0:0:0:0:
244,53,18605,1,0,0:0:0:0:
201,45,18677,1,0,0:0:0:0:
39,35,18820,5,0,0:0:0:0:
39,35,18892,1,0,0:0:0:0:
39,35,18963,1,0,0:0:0:0:
128,128,19106,1,0,0:0:0:0:
29,202,19249,1,0,0:0:0:0:
135,276,19392,1,0,0:0:0:0:
18,352,19535,5,0,0:0:0:0:
62,352,19606,1,0,0:0:0:0:
107,352,19677,1,0,0:0:0:0:
152,352,19749,1,0,0:0:0:0:
203,350,19820,2,0,P|205:287|241:251,1,90
496,192,20106,6,0,P|441:222|332:196,1,180
275,100,20535,1,0,0:0:0:0:
111,57,20678,1,0,0:0:0:0:
60,192,20820,1,0,0:0:0:0:
228,236,20963,1,0,0:0:0:0:
275,100,21106,6,0,P|315:78|388:69,1,90
508,120,21392,1,0,0:0:0:0:
377,185,21535,1,0,0:0:0:0:
377,185,21606,1,0,0:0:0:0:
377,185,21678,1,0,0:0:0:0:
500,257,21820,2,0,P|491:307|439:324,1,90
264,310,22106,2,0,P|273:260|325:243,1,90
512,122,22392,6,0,P|495:62|437:29,1,90
397,138,22678,1,0,0:0:0:0:
225,67,22820,1,0,0:0:0:0:
291,188,22963,1,0,0:0:0:0:
115,81,23106,1,0,0:0:0:0:
141,138,23178,1,0,0:0:0:0:
165,192,23249,1,0,0:0:0:0:
53,266,23392,2,0,P|69:326|178:319,1,180
165,192,23820,5,0,0:0:0:0:
280,118,23963,1,0,0:0:0:0:
320,98,24034,1,0,0:0:0:0:
361,79,24105,1,0,0:0:0:0:
402,60,24177,1,0,0:0:0:0:
443,41,24248,1,0,0:0:0:0:
471,159,24392,1,0,0:0:0:0:
345,239,24535,1,0,0:0:0:0:
361,79,24678,6,0,P|303:43|192:63,1,180
93,115,25106,1,0,0:0:0:0:
213,202,25249,1,0,0:0:0:0:
73,205,25392,1,0,0:0:0:0:
218,306,25535,1,0,0:0:0:0:
76,311,25678,1,0,0:0:0:0:
76,311,25749,1,0,0:0:0:0:
76,311,25820,1,0,0:0:0:0:
213,202,25963,6,0,L|317:200,1,90
413,108,26249,1,0,0:0:0:0:
413,108,26320,1,0,0:0:0:0:
413,108,26392,1,0,0:0:0:0:
460,258,26535,1,0,0:0:0:0:
300,201,26678,2,0,L|201:203,1,90
173,207,26892,1,0,0:0:0:0:
173,207,26963,1,0,0:0:0:0:
26,147,27106,5,0,0:0:0:0:
26,147,27178,1,0,0:0:0:0:
26,147,27249,1,0,0:0:0:0:
157,62,27392,1,0,0:0:0:0:
261,149,27535,1,0,0:0:0:0:
261,149,27606,1,0,0:0:0:0:
261,149,27678,1,0,0:0:0:0:
379,64,27820,1,0,0:0:0:0:
481,164,27963,1,0,0:0:0:0:
481,164,28035,1,0,0:0:0:0:
481,164,28106,1,0,0:0:0:0:
374,242,28249,5,0,0:0:0:0:
222,286,28392,1,0,0:0:0:0:
273,165,28535,1,0,0:0:0:0:
177,95,28678,2,0,L|101:175,1,90
374,242,28963,2,0,L|450:162,1,90
114,149,29249,6,0,P|61:179|27:221,1,90
108,303,29535,1,0,0:0:0:0:
220,222,29678,1,0,0:0:0:0:
329,320,29820,1,0,0:0:0:0:
211,373,29963,1,0,0:0:0:0:
220,222,30106,2,0,L|218:120,1,90
319,39,30392,6,0,L|410:39,1,90
372,150,30678,1,0,0:0:0:0:
463,241,30820,1,0,0:0:0:0:
339,350,30963,2,0,P|282:355|253:338,1,90
171,260,31249,1,0,0:0:0:0:
97,162,31392,1,0,0:0:0:0:
180,30,31535,6,0,P|236:24|266:42,1,90
202,132,31820,1,0,0:0:0:0:
359,202,31963,1,0,0:0:0:0:
310,99,32106,1,0,0:0:0:0:
452,149,32249,1,0,0:0:0:0:
434,102,32320,1,0,0:0:0:0:
416,63,32392,1,0,0:0:0:0:
359,202,32535,5,0,0:0:0:0:
202,132,32678,1,0,0:0:0:0:
251,249,32820,1,0,0:0:0:0:
393,318,32963,1,0,0:0:0:0:
393,318,33035,1,0,0:0:0:0:
393,318,33106,1,0,0:0:0:0:
482,199,33249,1,0,0:0:0:0:
482,199,33320,1,0,0:0:0:0:
482,199,33392,2,0,L|395:122,1,90
262,28,33678,6,0,L|145:28,1,90
6,70,33963,1,0,0:0:0:0:
140,131,34106,1,0,0:0:0:0:
263,28,34249,1,0,0:0:0:0:
262,193,34392,1,0,0:0:0:0:
262,108,34535,1,0,0:0:0:0:
264,340,34678,2,0,L|151:342,1,90
14,254,34963,5,0,0:0:0:0:
186,258,35106,1,0,0:0:0:0:
93,195,35249,1,0,0:0:0:0:
278,199,35392,1,0,0:0:0:0:
171,126,35535,1,0,0:0:0:0:
377,126,35678,1,0,0:0:0:0:
272,42,35820,1,0,0:0:0:0:
278,199,35963,2,0,P|269:263|301:287,1,90
403,354,36249,5,0,0:0:0:0:
403,354,36320,1,0,0:0:0:0:
403,354,36392,1,0,0:0:0:0:
491,272,36535,1,0,0:0:0:0:
411,183,36678,1,0,0:0:0:0:
411,183,36749,1,0,0:0:0:0:
411,183,36820,1,0,0:0:0:0:
501,89,36963,1,0,0:0:0:0:
253,34,37106,5,0,0:0:0:0:
256,76,37177,1,0,0:0:0:0:
256,121,37248,1,0,0:0:0:0:
156,172,37392,1,0,0:0:0:0:
46,232,37535,1,0,0:0:0:0:
46,276,37606,1,0,0:0:0:0:
46,321,37678,2,0,L|144:358,1,90
130,352,37963,1,0,0:0:0:0:
256,121,38106,2,0,L|352:167,1,90
263,353,38392,6,0,P|335:349|449:324,1,180
326,266,38820,2,0,L|324:155,1,90
285,64,39106,1,0,0:0:0:0:
440,102,39249,1,0,0:0:0:0:
399,223,39392,2,0,P|348:264|291:254,1,90
236,201,39678,5,0,0:0:0:0:
236,201,39820,1,0,0:0:0:0:
178,326,39963,1,0,0:0:0:0:
105,239,40106,1,0,0:0:0:0:
105,239,40178,1,0,0:0:0:0:
105,239,40249,2,0,P|84:167|103:122,1,90
254,29,40535,2,2,P|275:101|256:146,1,90
197,228,40820,5,0,0:0:0:0:
363,227,40963,1,0,0:0:0:0:
279,319,41106,1,0,0:0:0:0:
278,135,41249,1,0,0:0:0:0:
408,49,41392,1,0,0:0:0:0:
506,180,41535,1,0,0:0:0:0:
456,332,41678,6,0,P|450:253|426:222,1,90
332,157,41963,1,0,0:0:0:0:
325,288,42106,1,0,0:0:0:0:
195,314,42249,1,0,0:0:0:0:
177,203,42392,1,8,0:0:0:0:
166,149,42463,1,8,0:0:0:0:
150,93,42535,1,8,0:0:0:0:
305,27,42678,2,4,L|306:134,1,90
336,277,42963,6,4,P|409:283|450:266,1,90
501,193,43249,1,0,0:0:0:0:
426,103,43392,1,0,0:0:0:0:
370,204,43535,2,2,L|262:204,1,90
182,20,43820,2,0,L|175:124,1,90
40,43,44106,5,8,0:0:0:0:
0,132,44249,1,0,0:0:0:0:
92,198,44392,1,8,0:0:0:0:
140,98,44535,1,8,0:0:0:0:
216,231,44678,2,2,P|261:260|278:303,1,90
191,352,44963,1,0,0:0:0:0:
49,354,45106,1,0,0:0:0:0:
122,236,45249,5,0,0:0:0:0:
209,135,45392,2,0,L|249:50,1,90
377,18,45678,1,0,0:0:0:0:
494,98,45820,1,0,0:0:0:0:
370,126,45963,1,0,0:0:0:0:
467,247,46106,1,0,0:0:0:0:
370,126,46249,1,0,0:0:0:0:
220,167,46392,6,4,L|111:167,1,90
90,162,46606,1,8,0:0:0:0:
90,162,46678,1,8,0:0:0:0:
13,274,46820,2,0,L|14:374,1,90
128,268,47106,1,0,0:0:0:0:
236,343,47249,1,0,0:0:0:0:
304,254,47392,1,0,0:0:0:0:
196,132,47535,5,0,0:0:0:0:
329,27,47678,2,2,L|331:132,1,90
423,185,47963,1,0,0:0:0:0:
505,257,48106,1,0,0:0:0:0:
423,353,48249,2,4,P|352:353|261:281,1,180
374,268,48678,5,0,0:0:0:0:
278,157,48820,1,0,0:0:0:0:
372,69,48963,1,0,0:0:0:0:
450,177,49106,1,0,0:0:0:0:
374,268,49249,1,0,0:0:0:0:
374,268,49320,1,0,0:0:0:0:
374,268,49392,1,0,0:0:0:0:
228,350,49535,2,0,L|148:262,1,90
27,351,49820,6,6,P|6:300|47:178,1,180
16,43,50249,1,0,0:0:0:0:
39,184,50391,1,0,0:0:0:0:
160,56,50534,1,0,0:0:0:0:
125,178,50678,1,0,0:0:0:0:
280,26,50820,2,6,P|338:63|373:103,1,90
260,178,51106,5,0,0:0:0:0:
260,178,51178,1,0,0:0:0:0:
260,178,51249,1,0,0:0:0:0:
350,276,51392,1,0,0:0:0:0:
500,348,51535,1,0,0:0:0:0:
350,276,51678,1,0,0:0:0:0:
265,352,51820,2,0,P|186:355|146:325,1,90
3,230,52106,6,2,L|2:119,1,90
9,27,52392,1,0,0:0:0:0:
9,27,52535,1,0,0:0:0:0:
115,163,52678,1,0,0:0:0:0:
115,163,52820,1,0,0:0:0:0:
165,26,52963,1,0,0:0:0:0:
260,196,53106,2,0,L|351:116,1,90
345,31,53392,5,0,0:0:0:0:
466,119,53535,1,0,0:0:0:0:
416,271,53678,1,0,0:0:0:0:
416,271,53749,1,0,0:0:0:0:
416,271,53820,1,0,0:0:0:0:
244,320,53963,2,0,L|285:235,1,90
39,211,54249,2,0,L|-2:296,1,90
84,349,54535,5,0,0:0:0:0:
171,239,54678,1,0,0:0:0:0:
251,131,54820,1,0,0:0:0:0:
321,253,54963,1,0,0:0:0:0:
129,144,55106,1,0,0:0:0:0:
35,44,55249,1,0,0:0:0:0:
175,43,55392,1,0,0:0:0:0:
75,228,55535,5,0,0:0:0:0:
219,227,55678,1,0,0:0:0:0:
219,227,55749,1,0,0:0:0:0:
219,227,55820,1,0,0:0:0:0:
362,222,55963,1,0,0:0:0:0:
335,75,56106,6,2,P|412:103|225:311,1,540.000020599366
255,27,56963,1,0,0:0:0:0:
197,153,57106,2,0,P|250:187|296:165,1,90
338,119,57392,2,0,P|388:113|425:138,1,90
359,205,57678,1,0,0:0:0:0:
382,294,57820,6,0,P|332:300|295:275,1,90
219,179,58106,2,0,P|180:158|136:165,1,90
11,279,58535,6,0,P|61:273|110:293,1,90
198,336,58820,2,0,P|240:348|284:342,1,90
255,27,59249,1,0,0:0:0:0:
254,142,59392,1,0,0:0:0:0:
388,63,59535,6,0,L|483:63,1,90
393,182,59820,2,0,L|393:277,1,90
269,353,60106,2,0,L|169:354,1,90
25,351,60392,1,0,0:0:0:0:
125,246,60535,2,0,L|124:133,1,90
22,11,60820,2,0,B|85:16|85:16|119:50,1,90
152,158,61106,1,0,0:0:0:0:
260,28,61249,6,0,P|309:63|359:59,1,90
495,25,61535,1,0,0:0:0:0:
504,183,61678,2,0,P|460:175|426:146,1,90
277,28,61963,2,0,L|267:132,1,90
161,183,62249,1,0,0:0:0:0:
260,324,62392,6,0,P|307:348|346:341,1,90
449,273,62678,1,0,0:0:0:0:
342,342,62820,2,0,P|298:346|260:324,1,90
143,352,63106,2,0,L|44:322,1,90
56,326,63392,1,0,0:0:0:0:
22,217,63535,6,0,P|55:174|108:189,1,90
169,237,63820,1,0,0:0:0:0:
260,28,63963,2,0,L|260:123,1,90
210,241,64249,1,0,0:0:0:0:
86,170,64392,2,0,P|45:132|27:86,1,90
170,27,64678,6,0,L|275:28,1,90
259,27,64963,1,0,0:0:0:0:
210,151,65106,2,0,L|210:253,1,90
27,335,65392,2,0,P|96:360|120:351,1,90
220,299,65678,2,0,P|264:296|301:320,1,90
479,351,65963,6,0,L|454:298,1,45
485,194,66249,2,0,L|433:195,1,45
330,135,66535,2,0,L|305:82,1,45
233,24,66820,1,0,0:0:0:0:
33,30,66963,5,0,0:0:0:0:
71,143,67106,1,0,0:0:0:0:
244,92,67249,2,0,P|278:96|304:114,1,45
496,194,67678,1,0,0:0:0:0:
416,257,67820,1,0,0:0:0:0:
319,188,67963,1,0,0:0:0:0:
420,92,68106,6,0,L|360:75,1,45
223,39,68392,2,0,L|268:52,1,45
245,195,68678,6,0,L|249:281,1,72
154,347,68963,2,0,L|82:350,1,72
12,244,69249,2,0,L|12:148,1,72
143,80,69535,2,0,L|214:76,1,72
380,188,69963,1,0,0:0:0:0:
257,190,70106,1,0,0:0:0:0:
149,191,70249,1,0,0:0:0:0:
261,356,70392,6,2,L|258:257,1,90
380,188,70678,1,0,0:0:0:0:
479,119,70820,1,0,0:0:0:0:
362,52,70963,1,0,0:0:0:0:
276,131,71106,1,0,0:0:0:0:
192,48,71249,1,0,0:0:0:0:
13,33,71392,6,0,P|-7:82|37:118,1,90
116,144,71678,1,0,0:0:0:0:
44,225,71820,1,0,0:0:0:0:
134,288,71963,1,0,0:0:0:0:
48,348,72106,2,0,L|137:290,1,90
244,235,72392,1,0,0:0:0:0:
334,315,72535,1,0,0:0:0:0:
463,177,72678,6,4,P|489:126|403:62,1,180
327,195,73106,1,0,0:0:0:0:
170,84,73249,1,0,0:0:0:0:
327,195,73392,1,0,0:0:0:0:
79,148,73535,1,0,0:0:0:0:
209,318,73678,1,0,0:0:0:0:
222,202,73820,5,8,0:0:0:0:
230,158,73891,1,8,0:0:0:0:
256,121,73962,1,8,0:0:0:0:
294,98,74034,1,8,0:0:0:0:
338,91,74105,1,8,0:0:0:0:
381,103,74177,1,8,0:0:0:0:
416,131,74248,1,8,0:0:0:0:
437,171,74319,1,8,0:0:0:0:
440,215,74391,1,8,0:0:0:0:
425,257,74462,1,8,0:0:0:0:
394,290,74534,1,8,0:0:0:0:
353,308,74605,1,8,0:0:0:0:
309,308,74678,6,0,L|209:310,1,90
33,352,74963,2,4,P|10:289|67:179,1,180
102,284,75392,1,0,0:0:0:0:
206,348,75535,1,0,0:0:0:0:
319,277,75678,1,0,0:0:0:0:
203,213,75820,1,0,0:0:0:0:
119,122,75963,1,0,0:0:0:0:
255,26,76106,6,0,L|257:116,1,90
121,197,76392,1,0,0:0:0:0:
329,166,76535,2,0,P|379:175|396:227,1,90
273,384,76821,2,0,P|223:375|206:323,1,90
467,304,77249,6,4,L|351:305,1,90
231,350,77535,1,0,0:0:0:0:
110,268,77678,1,0,0:0:0:0:
276,213,77820,1,8,0:0:0:0:
237,190,77891,1,8,0:0:0:0:
198,167,77962,1,8,0:0:0:0:
159,144,78034,1,8,0:0:0:0:
120,122,78105,1,8,0:0:0:0:
0,31,78249,6,2,P|60:16|174:48,1,180
287,115,78678,1,8,0:0:0:0:
444,51,78820,1,0,0:0:0:0:
444,51,78892,1,0,0:0:0:0:
444,51,78963,1,0,0:0:0:0:
436,211,79106,2,2,L|466:314,1,90
271,350,79392,2,4,B|204:331|204:331|153:327,1,90
7,365,79678,5,0,0:0:0:0:
63,242,79820,1,0,0:0:0:0:
214,236,79963,1,0,0:0:0:0:
255,22,80106,2,2,L|257:120,1,90
346,289,80392,2,4,B|399:287|399:287|445:305,1,90
500,201,80678,5,0,0:0:0:0:
358,124,80820,1,0,0:0:0:0:
232,198,80963,1,0,0:0:0:0:
104,274,81106,1,0,0:0:0:0:
16,144,81249,1,0,0:0:0:0:
162,74,81392,1,0,0:0:0:0:
232,198,81535,1,0,0:0:0:0:
166,345,81678,6,4,P|106:345|67:313,1,90
20,203,81963,1,0,0:0:0:0:
20,203,82035,1,0,0:0:0:0:
20,203,82106,1,0,0:0:0:0:
183,163,82249,1,0,0:0:0:0:
96,55,82392,1,0,0:0:0:0:
96,55,82463,1,0,0:0:0:0:
96,55,82535,1,0,0:0:0:0:
183,163,82678,5,0,0:0:0:0:
279,55,82820,1,0,0:0:0:0:
279,55,82891,1,0,0:0:0:0:
279,55,82963,1,0,0:0:0:0:
183,163,83106,1,0,0:0:0:0:
320,229,83249,1,0,0:0:0:0:
320,229,83320,1,0,0:0:0:0:
320,229,83392,1,0,0:0:0:0:
504,132,83535,6,2,P|449:127|421:97,1,90
329,57,83820,2,2,P|294:29|250:29,1,90
117,134,84106,2,4,P|62:129|34:99,1,90
138,30,84392,1,0,0:0:0:0:
251,98,84535,1,0,0:0:0:0:
157,208,84678,2,0,L|62:241,1,90
23,347,84963,1,0,0:0:0:0:
145,347,85106,1,0,0:0:0:0:
157,208,85249,6,0,L|256:206,1,90
334,121,85535,1,0,0:0:0:0:
488,248,85678,2,2,P|455:282|411:264,1,90
302,189,85963,2,2,P|259:180|231:213,1,90
334,297,86249,1,0,0:0:0:0:
121,307,86392,6,4,P|88:341|44:323,1,90
11,179,86678,2,0,L|80:97,1,90
13,25,86963,1,0,0:0:0:0:
142,95,87106,1,0,0:0:0:0:
269,158,87249,1,8,0:0:0:0:
87,233,87392,2,8,L|92:331,1,90
217,351,87678,5,8,0:0:0:0:
420,345,87820,1,8,0:0:0:0:
309,259,87963,1,8,0:0:0:0:
131,261,88106,1,8,0:0:0:0:
224,187,88249,1,8,0:0:0:0:
406,188,88392,1,8,0:0:0:0:
303,19,88535,2,2,L|305:117,1,90
142,182,88820,5,8,0:0:0:0:
406,188,88963,1,8,0:0:0:0:
95,253,89106,1,8,0:0:0:0:
366,258,89249,1,8,0:0:0:0:
32,319,89392,1,8,0:0:0:0:
410,349,89535,2,4,P|451:319|484:273,1,90
361,271,89820,5,8,0:0:0:0:
248,317,89963,1,8,0:0:0:0:
136,270,90106,1,8,0:0:0:0:
90,158,90249,1,8,0:0:0:0:
136,46,90392,1,8,0:0:0:0:
248,0,90535,1,8,0:0:0:0:
361,46,90678,1,8,0:0:0:0:
451,184,90820,6,0,L|451:278,1,90
452,333,91035,1,8,0:0:0:0:
432,339,91106,1,8,0:0:0:0:
412,344,91177,1,8,0:0:0:0:
391,348,91249,1,8,0:0:0:0:
371,350,91320,1,8,0:0:0:0:
350,352,91392,1,8,0:0:0:0:
330,352,91463,1,8,0:0:0:0:
309,350,91534,1,8,0:0:0:0:
288,348,91606,1,8,0:0:0:0:
268,344,91677,1,8,0:0:0:0:
248,338,91749,1,8,0:0:0:0:
228,332,91820,1,8,0:0:0:0:
209,324,91892,1,8,0:0:0:0:
190,316,91963,1,8,0:0:0:0:
172,306,92034,1,0,0:0:0:0:
151,294,92106,6,4,L|64:242,1,90
24,149,92392,1,0,0:0:0:0:
156,50,92535,1,0,0:0:0:0:
262,167,92678,1,8,0:0:0:0:
141,262,92820,1,0,0:0:0:0:
264,349,92963,2,0,L|382:349,1,90
512,85,93249,6,2,L|418:84,1,67.5000025749208
325,28,93535,1,0,0:0:0:0:
270,135,93678,2,8,L|232:135,1,33.7500012874604
270,206,93820,2,8,L|231:205,1,33.7500012874604
103,274,93963,1,8,0:0:0:0:
103,274,94035,2,8,L|59:319,1,33.7500012874604
181,349,94249,2,8,L|224:348,1,33.7500012874604
292,342,94392,5,8,0:0:0:0:
449,333,94535,2,8,L|426:297,1,33.7500012874604
399,269,94678,2,8,P|402:227|380:201,1,67.5000025749208
447,107,94963,1,8,0:0:0:0:
415,94,95034,1,8,0:0:0:0:
384,81,95105,1,8,0:0:0:0:
353,68,95177,1,8,0:0:0:0:
322,55,95248,1,8,0:0:0:0:
162,25,95392,1,8,0:0:0:0:
257,197,95535,6,8,L|258:282,1,67.5000025749208
256,304,95749,1,8,0:0:0:0:
251,350,95820,2,8,P|200:353|172:336,1,67.5000025749208
142,332,96035,1,8,0:0:0:0:
98,313,96106,2,8,L|96:227,1,67.5000025749208
77,202,96320,1,8,0:0:0:0:
97,165,96392,2,8,B|116:135|116:135|169:132,1,67.5000025749208
193,118,96606,1,8,0:0:0:0:
216,80,96678,6,8,P|250:52|338:71,1,135.000005149842
463,74,97106,1,8,0:0:0:0:
479,103,97177,1,8,0:0:0:0:
491,134,97248,1,8,0:0:0:0:
498,167,97320,1,8,0:0:0:0:
499,201,97391,1,8,0:0:0:0:
494,234,97463,1,8,0:0:0:0:
484,267,97535,2,8,P|439:313|366:312,1,135.000005149842
258,199,106392,6,0,P|299:229|311:135,1,180
257,39,107106,2,0,P|194:29|136:40,1,90
48,87,107392,2,0,L|48:182,1,90
108,275,107678,2,0,P|152:293|193:278,1,90
229,173,107963,2,0,P|271:160|484:241,1,270
328,234,108535,1,0,0:0:0:0:
413,317,108678,1,0,0:0:0:0:
495,203,108820,5,0,0:0:0:0:
495,203,108892,1,0,0:0:0:0:
495,203,108963,2,0,L|432:113,1,90
268,30,109249,2,0,L|174:22,1,90
26,29,109535,1,0,0:0:0:0:
142,89,109678,1,0,0:0:0:0:
26,140,109820,1,0,0:0:0:0:
117,206,109963,2,0,P|163:236|204:222,1,90
265,134,110249,6,0,P|308:128|439:167,1,180
437,166,110678,1,0,0:0:0:0:
335,221,110820,1,0,0:0:0:0:
326,265,110891,1,0,0:0:0:0:
304,303,110962,1,0,0:0:0:0:
270,332,111034,1,0,0:0:0:0:
228,348,111105,1,0,0:0:0:0:
183,348,111177,1,0,0:0:0:0:
141,334,111249,2,0,L|34:336,1,90
5,170,111535,6,0,P|9:115|51:89,1,90
44,83,111749,1,0,0:0:0:0:
44,83,111820,1,0,0:0:0:0:
125,154,111963,2,0,P|173:174|214:148,1,90
203,159,112249,1,0,0:0:0:0:
236,45,112392,2,0,P|277:30|315:50,1,90
355,191,112678,6,0,P|334:250|228:243,1,180
280,138,113106,1,0,0:0:0:0:
431,136,113249,1,0,0:0:0:0:
280,138,113392,2,0,L|165:139,1,90
70,28,113678,2,0,L|71:122,1,90
0,230,113963,1,0,0:0:0:0:
0,230,114035,1,0,0:0:0:0:
0,230,114106,1,0,0:0:0:0:
73,313,114249,5,0,0:0:0:0:
115,331,114320,1,0,0:0:0:0:
159,341,114391,1,0,0:0:0:0:
203,346,114463,1,0,0:0:0:0:
248,344,114534,1,0,0:0:0:0:
292,335,114606,1,0,0:0:0:0:
335,320,114678,2,0,L|427:316,1,90
462,312,114892,1,0,0:0:0:0:
462,312,114963,6,0,L|478:204,1,90
486,189,115178,1,0,0:0:0:0:
449,162,115249,1,0,0:0:0:0:
413,135,115320,1,0,0:0:0:0:
377,108,115392,1,0,0:0:0:0:
341,81,115463,1,0,0:0:0:0:
305,55,115535,2,0,L|287:56,12,15
450,113,116249,6,0,P|472:151|470:172,1,45
441,243,116535,2,0,P|414:260|392:257,1,45
325,189,116820,2,0,P|298:171|281:170,1,45
198,234,117106,6,0,P|176:229|159:214,1,45
77,27,117392,2,0,L|76:78,1,45
72,282,117678,2,0,L|72:229,1,45
167,161,117963,1,0,0:0:0:0:
273,87,118106,1,0,0:0:0:0:
351,166,118249,1,0,0:0:0:0:
261,287,118392,6,0,L|262:346,1,45
364,351,118678,1,0,0:0:0:0:
482,333,118820,1,0,0:0:0:0:
395,164,118963,2,0,L|337:166,1,45
269,234,119249,2,0,L|211:236,1,45
79,333,119535,6,0,P|57:317|46:291,1,45
0,187,119820,1,0,0:0:0:0:
114,37,119963,2,0,P|161:23|216:45,1,90
255,142,120392,1,0,0:0:0:0:
373,137,120535,1,0,0:0:0:0:
495,21,120678,6,0,L|497:83,1,45
373,137,120963,1,0,0:0:0:0:
208,33,121106,2,0,L|207:81,1,45
140,161,121392,1,0,0:0:0:0:
40,240,121535,2,0,L|85:265,1,45
202,349,121820,5,0,0:0:0:0:
329,349,121963,1,0,0:0:0:0:
485,350,122106,1,0,0:0:0:0:
391,242,122249,2,0,L|347:204,1,45
216,199,122535,1,0,0:0:0:0:
112,164,122678,1,0,0:0:0:0:
112,54,122820,1,0,0:0:0:0:
266,28,122963,6,0,L|329:30,1,45
399,84,123249,1,0,0:0:0:0:
500,175,123392,1,0,0:0:0:0:
376,269,123535,2,0,L|336:299,1,45
224,355,123820,1,0,0:0:0:0:
138,259,123963,1,0,0:0:0:0:
242,30,124106,6,0,P|227:54|194:61,1,45
108,26,124392,1,0,0:0:0:0:
3,170,124535,2,0,L|62:169,1,45
151,244,124820,2,0,P|190:259|212:252,1,45
308,192,125106,2,0,P|330:194|348:206,1,45,0|4,0:0|0:0,0:0:0:0:
399,307,125392,2,0,P|438:322|460:315,1,45
501,251,125678,2,0,P|500:222|483:198,1,45
378,117,125963,5,0,0:0:0:0:
345,218,126106,1,0,0:0:0:0:
239,218,126249,1,0,0:0:0:0:
206,117,126392,1,0,0:0:0:0:
299,7,126535,2,0,L|299:66,1,45
345,218,126820,2,0,L|401:219,1,45
487,151,127106,5,0,0:0:0:0:
485,287,127249,1,0,0:0:0:0:
390,151,127392,1,0,0:0:0:0:
395,291,127535,2,0,L|396:344,1,45
301,353,127820,1,0,0:0:0:0:
191,268,127963,1,0,0:0:0:0:
23,349,128106,6,0,L|23:291,1,45
20,165,128392,2,0,P|41:132|48:116,1,45
101,21,128678,1,0,0:0:0:0:
236,100,128820,1,0,0:0:0:0:
53,96,128963,1,0,0:0:0:0:
192,175,129106,2,0,L|242:196,1,45
301,286,129392,1,0,0:0:0:0:
391,177,129535,1,0,0:0:0:0:
487,288,129678,1,0,0:0:0:0:
389,374,129820,5,0,0:0:0:0:
212,341,129963,2,0,L|110:344,1,90
43,279,130249,1,0,0:0:0:0:
63,165,130392,1,0,0:0:0:0:
160,85,130535,1,0,0:0:0:0:
275,133,130678,1,0,0:0:0:0:
248,245,130820,1,0,0:0:0:0:
148,333,130963,6,0,P|128:274|191:175,1,180
289,137,131392,1,0,0:0:0:0:
184,178,131535,1,0,0:0:0:0:
142,165,131606,1,0,0:0:0:0:
105,139,131677,1,0,0:0:0:0:
79,103,131749,1,0,0:0:0:0:
67,60,131820,2,0,L|137:0,1,90
210,63,132106,5,0,0:0:0:0:
334,12,132249,1,0,0:0:0:0:
459,64,132392,1,0,0:0:0:0:
511,188,132535,1,0,0:0:0:0:
459,313,132678,1,0,0:0:0:0:
334,365,132820,1,0,0:0:0:0:
209,313,132964,1,0,0:0:0:0:
158,188,133106,1,0,0:0:0:0:
30,83,133249,5,0,0:0:0:0:
23,127,133320,1,0,0:0:0:0:
26,172,133391,1,0,0:0:0:0:
38,215,133463,1,0,0:0:0:0:
58,255,133534,1,0,0:0:0:0:
85,291,133606,1,0,0:0:0:0:
120,320,133677,1,0,0:0:0:0:
159,342,133749,1,0,0:0:0:0:
202,355,133820,1,0,0:0:0:0:
246,360,133891,1,0,0:0:0:0:
291,356,133963,1,0,0:0:0:0:
334,343,134034,1,0,0:0:0:0:
384,353,134106,6,0,P|357:313|402:272,1,90
512,224,134392,2,0,P|528:184|430:110,1,180
341,191,134820,1,0,0:0:0:0:
241,67,134963,1,0,0:0:0:0:
341,191,135106,1,0,0:0:0:0:
241,67,135249,1,0,0:0:0:0:
199,215,135392,1,0,0:0:0:0:
43,344,135535,6,0,P|22:303|86:187,1,180
75,191,135963,1,0,0:0:0:0:
18,29,136106,1,0,0:0:0:0:
75,191,136249,1,0,0:0:0:0:
172,32,136392,1,0,0:0:0:0:
263,182,136535,1,0,0:0:0:0:
322,29,136678,2,0,P|371:27|486:99,1,180
390,237,137106,1,0,0:0:0:0:
255,237,137249,1,0,0:0:0:0:
213,108,137392,1,0,0:0:0:0:
322,29,137535,1,0,0:0:0:0:
432,109,137678,1,0,0:0:0:0:
390,237,137820,6,0,P|441:259|399:353,1,180
287,347,138249,1,0,0:0:0:0:
210,347,138392,1,0,0:0:0:0:
248,281,138535,1,0,0:0:0:0:
287,347,138678,1,0,0:0:0:0:
210,347,138820,1,0,0:0:0:0:
262,184,138963,6,0,B|259:128|259:128|158:50,1,180
20,108,139392,1,0,0:0:0:0:
125,213,139535,1,0,0:0:0:0:
20,108,139678,1,0,0:0:0:0:
126,2,139820,1,0,0:0:0:0:
231,108,139963,1,0,0:0:0:0:
125,213,140106,6,0,P|83:258|128:354,1,180
291,356,140535,2,0,L|286:338,1,15
436,213,140678,2,0,L|413:225,1,15
260,133,140820,2,0,L|270:158,1,15
138,248,140963,2,0,L|164:254,1,15
291,355,141106,1,0,0:0:0:0:
485,353,141249,6,0,P|492:300|412:202,1,180
388,65,141678,1,0,0:0:0:0:
421,209,141820,1,0,0:0:0:0:
328,325,141963,1,0,0:0:0:0:
179,325,142106,1,0,0:0:0:0:
87,209,142249,1,0,0:0:0:0:
37,89,142392,5,0,0:0:0:0:
67,69,142463,1,0,0:0:0:0:
100,55,142534,1,0,0:0:0:0:
135,47,142606,1,0,0:0:0:0:
171,46,142677,1,0,0:0:0:0:
206,52,142749,1,0,0:0:0:0:
240,63,142820,1,0,0:0:0:0:
272,81,142892,1,0,0:0:0:0:
299,104,142963,1,0,0:0:0:0:
323,132,143034,1,0,0:0:0:0:
340,163,143106,1,0,0:0:0:0:
352,197,143177,1,0,0:0:0:0:
357,232,143249,6,0,L|358:330,1,90
260,200,152678,6,0,L|155:201,1,90
44,257,152963,2,0,L|45:160,1,90
124,42,153249,2,0,L|237:50,1,90
349,83,153535,2,0,L|354:187,1,90
457,292,153820,6,0,L|352:284,1,90
227,184,154106,1,0,0:0:0:0:
160,298,154249,1,0,0:0:0:0:
247,102,154392,2,0,L|354:103,1,90
512,269,154678,2,0,L|405:268,1,90
158,384,154963,6,0,L|159:277,1,90
22,177,155249,2,0,L|132:177,1,90
112,177,155535,1,0,0:0:0:0:
215,67,155678,1,0,0:0:0:0:
366,153,155820,1,0,0:0:0:0:
144,31,155963,6,0,P|89:51|29:182,1,180
140,287,156535,1,0,0:0:0:0:
291,180,156678,1,0,0:0:0:0:
140,287,156820,1,0,0:0:0:0:
291,180,156963,1,0,0:0:0:0:
30,352,157106,2,0,L|29:233,1,90
26,163,157392,5,0,0:0:0:0:
176,26,157535,1,0,0:0:0:0:
144,134,157678,1,0,0:0:0:0:
310,29,157820,1,0,0:0:0:0:
266,134,157963,1,0,0:0:0:0:
495,21,158106,2,0,L|494:123,1,90
494,110,158392,5,0,0:0:0:0:
421,176,158535,1,0,0:0:0:0:
496,323,158678,1,0,0:0:0:0:
401,283,158820,1,0,0:0:0:0:
291,127,158963,1,0,0:0:0:0:
252,241,159106,1,0,0:0:0:0:
144,74,159249,1,0,0:0:0:0:
161,187,159392,1,0,0:0:0:0:
23,25,159535,6,0,L|22:133,1,90
34,199,159820,1,0,0:0:0:0:
141,71,159963,1,0,0:0:0:0:
304,100,160106,1,0,0:0:0:0:
361,256,160249,1,0,0:0:0:0:
254,384,160392,1,0,0:0:0:0:
90,355,160535,1,0,0:0:0:0:
34,199,160678,5,0,0:0:0:0:
53,177,160749,1,0,0:0:0:0:
75,157,160820,1,0,0:0:0:0:
98,139,160892,1,0,0:0:0:0:
122,123,160963,1,0,0:0:0:0:
148,109,161035,1,0,0:0:0:0:
175,97,161106,1,0,0:0:0:0:
202,88,161178,1,0,0:0:0:0:
231,80,161249,1,0,0:0:0:0:
259,76,161320,1,0,0:0:0:0:
289,73,161392,1,0,0:0:0:0:
318,73,161463,1,0,0:0:0:0:
347,75,161535,6,0,L|348:134,1,45
503,351,161820,6,0,P|502:292|367:213,1,225
421,308,162249,1,0,0:0:0:0:
271,343,162391,1,0,0:0:0:0:
308,206,162534,1,0,0:0:0:0:
196,253,162678,2,0,L|75:254,1,112.5
17,49,162963,6,0,L|130:48,1,112.5
129,48,163249,1,0,0:0:0:0:
331,94,163392,2,0,P|381:103|424:152,1,112.5
355,355,163678,2,0,P|305:346|262:297,1,112.5
0,173,164106,6,0,L|124:113,1,112.5
201,28,164392,1,0,0:0:0:0:
375,35,164535,1,0,0:0:0:0:
194,144,164678,1,0,0:0:0:0:
372,142,164820,1,0,0:0:0:0:
372,142,164892,1,0,0:0:0:0:
372,142,164963,1,0,0:0:0:0:
512,288,165106,6,0,P|462:334|407:331,1,112.5
420,335,165392,1,0,0:0:0:0:
248,238,165535,1,0,0:0:0:0:
349,351,165678,1,0,0:0:0:0:
182,291,165820,1,0,0:0:0:0:
182,291,165892,1,0,0:0:0:0:
182,291,165963,1,0,0:0:0:0:
373,241,166106,1,0,0:0:0:0:
258,24,166249,6,0,L|258:144,1,112.5
144,213,166535,1,0,0:0:0:0:
352,309,166678,1,0,0:0:0:0:
109,273,166820,1,0,0:0:0:0:
332,365,166963,1,0,0:0:0:0:
76,340,167106,1,0,0:0:0:0:
370,246,167249,2,0,P|436:252|406:129,1,225
260,48,167678,5,0,0:0:0:0:
429,129,167820,1,0,0:0:0:0:
282,147,167963,1,0,0:0:0:0:
411,35,168106,1,0,0:0:0:0:
260,48,168249,1,0,0:0:0:0:
429,129,168392,1,0,0:0:0:0:
282,147,168535,1,0,0:0:0:0:
491,27,168678,6,0,P|508:93|448:234,1,225
449,232,169106,1,0,0:0:0:0:
286,243,169249,1,0,0:0:0:0:
286,243,169320,1,0,0:0:0:0:
286,243,169392,1,0,0:0:0:0:
374,127,169535,1,0,0:0:0:0:
449,232,169678,5,0,0:0:0:0:
449,232,169749,1,0,0:0:0:0:
449,232,169821,1,0,0:0:0:0:
375,315,169963,1,0,0:0:0:0:
286,243,170106,1,0,0:0:0:0:
286,243,170178,1,0,0:0:0:0:
286,243,170249,1,0,0:0:0:0:
14,182,170392,6,0,L|148:181,1,112.5
494,185,170678,2,0,L|360:186,1,112.5
262,27,170963,2,0,L|263:161,1,112.5
426,217,171249,1,0,0:0:0:0:
319,284,171392,1,0,0:0:0:0:
233,179,171535,1,0,0:0:0:0:
129,261,171678,1,0,0:0:0:0:
23,172,171820,1,0,0:0:0:0:
26,97,171963,5,0,0:0:0:0:
141,197,172106,1,0,0:0:0:0:
240,111,172249,1,0,0:0:0:0:
328,217,172392,1,0,0:0:0:0:
438,146,172535,1,0,0:0:0:0:
342,27,172678,2,0,L|342:150,1,112.5
341,384,172963,2,0,L|341:261,1,112.5
503,202,173249,6,0,L|366:203,1,112.5
236,252,173535,1,0,0:0:0:0:
62,207,173678,1,0,0:0:0:0:
187,85,173820,1,0,0:0:0:0:
236,252,173963,5,0,0:0:0:0:
85,141,174106,1,0,0:0:0:0:
252,67,174249,1,0,0:0:0:0:
236,252,174392,6,0,L|368:252,1,112.5
348,252,174678,1,0,0:0:0:0:
487,112,174820,1,0,0:0:0:0:
348,252,174963,1,0,0:0:0:0:
354,98,175106,1,0,0:0:0:0:
489,249,175249,1,0,0:0:0:0:
231,252,175392,2,0,L|109:253,1,112.5
0,167,175678,5,0,0:0:0:0:
0,167,175820,1,0,0:0:0:0:
126,38,176106,1,0,0:0:0:0:
232,145,176249,1,0,0:0:0:0:
360,35,176392,2,0,L|485:38,1,112.5
472,37,176678,5,0,0:0:0:0:
405,141,176820,1,0,0:0:0:0:
500,235,176963,1,0,0:0:0:0:
395,342,177106,1,0,0:0:0:0:
252,221,177249,1,0,0:0:0:0:
410,225,177392,1,0,0:0:0:0:
264,345,177535,1,0,0:0:0:0:
259,152,177678,2,0,L|260:34,1,112.5
129,29,177963,5,0,0:0:0:0:
26,146,178106,1,0,0:0:0:0:
169,143,178249,1,0,0:0:0:0:
90,249,178392,1,0,0:0:0:0:
19,345,178535,1,0,0:0:0:0:
200,347,178678,1,0,0:0:0:0:
267,234,178820,1,0,0:0:0:0:
404,276,178963,2,0,L|406:393,1,112.5
404,276,179249,5,0,0:0:0:0:
495,163,179392,1,0,0:0:0:0:
361,78,179535,1,0,0:0:0:0:
286,183,179678,1,0,0:0:0:0:
404,276,179820,1,0,0:0:0:0:
246,351,179963,2,0,L|113:351,1,112.5,0|4,0:0|0:0,0:0:0:0:
24,249,180249,5,0,0:0:0:0:
176,128,180392,1,0,0:0:0:0:
34,137,180535,1,0,0:0:0:0:
187,238,180678,1,0,0:0:0:0:
24,249,180820,1,0,0:0:0:0:
215,55,180963,2,0,L|323:54,1,90
304,54,181249,5,0,0:0:0:0:
428,178,181392,1,0,0:0:0:0:
304,302,181535,1,0,0:0:0:0:
179,178,181678,1,0,0:0:0:0:
304,54,181820,1,0,0:0:0:0:
428,178,181963,1,0,0:0:0:0:
303,302,182107,1,0,0:0:0:0:
161,105,182249,1,0,0:0:0:0:
43,69,182392,5,0,0:0:0:0:
36,88,182463,1,0,0:0:0:0:
33,108,182534,1,0,0:0:0:0:
33,128,182606,1,0,0:0:0:0:
36,148,182677,1,0,0:0:0:0:
41,167,182749,1,0,0:0:0:0:
50,186,182820,1,0,0:0:0:0:
61,203,182892,1,0,0:0:0:0:
74,218,182963,1,0,0:0:0:0:
90,231,183034,1,0,0:0:0:0:
107,241,183106,1,0,0:0:0:0:
126,249,183177,1,0,0:0:0:0:
145,254,183249,1,0,0:0:0:0:
166,256,183320,1,0,0:0:0:0:
186,255,183392,1,0,0:0:0:0:
206,251,183463,1,0,0:0:0:0:
224,241,183535,6,0,L|327:236,1,90
313,236,183820,1,0,0:0:0:0:
415,215,183963,1,0,0:0:0:0:
415,120,184106,1,0,0:0:0:0:
496,167,184249,1,0,0:0:0:0:
414,215,184392,1,0,0:0:0:0:
415,120,184535,1,0,0:0:0:0:
509,310,184678,6,0,L|418:311,1,90
419,310,184963,1,0,0:0:0:0:
313,237,185106,2,0,P|257:210|210:222,1,90
263,307,185392,1,0,0:0:0:0:
110,352,185535,2,0,P|65:351|28:327,1,90
8,167,185820,6,0,L|65:85,1,90
59,93,186106,1,0,0:0:0:0:
173,35,186249,2,0,B|231:36|231:36|274:65,1,90
232,176,186535,2,0,B|258:193|258:193|316:194,1,90
364,45,186820,2,0,P|426:40|471:64,1,90
416,127,187106,5,0,0:0:0:0:
480,191,187249,1,0,0:0:0:0:
416,255,187392,1,0,0:0:0:0:
353,191,187535,1,0,0:0:0:0:
417,127,187678,1,0,0:0:0:0:
416,255,187820,1,0,0:0:0:0:
480,191,187963,1,0,0:0:0:0:
277,187,188106,6,0,P|226:226|172:199,1,90
169,213,188320,1,0,0:0:0:0:
128,213,188392,2,0,L|21:212,1,90
20,180,188606,1,0,0:0:0:0:
33,133,188678,2,0,L|59:115,3,30
81,76,188892,1,0,0:0:0:0:
120,55,188963,1,0,0:0:0:0:
164,42,189034,1,0,0:0:0:0:
208,38,189106,1,0,0:0:0:0:
253,42,189177,1,0,0:0:0:0:
301,55,189249,6,0,L|302:168,1,90
218,217,189535,2,0,P|296:253|324:248,1,90
385,187,189820,2,0,P|428:195|463:222,1,90
501,342,190106,1,0,0:0:0:0:
382,286,190249,1,0,0:0:0:0:
244,350,190392,6,0,L|242:249,1,90
161,186,190678,1,0,0:0:0:0:
331,187,190820,1,0,0:0:0:0:
168,104,190963,1,0,0:0:0:0:
338,103,191106,1,0,0:0:0:0:
254,21,191249,2,0,L|256:120,1,90
475,204,191535,6,0,P|436:239|371:232,1,90
278,161,191820,2,0,P|234:168|203:199,1,90
88,215,192106,1,0,0:0:0:0:
27,331,192249,1,0,0:0:0:0:
27,331,192320,1,0,0:0:0:0:
27,331,192392,1,0,0:0:0:0:
151,305,192535,1,0,0:0:0:0:
243,208,192678,6,0,P|304:207|322:181,1,90
285,57,192963,2,0,P|242:49|208:77,1,90
84,88,193249,1,0,0:0:0:0:
84,88,193320,1,0,0:0:0:0:
84,88,193392,1,0,0:0:0:0:
13,205,193535,2,0,P|66:227|129:202,1,90
357,187,193820,6,0,P|317:166|273:169,1,90
170,260,194106,1,0,0:0:0:0:
170,260,194249,1,0,0:0:0:0:
301,329,194392,1,0,0:0:0:0:
301,329,194535,1,0,0:0:0:0:
355,186,194678,2,0,L|353:82,1,90
497,31,194963,6,0,P|458:73|411:56,1,90
329,19,195249,2,0,P|285:21|261:58,1,90
255,164,195535,2,0,L|241:173,6,15
120,29,195820,2,0,L|121:140,1,90
107,350,196106,6,0,P|113:288|152:266,1,90
173,258,196320,1,0,0:0:0:0:
223,263,196392,2,0,L|320:263,1,90
414,184,196678,1,0,0:0:0:0:
414,184,196749,1,0,0:0:0:0:
414,184,196820,1,0,0:0:0:0:
458,333,196963,2,0,L|361:333,1,90
326,333,197178,5,0,0:0:0:0:
284,345,197249,2,0,L|225:258,1,90
128,218,197535,1,0,0:0:0:0:
128,218,197606,1,0,0:0:0:0:
128,218,197678,1,0,0:0:0:0:
191,28,197820,6,0,L|188:139,1,90
252,322,198106,2,0,L|255:211,1,90
381,31,198392,2,0,L|378:142,1,90
473,195,198678,1,0,0:0:0:0:
384,281,198820,1,0,0:0:0:0:
367,157,198963,1,0,0:0:0:0:
473,195,199106,1,0,0:0:0:0:
326,335,199249,6,0,P|265:344|205:314,1,90
258,234,199535,2,0,L|256:136,1,90
326,68,199820,1,0,0:0:0:0:
182,68,199963,1,0,0:0:0:0:
324,149,200106,1,0,0:0:0:0:
170,149,200249,1,0,0:0:0:0:
330,230,200392,1,0,0:0:0:0:
165,228,200535,1,0,0:0:0:0:
256,363,200678,6,0,L|256:258,1,90
170,149,200963,1,0,0:0:0:0:
253,53,201106,1,0,0:0:0:0:
327,147,201249,1,0,0:0:0:0:
251,239,201392,1,0,0:0:0:0:
251,239,201463,1,0,0:0:0:0:
251,239,201535,1,0,0:0:0:0:
154,310,201678,1,0,0:0:0:0:
7,252,201820,6,0,L|6:143,1,90
72,68,202106,1,0,0:0:0:0:
161,167,202249,1,0,0:0:0:0:
157,43,202392,1,0,0:0:0:0:
198,87,202463,1,0,0:0:0:0:
235,129,202535,1,0,0:0:0:0:
323,35,202678,2,0,L|439:36,1,90
512,213,202963,6,0,L|396:212,1,90
326,132,203249,1,0,0:0:0:0:
294,251,203392,1,0,0:0:0:0:
224,123,203535,1,0,0:0:0:0:
198,240,203678,1,0,0:0:0:0:
140,158,203820,2,0,L|20:162,1,90
252,24,204106,6,0,L|368:25,1,90
448,90,204392,1,0,0:0:0:0:
352,153,204535,1,0,0:0:0:0:
352,153,204606,1,0,0:0:0:0:
352,153,204678,2,0,L|351:244,1,90
178,357,204963,2,0,L|179:266,1,90
256,28,205249,6,0,L|257:123,1,90
272,157,205463,1,0,0:0:0:0:
300,190,205535,2,0,P|331:230|378:233,1,90
494,165,205820,1,0,0:0:0:0:
494,165,205892,1,0,0:0:0:0:
494,165,205963,1,0,0:0:0:0:
465,287,206106,2,0,L|360:287,1,90
375,287,206320,1,0,0:0:0:0:
335,290,206392,6,0,P|294:323|240:318,1,90
208,205,206678,1,0,0:0:0:0:
208,205,206749,1,0,0:0:0:0:
208,205,206820,1,0,0:0:0:0:
108,299,206963,1,0,0:0:0:0:
108,299,207035,1,0,0:0:0:0:
112,304,207106,1,0,0:0:0:0:
14,167,207249,5,0,0:0:0:0:
350,65,207392,1,0,0:0:0:0:
350,65,207463,1,0,0:0:0:0:
