osu file format v14

[General]
AudioFilename: audio.mp3
AudioLeadIn: 0
PreviewTime: -1
Countdown: 0
SampleSet: Soft
StackLeniency: 0.7
Mode: 3
LetterboxInBreaks: 0
SpecialStyle: 0
WidescreenStoryboard: 1

[Editor]
Bookmarks: 105820
DistanceSpacing: 0.9
BeatDivisor: 4
GridSize: 4
TimelineZoom: 1

[Metadata]
Title:Electric Love (t+pazolite Overcute Remix)
TitleUnicode:Electric Love (t+pazolite Overcute Remix)
Artist:Hatsune Miku
ArtistUnicode:Hatsune Miku
Creator:Zseikimatsu
Version:4K Love
Source:
Tags:vocaloid electronic onosakihito
BeatmapID:991470
BeatmapSetID:462380

[Difficulty]
HPDrainRate:5
CircleSize:4
OverallDifficulty:5
ApproachRate:5
SliderMultiplier:1.4
SliderTickRate:1

[Events]
//Background and Video events
0,0,"bg.png",0,0
//Break Periods
2,97735,103478
//Storyboard Layer 0 (Background)
//Storyboard Layer 1 (Fail)
//Storyboard Layer 2 (Pass)
//Storyboard Layer 3 (Foreground)
//Storyboard Sound Samples

[TimingPoints]
678,285.714285714286,4,2,0,15,1,0
1820,-100,4,1,0,5,0,0
20106,-100,4,1,0,15,0,1
29177,-100,4,1,0,15,0,0
29248,-100,4,1,0,15,0,1
38392,-100,4,1,0,15,0,0
56678,-153.846153846154,4,2,0,5,0,0
65820,-117.647058823529,4,2,0,15,0,0
70392,-100,4,1,0,5,0,0
72678,-100,4,1,0,5,0,0
73820,-100,4,1,0,10,0,0
74678,-100,4,1,0,20,0,0
74963,-100,4,1,0,15,0,1
84035,-100,4,1,0,15,0,0
84106,-100,4,1,0,15,0,1
84106,-100,4,2,0,15,0,1
97820,-100,4,1,0,15,0,0
106392,-117.647058823529,4,2,0,15,0,0
106963,-100,4,1,0,15,0,0
116106,-133.333333333333,4,2,0,15,0,0
129820,-100,4,1,0,10,0,0
133249,-100,4,1,0,10,0,0
134107,-100,4,1,0,20,0,0
134392,-100,4,1,0,15,0,1
134463,-100,4,1,0,15,0,0
136678,-100,4,1,0,15,0,1
136749,-100,4,1,0,15,0,0
138963,-100,4,1,0,5,0,1
139034,-100,4,1,0,15,0,0
141249,-100,4,1,0,15,0,1
141320,-100,4,1,0,5,0,0
152678,-100,4,2,0,5,0,0
157249,-100,4,1,0,5,0,0
160678,-100,4,1,0,10,0,0
161535,-100,4,1,0,20,0,0
161820,-100,4,1,0,15,0,1
170392,-80,4,1,0,15,0,0
170963,-100,4,1,0,15,0,1
180035,-100,4,1,0,15,0,0
180106,-100,4,1,0,15,0,1
184678,-100,4,1,0,15,0,0
189249,-100,4,1,0,15,0,1
189320,-100,4,1,0,15,0,0

[HitObjects]
64,192,1106,5,0,0:0:0:0:
192,192,1249,1,0,0:0:0:0:
192,192,1535,1,0,0:0:0:0:
448,192,1820,1,0,0:0:0:0:
320,192,1820,1,0,0:0:0:0:
448,192,2106,1,0,0:0:0:0:
64,192,2249,1,0,0:0:0:0:
192,192,2392,1,0,0:0:0:0:
448,192,2392,1,0,0:0:0:0:
64,192,2535,1,0,0:0:0:0:
320,192,2678,1,0,0:0:0:0:
448,192,2678,1,0,0:0:0:0:
192,192,2820,1,0,0:0:0:0:
64,192,2820,1,0,0:0:0:0:
320,192,2963,1,0,0:0:0:0:
192,192,3106,1,0,0:0:0:0:
64,192,3106,1,0,0:0:0:0:
320,192,3249,1,0,0:0:0:0:
448,192,3249,1,0,0:0:0:0:
64,192,3392,1,0,0:0:0:0:
192,192,3463,1,0,0:0:0:0:
448,192,3535,1,0,0:0:0:0:
320,192,3535,1,0,0:0:0:0:
448,192,3678,1,0,0:0:0:0:
320,192,3678,1,0,0:0:0:0:
64,192,3820,1,0,0:0:0:0:
192,192,3820,1,0,0:0:0:0:
192,192,4106,1,0,0:0:0:0:
64,192,4106,1,0,0:0:0:0:
192,192,4392,1,0,0:0:0:0:
64,192,4392,1,0,0:0:0:0:
192,192,4535,1,0,0:0:0:0:
448,192,4535,1,0,0:0:0:0:
192,192,4678,1,0,0:0:0:0:
448,192,4678,1,0,0:0:0:0:
320,192,4820,1,0,0:0:0:0:
192,192,4963,1,0,0:0:0:0:
448,192,5106,1,0,0:0:0:0:
192,192,5142,1,0,0:0:0:0:
64,192,5178,1,0,0:0:0:0:
320,192,5249,1,0,0:0:0:0:
192,192,5392,1,0,0:0:0:0:
64,192,5535,1,0,0:0:0:0:
448,192,5678,1,0,0:0:0:0:
320,192,5820,1,0,0:0:0:0:
448,192,6106,1,0,0:0:0:0:
64,192,6106,1,0,0:0:0:0:
320,192,6249,1,0,0:0:0:0:
192,192,6392,1,0,0:0:0:0:
64,192,6392,1,0,0:0:0:0:
192,192,6535,1,0,0:0:0:0:
64,192,6535,1,0,0:0:0:0:
448,192,6678,1,0,0:0:0:0:
320,192,6678,1,0,0:0:0:0:
448,192,7106,1,0,0:0:0:0:
320,192,7106,1,0,0:0:0:0:
64,192,7249,1,0,0:0:0:0:
192,192,7249,1,0,0:0:0:0:
320,192,7535,1,0,0:0:0:0:
448,192,7535,1,0,0:0:0:0:
320,192,7678,1,0,0:0:0:0:
192,192,7678,1,0,0:0:0:0:
64,192,7820,1,0,0:0:0:0:
192,192,7820,1,0,0:0:0:0:
64,192,8249,1,0,0:0:0:0:
192,192,8249,1,0,0:0:0:0:
320,192,8392,1,0,0:0:0:0:
448,192,8392,1,0,0:0:0:0:
448,192,8678,1,0,0:0:0:0:
320,192,8678,1,0,0:0:0:0:
192,192,8820,1,0,0:0:0:0:
64,192,8892,1,0,0:0:0:0:
192,192,8963,1,0,0:0:0:0:
448,192,9106,1,0,0:0:0:0:
320,192,9106,1,0,0:0:0:0:
192,192,9249,1,0,0:0:0:0:
64,192,9320,1,0,0:0:0:0:
192,192,9392,1,0,0:0:0:0:
320,192,9535,1,0,0:0:0:0:
448,192,9535,1,0,0:0:0:0:
64,192,9678,1,0,0:0:0:0:
192,192,9749,1,0,0:0:0:0:
64,192,9820,1,0,0:0:0:0:
192,192,9963,1,0,0:0:0:0:
320,192,9963,1,0,0:0:0:0:
448,192,10106,1,0,0:0:0:0:
64,192,10178,1,0,0:0:0:0:
320,192,10249,1,0,0:0:0:0:
192,192,10320,1,0,0:0:0:0:
320,192,10392,1,0,0:0:0:0:
448,192,10392,1,0,0:0:0:0:
64,192,10392,1,0,0:0:0:0:
320,192,10678,1,0,0:0:0:0:
448,192,10678,1,0,0:0:0:0:
64,192,10678,1,0,0:0:0:0:
320,192,10963,1,0,0:0:0:0:
448,192,10963,1,0,0:0:0:0:
192,192,10963,1,0,0:0:0:0:
64,192,11106,128,0,11249:0:0:0:0:
448,192,11392,1,0,0:0:0:0:
64,192,11392,1,0,0:0:0:0:
320,192,11463,1,0,0:0:0:0:
192,192,11535,1,0,0:0:0:0:
192,192,11749,1,0,0:0:0:0:
64,192,11820,1,0,0:0:0:0:
320,192,11963,1,0,0:0:0:0:
192,192,12035,1,0,0:0:0:0:
64,192,12106,1,0,0:0:0:0:
320,192,12249,1,0,0:0:0:0:
192,192,12392,1,0,0:0:0:0:
320,192,12535,1,0,0:0:0:0:
448,192,12678,1,0,0:0:0:0:
448,192,12820,1,0,0:0:0:0:
320,192,12892,1,0,0:0:0:0:
448,192,12963,1,0,0:0:0:0:
448,192,13106,1,0,0:0:0:0:
192,192,13106,1,0,0:0:0:0:
64,192,13249,1,0,0:0:0:0:
192,192,13392,128,0,13535:0:0:0:0:
448,192,13678,1,0,0:0:0:0:
320,192,13749,1,0,0:0:0:0:
64,192,13820,1,0,0:0:0:0:
192,192,13963,1,0,0:0:0:0:
448,192,14106,1,0,0:0:0:0:
192,192,14249,1,0,0:0:0:0:
64,192,14320,1,0,0:0:0:0:
192,192,14392,1,0,0:0:0:0:
448,192,14535,1,0,0:0:0:0:
320,192,14678,1,0,0:0:0:0:
192,192,14820,1,0,0:0:0:0:
64,192,14820,1,0,0:0:0:0:
320,192,14963,1,0,0:0:0:0:
448,192,14963,1,0,0:0:0:0:
448,192,15249,1,0,0:0:0:0:
448,192,15535,128,0,15678:0:0:0:0:
320,192,15678,1,0,0:0:0:0:
64,192,15963,1,0,0:0:0:0:
320,192,16035,1,0,0:0:0:0:
448,192,16106,1,0,0:0:0:0:
448,192,16392,1,0,0:0:0:0:
320,192,16535,1,0,0:0:0:0:
64,192,16606,1,0,0:0:0:0:
448,192,16678,1,0,0:0:0:0:
192,192,16678,1,0,0:0:0:0:
64,192,16820,1,0,0:0:0:0:
320,192,16820,1,0,0:0:0:0:
192,192,16963,1,0,0:0:0:0:
448,192,16963,1,0,0:0:0:0:
320,192,17106,1,0,0:0:0:0:
64,192,17249,1,0,0:0:0:0:
192,192,17320,1,0,0:0:0:0:
320,192,17392,1,0,0:0:0:0:
448,192,17463,1,0,0:0:0:0:
320,192,17535,1,0,0:0:0:0:
192,192,17678,1,0,0:0:0:0:
320,192,17820,1,0,0:0:0:0:
448,192,17820,1,0,0:0:0:0:
64,192,17820,128,0,18249:0:0:0:0:
320,192,18249,1,0,0:0:0:0:
448,192,18249,1,0,0:0:0:0:
192,192,18249,128,0,18678:0:0:0:0:
64,192,18678,1,0,0:0:0:0:
448,192,18678,1,0,0:0:0:0:
320,192,18678,128,0,19106:0:0:0:0:
448,192,19106,1,0,0:0:0:0:
192,192,19106,1,0,0:0:0:0:
64,192,19106,1,0,0:0:0:0:
448,192,19535,1,0,0:0:0:0:
64,192,19535,1,0,0:0:0:0:
320,192,19606,1,0,0:0:0:0:
192,192,19678,1,0,0:0:0:0:
448,192,19749,1,0,0:0:0:0:
320,192,19820,1,0,0:0:0:0:
64,192,19820,1,0,0:0:0:0:
64,192,20106,128,0,21249:0:0:0:0:
320,192,20106,1,0,0:0:0:0:
448,192,20106,1,0,0:0:0:0:
192,192,20249,1,0,0:0:0:0:
448,192,20392,1,0,0:0:0:0:
320,192,20392,1,0,0:0:0:0:
192,192,20535,1,0,0:0:0:0:
192,192,20678,1,0,0:0:0:0:
448,192,20963,1,0,0:0:0:0:
320,192,20963,1,0,0:0:0:0:
192,192,21106,1,0,0:0:0:0:
192,192,21392,1,0,0:0:0:0:
64,192,21392,1,0,0:0:0:0:
320,192,21535,1,0,0:0:0:0:
192,192,21535,1,0,0:0:0:0:
448,192,21678,1,0,0:0:0:0:
320,192,21820,1,0,0:0:0:0:
192,192,22106,1,0,0:0:0:0:
64,192,22106,1,0,0:0:0:0:
64,192,22392,1,0,0:0:0:0:
448,192,22392,128,0,23249:0:0:0:0:
320,192,22392,1,0,0:0:0:0:
64,192,22678,1,0,0:0:0:0:
320,192,22678,1,0,0:0:0:0:
192,192,22820,1,0,0:0:0:0:
192,192,22963,1,0,0:0:0:0:
320,192,23106,1,0,0:0:0:0:
192,192,23249,1,0,0:0:0:0:
64,192,23392,128,0,23820:0:0:0:0:
320,192,23678,1,0,0:0:0:0:
448,192,23820,1,0,0:0:0:0:
320,192,23963,1,0,0:0:0:0:
320,192,24249,1,0,0:0:0:0:
192,192,24392,1,0,0:0:0:0:
320,192,24535,1,0,0:0:0:0:
192,192,24820,1,0,0:0:0:0:
320,192,24963,1,0,0:0:0:0:
192,192,25106,1,0,0:0:0:0:
192,192,25392,1,0,0:0:0:0:
320,192,25535,1,0,0:0:0:0:
192,192,25678,1,0,0:0:0:0:
192,192,25963,1,0,0:0:0:0:
320,192,26106,1,0,0:0:0:0:
192,192,26249,1,0,0:0:0:0:
320,192,26535,1,0,0:0:0:0:
192,192,26678,1,0,0:0:0:0:
320,192,26820,1,0,0:0:0:0:
448,192,26963,128,0,27392:0:0:0:0:
192,192,26963,128,0,27392:0:0:0:0:
320,192,27392,128,0,27820:0:0:0:0:
64,192,27392,128,0,27820:0:0:0:0:
448,192,27820,128,0,28249:0:0:0:0:
192,192,27820,128,0,28249:0:0:0:0:
320,192,28249,128,0,28678:0:0:0:0:
448,192,28678,1,0,0:0:0:0:
192,192,28678,1,0,0:0:0:0:
64,192,28678,1,0,0:0:0:0:
64,192,28963,1,0,0:0:0:0:
192,192,28963,1,0,0:0:0:0:
448,192,28963,1,0,0:0:0:0:
320,192,29249,1,0,0:0:0:0:
448,192,29249,1,0,0:0:0:0:
192,192,29392,1,0,0:0:0:0:
320,192,29535,1,0,0:0:0:0:
64,192,29535,1,0,0:0:0:0:
192,192,29678,1,0,0:0:0:0:
192,192,29820,1,0,0:0:0:0:
320,192,30106,1,0,0:0:0:0:
448,192,30106,1,0,0:0:0:0:
192,192,30249,1,0,0:0:0:0:
64,192,30249,1,0,0:0:0:0:
64,192,30535,1,0,0:0:0:0:
192,192,30535,1,0,0:0:0:0:
320,192,30678,1,0,0:0:0:0:
448,192,30678,1,0,0:0:0:0:
64,192,30963,1,0,0:0:0:0:
192,192,30963,1,0,0:0:0:0:
192,192,31106,1,0,0:0:0:0:
320,192,31106,1,0,0:0:0:0:
320,192,31249,1,0,0:0:0:0:
448,192,31249,1,0,0:0:0:0:
192,192,31535,1,0,0:0:0:0:
64,192,31535,1,0,0:0:0:0:
320,192,31678,1,0,0:0:0:0:
192,192,31820,1,0,0:0:0:0:
448,192,31820,1,0,0:0:0:0:
320,192,31963,1,0,0:0:0:0:
320,192,32106,1,0,0:0:0:0:
64,192,32249,1,0,0:0:0:0:
192,192,32249,1,0,0:0:0:0:
64,192,32392,1,0,0:0:0:0:
448,192,32392,1,0,0:0:0:0:
320,192,32535,1,0,0:0:0:0:
192,192,32606,1,0,0:0:0:0:
448,192,32678,1,0,0:0:0:0:
448,192,33106,1,0,0:0:0:0:
448,192,33249,1,0,0:0:0:0:
320,192,33392,1,0,0:0:0:0:
320,192,33535,1,0,0:0:0:0:
64,192,33678,128,0,34249:0:0:0:0:
192,192,34249,1,0,0:0:0:0:
320,192,34392,1,0,0:0:0:0:
448,192,34535,1,0,0:0:0:0:
448,192,34678,128,0,35249:0:0:0:0:
320,192,35392,1,0,0:0:0:0:
320,192,35535,1,0,0:0:0:0:
448,192,35678,1,0,0:0:0:0:
192,192,35820,1,0,0:0:0:0:
64,192,35963,128,0,37249:0:0:0:0:
448,192,36106,1,0,0:0:0:0:
320,192,36106,1,0,0:0:0:0:
320,192,36535,1,0,0:0:0:0:
448,192,36535,1,0,0:0:0:0:
320,192,36963,1,0,0:0:0:0:
448,192,36963,1,0,0:0:0:0:
320,192,37392,1,0,0:0:0:0:
448,192,37392,1,0,0:0:0:0:
448,192,37820,1,0,0:0:0:0:
192,192,37820,1,0,0:0:0:0:
64,192,37820,1,0,0:0:0:0:
192,192,38106,1,0,0:0:0:0:
64,192,38106,1,0,0:0:0:0:
448,192,38106,1,0,0:0:0:0:
192,192,38392,1,0,0:0:0:0:
320,192,38392,128,0,38820:0:0:0:0:
64,192,38392,1,0,0:0:0:0:
192,192,38820,1,0,0:0:0:0:
64,192,38963,1,0,0:0:0:0:
192,192,39106,1,0,0:0:0:0:
320,192,39249,1,0,0:0:0:0:
448,192,39392,128,0,40106:0:0:0:0:
320,192,39535,1,0,0:0:0:0:
192,192,39535,1,0,0:0:0:0:
192,192,39820,1,0,0:0:0:0:
192,192,39963,1,0,0:0:0:0:
64,192,40249,1,0,0:0:0:0:
192,192,40249,1,0,0:0:0:0:
320,192,40392,1,0,0:0:0:0:
448,192,40392,1,0,0:0:0:0:
192,192,40678,1,0,0:0:0:0:
320,192,40678,1,0,0:0:0:0:
448,192,40678,128,0,41106:0:0:0:0:
192,192,40963,1,0,0:0:0:0:
64,192,40963,1,0,0:0:0:0:
320,192,41106,1,0,0:0:0:0:
192,192,41249,1,0,0:0:0:0:
64,192,41392,1,0,0:0:0:0:
64,192,41535,1,0,0:0:0:0:
192,192,41678,128,0,42392:0:0:0:0:
448,192,41963,1,0,0:0:0:0:
320,192,42106,1,0,0:0:0:0:
448,192,42249,1,0,0:0:0:0:
320,192,42392,1,0,0:0:0:0:
448,192,42535,1,0,0:0:0:0:
64,192,42678,1,0,0:0:0:0:
320,192,42678,1,0,0:0:0:0:
192,192,42963,1,0,0:0:0:0:
320,192,42963,128,0,43392:0:0:0:0:
448,192,43249,1,0,0:0:0:0:
192,192,43392,1,0,0:0:0:0:
64,192,43535,128,0,43820:0:0:0:0:
448,192,43820,1,0,0:0:0:0:
448,192,43963,128,0,44535:0:0:0:0:
320,192,44535,1,0,0:0:0:0:
192,192,44678,1,0,0:0:0:0:
320,192,44820,1,0,0:0:0:0:
64,192,44963,1,0,0:0:0:0:
448,192,45106,128,0,46392:0:0:0:0:
64,192,45249,1,0,0:0:0:0:
192,192,45392,1,0,0:0:0:0:
320,192,45535,1,0,0:0:0:0:
192,192,45678,1,0,0:0:0:0:
64,192,45820,1,0,0:0:0:0:
192,192,45963,1,0,0:0:0:0:
320,192,46106,1,0,0:0:0:0:
192,192,46249,1,0,0:0:0:0:
192,192,46392,1,0,0:0:0:0:
320,192,46535,1,0,0:0:0:0:
448,192,46678,1,0,0:0:0:0:
64,192,46820,1,0,0:0:0:0:
448,192,46820,1,0,0:0:0:0:
448,192,47106,1,0,0:0:0:0:
448,192,47249,1,0,0:0:0:0:
320,192,47249,1,0,0:0:0:0:
320,192,47535,1,0,0:0:0:0:
192,192,47535,1,0,0:0:0:0:
64,192,47535,1,0,0:0:0:0:
448,192,47678,1,0,0:0:0:0:
320,192,47963,1,0,0:0:0:0:
320,192,48106,1,0,0:0:0:0:
448,192,48249,128,0,49249:0:0:0:0:
192,192,49392,1,0,0:0:0:0:
320,192,49535,1,0,0:0:0:0:
448,192,49678,1,0,0:0:0:0:
448,192,49820,128,0,50249:0:0:0:0:
320,192,50249,1,0,0:0:0:0:
192,192,50392,1,0,0:0:0:0:
64,192,50535,1,0,0:0:0:0:
320,192,50678,1,0,0:0:0:0:
320,192,50820,128,0,51678:0:0:0:0:
192,192,51106,1,0,0:0:0:0:
64,192,51249,1,0,0:0:0:0:
192,192,51392,1,0,0:0:0:0:
64,192,51535,1,0,0:0:0:0:
192,192,51678,1,0,0:0:0:0:
64,192,51820,1,0,0:0:0:0:
448,192,51963,1,0,0:0:0:0:
192,192,52106,1,0,0:0:0:0:
64,192,52106,1,0,0:0:0:0:
448,192,52106,128,0,52392:0:0:0:0:
320,192,52392,1,0,0:0:0:0:
192,192,52535,1,0,0:0:0:0:
64,192,52678,128,0,52963:0:0:0:0:
320,192,52963,1,0,0:0:0:0:
320,192,53106,128,0,53535:0:0:0:0:
320,192,53678,1,0,0:0:0:0:
192,192,53820,1,0,0:0:0:0:
64,192,53963,1,0,0:0:0:0:
320,192,54106,1,0,0:0:0:0:
320,192,54249,128,0,55535:0:0:0:0:
64,192,54392,1,0,0:0:0:0:
192,192,54535,1,0,0:0:0:0:
64,192,54678,1,0,0:0:0:0:
192,192,54820,1,0,0:0:0:0:
64,192,54963,1,0,0:0:0:0:
192,192,55106,1,0,0:0:0:0:
64,192,55249,1,0,0:0:0:0:
192,192,55392,1,0,0:0:0:0:
448,192,55535,1,0,0:0:0:0:
448,192,55678,1,0,0:0:0:0:
192,192,55820,1,0,0:0:0:0:
64,192,55963,1,0,0:0:0:0:
448,192,55963,1,0,0:0:0:0:
192,192,56249,1,0,0:0:0:0:
192,192,56392,1,0,0:0:0:0:
320,192,56535,1,0,0:0:0:0:
448,192,56678,1,0,0:0:0:0:
64,192,56678,1,0,0:0:0:0:
320,192,57106,1,0,0:0:0:0:
320,192,57535,1,0,0:0:0:0:
192,192,58106,1,0,0:0:0:0:
192,192,58392,1,0,0:0:0:0:
192,192,58678,1,0,0:0:0:0:
448,192,58963,1,0,0:0:0:0:
64,192,59392,1,0,0:0:0:0:
64,192,59535,1,0,0:0:0:0:
192,192,59678,1,0,0:0:0:0:
64,192,59820,1,0,0:0:0:0:
192,192,59963,1,0,0:0:0:0:
320,192,60106,1,0,0:0:0:0:
320,192,60392,1,0,0:0:0:0:
448,192,60535,1,0,0:0:0:0:
192,192,60963,1,0,0:0:0:0:
64,192,61249,1,0,0:0:0:0:
64,192,61678,1,0,0:0:0:0:
448,192,62106,1,0,0:0:0:0:
448,192,62678,1,0,0:0:0:0:
448,192,62963,1,0,0:0:0:0:
448,192,63249,1,0,0:0:0:0:
320,192,63535,1,0,0:0:0:0:
192,192,63963,1,0,0:0:0:0:
64,192,64392,1,0,0:0:0:0:
320,192,64963,1,0,0:0:0:0:
320,192,65249,1,0,0:0:0:0:
320,192,65535,1,0,0:0:0:0:
448,192,65820,1,0,0:0:0:0:
192,192,65820,1,0,0:0:0:0:
64,192,65820,1,0,0:0:0:0:
320,192,65963,1,0,0:0:0:0:
192,192,66106,1,0,0:0:0:0:
448,192,66249,1,0,0:0:0:0:
64,192,66392,1,0,0:0:0:0:
320,192,66535,1,0,0:0:0:0:
64,192,66678,1,0,0:0:0:0:
448,192,66820,1,0,0:0:0:0:
192,192,66963,1,0,0:0:0:0:
448,192,67106,1,0,0:0:0:0:
64,192,67249,1,0,0:0:0:0:
448,192,67392,1,0,0:0:0:0:
192,192,67535,1,0,0:0:0:0:
448,192,67678,1,0,0:0:0:0:
64,192,67820,1,0,0:0:0:0:
320,192,67963,1,0,0:0:0:0:
64,192,68106,1,0,0:0:0:0:
448,192,68249,1,0,0:0:0:0:
192,192,68392,1,0,0:0:0:0:
320,192,68535,1,0,0:0:0:0:
64,192,68678,1,0,0:0:0:0:
448,192,68820,1,0,0:0:0:0:
64,192,68963,1,0,0:0:0:0:
320,192,69106,1,0,0:0:0:0:
64,192,69249,1,0,0:0:0:0:
448,192,69392,1,0,0:0:0:0:
192,192,69535,1,0,0:0:0:0:
448,192,69678,1,0,0:0:0:0:
192,192,69820,1,0,0:0:0:0:
320,192,69963,1,0,0:0:0:0:
64,192,70106,1,0,0:0:0:0:
448,192,70249,1,0,0:0:0:0:
192,192,70392,1,0,0:0:0:0:
320,192,70678,1,0,0:0:0:0:
192,192,70963,1,0,0:0:0:0:
320,192,71249,1,0,0:0:0:0:
192,192,71535,1,0,0:0:0:0:
320,192,71820,1,0,0:0:0:0:
192,192,72106,1,0,0:0:0:0:
320,192,72392,1,0,0:0:0:0:
64,192,72678,1,0,0:0:0:0:
448,192,72820,1,0,0:0:0:0:
64,192,72963,1,0,0:0:0:0:
448,192,73106,1,0,0:0:0:0:
64,192,73249,1,0,0:0:0:0:
448,192,73392,1,0,0:0:0:0:
64,192,73535,1,0,0:0:0:0:
448,192,73678,1,0,0:0:0:0:
64,192,73820,1,0,0:0:0:0:
192,192,73892,1,0,0:0:0:0:
320,192,73963,1,0,0:0:0:0:
64,192,74035,1,0,0:0:0:0:
192,192,74106,1,0,0:0:0:0:
320,192,74178,1,0,0:0:0:0:
448,192,74249,1,0,0:0:0:0:
192,192,74320,1,0,0:0:0:0:
64,192,74392,1,0,0:0:0:0:
448,192,74463,1,0,0:0:0:0:
320,192,74535,1,0,0:0:0:0:
192,192,74606,1,0,0:0:0:0:
64,192,74678,1,0,0:0:0:0:
448,192,74678,1,0,0:0:0:0:
320,192,74678,1,0,0:0:0:0:
448,192,74963,128,0,76106:0:0:0:0:
64,192,74963,128,0,76106:0:0:0:0:
192,192,74963,1,0,0:0:0:0:
320,192,74963,1,0,0:0:0:0:
192,192,75249,1,0,0:0:0:0:
320,192,75392,1,0,0:0:0:0:
320,192,75535,1,0,0:0:0:0:
192,192,75820,1,0,0:0:0:0:
320,192,75963,1,0,0:0:0:0:
320,192,76249,1,0,0:0:0:0:
192,192,76249,1,0,0:0:0:0:
64,192,76392,1,0,0:0:0:0:
448,192,76392,1,0,0:0:0:0:
448,192,76678,1,0,0:0:0:0:
448,192,76820,1,0,0:0:0:0:
64,192,76963,1,0,0:0:0:0:
192,192,76963,1,0,0:0:0:0:
320,192,77249,128,0,78249:0:0:0:0:
64,192,77535,1,0,0:0:0:0:
192,192,77678,1,0,0:0:0:0:
192,192,77820,1,0,0:0:0:0:
448,192,77963,1,0,0:0:0:0:
192,192,78106,1,0,0:0:0:0:
64,192,78249,128,0,78535:0:0:0:0:
64,192,78820,1,0,0:0:0:0:
192,192,78963,128,0,79392:0:0:0:0:
320,192,79106,1,0,0:0:0:0:
448,192,79249,1,0,0:0:0:0:
448,192,79392,128,0,80392:0:0:0:0:
320,192,79963,1,0,0:0:0:0:
192,192,80106,1,0,0:0:0:0:
192,192,80249,1,0,0:0:0:0:
64,192,80392,128,0,81249:0:0:0:0:
320,192,81106,1,0,0:0:0:0:
320,192,81249,128,0,81678:0:0:0:0:
192,192,81392,1,0,0:0:0:0:
64,192,81535,1,0,0:0:0:0:
192,192,81678,128,0,82249:0:0:0:0:
64,192,81820,1,0,0:0:0:0:
448,192,81820,1,0,0:0:0:0:
64,192,82249,128,0,82678:0:0:0:0:
320,192,82249,128,0,82678:0:0:0:0:
192,192,82678,128,0,83106:0:0:0:0:
448,192,82678,128,0,83106:0:0:0:0:
320,192,83106,128,0,83535:0:0:0:0:
448,192,83535,1,0,0:0:0:0:
192,192,83535,1,0,0:0:0:0:
64,192,83535,1,0,0:0:0:0:
64,192,83820,1,0,0:0:0:0:
192,192,83820,1,0,0:0:0:0:
448,192,83820,1,0,0:0:0:0:
320,192,84106,128,0,85392:0:0:0:0:
192,192,84106,1,0,0:0:0:0:
64,192,84249,1,0,0:0:0:0:
192,192,84392,1,0,0:0:0:0:
64,192,84535,1,0,0:0:0:0:
192,192,84678,1,0,0:0:0:0:
64,192,84820,1,0,0:0:0:0:
192,192,84963,1,0,0:0:0:0:
64,192,85106,1,0,0:0:0:0:
192,192,85249,1,0,0:0:0:0:
64,192,85392,1,0,0:0:0:0:
192,192,85535,1,0,0:0:0:0:
320,192,85678,1,0,0:0:0:0:
192,192,85820,1,0,0:0:0:0:
320,192,85963,1,0,0:0:0:0:
192,192,86106,1,0,0:0:0:0:
320,192,86249,1,0,0:0:0:0:
448,192,86392,1,0,0:0:0:0:
64,192,86392,128,0,87392:0:0:0:0:
320,192,86535,1,0,0:0:0:0:
448,192,86678,1,0,0:0:0:0:
320,192,86820,1,0,0:0:0:0:
448,192,86963,1,0,0:0:0:0:
320,192,87106,1,0,0:0:0:0:
448,192,87249,1,0,0:0:0:0:
448,192,87392,128,0,87820:0:0:0:0:
192,192,87535,1,0,0:0:0:0:
320,192,87678,1,0,0:0:0:0:
192,192,87820,1,0,0:0:0:0:
64,192,87963,1,0,0:0:0:0:
192,192,88106,1,0,0:0:0:0:
64,192,88249,1,0,0:0:0:0:
320,192,88249,1,0,0:0:0:0:
192,192,88392,1,0,0:0:0:0:
320,192,88535,128,0,89106:0:0:0:0:
64,192,88535,1,0,0:0:0:0:
192,192,88678,1,0,0:0:0:0:
192,192,88820,1,0,0:0:0:0:
64,192,88963,1,0,0:0:0:0:
448,192,88963,1,0,0:0:0:0:
192,192,89106,1,0,0:0:0:0:
64,192,89249,1,0,0:0:0:0:
192,192,89392,1,0,0:0:0:0:
448,192,89535,128,0,90249:0:0:0:0:
320,192,89535,1,0,0:0:0:0:
64,192,89535,1,0,0:0:0:0:
192,192,89678,1,0,0:0:0:0:
192,192,89820,1,0,0:0:0:0:
320,192,89963,1,0,0:0:0:0:
192,192,90106,1,0,0:0:0:0:
64,192,90106,1,0,0:0:0:0:
320,192,90249,1,0,0:0:0:0:
448,192,90392,1,0,0:0:0:0:
320,192,90535,1,0,0:0:0:0:
192,192,90678,1,0,0:0:0:0:
64,192,90820,128,0,92106:0:0:0:0:
192,192,90820,1,0,0:0:0:0:
448,192,90963,1,0,0:0:0:0:
320,192,91035,1,0,0:0:0:0:
448,192,91106,1,0,0:0:0:0:
192,192,91178,1,0,0:0:0:0:
320,192,91249,1,0,0:0:0:0:
192,192,91320,1,0,0:0:0:0:
448,192,91392,1,0,0:0:0:0:
320,192,91463,1,0,0:0:0:0:
448,192,91535,1,0,0:0:0:0:
192,192,91606,1,0,0:0:0:0:
320,192,91678,1,0,0:0:0:0:
192,192,91749,1,0,0:0:0:0:
448,192,91820,1,0,0:0:0:0:
320,192,91892,1,0,0:0:0:0:
448,192,91963,1,0,0:0:0:0:
192,192,92035,1,0,0:0:0:0:
64,192,92535,1,0,0:0:0:0:
320,192,92678,1,0,0:0:0:0:
448,192,92963,1,0,0:0:0:0:
192,192,93249,1,0,0:0:0:0:
64,192,93249,1,0,0:0:0:0:
448,192,93392,1,0,0:0:0:0:
320,192,93392,1,0,0:0:0:0:
192,192,93535,1,0,0:0:0:0:
320,192,93535,1,0,0:0:0:0:
64,192,93963,1,0,0:0:0:0:
192,192,93963,1,0,0:0:0:0:
192,192,94106,1,0,0:0:0:0:
320,192,94106,1,0,0:0:0:0:
192,192,94392,1,0,0:0:0:0:
320,192,94392,1,0,0:0:0:0:
320,192,94535,1,0,0:0:0:0:
448,192,94535,1,0,0:0:0:0:
64,192,94678,1,0,0:0:0:0:
192,192,94678,1,0,0:0:0:0:
192,192,95106,1,0,0:0:0:0:
64,192,95106,1,0,0:0:0:0:
320,192,95249,1,0,0:0:0:0:
448,192,95249,1,0,0:0:0:0:
448,192,95535,128,0,95820:0:0:0:0:
192,192,95535,1,0,0:0:0:0:
320,192,95820,128,0,96106:0:0:0:0:
64,192,95820,1,0,0:0:0:0:
192,192,96106,128,0,96392:0:0:0:0:
448,192,96106,1,0,0:0:0:0:
64,192,96392,128,0,96678:0:0:0:0:
320,192,96392,1,0,0:0:0:0:
448,192,96535,1,0,0:0:0:0:
320,192,96606,1,0,0:0:0:0:
448,192,96678,1,0,0:0:0:0:
320,192,96892,1,0,0:0:0:0:
192,192,96963,1,0,0:0:0:0:
320,192,97178,1,0,0:0:0:0:
192,192,97249,1,0,0:0:0:0:
64,192,97320,1,0,0:0:0:0:
448,192,97392,1,0,0:0:0:0:
320,192,97535,1,0,0:0:0:0:
192,192,97535,1,0,0:0:0:0:
64,192,97535,1,0,0:0:0:0:
320,192,106392,132,0,106963:0:0:0:0:
448,192,106963,1,0,0:0:0:0:
192,192,107106,1,0,0:0:0:0:
448,192,107249,1,0,0:0:0:0:
320,192,107249,1,0,0:0:0:0:
64,192,107392,1,0,0:0:0:0:
320,192,107535,1,0,0:0:0:0:
192,192,107678,128,0,107963:0:0:0:0:
448,192,107678,1,0,0:0:0:0:
64,192,107820,1,0,0:0:0:0:
320,192,107963,128,0,108820:0:0:0:0:
448,192,108820,1,0,0:0:0:0:
448,192,108963,1,0,0:0:0:0:
64,192,108963,1,0,0:0:0:0:
320,192,109106,1,0,0:0:0:0:
192,192,109249,128,0,109820:0:0:0:0:
320,192,109820,1,0,0:0:0:0:
192,192,109963,128,0,110249:0:0:0:0:
448,192,109963,1,0,0:0:0:0:
64,192,110106,1,0,0:0:0:0:
320,192,110249,128,0,110963:0:0:0:0:
64,192,110535,1,0,0:0:0:0:
192,192,110678,1,0,0:0:0:0:
448,192,110820,1,0,0:0:0:0:
192,192,110963,1,0,0:0:0:0:
320,192,111106,1,0,0:0:0:0:
448,192,111249,1,0,0:0:0:0:
64,192,111392,1,0,0:0:0:0:
320,192,111535,1,0,0:0:0:0:
192,192,111535,1,0,0:0:0:0:
448,192,111535,128,0,112963:0:0:0:0:
320,192,111963,1,0,0:0:0:0:
320,192,112106,128,0,112963:0:0:0:0:
192,192,112392,128,0,112963:0:0:0:0:
64,192,112535,128,0,112963:0:0:0:0:
320,192,113106,128,0,113535:0:0:0:0:
192,192,113249,128,0,113535:0:0:0:0:
64,192,113392,128,0,113535:0:0:0:0:
448,192,113535,1,0,0:0:0:0:
320,192,113678,128,0,114963:0:0:0:0:
64,192,113820,1,0,0:0:0:0:
192,192,113963,1,0,0:0:0:0:
64,192,114106,1,0,0:0:0:0:
192,192,114249,1,0,0:0:0:0:
64,192,114392,1,0,0:0:0:0:
192,192,114535,1,0,0:0:0:0:
64,192,114678,1,0,0:0:0:0:
192,192,114820,1,0,0:0:0:0:
448,192,114963,1,0,0:0:0:0:
192,192,115106,1,0,0:0:0:0:
320,192,115249,1,0,0:0:0:0:
64,192,115392,1,0,0:0:0:0:
448,192,115392,1,0,0:0:0:0:
64,192,116106,1,0,0:0:0:0:
192,192,116249,1,0,0:0:0:0:
320,192,116392,1,0,0:0:0:0:
320,192,116535,1,0,0:0:0:0:
448,192,116820,1,0,0:0:0:0:
320,192,117106,1,0,0:0:0:0:
448,192,117249,1,0,0:0:0:0:
320,192,117392,1,0,0:0:0:0:
192,192,117535,1,0,0:0:0:0:
192,192,117678,1,0,0:0:0:0:
64,192,117963,1,0,0:0:0:0:
192,192,118106,1,0,0:0:0:0:
192,192,118249,1,0,0:0:0:0:
320,192,118392,1,0,0:0:0:0:
320,192,118678,1,0,0:0:0:0:
64,192,118820,1,0,0:0:0:0:
192,192,118963,1,0,0:0:0:0:
192,192,119106,1,0,0:0:0:0:
448,192,119249,1,0,0:0:0:0:
320,192,119392,1,0,0:0:0:0:
192,192,119535,1,0,0:0:0:0:
192,192,119820,1,0,0:0:0:0:
64,192,119963,1,0,0:0:0:0:
320,192,120249,1,0,0:0:0:0:
192,192,120392,1,0,0:0:0:0:
192,192,120535,1,0,0:0:0:0:
64,192,120678,1,0,0:0:0:0:
320,192,120820,1,0,0:0:0:0:
192,192,120963,1,0,0:0:0:0:
64,192,121106,1,0,0:0:0:0:
320,192,121392,1,0,0:0:0:0:
192,192,121678,1,0,0:0:0:0:
320,192,121820,1,0,0:0:0:0:
448,192,121963,1,0,0:0:0:0:
192,192,122106,1,0,0:0:0:0:
64,192,122249,1,0,0:0:0:0:
448,192,122535,1,0,0:0:0:0:
320,192,122678,1,0,0:0:0:0:
320,192,122820,1,0,0:0:0:0:
192,192,122963,1,0,0:0:0:0:
64,192,123249,1,0,0:0:0:0:
320,192,123392,1,0,0:0:0:0:
448,192,123535,1,0,0:0:0:0:
448,192,123678,1,0,0:0:0:0:
192,192,123820,1,0,0:0:0:0:
320,192,123963,1,0,0:0:0:0:
320,192,124106,1,0,0:0:0:0:
320,192,124392,1,0,0:0:0:0:
448,192,124535,1,0,0:0:0:0:
64,192,124820,1,0,0:0:0:0:
64,192,124963,1,0,0:0:0:0:
320,192,125106,1,0,0:0:0:0:
448,192,125249,1,0,0:0:0:0:
64,192,125249,1,0,0:0:0:0:
192,192,125392,1,0,0:0:0:0:
320,192,125535,1,0,0:0:0:0:
448,192,125678,128,0,125820:0:0:0:0:
320,192,125963,1,0,0:0:0:0:
192,192,126249,1,0,0:0:0:0:
64,192,126392,1,0,0:0:0:0:
192,192,126535,1,0,0:0:0:0:
448,192,126678,1,0,0:0:0:0:
448,192,126820,1,0,0:0:0:0:
320,192,127106,1,0,0:0:0:0:
192,192,127249,1,0,0:0:0:0:
192,192,127392,1,0,0:0:0:0:
64,192,127535,1,0,0:0:0:0:
320,192,127820,1,0,0:0:0:0:
448,192,127963,1,0,0:0:0:0:
448,192,128106,1,0,0:0:0:0:
448,192,128249,1,0,0:0:0:0:
320,192,128392,1,0,0:0:0:0:
192,192,128535,1,0,0:0:0:0:
192,192,128678,1,0,0:0:0:0:
64,192,128820,1,0,0:0:0:0:
320,192,128963,1,0,0:0:0:0:
192,192,129106,1,0,0:0:0:0:
320,192,129392,1,0,0:0:0:0:
192,192,129535,1,0,0:0:0:0:
320,192,129678,1,0,0:0:0:0:
320,192,129820,1,0,0:0:0:0:
192,192,129963,1,0,0:0:0:0:
320,192,130106,1,0,0:0:0:0:
448,192,130249,1,0,0:0:0:0:
448,192,130392,1,0,0:0:0:0:
192,192,130535,1,0,0:0:0:0:
320,192,130678,1,0,0:0:0:0:
448,192,130820,128,0,131249:0:0:0:0:
320,192,131392,128,0,131678:0:0:0:0:
448,192,131678,1,0,0:0:0:0:
192,192,131820,1,0,0:0:0:0:
192,192,131963,1,0,0:0:0:0:
64,192,132106,1,0,0:0:0:0:
448,192,132106,128,0,132963:0:0:0:0:
320,192,132249,1,0,0:0:0:0:
64,192,132392,1,0,0:0:0:0:
320,192,132535,1,0,0:0:0:0:
64,192,132678,1,0,0:0:0:0:
320,192,132820,1,0,0:0:0:0:
192,192,132963,1,0,0:0:0:0:
192,192,133106,1,0,0:0:0:0:
448,192,133249,1,0,0:0:0:0:
64,192,133249,128,0,134106:0:0:0:0:
320,192,133320,1,0,0:0:0:0:
448,192,133392,1,0,0:0:0:0:
192,192,133463,1,0,0:0:0:0:
320,192,133535,1,0,0:0:0:0:
192,192,133606,1,0,0:0:0:0:
448,192,133678,1,0,0:0:0:0:
320,192,133749,1,0,0:0:0:0:
448,192,133820,1,0,0:0:0:0:
192,192,133892,1,0,0:0:0:0:
320,192,133963,1,0,0:0:0:0:
192,192,134035,1,0,0:0:0:0:
320,192,134106,1,0,0:0:0:0:
448,192,134106,1,0,0:0:0:0:
64,192,134392,128,0,134749:0:0:0:0:
192,192,134392,128,0,135178:0:0:0:0:
320,192,134392,128,0,135606:0:0:0:0:
448,192,134392,128,0,136035:0:0:0:0:
64,192,134820,128,0,136606:0:0:0:0:
192,192,135249,128,0,136606:0:0:0:0:
320,192,135678,128,0,137035:0:0:0:0:
448,192,136106,128,0,136320:0:0:0:0:
448,192,136392,128,0,137463:0:0:0:0:
192,192,136678,128,0,137035:0:0:0:0:
64,192,136678,128,0,138320:0:0:0:0:
320,192,137106,128,0,137463:0:0:0:0:
192,192,137106,128,0,137892:0:0:0:0:
320,192,137535,128,0,137892:0:0:0:0:
448,192,137535,128,0,138892:0:0:0:0:
320,192,137963,128,0,138892:0:0:0:0:
192,192,137963,128,0,138892:0:0:0:0:
64,192,138392,128,0,138606:0:0:0:0:
64,192,138678,128,0,138892:0:0:0:0:
192,192,138963,1,0,0:0:0:0:
320,192,138963,1,0,0:0:0:0:
448,192,138963,1,0,0:0:0:0:
64,192,138963,128,0,139392:0:0:0:0:
192,192,139392,128,0,139820:0:0:0:0:
320,192,139392,1,0,0:0:0:0:
320,192,139820,128,0,140249:0:0:0:0:
448,192,139820,1,0,0:0:0:0:
448,192,140249,128,0,140678:0:0:0:0:
64,192,140249,1,0,0:0:0:0:
320,192,140678,128,0,140963:0:0:0:0:
192,192,140678,1,0,0:0:0:0:
192,192,140963,128,0,141249:0:0:0:0:
64,192,140963,1,0,0:0:0:0:
448,192,141249,1,0,0:0:0:0:
320,192,141392,1,0,0:0:0:0:
192,192,141535,1,0,0:0:0:0:
64,192,141678,1,0,0:0:0:0:
448,192,141820,1,0,0:0:0:0:
320,192,141963,1,0,0:0:0:0:
192,192,142106,1,0,0:0:0:0:
64,192,142249,1,0,0:0:0:0:
448,192,142392,1,0,0:0:0:0:
320,192,142463,1,0,0:0:0:0:
192,192,142535,1,0,0:0:0:0:
64,192,142606,1,0,0:0:0:0:
192,192,142678,1,0,0:0:0:0:
320,192,142749,1,0,0:0:0:0:
448,192,142820,1,0,0:0:0:0:
320,192,142892,1,0,0:0:0:0:
192,192,142963,1,0,0:0:0:0:
64,192,143035,1,0,0:0:0:0:
192,192,143106,1,0,0:0:0:0:
320,192,143178,1,0,0:0:0:0:
448,192,143249,1,0,0:0:0:0:
64,192,143249,1,0,0:0:0:0:
448,192,143535,128,0,144678:0:0:0:0:
448,192,145106,1,0,0:0:0:0:
320,192,145249,1,0,0:0:0:0:
192,192,145535,1,0,0:0:0:0:
64,192,145820,128,0,146535:0:0:0:0:
192,192,146535,1,0,0:0:0:0:
320,192,146678,1,0,0:0:0:0:
448,192,146820,128,0,147106:0:0:0:0:
64,192,147392,1,0,0:0:0:0:
192,192,147535,1,0,0:0:0:0:
320,192,147820,1,0,0:0:0:0:
448,192,148106,128,0,149249:0:0:0:0:
448,192,149678,1,0,0:0:0:0:
320,192,149820,1,0,0:0:0:0:
192,192,150106,1,0,0:0:0:0:
64,192,150392,128,0,151106:0:0:0:0:
192,192,151106,1,0,0:0:0:0:
320,192,151249,1,0,0:0:0:0:
448,192,151392,128,0,151678:0:0:0:0:
192,192,151963,1,0,0:0:0:0:
448,192,151963,1,0,0:0:0:0:
320,192,152106,1,0,0:0:0:0:
64,192,152106,1,0,0:0:0:0:
64,192,152392,1,0,0:0:0:0:
320,192,152392,1,0,0:0:0:0:
64,192,152678,1,0,0:0:0:0:
448,192,152678,128,0,153820:0:0:0:0:
192,192,152820,1,0,0:0:0:0:
64,192,152963,1,0,0:0:0:0:
192,192,153106,1,0,0:0:0:0:
64,192,153249,1,0,0:0:0:0:
192,192,153392,1,0,0:0:0:0:
64,192,153535,1,0,0:0:0:0:
192,192,153678,1,0,0:0:0:0:
64,192,153820,1,0,0:0:0:0:
64,192,153963,1,0,0:0:0:0:
64,192,154106,1,0,0:0:0:0:
448,192,154249,1,0,0:0:0:0:
320,192,154392,1,0,0:0:0:0:
64,192,154535,1,0,0:0:0:0:
192,192,154678,1,0,0:0:0:0:
320,192,154820,1,0,0:0:0:0:
64,192,154963,128,0,155678:0:0:0:0:
320,192,154963,1,0,0:0:0:0:
448,192,155106,1,0,0:0:0:0:
320,192,155249,1,0,0:0:0:0:
448,192,155392,1,0,0:0:0:0:
320,192,155535,1,0,0:0:0:0:
192,192,155678,1,0,0:0:0:0:
320,192,155820,1,0,0:0:0:0:
448,192,155963,128,0,156249:0:0:0:0:
64,192,155963,1,0,0:0:0:0:
64,192,156106,1,0,0:0:0:0:
64,192,156249,1,0,0:0:0:0:
64,192,156392,1,0,0:0:0:0:
192,192,156535,1,0,0:0:0:0:
320,192,156678,1,0,0:0:0:0:
320,192,156820,1,0,0:0:0:0:
448,192,156963,1,0,0:0:0:0:
448,192,157106,128,0,158106:0:0:0:0:
192,192,157249,1,0,0:0:0:0:
64,192,157249,1,0,0:0:0:0:
192,192,157535,1,0,0:0:0:0:
64,192,157535,1,0,0:0:0:0:
320,192,157678,1,0,0:0:0:0:
192,192,157820,1,0,0:0:0:0:
64,192,157963,1,0,0:0:0:0:
64,192,158106,128,0,159392:0:0:0:0:
320,192,158392,1,0,0:0:0:0:
448,192,158392,1,0,0:0:0:0:
320,192,158678,1,0,0:0:0:0:
448,192,158678,1,0,0:0:0:0:
192,192,158820,1,0,0:0:0:0:
320,192,158963,1,0,0:0:0:0:
320,192,159106,1,0,0:0:0:0:
448,192,159249,1,0,0:0:0:0:
448,192,159392,128,0,160678:0:0:0:0:
192,192,159535,1,0,0:0:0:0:
64,192,159678,1,0,0:0:0:0:
192,192,159820,1,0,0:0:0:0:
64,192,159963,1,0,0:0:0:0:
192,192,160106,1,0,0:0:0:0:
64,192,160249,1,0,0:0:0:0:
192,192,160392,1,0,0:0:0:0:
64,192,160535,1,0,0:0:0:0:
192,192,160678,1,0,0:0:0:0:
64,192,160749,1,0,0:0:0:0:
192,192,160820,1,0,0:0:0:0:
320,192,160892,1,0,0:0:0:0:
448,192,160963,1,0,0:0:0:0:
64,192,161035,1,0,0:0:0:0:
192,192,161106,1,0,0:0:0:0:
320,192,161178,1,0,0:0:0:0:
448,192,161249,1,0,0:0:0:0:
64,192,161320,1,0,0:0:0:0:
192,192,161392,1,0,0:0:0:0:
320,192,161463,1,0,0:0:0:0:
448,192,161535,1,0,0:0:0:0:
192,192,161820,128,0,162963:0:0:0:0:
448,192,161820,1,0,0:0:0:0:
320,192,161820,1,0,0:0:0:0:
320,192,162106,1,0,0:0:0:0:
448,192,162106,1,0,0:0:0:0:
64,192,162249,1,0,0:0:0:0:
64,192,162392,1,0,0:0:0:0:
320,192,162678,1,0,0:0:0:0:
448,192,162678,1,0,0:0:0:0:
64,192,162820,1,0,0:0:0:0:
320,192,163106,1,0,0:0:0:0:
448,192,163106,1,0,0:0:0:0:
192,192,163249,1,0,0:0:0:0:
64,192,163249,1,0,0:0:0:0:
448,192,163392,1,0,0:0:0:0:
64,192,163535,1,0,0:0:0:0:
192,192,163535,1,0,0:0:0:0:
192,192,163678,1,0,0:0:0:0:
64,192,163678,1,0,0:0:0:0:
448,192,163820,1,0,0:0:0:0:
320,192,164106,128,0,164963:0:0:0:0:
64,192,164106,1,0,0:0:0:0:
64,192,164392,1,0,0:0:0:0:
192,192,164392,1,0,0:0:0:0:
64,192,164535,1,0,0:0:0:0:
64,192,164678,1,0,0:0:0:0:
448,192,164820,1,0,0:0:0:0:
192,192,164963,1,0,0:0:0:0:
64,192,165106,128,0,165392:0:0:0:0:
448,192,165678,1,0,0:0:0:0:
320,192,165820,1,0,0:0:0:0:
448,192,165963,1,0,0:0:0:0:
320,192,166106,1,0,0:0:0:0:
192,192,166249,128,0,167249:0:0:0:0:
448,192,166820,1,0,0:0:0:0:
448,192,166963,1,0,0:0:0:0:
320,192,167106,1,0,0:0:0:0:
64,192,167249,128,0,167963:0:0:0:0:
448,192,167963,1,0,0:0:0:0:
448,192,168106,1,0,0:0:0:0:
192,192,168249,1,0,0:0:0:0:
64,192,168392,1,0,0:0:0:0:
192,192,168535,128,0,169106:0:0:0:0:
320,192,168678,1,0,0:0:0:0:
64,192,168678,1,0,0:0:0:0:
64,192,169106,128,0,169535:0:0:0:0:
448,192,169106,128,0,169535:0:0:0:0:
192,192,169535,128,0,169963:0:0:0:0:
320,192,169535,128,0,169963:0:0:0:0:
64,192,169963,128,0,170392:0:0:0:0:
448,192,169963,128,0,170392:0:0:0:0:
192,192,170392,1,0,0:0:0:0:
320,192,170392,1,0,0:0:0:0:
192,192,170678,1,0,0:0:0:0:
320,192,170678,1,0,0:0:0:0:
320,192,170963,128,0,172249:0:0:0:0:
192,192,170963,1,0,0:0:0:0:
64,192,171106,1,0,0:0:0:0:
192,192,171249,1,0,0:0:0:0:
64,192,171392,1,0,0:0:0:0:
192,192,171535,1,0,0:0:0:0:
64,192,171678,1,0,0:0:0:0:
192,192,171820,1,0,0:0:0:0:
64,192,171963,1,0,0:0:0:0:
192,192,172106,1,0,0:0:0:0:
64,192,172249,1,0,0:0:0:0:
192,192,172392,1,0,0:0:0:0:
192,192,172535,1,0,0:0:0:0:
320,192,172678,1,0,0:0:0:0:
320,192,172820,1,0,0:0:0:0:
192,192,172963,1,0,0:0:0:0:
448,192,173106,1,0,0:0:0:0:
320,192,173249,1,0,0:0:0:0:
64,192,173249,128,0,174249:0:0:0:0:
448,192,173392,1,0,0:0:0:0:
320,192,173535,1,0,0:0:0:0:
448,192,173678,1,0,0:0:0:0:
320,192,173820,1,0,0:0:0:0:
448,192,173963,1,0,0:0:0:0:
320,192,174106,1,0,0:0:0:0:
448,192,174249,128,0,174678:0:0:0:0:
320,192,174392,1,0,0:0:0:0:
192,192,174535,1,0,0:0:0:0:
64,192,174678,1,0,0:0:0:0:
320,192,174820,1,0,0:0:0:0:
320,192,174963,1,0,0:0:0:0:
192,192,175106,1,0,0:0:0:0:
192,192,175249,1,0,0:0:0:0:
448,192,175392,128,0,175963:0:0:0:0:
320,192,175963,1,0,0:0:0:0:
192,192,176106,1,0,0:0:0:0:
64,192,176249,1,0,0:0:0:0:
64,192,176392,128,0,176963:0:0:0:0:
192,192,177106,1,0,0:0:0:0:
192,192,177249,1,0,0:0:0:0:
320,192,177392,1,0,0:0:0:0:
192,192,177535,1,0,0:0:0:0:
320,192,177678,128,0,178963:0:0:0:0:
448,192,177678,128,0,178963:0:0:0:0:
192,192,177820,1,0,0:0:0:0:
64,192,177820,1,0,0:0:0:0:
192,192,178249,1,0,0:0:0:0:
64,192,178249,1,0,0:0:0:0:
192,192,178678,1,0,0:0:0:0:
64,192,178678,1,0,0:0:0:0:
192,192,179106,1,0,0:0:0:0:
64,192,179106,1,0,0:0:0:0:
320,192,179392,1,0,0:0:0:0:
192,192,179535,1,0,0:0:0:0:
64,192,179678,1,0,0:0:0:0:
64,192,179820,1,0,0:0:0:0:
448,192,180106,1,0,0:0:0:0:
192,192,180106,1,0,0:0:0:0:
448,192,180249,1,0,0:0:0:0:
192,192,180392,1,0,0:0:0:0:
448,192,180535,1,0,0:0:0:0:
192,192,180678,1,0,0:0:0:0:
448,192,180820,1,0,0:0:0:0:
192,192,180963,1,0,0:0:0:0:
448,192,181106,1,0,0:0:0:0:
64,192,181249,1,0,0:0:0:0:
320,192,181249,1,0,0:0:0:0:
64,192,181392,1,0,0:0:0:0:
320,192,181535,1,0,0:0:0:0:
64,192,181678,1,0,0:0:0:0:
320,192,181820,1,0,0:0:0:0:
64,192,181963,1,0,0:0:0:0:
320,192,182106,1,0,0:0:0:0:
64,192,182249,1,0,0:0:0:0:
192,192,182392,1,0,0:0:0:0:
320,192,182463,1,0,0:0:0:0:
448,192,182535,1,0,0:0:0:0:
64,192,182606,1,0,0:0:0:0:
192,192,182678,1,0,0:0:0:0:
320,192,182749,1,0,0:0:0:0:
192,192,182820,1,0,0:0:0:0:
320,192,182892,1,0,0:0:0:0:
448,192,182963,1,0,0:0:0:0:
64,192,183035,1,0,0:0:0:0:
192,192,183106,1,0,0:0:0:0:
320,192,183178,1,0,0:0:0:0:
192,192,183249,1,0,0:0:0:0:
320,192,183320,1,0,0:0:0:0:
448,192,183392,1,0,0:0:0:0:
64,192,183463,1,0,0:0:0:0:
192,192,183535,1,0,0:0:0:0:
320,192,183535,1,0,0:0:0:0:
448,192,184106,1,0,0:0:0:0:
192,192,184106,1,0,0:0:0:0:
320,192,184106,1,0,0:0:0:0:
64,192,184106,1,0,0:0:0:0:
64,192,184392,1,0,0:0:0:0:
192,192,184392,1,0,0:0:0:0:
320,192,184392,1,0,0:0:0:0:
448,192,184392,1,0,0:0:0:0:
192,192,184678,1,0,0:0:0:0:
320,192,184678,1,0,0:0:0:0:
448,192,184678,1,0,0:0:0:0:
64,192,184678,128,0,185106:0:0:0:0:
192,192,185106,1,0,0:0:0:0:
192,192,185249,1,0,0:0:0:0:
320,192,185392,1,0,0:0:0:0:
448,192,185535,128,0,185963:0:0:0:0:
192,192,186249,1,0,0:0:0:0:
192,192,186392,1,0,0:0:0:0:
320,192,186535,1,0,0:0:0:0:
320,192,186678,1,0,0:0:0:0:
448,192,186820,128,0,188106:0:0:0:0:
64,192,187106,1,0,0:0:0:0:
192,192,187249,1,0,0:0:0:0:
64,192,187392,1,0,0:0:0:0:
64,192,187678,1,0,0:0:0:0:
192,192,187820,1,0,0:0:0:0:
64,192,187963,1,0,0:0:0:0:
64,192,188249,1,0,0:0:0:0:
192,192,188392,1,0,0:0:0:0:
64,192,188535,1,0,0:0:0:0:
192,192,188820,1,0,0:0:0:0:
64,192,188963,1,0,0:0:0:0:
192,192,189106,1,0,0:0:0:0:
64,192,189249,1,0,0:0:0:0:
320,192,189249,1,0,0:0:0:0:
448,192,189249,1,0,0:0:0:0:
192,192,189392,1,0,0:0:0:0:
64,192,189535,1,0,0:0:0:0:
64,192,189678,1,0,0:0:0:0:
192,192,189963,1,0,0:0:0:0:
448,192,189963,1,0,0:0:0:0:
320,192,190106,1,0,0:0:0:0:
192,192,190249,1,0,0:0:0:0:
448,192,190249,1,0,0:0:0:0:
192,192,190535,1,0,0:0:0:0:
448,192,190535,1,0,0:0:0:0:
320,192,190678,1,0,0:0:0:0:
448,192,190820,1,0,0:0:0:0:
192,192,190820,1,0,0:0:0:0:
64,192,190963,1,0,0:0:0:0:
64,192,191249,1,0,0:0:0:0:
192,192,191535,128,0,192678:0:0:0:0:
448,192,191678,1,0,0:0:0:0:
320,192,191820,1,0,0:0:0:0:
448,192,191963,1,0,0:0:0:0:
448,192,192249,1,0,0:0:0:0:
320,192,192392,1,0,0:0:0:0:
448,192,192535,1,0,0:0:0:0:
64,192,192678,128,0,193249:0:0:0:0:
448,192,192820,1,0,0:0:0:0:
192,192,192963,1,0,0:0:0:0:
448,192,193106,1,0,0:0:0:0:
320,192,193249,128,0,193820:0:0:0:0:
192,192,193392,1,0,0:0:0:0:
64,192,193535,1,0,0:0:0:0:
192,192,193678,1,0,0:0:0:0:
320,192,193963,1,0,0:0:0:0:
192,192,194106,1,0,0:0:0:0:
448,192,194106,1,0,0:0:0:0:
320,192,194249,1,0,0:0:0:0:
320,192,194535,1,0,0:0:0:0:
192,192,194678,1,0,0:0:0:0:
448,192,194678,1,0,0:0:0:0:
320,192,194820,1,0,0:0:0:0:
320,192,195106,1,0,0:0:0:0:
192,192,195249,1,0,0:0:0:0:
448,192,195249,1,0,0:0:0:0:
320,192,195392,1,0,0:0:0:0:
64,192,195535,128,0,195606:0:0:0:0:
192,192,195820,128,0,195892:0:0:0:0:
64,192,196106,1,0,0:0:0:0:
192,192,196106,1,0,0:0:0:0:
320,192,196106,1,0,0:0:0:0:
448,192,196106,128,0,196535:0:0:0:0:
320,192,196535,128,0,196963:0:0:0:0:
192,192,196535,1,0,0:0:0:0:
64,192,196535,1,0,0:0:0:0:
192,192,196963,128,0,197392:0:0:0:0:
448,192,196963,1,0,0:0:0:0:
64,192,196963,1,0,0:0:0:0:
320,192,197392,1,0,0:0:0:0:
448,192,197392,1,0,0:0:0:0:
64,192,197392,128,0,197820:0:0:0:0:
192,192,197820,1,0,0:0:0:0:
320,192,197820,1,0,0:0:0:0:
448,192,197820,128,0,198106:0:0:0:0:
320,192,198106,1,0,0:0:0:0:
192,192,198106,1,0,0:0:0:0:
64,192,198106,128,0,198392:0:0:0:0:
192,192,198392,1,0,0:0:0:0:
192,192,198535,1,0,0:0:0:0:
320,192,198678,1,0,0:0:0:0:
448,192,198820,1,0,0:0:0:0:
64,192,199106,1,0,0:0:0:0:
192,192,199249,1,0,0:0:0:0:
320,192,199392,1,0,0:0:0:0:
192,192,199678,1,0,0:0:0:0:
320,192,199820,1,0,0:0:0:0:
448,192,199963,1,0,0:0:0:0:
64,192,199963,1,0,0:0:0:0:
64,192,200106,1,0,0:0:0:0:
192,192,200392,1,0,0:0:0:0:
64,192,200678,1,0,0:0:0:0:
320,192,200678,1,0,0:0:0:0:
192,192,200820,1,0,0:0:0:0:
320,192,200963,1,0,0:0:0:0:
448,192,201106,1,0,0:0:0:0:
64,192,201392,1,0,0:0:0:0:
192,192,201535,1,0,0:0:0:0:
320,192,201678,1,0,0:0:0:0:
192,192,201963,1,0,0:0:0:0:
320,192,202106,1,0,0:0:0:0:
448,192,202249,1,0,0:0:0:0:
192,192,202535,1,0,0:0:0:0:
320,192,202678,1,0,0:0:0:0:
192,192,202820,1,0,0:0:0:0:
64,192,203106,1,0,0:0:0:0:
192,192,203249,1,0,0:0:0:0:
320,192,203392,1,0,0:0:0:0:
192,192,203678,1,0,0:0:0:0:
320,192,203820,1,0,0:0:0:0:
448,192,203963,1,0,0:0:0:0:
64,192,204249,1,0,0:0:0:0:
192,192,204392,1,0,0:0:0:0:
320,192,204535,1,0,0:0:0:0:
448,192,204678,128,0,204749:0:0:0:0:
192,192,204963,128,0,205035:0:0:0:0:
448,192,205249,1,0,0:0:0:0:
320,192,205249,128,0,205963:0:0:0:0:
64,192,205249,1,0,0:0:0:0:
448,192,205678,1,0,0:0:0:0:
64,192,205678,1,0,0:0:0:0:
64,192,205963,1,0,0:0:0:0:
192,192,206106,1,0,0:0:0:0:
64,192,206249,1,0,0:0:0:0:
192,192,206392,1,0,0:0:0:0:
320,192,206535,1,0,0:0:0:0:
64,192,206820,1,0,0:0:0:0:
448,192,206963,1,0,0:0:0:0:
64,192,207249,1,0,0:0:0:0:
192,192,207392,1,0,0:0:0:0:
320,192,207392,1,0,0:0:0:0:
448,192,207392,1,0,0:0:0:0:
64,192,207392,1,0,0:0:0:0:
