osu file format v14

[General]
AudioFilename: audio.mp3
AudioLeadIn: 0
PreviewTime: 611
Countdown: 0
SampleSet: None
StackLeniency: 0.2
Mode: 0
LetterboxInBreaks: 0
WidescreenStoryboard: 0

[Editor]
DistanceSpacing: 1
BeatDivisor: 4
GridSize: 32
TimelineZoom: 0.9

[Metadata]
Title:Dan Dan Hayaku Naru
TitleUnicode:だんだん早くなる
Artist:Hatsune Miku
ArtistUnicode:初音ミク
Creator:CoLouRed GlaZeE
Version:Hayaku
Source:40mP
Tags:
BeatmapID:1544187
BeatmapSetID:731791

[Difficulty]
HPDrainRate:5
CircleSize:4
OverallDifficulty:8
ApproachRate:9
SliderMultiplier:1.6
SliderTickRate:1

[Events]
//Background and Video events
//Break Periods
2,84264,94444
//Storyboard Layer 0 (Background)
//Storyboard Layer 1 (Fail)
//Storyboard Layer 2 (Pass)
//Storyboard Layer 3 (Foreground)
//Storyboard Sound Samples

[TimingPoints]
1250,638.297872340426,4,2,0,60,1,0
3803,612.244897959184,4,2,0,60,1,0
6251,588.235294117647,4,2,0,60,1,0
8603,566.037735849057,4,2,0,60,1,0
10867,545.454545454546,4,2,0,60,1,0
13048,526.315789473684,4,2,0,60,1,0
15153,508.474576271186,4,2,0,60,1,0
17186,491.803278688525,4,2,0,60,1,0
19153,476.190476190476,4,2,0,60,1,0
45795,461.538461538462,4,2,0,60,1,0
49458,447.761194029851,4,2,0,60,1,0
53012,434.782608695652,4,2,0,60,1,0
56463,422.535211267606,4,2,0,60,1,0
76744,447.761194029851,4,2,0,60,1,0
78506,461.538461538462,4,2,0,60,1,0
80381,476.190476190476,4,2,0,60,1,0
82285,508.474576271186,4,2,0,60,1,0
84318,545.454545454546,4,2,0,60,1,0
86463,566.037735849057,4,2,0,60,1,0
88727,612.244897959184,4,2,0,60,1,0
91137,638.297872340426,4,2,0,60,1,0
93690,2708.80361173815,4,2,0,60,1,0
96402,476.190476190476,4,2,0,60,1,0
98306,461.538461538462,4,2,0,60,1,0
101998,434.782608695652,4,2,0,60,1,0
105476,410.958904109589,4,2,0,60,1,0
108763,389.61038961039,4,2,0,60,1,0
111879,370.37037037037,4,2,0,60,1,0
113360,379.746835443038,4,2,0,60,1,0
114878,370.37037037037,4,2,0,60,1,0
116359,379.746835443038,4,2,0,60,1,0
117877,370.37037037037,4,2,0,60,1,0
119358,379.746835443038,4,2,0,60,1,0
120876,370.37037037037,4,2,0,60,1,0
122357,389.61038961039,4,2,0,60,1,0
122773,434.782608695652,4,2,0,60,1,0
123642,508.474576271186,4,2,0,60,1,0
124150,500,4,2,0,60,1,0
126150,526.315789473684,4,2,0,60,1,0
128255,566.037735849057,4,2,0,60,1,0
130483,600,4,2,0,60,1,0
132283,666.666666666667,4,2,0,60,1,0
132949,697.674418604651,4,2,0,60,1,0

[HitObjects]
84,356,1250,6,0,P|79:316|64:280,1,80
128,232,1728,1,0,0:0:0:0:
128,232,1888,2,0,P|132:192|148:155,1,80
115,82,2367,1,0,0:0:0:0:
115,82,2526,2,0,L|154:79,1,40
206,211,2845,1,0,0:0:0:0:
274,169,3164,2,0,P|317:160|358:168,1,80
55,200,3803,6,0,L|40:122,1,80
67,46,4262,1,0,0:0:0:0:
67,46,4415,2,0,P|104:55|149:53,1,80
223,39,4874,1,0,0:0:0:0:
223,39,5027,2,0,L|215:78,1,40
128,232,5333,1,0,0:0:0:0:
196,274,5639,2,0,P|239:283|280:275,1,80
428,356,6251,6,0,P|433:316|448:280,1,80
384,231,6692,1,0,0:0:0:0:
364,155,6839,2,0,P|380:192|384:232,1,80
397,82,7280,1,0,0:0:0:0:
397,82,7427,2,0,L|358:79,1,40
306,211,7721,1,0,0:0:0:0:
238,169,8015,2,0,P|195:160|154:168,1,80
457,200,8603,6,0,L|472:122,1,80
445,46,9027,1,0,0:0:0:0:
366,53,9169,2,0,P|406:55|445:46,1,80
289,39,9593,1,0,0:0:0:0:
289,39,9735,2,0,L|297:78,1,40
384,232,10018,1,0,0:0:0:0:
316,274,10301,2,0,P|273:283|232:275,1,80
366,53,10867,6,0,L|446:62,1,80
207,35,11412,2,0,L|287:44,1,80
48,17,11957,1,0,0:0:0:0:
88,22,12093,1,0,0:0:0:0:
128,26,12230,1,0,0:0:0:0:
287,44,12503,2,0,L|367:53,1,80
446,62,13048,5,0,0:0:0:0:
48,96,13311,5,0,0:0:0:0:
87,100,13442,1,0,0:0:0:0:
127,104,13574,1,0,0:0:0:0:
207,114,13837,1,0,0:0:0:0:
246,118,13968,1,0,0:0:0:0:
286,122,14100,1,0,0:0:0:0:
366,132,14363,2,0,L|446:141,1,80
286,122,14890,1,0,0:0:0:0:
206,197,15153,6,0,L|286:206,1,80
365,215,15661,2,0,L|445:224,1,80
47,179,16169,1,0,0:0:0:0:
87,184,16297,1,0,0:0:0:0:
127,188,16424,1,0,0:0:0:0:
286,206,16678,2,0,L|366:215,1,80
445,224,17186,5,0,0:0:0:0:
47,258,17431,5,0,0:0:0:0:
86,262,17554,1,0,0:0:0:0:
126,266,17677,1,0,0:0:0:0:
206,276,17923,1,0,0:0:0:0:
245,280,18046,1,0,0:0:0:0:
285,284,18169,1,0,0:0:0:0:
325,290,18292,1,0,0:0:0:0:
365,294,18415,2,0,L|445:303,1,80
166,272,18907,2,0,L|245:281,1,80
366,215,19391,6,0,L|445:224,1,80
364,374,19867,2,0,L|444:383,1,80
206,197,20343,2,0,L|285:206,1,80
205,356,20819,2,0,L|285:365,1,80
46,179,21295,2,0,L|125:188,1,80
46,338,21772,1,0,0:0:0:0:
126,347,22010,6,0,L|46:338,1,80
286,285,22486,2,0,L|207:276,1,80
128,268,22962,5,0,0:0:0:0:
125,188,23200,6,0,L|46:179,1,80
127,29,23676,2,0,L|47:20,1,80
285,206,24152,2,0,L|206:197,1,80
286,47,24628,2,0,L|206:38,1,80
445,224,25104,2,0,L|366:215,1,80
444,64,25581,1,0,0:0:0:0:
365,56,25819,5,0,0:0:0:0:
404,60,25938,1,0,0:0:0:0:
444,64,26057,1,0,0:0:0:0:
205,118,26295,2,0,L|284:127,1,80
310,130,26613,1,0,0:0:0:0:
336,133,26692,1,0,0:0:0:0:
363,136,26772,5,0,0:0:0:0:
364,374,27010,5,0,0:0:0:0:
403,378,27129,1,0,0:0:0:0:
443,382,27248,1,0,0:0:0:0:
205,356,27486,1,0,0:0:0:0:
244,360,27605,1,0,0:0:0:0:
284,364,27724,1,0,0:0:0:0:
46,338,27962,2,0,L|126:347,1,80
364,374,28438,1,0,0:0:0:0:
443,382,28676,5,0,0:0:0:0:
206,276,28914,5,0,0:0:0:0:
246,281,29033,1,0,0:0:0:0:
286,286,29152,1,0,0:0:0:0:
46,258,29391,1,0,0:0:0:0:
86,263,29510,1,0,0:0:0:0:
126,268,29629,1,0,0:0:0:0:
366,294,29867,2,0,L|445:303,1,80
206,276,30343,1,0,0:0:0:0:
286,286,30581,5,0,0:0:0:0:
127,187,30819,5,0,0:0:0:0:
87,183,30938,1,0,0:0:0:0:
48,179,31057,1,0,0:0:0:0:
286,205,31295,1,0,0:0:0:0:
246,201,31414,1,0,0:0:0:0:
207,197,31533,1,0,0:0:0:0:
445,223,31772,2,0,L|365:214,1,80
127,187,32248,1,0,0:0:0:0:
48,179,32486,5,0,0:0:0:0:
287,124,32724,5,0,0:0:0:0:
247,119,32843,1,0,0:0:0:0:
207,114,32962,1,0,0:0:0:0:
446,141,33200,1,0,0:0:0:0:
406,136,33319,1,0,0:0:0:0:
367,132,33438,1,0,0:0:0:0:
127,106,33676,2,0,L|48:97,1,80
287,124,34153,1,0,0:0:0:0:
207,114,34391,5,0,0:0:0:0:
446,62,34629,6,0,L|366:53,1,80
287,44,35105,1,0,0:0:0:0:
247,39,35224,1,0,0:0:0:0:
207,35,35343,1,0,0:0:0:0:
128,26,35581,2,0,L|48:17,1,80
287,44,36057,1,0,0:0:0:0:
207,35,36295,5,0,0:0:0:0:
287,124,36533,5,0,0:0:0:0:
247,119,36652,1,0,0:0:0:0:
207,114,36771,1,0,0:0:0:0:
127,106,37010,1,0,0:0:0:0:
87,101,37129,1,0,0:0:0:0:
47,96,37248,1,0,0:0:0:0:
447,141,37486,2,0,L|368:132,1,80
207,114,37962,1,0,0:0:0:0:
287,124,38200,5,0,0:0:0:0:
368,132,38438,1,0,0:0:0:0:
445,223,38676,2,0,L|366:214,1,80
286,205,39033,1,0,0:0:0:0:
246,201,39152,1,0,0:0:0:0:
445,303,39391,6,0,L|366:294,1,80
206,276,39867,1,0,0:0:0:0:
286,286,40105,5,0,0:0:0:0:
366,294,40343,1,0,0:0:0:0:
445,223,40581,2,0,L|366:214,1,80
286,205,40938,1,0,0:0:0:0:
246,201,41057,1,0,0:0:0:0:
166,191,41295,1,0,0:0:0:0:
87,183,41533,1,0,0:0:0:0:
368,132,42010,6,0,L|447:141,1,80
127,106,42486,2,0,L|48:97,1,80
207,114,42962,1,0,0:0:0:0:
247,119,43081,1,0,0:0:0:0:
287,124,43200,1,0,0:0:0:0:
448,141,43438,1,0,0:0:0:0:
368,132,43676,1,0,0:0:0:0:
287,124,43914,5,0,0:0:0:0:
366,214,44152,5,0,0:0:0:0:
405,218,44271,1,0,0:0:0:0:
445,223,44390,1,0,0:0:0:0:
484,308,44629,1,0,0:0:0:0:
445,303,44748,1,0,0:0:0:0:
405,299,44867,1,0,0:0:0:0:
365,294,44986,1,0,0:0:0:0:
325,290,45105,1,0,0:0:0:0:
47,258,45343,2,0,L|127:267,1,80
286,285,45795,6,0,L|207:276,1,80
46,179,46256,2,0,L|125:188,1,80
286,205,46718,1,0,0:0:0:0:
246,201,46833,1,0,0:0:0:0:
207,197,46948,1,0,0:0:0:0:
46,338,47179,1,0,0:0:0:0:
125,346,47409,1,0,0:0:0:0:
205,356,47641,5,0,0:0:0:0:
443,382,47871,5,0,0:0:0:0:
403,378,47986,1,0,0:0:0:0:
364,374,48102,1,0,0:0:0:0:
325,290,48333,1,0,0:0:0:0:
365,294,48448,1,0,0:0:0:0:
405,299,48564,1,0,0:0:0:0:
445,303,48679,1,0,0:0:0:0:
484,308,48795,1,0,0:0:0:0:
284,365,49025,2,0,L|205:356,1,80
127,267,49458,6,0,L|47:258,1,80
366,214,49905,2,0,L|445:223,1,80
287,124,50353,1,0,0:0:0:0:
247,119,50465,1,0,0:0:0:0:
207,114,50577,1,0,0:0:0:0:
46,97,50801,1,0,0:0:0:0:
126,106,51025,1,0,0:0:0:0:
207,114,51249,5,0,0:0:0:0:
367,132,51472,5,0,0:0:0:0:
406,136,51584,1,0,0:0:0:0:
446,141,51696,1,0,0:0:0:0:
444,64,51920,1,0,0:0:0:0:
404,60,52032,1,0,0:0:0:0:
365,56,52144,1,0,0:0:0:0:
206,38,52368,2,0,L|286:47,1,80
127,29,52816,1,0,0:0:0:0:
205,118,53012,6,0,L|284:127,1,80
445,223,53446,2,0,L|366:214,1,80
367,132,53881,1,0,0:0:0:0:
406,136,53990,1,0,0:0:0:0:
446,141,54098,1,0,0:0:0:0:
285,206,54316,2,0,L|206:197,1,80
127,187,54751,5,0,0:0:0:0:
46,258,54968,5,0,0:0:0:0:
86,263,55077,1,0,0:0:0:0:
126,268,55185,1,0,0:0:0:0:
364,295,55403,1,0,0:0:0:0:
324,291,55512,1,0,0:0:0:0:
285,286,55620,1,0,0:0:0:0:
245,282,55729,1,0,0:0:0:0:
205,277,55838,1,0,0:0:0:0:
285,286,56055,1,0,0:0:0:0:
364,295,56272,1,0,0:0:0:0:
444,304,56463,5,0,0:0:0:0:
146,169,56674,6,0,L|67:160,1,80
148,10,57096,2,0,L|68:1,1,80
306,187,57519,2,0,L|227:178,1,80
307,28,57941,2,0,L|227:19,1,80
466,205,58364,2,0,L|387:196,1,80
466,46,58786,1,0,0:0:0:0:
386,37,58998,6,0,L|466:46,1,80
226,99,59420,2,0,L|305:108,1,80
384,116,59843,5,0,0:0:0:0:
387,196,60054,6,0,L|466:205,1,80
385,355,60477,2,0,L|465:364,1,80
227,178,60899,2,0,L|306:187,1,80
226,337,61322,2,0,L|306:346,1,80
67,160,61744,1,0,0:0:0:0:
106,164,61849,1,0,0:0:0:0:
146,169,61955,1,0,0:0:0:0:
68,320,62167,1,0,0:0:0:0:
147,328,62378,5,0,0:0:0:0:
108,324,62484,1,0,0:0:0:0:
68,320,62589,1,0,0:0:0:0:
307,266,62801,2,0,L|228:257,1,80
187,253,63117,1,0,0:0:0:0:
149,248,63223,5,0,0:0:0:0:
366,53,63434,5,0,0:0:0:0:
405,57,63539,1,0,0:0:0:0:
445,61,63645,1,0,0:0:0:0:
207,35,63857,1,0,0:0:0:0:
246,39,63962,1,0,0:0:0:0:
286,43,64068,1,0,0:0:0:0:
48,17,64279,1,0,0:0:0:0:
127,25,64490,1,0,0:0:0:0:
207,35,64702,1,0,0:0:0:0:
286,43,64913,5,0,0:0:0:0:
207,114,65124,5,0,0:0:0:0:
247,119,65230,1,0,0:0:0:0:
287,124,65336,1,0,0:0:0:0:
48,97,65547,1,0,0:0:0:0:
87,101,65652,1,0,0:0:0:0:
127,106,65758,1,0,0:0:0:0:
368,132,65970,1,0,0:0:0:0:
447,141,66181,1,0,0:0:0:0:
207,114,66392,1,0,0:0:0:0:
287,124,66603,5,0,0:0:0:0:
46,179,66815,5,0,0:0:0:0:
85,183,66920,1,0,0:0:0:0:
125,188,67026,1,0,0:0:0:0:
207,197,67237,1,0,0:0:0:0:
246,201,67342,1,0,0:0:0:0:
286,205,67448,1,0,0:0:0:0:
366,214,67660,1,0,0:0:0:0:
445,223,67871,1,0,0:0:0:0:
207,197,68082,1,0,0:0:0:0:
286,205,68293,5,0,0:0:0:0:
206,276,68504,5,0,0:0:0:0:
246,281,68609,1,0,0:0:0:0:
286,286,68715,1,0,0:0:0:0:
366,294,68927,1,0,0:0:0:0:
405,298,69032,1,0,0:0:0:0:
445,303,69138,1,0,0:0:0:0:
46,258,69349,1,0,0:0:0:0:
126,268,69561,1,0,0:0:0:0:
366,294,69772,1,0,0:0:0:0:
445,303,69983,5,0,0:0:0:0:
444,383,70195,6,0,L|364:374,1,80
205,356,70617,1,0,0:0:0:0:
244,360,70723,1,0,0:0:0:0:
284,364,70829,1,0,0:0:0:0:
46,338,71040,1,0,0:0:0:0:
125,346,71251,1,0,0:0:0:0:
284,364,71463,1,0,0:0:0:0:
205,356,71675,5,0,0:0:0:0:
366,294,71885,6,0,L|445:303,1,80
286,286,72308,1,0,0:0:0:0:
246,281,72414,1,0,0:0:0:0:
206,276,72519,1,0,0:0:0:0:
126,268,72730,1,0,0:0:0:0:
46,258,72941,1,0,0:0:0:0:
206,276,73153,1,0,0:0:0:0:
286,286,73364,5,0,0:0:0:0:
366,294,73575,1,0,0:0:0:0:
445,223,73786,1,0,0:0:0:0:
365,213,73997,1,0,0:0:0:0:
286,205,74103,1,0,0:0:0:0:
246,201,74209,1,0,0:0:0:0:
447,141,74420,5,0,0:0:0:0:
368,132,74631,1,0,0:0:0:0:
208,114,74843,1,0,0:0:0:0:
288,124,75054,5,0,0:0:0:0:
368,132,75265,1,0,0:0:0:0:
445,223,75477,1,0,0:0:0:0:
365,213,75688,1,0,0:0:0:0:
286,205,75793,1,0,0:0:0:0:
246,201,75899,1,0,0:0:0:0:
166,191,76110,1,0,0:0:0:0:
87,183,76322,1,0,0:0:0:0:
368,132,76744,6,0,L|447:141,1,80
287,124,77191,2,0,L|208:115,1,80
285,46,77639,1,0,0:0:0:0:
325,51,77751,1,0,0:0:0:0:
365,56,77863,1,0,0:0:0:0:
127,106,78087,2,0,L|48:97,1,80
208,115,78506,5,0,0:0:0:0:
127,187,78736,5,0,0:0:0:0:
87,183,78852,1,0,0:0:0:0:
47,178,78967,1,0,0:0:0:0:
206,196,79198,1,0,0:0:0:0:
286,205,79429,1,0,0:0:0:0:
325,210,79544,1,0,0:0:0:0:
365,214,79659,1,0,0:0:0:0:
445,223,79890,2,0,L|366:214,1,80
366,294,80381,6,0,L|445:303,1,80
285,206,80857,2,0,L|206:197,1,80
206,276,81333,1,0,0:0:0:0:
246,281,81438,1,0,0:0:0:0:
286,286,81544,1,0,0:0:0:0:
127,267,81809,2,0,L|47:258,1,80
206,276,82285,5,0,0:0:0:0:
125,346,82539,1,0,0:0:0:0:
85,342,82666,1,0,0:0:0:0:
46,338,82793,1,0,0:0:0:0:
205,356,83047,2,0,L|245:360,1,40
285,365,83301,1,0,0:0:0:0:
324,370,83429,1,0,0:0:0:0:
364,374,83556,1,0,0:0:0:0:
444,383,83810,2,0,L|364:374,1,80
483,388,95044,5,0,0:0:0:0:
444,383,95181,1,0,0:0:0:0:
404,379,95317,1,0,0:0:0:0:
364,374,95453,1,0,0:0:0:0:
324,370,95590,1,0,0:0:0:0:
285,365,95726,1,0,0:0:0:0:
245,361,95862,1,0,0:0:0:0:
205,356,95999,1,0,0:0:0:0:
165,352,96135,1,0,0:0:0:0:
126,347,96271,1,0,0:0:0:0:
86,343,96408,1,0,0:0:0:0:
46,338,96544,1,0,0:0:0:0:
8,334,96680,1,0,0:0:0:0:
