osu file format v14

[General]
AudioFilename: audio.mp3
AudioLeadIn: 0
PreviewTime: 46361
Countdown: 0
SampleSet: Normal
StackLeniency: 0.7
Mode: 0
LetterboxInBreaks: 0
WidescreenStoryboard: 1

[Editor]
DistanceSpacing: 0.9
BeatDivisor: 4
GridSize: 4
TimelineZoom: 1

[Metadata]
Title:Bacterial Contamination
TitleUnicode:Bacterial Contamination
Artist:Hatsune Miku
ArtistUnicode:Hatsune Miku
Creator:YukiPlays
Version:Bacteria
Source:
Tags:
BeatmapID:1387841
BeatmapSetID:654293

[Difficulty]
HPDrainRate:6
CircleSize:5
OverallDifficulty:8
ApproachRate:9.7
SliderMultiplier:1.7
SliderTickRate:2

[Events]
//Background and Video events
0,0,"Bacterial.Contamination.full.1037652.jpg",0,0
Video,0,"den.mp4"
//Break Periods
//Storyboard Layer 0 (Background)
//Storyboard Layer 1 (Fail)
//Storyboard Layer 2 (Pass)
//Storyboard Layer 3 (Foreground)
//Storyboard Sound Samples

[TimingPoints]
1221,283.018867924528,4,1,0,100,1,0
1221,-200,4,1,0,100,0,0
9994,-100,4,1,0,100,0,1
19334,-100,4,1,0,100,0,0
28390,-100,4,1,0,100,0,1
33060,283.018867924528,4,1,0,100,1,0
33060,-100,4,1,0,100,0,0
46361,-100,4,1,0,100,0,1
53437,-100,4,1,0,100,0,0
84852,-100,4,1,0,5,0,0
85135,-100,4,1,0,100,0,1
97446,555.555555555556,4,1,0,100,1,0
97446,-200,4,1,0,100,0,0
98140,283.018867924528,4,1,0,100,1,0
98706,-100,4,1,0,100,0,0
107776,283.018867924528,4,1,0,100,1,0

[HitObjects]
469,37,1221,6,0,L|405:102,1,85,6|0,2:2|0:0,0:0:0:0:
331,190,1645,1,0,0:0:0:0:
235,82,1927,1,0,0:0:0:0:
142,188,2210,1,0,0:0:0:0:
45,47,3202,5,0,0:0:0:0:
45,47,3272,1,0,0:0:0:0:
45,47,3343,1,0,0:0:0:0:
45,47,3414,1,0,0:0:0:0:
45,47,3485,2,0,L|113:110,1,85,2|0,2:2|0:0,0:0:0:0:
193,180,3909,1,0,0:0:0:0:
286,68,4191,1,0,0:0:0:0:
374,189,4474,1,0,0:0:0:0:
55,336,5467,5,0,0:0:0:0:
55,336,5749,2,0,L|117:259,1,85,6|0,2:2|0:0,0:0:0:0:
175,175,6173,1,0,0:0:0:0:
263,282,6456,1,0,0:0:0:0:
344,176,6739,1,0,0:0:0:0:
471,343,7730,5,0,0:0:0:0:
471,343,7801,1,0,0:0:0:0:
471,343,7871,1,0,0:0:0:0:
471,343,7942,1,0,0:0:0:0:
471,343,8013,2,0,L|398:278,1,85,2|0,2:2|0:0,0:0:0:0:
322,210,8437,1,0,0:0:0:0:
227,303,8720,1,0,0:0:0:0:
137,207,9004,1,0,0:0:0:0:
403,81,9428,5,0,0:0:0:0:
308,266,9570,1,0,0:0:0:0:
196,82,9711,1,0,0:0:0:0:
60,152,9994,5,0,0:0:0:0:
44,188,10065,1,0,0:0:0:0:
52,224,10136,1,0,0:0:0:0:
72,252,10206,1,0,0:0:0:0:
104,268,10277,2,0,P|152:280|272:256,1,170,6|8,2:2|2:2,0:0:0:0:
372,160,10702,1,0,0:0:0:0:
108,32,10843,1,8,2:2:0:0:
98,306,10985,1,0,0:0:0:0:
365,354,11268,6,8,P|417:351|485:249,1,170,0|0,0:0|0:0,2:2:0:0:
300,64,11834,1,0,0:0:0:0:
264,44,11904,1,0,0:0:0:0:
216,40,11975,1,8,2:2:0:0:
172,48,12046,1,0,0:0:0:0:
136,68,12117,1,0,0:0:0:0:
108,92,12187,1,0,0:0:0:0:
88,116,12258,2,0,P|64:152|84:280,1,170,8|14,2:2|2:2,0:0:0:0:
152,352,12683,5,0,0:0:0:0:
300,64,12824,1,8,2:2:0:0:
443,355,12966,1,0,0:0:0:0:
472,40,13249,5,0,0:0:0:0:
136,68,13532,6,8,P|88:108|124:204,1,170,0|0,0:0|0:0,2:2:0:0:
340,352,14098,5,0,0:0:0:0:
452,36,14239,1,8,2:2:0:0:
216,288,14381,1,0,0:0:0:0:
316,8,14522,1,8,2:2:0:0:
292,28,14593,1,0,0:0:0:0:
264,40,14664,1,0,0:0:0:0:
232,48,14735,1,0,0:0:0:0:
200,48,14805,2,0,P|140:36|60:116,1,170,14|8,2:2|2:2,0:0:0:0:
50,215,15230,5,0,0:0:0:0:
357,102,15371,1,8,2:2:0:0:
290,380,15513,1,0,0:0:0:0:
474,42,15796,6,8,L|357:185,1,170,0|0,0:0|0:0,2:2:0:0:
193,83,16504,1,8,2:2:0:0:
7,237,16645,1,0,0:0:0:0:
318,293,16787,1,8,2:2:0:0:
40,80,16928,1,0,0:0:0:0:
355,142,17070,1,14,2:2:0:0:
27,370,17353,5,8,2:2:0:0:
209,59,17777,6,8,P|253:38|365:112,1,170,0|0,0:0|0:0,2:2:0:0:
454,354,18343,5,0,0:0:0:0:
125,167,18626,5,0,0:0:0:0:
279,43,18768,1,8,2:2:0:0:
320,32,18838,1,0,0:0:0:0:
360,48,18909,1,0,0:0:0:0:
384,84,18980,1,0,0:0:0:0:
376,128,19051,1,8,2:2:0:0:
352,160,19121,1,0,0:0:0:0:
328,196,19192,1,0,0:0:0:0:
336,240,19263,1,0,0:0:0:0:
360,272,19334,1,14,2:2:0:0:
148,332,19617,6,0,P|112:308|104:264,1,85
148,48,20041,1,0,0:0:0:0:
280,212,20324,1,0,0:0:0:0:
419,44,20607,2,0,L|348:141,1,85
242,262,20890,1,0,0:0:0:0:
367,111,21032,1,0,0:0:0:0:
155,74,21315,6,0,P|105:69|82:102,1,85
80,108,21527,1,0,0:0:0:0:
76,124,21598,1,0,0:0:0:0:
72,288,21739,5,0,0:0:0:0:
256,180,21881,1,0,0:0:0:0:
394,335,22022,2,0,L|279:202,1,170
149,50,22447,1,0,0:0:0:0:
2,205,22588,1,0,0:0:0:0:
295,351,22871,6,0,P|349:323|369:290,1,85
430,104,23154,1,0,0:0:0:0:
205,143,23296,2,0,B|161:144|161:144|174:187|174:187|116:172|65:216,1,170
72,208,23650,1,0,0:0:0:0:
56,232,23720,1,0,0:0:0:0:
56,260,23791,1,0,0:0:0:0:
72,284,23862,1,6,2:2:0:0:
400,336,24145,5,0,0:0:0:0:
463,128,24287,1,0,0:0:0:0:
218,42,24570,6,0,P|170:30|67:95,2,170
387,158,25277,1,0,0:0:0:0:
251,343,25419,1,0,0:0:0:0:
277,45,25560,1,0,0:0:0:0:
444,304,25843,5,0,0:0:0:0:
456,336,25914,1,0,0:0:0:0:
432,364,25985,1,0,0:0:0:0:
388,360,26055,1,0,0:0:0:0:
356,328,26126,1,0,0:0:0:0:
230,144,26268,5,0,0:0:0:0:
66,358,26409,1,0,0:0:0:0:
40,94,26551,1,0,0:0:0:0:
381,46,26834,6,0,P|423:74|380:197,1,170
179,359,27400,5,0,0:0:0:0:
238,26,27541,1,0,0:0:0:0:
298,357,27683,1,0,0:0:0:0:
335,25,27824,1,0,0:0:0:0:
356,60,27895,1,0,0:0:0:0:
368,96,27966,1,0,0:0:0:0:
364,132,28037,1,0,0:0:0:0:
344,164,28107,1,0,0:0:0:0:
320,196,28178,1,0,0:0:0:0:
292,224,28249,1,0,0:0:0:0:
256,252,28320,1,0,0:0:0:0:
212,264,28390,1,14,2:2:0:0:
8,60,28673,6,0,P|40:32|116:32,1,85,8|0,2:2|0:0,0:0:0:0:
313,62,28956,1,8,2:2:0:0:
151,272,29098,1,0,0:0:0:0:
185,20,29239,1,8,2:2:0:0:
328,245,29381,1,0,0:0:0:0:
42,336,29664,6,8,L|45:156,1,170,0|0,0:0|0:0,2:2:0:0:
191,325,30088,1,8,2:2:0:0:
347,157,30230,1,0,0:0:0:0:
120,277,30371,1,8,2:2:0:0:
352,285,30513,1,0,0:0:0:0:
149,113,30654,2,0,P|131:68|272:63,1,255,14|0,2:2|0:0,0:0:0:0:
325,244,31220,1,8,2:2:0:0:
377,48,31362,1,0,0:0:0:0:
174,183,31503,1,8,2:2:0:0:
438,149,31645,2,8,P|475:193|420:303,1,170,0|0,0:0|0:0,2:2:0:0:
242,349,32070,1,8,2:2:0:0:
304,152,32211,1,0,0:0:0:0:
104,60,32353,5,8,2:2:0:0:
72,76,32423,1,0,0:0:0:0:
56,104,32494,1,0,0:0:0:0:
64,140,32565,1,0,0:0:0:0:
92,164,32636,1,8,2:2:0:0:
124,180,32706,1,0,0:0:0:0:
144,208,32777,1,0,0:0:0:0:
144,244,32848,1,0,0:0:0:0:
128,272,32919,1,14,2:2:0:0:
