osu file format v14

[General]
AudioFilename: audio.mp3
AudioLeadIn: 0
PreviewTime: -1
Countdown: 1
SampleSet: Normal
StackLeniency: 0.7
Mode: 0
LetterboxInBreaks: 0
WidescreenStoryboard: 0

[Editor]
DistanceSpacing: 1.2
BeatDivisor: 16
GridSize: 4
TimelineZoom: 2.3

[Metadata]
Title:Atama no taisou v2
TitleUnicode:Atama no taisou v2
Artist:Hatsune Miku
ArtistUnicode:Hatsune Miku
Creator:zoriGamer
Version:zorigamer ExTrEmE
Source:
Tags:
BeatmapID:1661032
BeatmapSetID:791834

[Difficulty]
HPDrainRate:10
CircleSize:5
OverallDifficulty:10
ApproachRate:10
SliderMultiplier:2.89999990463257
SliderTickRate:1

[Events]
//Background and Video events
0,0,"274.jpg",0,0
//Break Periods
//Storyboard Layer 0 (Background)
//Storyboard Layer 1 (Fail)
//Storyboard Layer 2 (Pass)
//Storyboard Layer 3 (Foreground)
//Storyboard Sound Samples

[TimingPoints]
0,500,4,1,0,100,1,0
7250,-117.647058823529,4,1,0,100,0,0
58000,-58.8235294117647,4,1,0,100,0,1
65968,-133.333333333333,4,1,0,40,0,1
68937,-58.8235294117647,4,1,0,40,0,1
81125,-50,4,1,0,40,0,0
101750,-153.846153846153,4,1,0,100,0,0
105937,-55.5555555555556,4,1,0,100,0,0
126812,-76.9230769230769,4,1,0,100,0,0
127375,-50,4,1,0,100,0,0
130625,-40,4,1,0,100,0,0
131062,-100,4,1,0,100,0,0
132125,-50,4,1,0,100,0,0
135875,-111.111111111111,4,1,0,100,0,0
138937,-66.6666666666667,4,1,0,100,0,0
140250,-111.111111111111,4,1,0,100,0,0
141812,-55.5555555555556,4,1,0,100,0,1
159000,-45.4545454545455,4,1,0,100,0,0
159541,-55.5555555555556,4,1,0,100,0,1

[Colours]
Combo1 : 128,255,128
Combo2 : 255,128,128
Combo3 : 128,0,255
Combo4 : 255,255,128

[HitObjects]
32,192,54000,5,0,0:0:0:0:
480,192,55062,1,0,0:0:0:0:
256,348,56000,1,0,0:0:0:0:
256,28,56500,1,0,0:0:0:0:
256,192,56937,1,0,0:0:0:0:
231,193,57375,2,0,L|280:193,5,46.2187493616343
312,56,58125,6,0,P|256:80|192:52,1,123.249998297691
124,132,58375,2,0,P|148:192|116:252,1,123.249998297691
196,316,58625,2,0,P|256:296|312:320,1,123.249998297691
376,236,58875,2,0,P|356:180|392:108,1,123.249998297691
220,272,59125,6,0,P|192:196|136:156,1,123.249998297691
200,104,59375,2,0,P|256:128|320:96,1,123.249998297691
356,176,59625,2,0,P|312:204|300:272,1,123.249998297691
256,148,59875,6,0,L|256:200,5,41.0833327658971
200,80,60208,2,0,P|256:60|328:104,1,123.249998297691
208,260,60436,6,0,P|184:312|116:328,1,123.249998297691
312,268,60686,2,0,P|320:320|388:332,1,123.249998297691
204,128,60936,2,0,P|164:204|28:192,1,184.874997446537
308,128,61249,2,0,P|360:200|452:212,1,184.874997446537
256,336,61541,6,0,L|257:278,4,30.8124995744228
256,60,62187,5,8,0:0:0:0:
128,192,62312,5,8,0:0:0:0:
260,328,62437,5,8,0:0:0:0:
392,192,62562,5,8,0:0:0:0:
212,72,62687,5,8,0:0:0:0:
144,236,62812,5,8,0:0:0:0:
304,308,62937,5,8,0:0:0:0:
376,152,63062,5,8,0:0:0:0:
168,96,63187,5,8,0:0:0:0:
164,280,63312,5,8,0:0:0:0:
344,288,63437,5,8,0:0:0:0:
360,112,63562,5,8,0:0:0:0:
124,128,63687,5,8,0:0:0:0:
196,320,63812,5,8,0:0:0:0:
384,252,63937,5,8,0:0:0:0:
336,64,64062,5,8,0:0:0:0:
88,264,64187,5,0,0:0:0:0:
108,256,64250,5,0,0:0:0:0:
132,248,64312,5,0,0:0:0:0:
188,188,64437,6,0,B|140:136|140:136|168:36,1,123.249998297691
264,224,64687,6,0,B|264:292|264:292|320:332,1,123.249998297691
292,144,64937,6,0,B|244:100|244:100|256:40,1,123.249998297691
372,168,65187,6,0,B|372:240|372:240|436:288,1,123.249998297691
440,252,65437,5,0,0:0:0:0:
448,244,65500,5,0,0:0:0:0:
456,236,65562,5,0,0:0:0:0:
408,60,65750,5,0,0:0:0:0:
416,76,65812,5,0,0:0:0:0:
424,96,65875,5,0,0:0:0:0:
86,49,65968,2,0,L|172:73,2,81.5625004291535
66,173,66500,1,0,0:0:0:0:
168,140,66625,1,0,0:0:0:0:
293,109,66750,6,0,B|324:132|320:191|320:191|361:150|390:169,1,163.125000858307
88,288,67250,6,0,L|88:208,1,61.6249991488457
208,264,67468,1,0,0:0:0:0:
156,120,67562,2,0,L|212:164,1,61.6249991488457
343,199,67781,2,0,B|371:228|376:174|393:161|442:188|424:153|424:141,1,108.750000572205
112,192,68124,5,0,0:0:0:0:
208,192,68312,1,0,0:0:0:0:
300,192,68499,1,0,0:0:0:0:
392,192,68687,1,0,0:0:0:0:
392,224,69062,1,0,0:0:0:0:
404,176,69125,1,0,0:0:0:0:
400,120,69187,1,0,0:0:0:0:
352,88,69250,1,0,0:0:0:0:
300,108,69312,1,0,0:0:0:0:
256,128,69375,1,0,0:0:0:0:
216,104,69437,1,0,0:0:0:0:
164,92,69500,1,0,0:0:0:0:
128,124,69562,1,0,0:0:0:0:
128,180,69625,1,0,0:0:0:0:
144,228,69687,1,0,0:0:0:0:
128,124,69812,6,0,B|77:175|72:256|212:292|239:211|258:148|154:175,1,308.124995744228
144,44,70250,1,0,0:0:0:0:
240,60,70375,2,0,B|356:40|260:144|360:172|228:232|392:236,1,246.499996595383
118,336,70812,6,0,B|249:317|105:225|245:201,1,184.874997446537
136,48,71125,5,0,0:0:0:0:
232,108,71250,5,0,0:0:0:0:
128,184,71375,5,0,0:0:0:0:
216,264,71500,5,0,0:0:0:0:
156,344,71687,1,0,0:0:0:0:
176,340,71750,1,0,0:0:0:0:
204,336,71812,2,0,B|256:236|256:236|356:240|356:240|348:136,1,308.124995744228
340,32,72250,5,0,0:0:0:0:
268,164,72375,1,0,0:0:0:0:
432,136,72500,1,0,0:0:0:0:
260,68,72625,1,0,0:0:0:0:
360,200,72750,1,0,0:0:0:0:
424,56,72875,1,0,0:0:0:0:
440,280,73062,1,0,0:0:0:0:
408,296,73125,1,0,0:0:0:0:
372,316,73187,1,0,0:0:0:0:
168,316,73312,1,0,0:0:0:0:
128,300,73375,1,0,0:0:0:0:
88,276,73437,1,0,0:0:0:0:
156,40,73625,5,0,0:0:0:0:
52,152,73750,1,0,0:0:0:0:
208,184,73875,1,0,0:0:0:0:
84,76,74000,1,0,0:0:0:0:
124,208,74125,1,0,0:0:0:0:
216,100,74250,1,0,0:0:0:0:
164,134,74375,2,0,B|231:135|255:171|255:171|278:135|348:136,1,205.416663829486
256,176,74875,6,0,L|220:244,1,61.6249991488457
160,288,75062,2,0,L|244:292,1,61.6249991488457
260,356,75250,2,0,L|288:292,1,61.6249991488457
348,256,75437,2,0,L|260:232,1,61.6249991488457
220,288,75687,6,0,P|204:224|116:192,1,123.249998297691
148,48,75937,2,0,P|234:84|254:176,1,184.874997446537
288,292,76250,2,0,P|304:224|368:184,1,123.249998297691
360,48,76500,2,0,P|276:88|256:176,1,184.874997446537
160,208,76812,6,0,L|176:276,1,61.6249991488457
212,296,77000,1,0,0:0:0:0:
256,320,77125,1,0,0:0:0:0:
300,292,77250,1,0,0:0:0:0:
340,256,77375,2,0,L|352:188,1,61.6249991488457
162,91,77875,5,0,0:0:0:0:
359,313,78000,5,0,0:0:0:0:
224,53,78125,5,0,0:0:0:0:
293,344,78250,5,0,0:0:0:0:
290,54,78375,5,0,0:0:0:0:
223,344,78500,5,0,0:0:0:0:
159,317,78625,5,0,0:0:0:0:
345,86,78750,5,0,0:0:0:0:
111,128,78875,5,0,0:0:0:0:
407,237,79000,5,0,0:0:0:0:
103,178,79125,5,0,0:0:0:0:
414,182,79250,5,0,0:0:0:0:
108,233,79375,5,0,0:0:0:0:
409,126,79500,5,0,0:0:0:0:
121,288,79625,5,0,0:0:0:0:
398,69,79750,5,0,0:0:0:0:
276,32,80125,6,2,B|228:92|228:92|268:156,1,123.249998297691
88,200,80375,2,2,B|152:228|152:228|200:184,1,123.249998297691
248,356,80625,2,2,B|288:296|288:296|224:224,1,123.249998297691
420,216,80875,2,2,B|356:172|356:172|284:208,1,123.249998297691
152,140,81125,6,0,B|260:164|296:244|388:284|488:296|520:132|416:88|336:100|316:152|184:280|72:288|64:176|112:136,1,724.999976158143
149,90,82000,5,0,0:0:0:0:
374,280,82125,5,0,0:0:0:0:
226,42,82250,5,0,0:0:0:0:
300,322,82375,5,0,0:0:0:0:
307,46,82500,5,0,0:0:0:0:
216,322,82625,5,0,0:0:0:0:
377,101,82750,5,0,0:0:0:0:
147,281,82875,5,0,0:0:0:0:
112,204,83000,5,0,0:0:0:0:
396,202,83125,5,0,0:0:0:0:
134,117,83250,5,0,0:0:0:0:
374,280,83375,5,0,0:0:0:0:
204,59,83500,5,0,0:0:0:0:
314,337,83625,5,0,0:0:0:0:
256,193,83750,5,0,0:0:0:0:
84,212,83937,6,2,P|200:208|204:236,1,123.249998297691
256,344,84187,2,2,P|248:248|260:240,1,123.249998297691
428,180,84437,2,2,P|328:188|320:144,1,123.249998297691
248,32,84687,2,2,P|240:132|228:132,1,123.249998297691
188,206,85062,2,0,P|244:170|311:204,1,144.999995231629
318,306,85374,1,0,0:0:0:0:
310,274,85437,1,0,0:0:0:0:
302,238,85499,1,0,0:0:0:0:
220,136,85624,1,0,0:0:0:0:
224,100,85687,1,0,0:0:0:0:
232,68,85749,1,0,0:0:0:0:
48,28,85999,5,0,0:0:0:0:
116,124,86124,1,0,0:0:0:0:
184,28,86249,1,0,0:0:0:0:
260,96,86374,2,0,B|261:125|294:163|294:163|269:205|273:251,1,144.999995231629
216,276,86749,6,0,L|140:264,1,61.6249991488457
28,116,86999,2,0,B|160:136|160:136|196:60,1,184.874997446537
248,28,87374,1,0,0:0:0:0:
260,116,87562,2,0,B|248:160|248:160|420:204,1,184.874997446537
384,292,87875,6,0,B|296:296|288:256|288:256|368:228,1,144.999995231629
128,288,88125,2,0,B|220:280|224:252|224:252|168:240,1,144.999995231629
128,80,88375,2,0,B|216:96|220:152|220:152|148:176,1,144.999995231629
380,84,88625,2,0,B|300:104|292:156|292:156|340:164,1,144.999995231629
88,44,88875,5,0,0:0:0:0:
152,160,89000,1,0,0:0:0:0:
256,64,89125,1,0,0:0:0:0:
308,208,89250,1,0,0:0:0:0:
408,56,89375,1,0,0:0:0:0:
456,204,89500,1,0,0:0:0:0:
392,328,89625,1,0,0:0:0:0:
144,364,89812,6,0,B|144:240|144:240|32:240,1,184.874997446537
24,184,90124,1,0,0:0:0:0:
84,128,90249,2,0,B|152:128|152:128|152:4,1,184.874997446537
228,56,90562,2,0,B|228:144|296:176|296:176|228:212|228:344,1,289.999990463257
392,232,90999,5,0,0:0:0:0:
348,336,91124,1,0,0:0:0:0:
224,336,91249,1,0,0:0:0:0:
108,332,91374,1,0,0:0:0:0:
44,228,91499,1,0,0:0:0:0:
92,120,91624,1,0,0:0:0:0:
256,60,92062,5,8,0:0:0:0:
128,192,92187,5,8,0:0:0:0:
256,340,92312,5,8,0:0:0:0:
388,196,92437,5,8,0:0:0:0:
192,88,92562,5,8,0:0:0:0:
152,252,92687,5,8,0:0:0:0:
316,304,92812,5,8,0:0:0:0:
364,132,92937,5,8,0:0:0:0:
140,128,93062,5,8,0:0:0:0:
196,304,93187,5,8,0:0:0:0:
360,256,93312,5,8,0:0:0:0:
328,76,93437,5,8,0:0:0:0:
186,25,93937,1,0,0:0:0:0:
72,36,94062,1,0,0:0:0:0:
200,136,94187,1,0,0:0:0:0:
103,131,94312,2,0,B|104:196|46:219|46:219|104:244|97:333,1,217.499992847443
94,219,94812,5,0,0:0:0:0:
162,276,94937,1,0,0:0:0:0:
250,258,95062,1,0,0:0:0:0:
284,173,95187,1,0,0:0:0:0:
182,167,95312,1,0,0:0:0:0:
345,278,95437,2,0,B|361:233|402:226|402:226|386:189|405:143,1,144.999995231629
432,40,95937,5,0,0:0:0:0:
328,100,96062,1,0,0:0:0:0:
220,40,96187,1,0,0:0:0:0:
120,100,96312,1,0,0:0:0:0:
52,172,96437,2,0,B|116:256|116:256|92:336|92:336|172:288|172:288|272:336,1,369.749994893074
375,316,97031,6,0,L|389:212,2,72.4999976158143
403,118,97343,1,0,0:0:0:0:
232,52,97624,1,0,0:0:0:0:
200,64,97687,1,0,0:0:0:0:
168,80,97749,1,0,0:0:0:0:
136,96,97812,1,0,0:0:0:0:
104,112,97874,1,0,0:0:0:0:
72,128,97937,1,0,0:0:0:0:
40,140,97999,2,0,B|72:216|40:296|144:288|188:184|160:368|232:128,1,308.124995744228
271,88,98437,5,0,0:0:0:0:
317,177,98562,1,0,0:0:0:0:
332,16,98687,1,0,0:0:0:0:
412,184,98812,1,0,0:0:0:0:
418,269,98937,5,0,0:0:0:0:
328,342,99062,1,0,0:0:0:0:
225,268,99187,1,0,0:0:0:0:
125,340,99312,1,0,0:0:0:0:
45,238,99437,1,0,0:0:0:0:
151,157,99562,1,0,0:0:0:0:
168,40,100000,6,0,P|188:88|156:136,1,96.6666634877523
80,240,100208,2,0,P|144:216|176:240,1,96.6666634877523
212,304,100416,5,0,0:0:0:0:
308,216,100541,1,0,0:0:0:0:
224,104,100666,1,0,0:0:0:0:
104,232,100791,6,0,B|104:188|136:180|136:160|104:152|100:80,2,144.999995231629
304,272,101166,2,0,B|304:208|268:188|268:172|304:156|304:84,2,193.333326975505
412,80,101937,6,0,B|364:156|456:172|372:228|408:332,1,235.624981465341
100,312,102749,2,0,B|164:232|68:212|172:160|92:88,1,235.624981465341
196,68,103562,1,0,0:0:0:0:
324,76,103749,1,0,0:0:0:0:
256,332,103937,2,0,B|296:252|216:232|312:176|244:108,1,212.062483318807
168,332,104687,1,0,0:0:0:0:
332,332,104874,1,0,0:0:0:0:
256,192,105062,12,0,105999,0:0:0:0:
117,102,106208,5,0,0:0:0:0:
137,224,106333,1,0,0:0:0:0:
226,140,106458,1,0,0:0:0:0:
40,178,106583,5,0,0:0:0:0:
209,51,106708,1,0,0:0:0:0:
234,246,106833,1,0,0:0:0:0:
154,146,106958,6,0,L|241:160,1,86.999994483948
364,264,107166,2,0,L|245:287,1,86.999994483948
419,189,107458,5,0,0:0:0:0:
312,253,107583,1,0,0:0:0:0:
423,315,107708,1,0,0:0:0:0:
324,144,107833,5,0,0:0:0:0:
323,355,107958,1,0,0:0:0:0:
490,256,108083,1,0,0:0:0:0:
375,260,108208,6,0,B|307:285|307:285|243:262,1,130.499991725922
92,113,108531,6,0,B|161:87|161:87|233:116,1,130.499991725922
308,306,108843,2,0,L|336:184,2,97.8749937944415
450,89,109343,2,0,P|379:125|314:104,1,130.499991725922
230,100,109562,2,0,P|148:71|97:100,1,130.499991725922
128,216,109937,5,8,0:0:0:0:
252,68,110062,5,8,0:0:0:0:
388,188,110187,5,8,0:0:0:0:
268,324,110312,5,8,0:0:0:0:
136,172,110437,5,8,0:0:0:0:
292,84,110562,5,8,0:0:0:0:
376,228,110687,5,8,0:0:0:0:
228,316,110812,5,8,0:0:0:0:
148,128,110937,5,8,0:0:0:0:
336,96,111062,5,8,0:0:0:0:
145,198,111187,1,0,0:0:0:0:
120,200,111250,1,0,0:0:0:0:
96,200,111312,1,0,0:0:0:0:
168,197,111375,1,0,0:0:0:0:
192,193,111437,1,0,0:0:0:0:
216,193,111499,1,0,0:0:0:0:
236,193,111562,1,0,0:0:0:0:
264,193,111624,1,0,0:0:0:0:
292,193,111687,1,0,0:0:0:0:
320,193,111749,1,0,0:0:0:0:
412,67,112031,6,0,L|443:188,2,97.8749937944415
428,299,112375,2,0,P|376:270|323:293,1,97.8749937944415
267,314,112562,2,0,P|206:340|158:313,1,97.8749937944415
115,241,112843,2,0,L|97:153,2,65.249995862961
165,53,113125,5,0,0:0:0:0:
197,179,113187,1,0,0:0:0:0:
305,267,113281,6,0,L|257:91,2,130.499991725922
435,99,113687,5,0,0:0:0:0:
339,194,113812,1,0,0:0:0:0:
434,290,113937,1,0,0:0:0:0:
296,340,114062,2,0,L|80:340,2,195.749987588883
360,319,114562,5,0,0:0:0:0:
436,251,114687,1,0,0:0:0:0:
352,176,114812,1,0,0:0:0:0:
429,102,114937,1,0,0:0:0:0:
348,32,115062,1,0,0:0:0:0:
256,28,115187,2,0,L|56:28,2,195.749987588883
192,140,115749,5,0,0:0:0:0:
312,144,115874,1,0,0:0:0:0:
148,240,115999,1,0,0:0:0:0:
360,240,116124,1,0,0:0:0:0:
256,236,116249,2,0,L|256:372,2,130.499991725922
256,148,116624,2,0,L|256:12,2,130.499991725922
136,192,117124,5,0,0:0:0:0:
256,280,117249,1,0,0:0:0:0:
364,192,117374,1,0,0:0:0:0:
256,100,117499,1,0,0:0:0:0:
123,38,117666,6,0,P|123:95|89:139,1,86.999994483948
51,191,117875,1,0,0:0:0:0:
119,343,118000,2,0,P|119:279|88:243,1,86.999994483948
382,345,118208,6,0,P|382:280|412:242,1,86.999994483948
447,193,118416,1,0,0:0:0:0:
382,28,118583,2,0,P|382:98|410:135,1,86.999994483948
216,46,118968,5,0,0:0:0:0:
248,46,119031,5,0,0:0:0:0:
276,46,119093,5,0,0:0:0:0:
216,326,119281,5,0,0:0:0:0:
248,326,119343,5,0,0:0:0:0:
280,326,119406,5,0,0:0:0:0:
112,328,119625,1,0,0:0:0:0:
116,36,119750,1,0,0:0:0:0:
24,184,119875,1,0,0:0:0:0:
114,167,120000,2,0,B|209:165|257:244|257:244|299:169|416:170,2,326.249979314805
444,344,120875,1,0,0:0:0:0:
440,32,121000,1,0,0:0:0:0:
504,184,121125,1,0,0:0:0:0:
387,207,121281,2,0,B|317:79|208:319|93:125,1,326.249979314805
376,40,121875,5,0,0:0:0:0:
328,104,122000,2,0,B|264:104|256:156|256:156|248:104|152:104,1,195.749987588883
136,44,122312,1,0,0:0:0:0:
256,192,122437,1,0,0:0:0:0:
128,328,122562,1,0,0:0:0:0:
188,280,122687,2,0,B|244:280|256:224|256:224|268:280|348:288,1,195.749987588883
380,336,123000,1,0,0:0:0:0:
416,296,123125,5,0,0:0:0:0:
424,240,123187,1,0,0:0:0:0:
412,188,123250,1,0,0:0:0:0:
384,144,123312,1,0,0:0:0:0:
360,64,123437,2,0,B|308:152|276:48|232:148|200:52|156:144|128:56,1,260.999983451844
112,240,123812,5,0,0:0:0:0:
112,240,123937,2,0,P|96:180|120:148,1,65.249995862961
200,248,124187,1,0,0:0:0:0:
200,248,124312,2,0,P|232:304|208:332,2,65.249995862961
192,164,124562,2,0,B|324:96|296:24|160:8|184:116|376:56,1,326.249979314805
440,160,125062,5,0,0:0:0:0:
460,320,125187,1,0,0:0:0:0:
296,352,125312,1,0,0:0:0:0:
300,120,125437,1,0,0:0:0:0:
360,248,125562,2,0,B|256:160|248:276|176:320|76:196,1,326.249979314805
76,56,126000,5,0,0:0:0:0:
164,184,126125,1,0,0:0:0:0:
256,48,126250,1,0,0:0:0:0:
344,188,126375,1,0,0:0:0:0:
432,52,126500,1,0,0:0:0:0:
432,328,126625,1,0,0:0:0:0:
80,328,126750,1,0,0:0:0:0:
108,192,126875,6,0,L|212:192,1,94.2499925861363
400,192,127125,2,0,L|292:192,1,94.2499925861363
256,164,127593,2,0,L|256:252,10,47.1249962930681
107,193,128124,5,0,0:0:0:0:
403,191,128249,5,0,0:0:0:0:
141,273,128374,5,0,0:0:0:0:
377,106,128499,5,0,0:0:0:0:
312,49,128624,5,0,0:0:0:0:
210,333,128749,5,0,0:0:0:0:
227,40,128874,5,0,0:0:0:0:
296,338,128999,5,0,0:0:0:0:
149,73,129124,5,0,0:0:0:0:
368,294,129249,5,0,0:0:0:0:
108,145,129374,5,0,0:0:0:0:
398,212,129499,5,0,0:0:0:0:
114,229,129624,5,0,0:0:0:0:
386,133,129749,5,0,0:0:0:0:
172,304,129874,5,0,0:0:0:0:
325,68,129999,5,0,0:0:0:0:
257,338,130124,5,0,0:0:0:0:
245,52,130249,5,0,0:0:0:0:
161,81,130374,5,0,0:0:0:0:
341,314,130499,5,0,0:0:0:0:
256,195,130625,5,0,0:0:0:0:
256,195,130718,1,0,0:0:0:0:
256,195,130812,1,0,0:0:0:0:
144,172,131156,6,0,L|143:203,11,18.1249994039536
376,164,131625,2,0,L|376:195,9,18.1249994039536
255,57,132125,5,0,0:0:0:0:
255,326,132250,5,0,0:0:0:0:
181,80,132375,5,0,0:0:0:0:
339,302,132500,5,0,0:0:0:0:
135,148,132625,5,0,0:0:0:0:
394,231,132750,5,0,0:0:0:0:
126,228,132875,5,0,0:0:0:0:
392,150,133000,5,0,0:0:0:0:
179,298,133125,5,0,0:0:0:0:
343,84,133250,5,0,0:0:0:0:
257,333,133375,5,0,0:0:0:0:
261,53,133500,5,0,0:0:0:0:
346,299,133625,5,0,0:0:0:0:
171,83,133750,5,0,0:0:0:0:
127,145,133875,5,0,0:0:0:0:
382,234,134000,5,0,0:0:0:0:
135,233,134125,5,0,0:0:0:0:
385,149,134250,5,0,0:0:0:0:
191,298,134375,5,0,0:0:0:0:
332,90,134500,5,0,0:0:0:0:
253,191,134625,5,0,0:0:0:0:
253,191,134718,1,0,0:0:0:0:
253,191,134781,1,0,0:0:0:0:
253,191,134843,1,0,0:0:0:0:
95,155,134968,1,0,0:0:0:0:
107,138,135000,1,0,0:0:0:0:
123,120,135031,1,0,0:0:0:0:
227,80,135218,2,0,L|266:81,6,36.2499988079071
372,106,135593,1,0,0:0:0:0:
380,119,135625,1,0,0:0:0:0:
390,139,135656,1,0,0:0:0:0:
116,36,136000,5,0,0:0:0:0:
44,148,136156,1,0,0:0:0:0:
204,90,136281,2,0,P|248:111|254:149,1,81.5624948287012
132,240,136562,2,0,P|156:184|144:148,1,86.999994483948
216,316,136875,2,0,P|136:304|72:320,1,130.499991725922
240,128,137250,2,0,P|256:196|288:232,2,97.8749937944415
396,64,137750,5,0,0:0:0:0:
460,196,137875,1,0,0:0:0:0:
288,48,138000,1,0,0:0:0:0:
400,292,138125,1,0,0:0:0:0:
360,164,138250,2,0,B|304:152|300:216|236:184,1,130.499991725922
160,124,138625,5,0,0:0:0:0:
152,268,138750,1,0,0:0:0:0:
280,308,138875,1,0,0:0:0:0:
336,216,139000,6,0,B|376:152|344:100|404:60,1,163.125000858307
256,336,139312,2,0,B|320:288|388:340|440:244,1,163.125000858307
216,72,139625,2,0,B|284:156|224:204|304:260,1,163.125000858307
72,128,140000,5,0,0:0:0:0:
76,144,140062,1,0,0:0:0:0:
80,164,140125,1,0,0:0:0:0:
76,288,140312,2,0,P|120:236|184:212,1,130.499991725922
264,240,140750,5,0,0:0:0:0:
268,220,140813,1,0,0:0:0:0:
272,196,140875,1,0,0:0:0:0:
208,56,141062,2,0,P|300:76|324:128,2,130.499991725922
88,176,142000,6,0,B|104:88|104:88|200:56,2,130.499991725922
200,220,142375,2,0,B|244:140|244:140|216:80,2,130.499991725922
80,272,142750,2,0,B|120:336|120:336|192:336,2,130.499991725922
184,196,143125,5,0,0:0:0:0:
196,196,143187,1,0,0:0:0:0:
212,196,143250,1,0,0:0:0:0:
228,196,143312,1,0,0:0:0:0:
240,196,143375,1,0,0:0:0:0:
252,196,143437,1,0,0:0:0:0:
268,196,143500,1,0,0:0:0:0:
280,196,143562,1,0,0:0:0:0:
292,196,143625,1,0,0:0:0:0:
304,196,143687,1,0,0:0:0:0:
316,196,143750,1,0,0:0:0:0:
328,196,143812,1,0,0:0:0:0:
116,248,144000,6,0,P|124:176|96:112,1,130.499991725922
220,68,144250,2,0,P|152:40|88:64,1,130.499991725922
56,236,144500,2,0,P|128:184|184:192,1,130.499991725922
245,287,144750,5,0,0:0:0:0:
182,179,144875,1,0,0:0:0:0:
276,85,145000,1,0,0:0:0:0:
335,204,145125,1,0,0:0:0:0:
440,40,145250,6,0,B|412:104|412:104|456:172,1,130.499991725922
304,312,145500,2,0,B|360:276|360:276|428:296,1,130.499991725922
204,336,145750,5,0,0:0:0:0:
248,188,145875,1,0,0:0:0:0:
168,112,146000,1,0,0:0:0:0:
96,364,146125,1,0,0:0:0:0:
76,248,146250,6,0,B|64:148|212:220|208:76,1,217.49998620987
324,68,146583,2,0,B|356:160|328:184|328:184|296:132,1,173.999988967896
236,172,146875,2,0,B|224:256|252:280|252:280|284:224,1,173.999988967896
368,52,147187,2,0,B|396:128|372:176|372:176|332:128,1,173.999988967896
170,127,147468,6,0,P|154:169|167:203,1,65.249995862961
248,48,147656,2,0,P|266:78|252:115,1,65.249995862961
427,232,147968,2,0,L|349:280,2,65.249995862961
252,228,148208,5,0,0:0:0:0:
284,340,148333,1,0,0:0:0:0:
148,148,148458,1,0,0:0:0:0:
160,284,148583,1,0,0:0:0:0:
64,228,148708,6,0,B|60:136|104:192|156:168|136:92,1,173.999988967896
48,76,149000,2,0,B|144:64|156:152|252:140,1,217.49998620987
264,156,149333,1,0,0:0:0:0:
272,168,149416,1,0,0:0:0:0:
280,180,149500,1,0,0:0:0:0:
400,52,149625,5,0,0:0:0:0:
448,136,149750,1,0,0:0:0:0:
400,216,149875,1,0,0:0:0:0:
444,308,150000,1,0,0:0:0:0:
332,308,150125,6,0,B|264:308|248:276|248:276|232:320|232:320|216:272|216:272|196:324|196:324|172:272,1,304.499980693818
112,232,150541,2,0,B|136:196|136:196|92:184|92:184|140:172|140:172|92:156|92:156|140:148,1,217.49998620987
256,80,150875,6,0,L|312:32,1,43.499997241974
376,192,151000,2,0,L|396:232,1,43.499997241974
256,312,151125,2,0,L|216:348,1,43.499997241974
139,190,151250,2,0,L|115:142,1,43.499997241974
335,119,151375,6,0,L|399:119,1,43.499997241974
321,278,151500,2,0,L|321:342,1,43.499997241974
173,256,151625,2,0,L|125:256,1,43.499997241974
192,111,151750,2,0,L|192:47,1,43.499997241974
256,92,151875,6,0,L|288:44,1,43.499997241974
360,191,152000,2,0,L|404:235,1,43.499997241974
256,303,152125,2,0,L|216:351,1,43.499997241974
142,195,152250,2,0,L|82:143,1,43.499997241974
178,110,152375,6,0,L|178:58,1,43.499997241974
335,123,152500,2,0,L|395:123,1,43.499997241974
324,274,152625,2,0,L|324:342,1,43.499997241974
181,260,152750,2,0,L|125:260,1,43.499997241974
200,80,152916,5,0,0:0:0:0:
208,92,153000,1,0,0:0:0:0:
216,108,153083,1,0,0:0:0:0:
224,120,153166,1,0,0:0:0:0:
232,132,153250,1,0,0:0:0:0:
240,144,153333,1,0,0:0:0:0:
248,156,153416,1,0,0:0:0:0:
256,168,153500,1,0,0:0:0:0:
264,180,153583,1,0,0:0:0:0:
272,192,153666,1,0,0:0:0:0:
284,208,153750,1,0,0:0:0:0:
292,220,153833,1,0,0:0:0:0:
300,232,153916,1,0,0:0:0:0:
388,84,154041,5,0,0:0:0:0:
384,96,154083,1,0,0:0:0:0:
380,108,154125,1,0,0:0:0:0:
376,120,154166,1,0,0:0:0:0:
372,132,154208,1,0,0:0:0:0:
368,144,154250,1,0,0:0:0:0:
364,152,154291,1,0,0:0:0:0:
360,164,154333,1,0,0:0:0:0:
356,176,154375,1,0,0:0:0:0:
352,188,154416,1,0,0:0:0:0:
348,200,154458,1,0,0:0:0:0:
344,208,154500,1,0,0:0:0:0:
340,216,154541,1,0,0:0:0:0:
336,228,154583,1,0,0:0:0:0:
332,240,154625,1,0,0:0:0:0:
328,252,154666,1,0,0:0:0:0:
324,264,154708,1,0,0:0:0:0:
196,212,155000,6,0,L|197:179,14,32.6249979314805
316,160,155500,2,0,L|316:192,10,32.6249979314805
88,68,155958,6,0,P|160:32|252:88,1,173.999988967896
260,144,156250,1,0,0:0:0:0:
336,72,156375,2,0,B|336:124|336:124|388:168|384:168|384:232,2,173.999988967896
128,36,156833,5,0,0:0:0:0:
60,184,156958,1,0,0:0:0:0:
204,244,157083,1,0,0:0:0:0:
268,100,157208,1,0,0:0:0:0:
168,144,157333,1,0,0:0:0:0:
168,144,157458,2,0,B|224:192|264:188|264:188|224:240|224:240|300:212|300:212|248:280|248:280|248:280,1,304.499980693818
116,280,157875,6,0,L|180:312,1,43.499997241974
308,224,158041,2,0,L|248:192,1,43.499997241974
128,160,158208,1,0,0:0:0:0:
144,132,158291,1,0,0:0:0:0:
164,104,158375,1,0,0:0:0:0:
260,68,158500,6,0,B|228:128|228:124|264:192,1,130.499991725922
180,288,158708,6,0,L|228:320,1,43.499997241974
196,112,158875,2,0,L|152:156,1,43.499997241974
56,236,159041,2,0,B|80:180|80:180|104:236|104:236|124:176|124:176|144:236|144:236|168:172|168:172|196:240|196:240|216:164|216:164|236:232,1,531.666665407817
64,84,159625,6,0,P|84:144|52:192,1,86.999994483948
176,264,159833,2,0,P|156:208|180:160,1,86.999994483948
184,100,160083,1,0,0:0:0:0:
252,72,160166,1,0,0:0:0:0:
320,48,160250,1,0,0:0:0:0:
352,180,160333,1,0,0:0:0:0:
284,208,160416,1,0,0:0:0:0:
216,236,160500,1,0,0:0:0:0:
216,236,160625,2,0,B|132:264|132:264|232:300,1,173.999988967896
132,100,160916,5,0,0:0:0:0:
204,200,161041,1,0,0:0:0:0:
316,136,161166,1,0,0:0:0:0:
240,28,161291,1,0,0:0:0:0:
244,120,161416,2,0,B|244:200|316:196|296:308,1,173.999988967896
100,332,161708,5,0,0:0:0:0:
172,228,161833,1,0,0:0:0:0:
96,120,161958,1,0,0:0:0:0:
164,24,162083,1,0,0:0:0:0:
256,100,162208,1,0,0:0:0:0:
356,24,162333,1,0,0:0:0:0:
420,120,162458,1,0,0:0:0:0:
348,232,162583,1,0,0:0:0:0:
420,332,162708,1,0,0:0:0:0:
256,236,162833,2,0,L|256:328,2,86.999994483948
256,144,163125,2,0,L|256:56,2,86.999994483948
128,68,163458,6,0,B|96:128|116:188|116:188|152:140,1,173.999988967896
124,266,163812,2,0,P|174:318|257:318,1,130.499991725922
232,148,164083,1,0,0:0:0:0:
284,36,164208,1,0,0:0:0:0:
384,104,164333,1,0,0:0:0:0:
408,232,164458,1,0,0:0:0:0:
336,272,164583,2,0,B|244:260|208:356|84:312,2,260.999983451844
256,212,165208,5,0,0:0:0:0:
124,216,165333,1,0,0:0:0:0:
68,104,165458,1,0,0:0:0:0:
184,8,165583,1,0,0:0:0:0:
296,96,165708,1,0,0:0:0:0:
296,100,165833,2,0,B|376:168|388:268|388:268|304:212,1,260.999983451844
268,244,166208,5,0,0:0:0:0:
200,332,166333,1,0,0:0:0:0:
104,268,166458,1,0,0:0:0:0:
116,124,166583,1,0,0:0:0:0:
216,40,166708,1,0,0:0:0:0:
232,152,166833,2,0,L|300:124,4,43.499997241974
208,256,167125,5,0,0:0:0:0:
212,280,167250,1,0,0:0:0:0:
216,308,167375,1,0,0:0:0:0:
296,312,167500,1,0,0:0:0:0:
300,284,167625,1,0,0:0:0:0:
308,248,167750,1,0,0:0:0:0:
296,160,167875,6,0,B|276:124|260:56|260:56|248:124|216:176,2,217.49998620987
224,228,168416,2,0,B|252:268|264:328|264:328|276:264|300:220,2,217.49998620987
152,116,168968,5,0,0:0:0:0:
96,192,169083,1,0,0:0:0:0:
152,252,169208,1,0,0:0:0:0:
360,128,169333,1,0,0:0:0:0:
420,192,169458,1,0,0:0:0:0:
356,252,169583,1,0,0:0:0:0:
210,146,169812,5,0,0:0:0:0:
303,241,169906,1,0,0:0:0:0:
261,124,170000,1,0,0:0:0:0:
257,258,170093,1,0,0:0:0:0:
212,242,170187,1,0,0:0:0:0:
306,155,170281,1,0,0:0:0:0:
256,152,170406,5,0,0:0:0:0:
228,168,170490,1,0,0:0:0:0:
236,200,170573,1,0,0:0:0:0:
276,200,170656,1,0,0:0:0:0:
280,168,170740,1,0,0:0:0:0:
256,52,171166,1,0,0:0:0:0:
136,136,171458,1,0,0:0:0:0:
192,272,171708,1,0,0:0:0:0:
320,268,171958,1,0,0:0:0:0:
380,128,172208,1,0,0:0:0:0:
260,172,172416,1,0,0:0:0:0:
260,172,172625,1,0,0:0:0:0:
260,172,172833,1,0,0:0:0:0:
256,192,173000,12,0,175666,0:0:0:0:
