osu file format v14

[General]
AudioFilename: audio-1.mp3
AudioLeadIn: 0
PreviewTime: 7302
Countdown: 1
SampleSet: Soft
StackLeniency: 0.7
Mode: 0
LetterboxInBreaks: 0
WidescreenStoryboard: 0

[Editor]
Bookmarks: 49552,50052,57552
DistanceSpacing: 1.2
BeatDivisor: 2
GridSize: 4
TimelineZoom: 1

[Metadata]
Title:Atama no Taisou
TitleUnicode:Atama no Taisou
Artist:Hatsune Miku
ArtistUnicode:Hatsune Miku
Creator:sdolnicek
Version:Calm
Source:hapi
Tags:vocaloid short chill 初音ミク
BeatmapID:1620912
BeatmapSetID:770982

[Difficulty]
HPDrainRate:4
CircleSize:3.2
OverallDifficulty:4
ApproachRate:5
SliderMultiplier:1.3
SliderTickRate:2

[Events]
//Background and Video events
0,0,"BG.jpg",0,0
//Break Periods
//Storyboard Layer 0 (Background)
//Storyboard Layer 1 (Fail)
//Storyboard Layer 2 (Pass)
//Storyboard Layer 3 (Foreground)
//Storyboard Sound Samples

[TimingPoints]
52,500,4,2,0,36,1,0
8052,-100,4,2,0,25,0,0
39302,-100,4,2,0,36,0,1
54052,-100,4,2,0,36,0,0

[Colours]
Combo1 : 255,255,170
Combo2 : 0,128,175
Combo3 : 0,235,255
Combo4 : 0,255,0
Combo5 : 226,45,124
Combo6 : 255,255,255

[HitObjects]
256,192,52,12,0,2552,0:0:0:0:
71,312,4052,5,8,0:0:0:0:
256,60,5052,1,8,0:0:0:0:
427,312,6052,1,8,0:0:0:0:
329,190,6552,1,8,0:0:0:0:
192,265,7052,1,8,0:0:0:0:
132,165,8052,6,8,P|152:91|202:61,1,130,10|10,0:0|0:0,0:0:0:0:
271,59,8802,2,2,B|314:71|349:43|393:56|393:56|407:96|395:145,1,195
412,282,10052,6,8,P|456:274|500:286,2,65
336,303,10802,1,2,0:0:0:0:
336,303,11052,1,8,0:0:0:0:
183,336,11552,5,0,0:0:0:0:
183,336,11802,1,0,0:0:0:0:
133,275,12052,2,8,P|70:274|121:196,1,195
268,221,13302,2,2,P|310:208|335:177,2,65
199,183,14052,1,8,0:0:0:0:
97,301,14552,1,2,0:0:0:0:
97,301,14802,1,2,0:0:0:0:
142,151,15302,6,2,P|114:127|71:128,2,65
210,188,16052,2,8,P|279:161|312:98,1,130
383,93,16802,2,2,B|442:186|327:190|405:293,1,195
254,347,18052,2,8,P|213:338|180:313,1,65
136,272,18552,2,8,P|120:236|127:186,1,65
134,134,19052,1,8,0:0:0:0:
258,39,19552,5,8,0:0:0:0:
258,39,19802,1,2,0:0:0:0:
333,59,20052,2,8,B|357:78|388:83|388:83|392:119|362:166,1,130
256,254,21052,1,8,0:0:0:0:
114,188,21552,1,8,0:0:0:0:
256,124,22052,1,8,0:0:0:0:
397,189,22552,1,8,0:0:0:0:
255,255,23052,1,8,0:0:0:0:
51,336,24052,6,2,B|81:283|116:297|148:251,1,130
196,192,24802,1,8,0:0:0:0:
351,191,25302,2,2,P|391:175|415:135,2,65
344,268,26052,6,2,P|318:329|256:361,1,130
188,356,26802,1,8,0:0:0:0:
94,231,27302,2,2,P|54:247|22:299,2,65
140,167,28052,6,2,P|176:111|237:86,1,130
310,76,28802,1,8,0:0:0:0:
413,192,29302,2,2,P|461:192|501:152,2,65
337,174,30052,1,8,0:0:0:0:
255,40,30552,1,8,0:0:0:0:
174,173,31052,1,8,0:0:0:0:
31,108,31552,5,8,0:0:0:0:
98,248,32052,6,2,P|88:281|65:312,2,65
137,180,32802,2,2,B|158:150|147:106|147:106|180:107|217:91,1,130
277,87,33552,1,2,0:0:0:0:
277,87,33802,1,2,0:0:0:0:
354,96,34052,6,2,P|388:85|428:95,2,65
371,172,34802,2,2,P|427:232|342:229,1,195
294,193,35802,1,2,0:0:0:0:
277,269,36052,2,2,P|183:280|99:222,1,195
139,75,37302,2,2,P|120:39|82:17,2,65
172,145,38052,6,8,P|182:190|211:226,1,65
122,241,38552,2,8,P|153:274|196:291,1,65
245,262,39052,1,8,0:0:0:0:
394,217,39552,6,0,P|423:182|428:142,1,65
456,91,40052,1,8,0:0:0:0:
412,26,40302,1,0,0:0:0:0:
379,96,40552,1,8,0:0:0:0:
329,156,40802,2,0,B|265:232|228:164|160:247,1,195
289,336,42052,6,0,B|319:323|354:333|354:333|393:314|400:271,1,130
390,209,42802,1,0,0:0:0:0:
390,209,43052,1,0,0:0:0:0:
280,98,43552,2,0,P|242:98|198:125,1,65
150,147,44052,2,0,P|112:215|193:190,1,195
257,62,45302,6,0,P|268:20|250:-14,2,65
226,134,46052,1,0,0:0:0:0:
135,261,46552,1,0,0:0:0:0:
135,261,46802,1,0,0:0:0:0:
281,314,47302,6,0,P|322:308|354:277,2,65
215,270,48052,1,0,0:0:0:0:
183,198,48302,1,0,0:0:0:0:
135,261,48552,1,0,0:0:0:0:
94,194,48802,2,0,B|51:136|51:136|119:126|168:85,1,195
255,214,50052,6,0,P|294:198|319:171,1,65
356,245,50552,2,0,P|384:215|396:181,1,65
358,123,51052,1,0,0:0:0:0:
233,29,51552,6,0,P|163:43|114:101,1,130
92,154,52302,1,0,0:0:0:0:
92,154,52552,2,0,P|111:225|160:273,1,130
216,303,53302,1,0,0:0:0:0:
216,303,53552,2,0,P|279:288|334:229,1,130
75,57,55052,1,0,0:0:0:0:
256,192,56052,12,0,58052,0:0:0:0:
