osu file format v14

[General]
AudioFilename: audio-1.mp3
AudioLeadIn: 0
PreviewTime: 7302
Countdown: 1
SampleSet: Soft
StackLeniency: 0.7
Mode: 0
LetterboxInBreaks: 0
WidescreenStoryboard: 1

[Editor]
Bookmarks: 25302,33552,49552,57552
DistanceSpacing: 0.8
BeatDivisor: 2
GridSize: 4
TimelineZoom: 1

[Metadata]
Title:Atama no Taisou
TitleUnicode:Atama no Taisou
Artist:Hatsune Miku
ArtistUnicode:Hatsune Miku
Creator:sdolnicek
Version:Normal
Source:hapi
Tags:vocaloid short chill 初音ミク
BeatmapID:1624577
BeatmapSetID:770982

[Difficulty]
HPDrainRate:2
CircleSize:2.8
OverallDifficulty:3
ApproachRate:3
SliderMultiplier:1.1
SliderTickRate:3

[Events]
//Background and Video events
0,0,"BG.jpg",0,0
//Break Periods
//Storyboard Layer 0 (Background)
//Storyboard Layer 1 (Fail)
//Storyboard Layer 2 (Pass)
//Storyboard Layer 3 (Foreground)
//Storyboard Sound Samples

[TimingPoints]
52,500,4,2,0,36,1,0
8052,-100,4,2,0,25,0,0
37302,-100,4,2,0,36,0,1
54052,-100,4,2,0,36,0,0

[Colours]
Combo1 : 255,255,170
Combo2 : 0,128,175
Combo3 : 0,235,255
Combo4 : 0,255,0
Combo5 : 226,45,124
Combo6 : 255,255,255

[HitObjects]
256,192,52,12,0,4052,0:0:0:0:
324,319,6052,6,0,P|387:297|416:239,2,110
152,277,8052,5,0,0:0:0:0:
93,211,8552,1,0,0:0:0:0:
135,133,9052,2,0,P|183:91|251:86,1,110
266,161,10052,2,0,P|295:217|351:242,1,110
417,268,11052,2,0,P|448:323|428:385,1,110
358,333,12052,6,0,P|300:315|244:332,1,110
191,263,13052,2,0,P|210:194|197:146,1,110
183,71,14052,2,0,B|226:45|264:101|329:49,1,110
377,51,15052,5,0,0:0:0:0:
433,118,15552,1,0,0:0:0:0:
458,202,16052,2,0,P|443:269|406:313,1,110
334,327,17052,2,0,B|281:304|261:351|192:320,1,110
154,278,18052,2,0,P|157:202|195:145,2,110
213,343,19552,6,0,P|281:309|317:251,1,110
345,206,20552,2,0,P|401:182|449:205,1,110
465,285,21552,2,0,B|443:339|385:353,1,110
296,360,22552,1,0,0:0:0:0:
219,315,23052,1,0,0:0:0:0:
119,170,24052,6,0,B|148:151|159:108|159:108|205:124|248:101,1,165
330,79,25302,2,0,P|370:75|396:53,2,55
329,122,26052,6,0,B|417:194|493:120,1,165
412,74,27302,2,0,P|427:42|451:26,2,55
367,77,28052,6,0,B|298:48|265:96|198:79,1,165
84,26,29552,2,0,P|53:100|67:149,1,110
88,209,30552,1,0,0:0:0:0:
137,281,31052,2,0,P|202:313|253:312,1,110
325,302,32052,6,0,P|395:229|393:163,1,165
263,171,33552,1,0,0:0:0:0:
202,106,34052,2,0,B|145:60|145:60|115:102|74:129,1,165
43,204,35302,2,0,P|24:225|13:263,2,55
86,211,36052,6,0,B|157:215|161:274|249:289,1,165
316,304,37302,2,0,P|354:293|380:265,2,55
305,261,38052,1,0,0:0:0:0:
358,191,38552,1,0,0:0:0:0:
270,178,39052,1,0,0:0:0:0:
154,44,40052,6,0,P|85:64|49:115,1,110
138,131,41052,2,0,B|182:146|165:188|219:216,1,110
272,273,42052,2,0,P|255:328|210:366,1,110
130,349,43052,2,0,P|102:303|101:239,1,110
137,168,44052,2,0,B|174:139|155:104|204:72,3,110
274,36,46052,5,0,0:0:0:0:
339,94,46552,1,0,0:0:0:0:
281,160,47052,1,0,0:0:0:0:
351,212,47552,1,0,0:0:0:0:
408,278,48052,6,0,P|356:300|292:279,2,110
463,209,49552,1,0,0:0:0:0:
440,123,50052,2,0,P|464:36|383:87,1,220
340,144,51552,6,0,P|308:194|233:215,1,110
180,185,52552,2,0,P|151:118|169:61,1,110
216,18,53552,2,0,P|274:-1|334:18,1,110
256,173,55052,1,0,0:0:0:0:
256,192,56052,12,0,58052,0:0:0:0:
