osu file format v14

[General]
AudioFilename: audio.mp3
AudioLeadIn: 0
PreviewTime: 97376
Countdown: 0
SampleSet: Normal
StackLeniency: 0.7
Mode: 0
LetterboxInBreaks: 0
WidescreenStoryboard: 0

[Editor]
DistanceSpacing: 0.8
BeatDivisor: 1
GridSize: 32
TimelineZoom: 1

[Metadata]
Title:Anagura Gurashi
TitleUnicode:Anagura Gurashi
Artist:Hatsune Miku
ArtistUnicode:Hatsune Miku
Creator:MYXA01010
Version:Normal
Source:Kikuo
Tags:SEKAI
BeatmapID:4537600
BeatmapSetID:2153524

[Difficulty]
HPDrainRate:5
CircleSize:5
OverallDifficulty:5
ApproachRate:5
SliderMultiplier:1.4
SliderTickRate:1

[Events]
//Background and Video events
0,0,"3a9c4b765fee682f7b3bcbc54c9e39ec.jpg",0,0
//Break Periods
2,63101,67027
//Storyboard Layer 0 (Background)
//Storyboard Layer 1 (Fail)
//Storyboard Layer 2 (Pass)
//Storyboard Layer 3 (Foreground)
//Storyboard Layer 4 (Overlay)
//Storyboard Sound Samples

[TimingPoints]
61.6521739130435,355.029585798817,4,1,0,100,1,0

[HitObjects]
30,155,771,5,0,0:0:0:0:
239,154,1836,1,0,0:0:0:0:
135,187,2901,1,0,0:0:0:0:
272,90,4322,1,0,0:0:0:0:
195,278,5742,1,0,0:0:0:0:
129,124,6807,1,0,0:0:0:0:
386,206,8227,1,0,0:0:0:0:
91,246,9647,1,0,0:0:0:0:
242,66,10712,1,0,0:0:0:0:
224,239,12487,1,0,0:0:0:0:
83,94,13552,1,0,0:0:0:0:
54,286,14972,1,0,0:0:0:0:
385,58,16393,1,0,0:0:0:0:
382,268,17103,1,0,0:0:0:0:
208,82,18878,1,0,0:0:0:0:
206,271,19943,1,0,0:0:0:0:
72,68,21363,1,0,0:0:0:0:
70,253,22428,1,0,0:0:0:0:
377,91,24558,1,0,0:0:0:0:
376,267,26333,1,0,0:0:0:0:
207,127,27398,1,0,0:0:0:0:
111,210,28464,1,0,0:0:0:0:
323,148,29529,1,0,0:0:0:0:
131,161,29884,1,0,0:0:0:0:
202,251,33789,1,0,0:0:0:0:
177,154,34144,1,0,0:0:0:0:
102,226,34854,1,0,0:0:0:0:
240,127,35564,1,0,0:0:0:0:
297,208,36274,1,0,0:0:0:0:
181,143,36629,1,0,0:0:0:0:
330,142,37339,1,0,0:0:0:0:
195,242,38049,1,0,0:0:0:0:
189,121,38404,1,0,0:0:0:0:
321,135,39114,1,0,0:0:0:0:
311,233,39824,1,0,0:0:0:0:
138,168,40535,1,0,0:0:0:0:
141,232,40890,1,0,0:0:0:0:
283,141,41600,1,0,0:0:0:0:
447,242,42310,1,0,0:0:0:0:
102,288,43020,1,0,0:0:0:0:
367,71,43730,1,0,0:0:0:0:
363,333,44085,1,0,0:0:0:0:
77,62,44795,1,0,0:0:0:0:
107,270,45505,1,0,0:0:0:0:
200,127,46215,1,0,0:0:0:0:
202,204,46570,1,0,0:0:0:0:
281,89,47280,1,0,0:0:0:0:
370,323,47990,1,0,0:0:0:0:
95,318,48700,1,0,0:0:0:0:
449,298,49410,1,0,0:0:0:0:
84,309,50120,1,0,0:0:0:0:
365,265,50475,1,0,0:0:0:0:
332,49,51185,1,0,0:0:0:0:
70,62,51895,1,0,0:0:0:0:
57,275,52251,1,0,0:0:0:0:
340,286,52961,1,0,0:0:0:0:
86,298,53671,1,0,0:0:0:0:
330,275,54026,1,0,0:0:0:0:
345,161,54736,1,0,0:0:0:0:
108,111,55091,1,0,0:0:0:0:
336,96,55446,1,0,0:0:0:0:
136,224,55801,1,0,0:0:0:0:
353,256,56156,1,0,0:0:0:0:
211,66,56511,1,0,0:0:0:0:
222,283,56866,1,0,0:0:0:0:
111,228,57221,1,0,0:0:0:0:
405,204,57576,1,0,0:0:0:0:
236,74,57931,1,0,0:0:0:0:
440,105,58286,1,0,0:0:0:0:
356,230,58641,1,0,0:0:0:0:
129,142,58996,1,0,0:0:0:0:
280,65,59351,1,0,0:0:0:0:
257,288,59706,1,0,0:0:0:0:
98,198,60061,1,0,0:0:0:0:
320,193,60416,1,0,0:0:0:0:
148,91,60771,1,0,0:0:0:0:
152,317,61126,1,0,0:0:0:0:
199,126,61481,1,0,0:0:0:0:
365,137,61836,1,0,0:0:0:0:
360,281,62191,1,0,0:0:0:0:
108,175,62901,1,0,0:0:0:0:
200,214,68227,5,0,0:0:0:0:
200,152,69292,1,0,0:0:0:0:
352,155,70357,1,0,0:0:0:0:
117,199,71777,1,0,0:0:0:0:
258,248,72842,1,0,0:0:0:0:
325,248,74262,1,0,0:0:0:0:
98,275,75682,1,0,0:0:0:0:
301,220,76748,1,0,0:0:0:0:
319,207,78168,1,0,0:0:0:0:
316,207,79588,1,0,0:0:0:0:
315,207,81008,1,0,0:0:0:0:
316,207,82073,1,0,0:0:0:0:
316,207,83493,1,0,0:0:0:0:
316,207,84558,1,0,0:0:0:0:
316,206,85623,1,0,0:0:0:0:
317,207,87043,1,0,0:0:0:0:
315,204,88108,1,0,0:0:0:0:
315,204,89174,1,0,0:0:0:0:
315,206,90594,1,0,0:0:0:0:
315,207,91659,1,0,0:0:0:0:
314,207,93079,1,0,0:0:0:0:
313,207,94499,1,0,0:0:0:0:
313,207,95209,1,0,0:0:0:0:
313,207,95564,1,0,0:0:0:0:
313,207,96629,1,0,0:0:0:0:
313,207,97339,1,0,0:0:0:0:
313,207,98049,1,0,0:0:0:0:
313,207,98404,1,0,0:0:0:0:
111,223,98759,1,0,0:0:0:0:
307,313,99114,1,0,0:0:0:0:
134,268,99469,1,0,0:0:0:0:
293,148,99824,1,0,0:0:0:0:
257,279,100179,1,0,0:0:0:0:
159,188,100535,1,0,0:0:0:0:
203,281,100890,1,0,0:0:0:0:
127,135,101245,1,0,0:0:0:0:
259,180,101600,1,0,0:0:0:0:
143,79,102310,1,0,0:0:0:0:
149,243,102665,1,0,0:0:0:0:
225,221,103020,1,0,0:0:0:0:
120,140,103375,1,0,0:0:0:0:
169,231,103730,1,0,0:0:0:0:
282,151,104085,1,0,0:0:0:0:
225,233,104440,1,0,0:0:0:0:
106,149,104795,1,0,0:0:0:0:
225,233,105150,1,0,0:0:0:0:
354,160,105505,1,0,0:0:0:0:
191,257,105860,1,0,0:0:0:0:
358,218,106215,1,0,0:0:0:0:
127,241,106570,1,0,0:0:0:0:
392,247,106925,1,0,0:0:0:0:
157,104,107280,1,0,0:0:0:0:
349,180,107635,1,0,0:0:0:0:
236,294,107990,1,0,0:0:0:0:
68,232,108345,1,0,0:0:0:0:
77,185,109055,1,0,0:0:0:0:
364,214,109410,1,0,0:0:0:0:
182,52,109765,1,0,0:0:0:0:
159,316,110120,1,0,0:0:0:0:
1,152,110475,1,0,0:0:0:0:
359,171,110830,1,0,0:0:0:0:
365,206,111185,1,0,0:0:0:0:
135,236,111540,1,0,0:0:0:0:
285,246,111895,1,0,0:0:0:0:
144,285,112251,1,0,0:0:0:0:
255,287,112606,1,0,0:0:0:0:
187,289,112961,1,0,0:0:0:0:
212,319,113316,1,0,0:0:0:0:
174,331,113671,1,0,0:0:0:0:
210,338,114026,1,0,0:0:0:0:
169,194,114381,1,0,0:0:0:0:
166,272,114736,1,0,0:0:0:0:
161,74,115091,1,0,0:0:0:0:
307,165,115446,1,0,0:0:0:0:
297,251,115801,1,0,0:0:0:0:
306,89,116511,1,0,0:0:0:0:
94,93,117221,1,0,0:0:0:0:
86,188,118641,1,0,0:0:0:0:
84,244,118996,1,0,0:0:0:0:
231,125,120061,1,0,0:0:0:0:
227,285,120416,1,0,0:0:0:0:
87,133,120771,1,0,0:0:0:0:
360,164,121126,1,0,0:0:0:0:
108,204,121481,1,0,0:0:0:0:
292,247,121836,1,0,0:0:0:0:
106,281,122191,1,0,0:0:0:0:
157,302,122546,1,0,0:0:0:0:
258,179,122901,1,0,0:0:0:0:
269,98,123256,1,0,0:0:0:0:
72,134,123611,1,0,0:0:0:0:
282,170,123966,1,0,0:0:0:0:
77,235,124322,1,0,0:0:0:0:
211,148,125387,1,0,0:0:0:0:
54,174,125742,1,0,0:0:0:0:
313,219,126097,1,0,0:0:0:0:
400,243,126452,1,0,0:0:0:0:
338,215,127162,1,0,0:0:0:0:
211,89,127517,1,0,0:0:0:0:
122,288,127872,1,0,0:0:0:0:
101,41,128227,1,0,0:0:0:0:
199,265,128582,1,0,0:0:0:0:
229,221,128937,1,0,0:0:0:0:
58,188,129292,1,0,0:0:0:0:
320,192,129647,1,0,0:0:0:0:
206,138,130357,1,0,0:0:0:0:
207,236,130712,1,0,0:0:0:0:
121,145,131422,1,0,0:0:0:0:
100,249,132487,1,0,0:0:0:0:
347,178,133197,1,0,0:0:0:0:
363,264,133907,1,0,0:0:0:0:
128,160,134972,1,0,0:0:0:0:
111,269,136037,1,0,0:0:0:0:
268,172,136748,1,0,0:0:0:0:
271,269,137458,1,0,0:0:0:0:
372,143,137813,1,0,0:0:0:0:
388,264,138168,1,0,0:0:0:0:
228,104,138523,1,0,0:0:0:0:
95,206,138878,1,0,0:0:0:0:
269,190,139233,1,0,0:0:0:0:
196,106,139588,1,0,0:0:0:0:
235,269,139943,1,0,0:0:0:0:
137,170,140653,1,0,0:0:0:0:
125,243,141008,1,0,0:0:0:0:
179,146,142783,1,0,0:0:0:0:
188,233,143493,1,0,0:0:0:0:
295,162,144203,1,0,0:0:0:0:
290,279,145268,1,0,0:0:0:0:
203,162,145978,1,0,0:0:0:0:
167,270,146688,1,0,0:0:0:0:
438,274,148108,1,0,0:0:0:0:
356,94,149174,1,0,0:0:0:0:
163,79,150239,1,0,0:0:0:0:
177,257,150949,1,0,0:0:0:0:
39,264,152369,1,0,0:0:0:0:
30,99,153434,1,0,0:0:0:0:
161,96,154144,1,0,0:0:0:0:
176,237,155209,1,0,0:0:0:0:
362,126,156629,1,0,0:0:0:0:
364,278,157694,1,0,0:0:0:0:
119,142,158759,1,0,0:0:0:0:
328,165,160179,1,0,0:0:0:0:
91,236,161245,1,0,0:0:0:0:
416,186,162665,1,0,0:0:0:0:
149,136,163375,1,0,0:0:0:0:
390,130,164440,1,0,0:0:0:0:
167,142,165505,1,0,0:0:0:0:
369,133,166570,1,0,0:0:0:0:
180,145,167635,1,0,0:0:0:0:
365,210,167990,1,0,0:0:0:0:
186,157,168345,1,0,0:0:0:0:
234,300,168700,1,0,0:0:0:0:
389,222,169055,1,0,0:0:0:0:
324,133,169410,1,0,0:0:0:0:
184,247,169765,1,0,0:0:0:0:
381,208,170120,1,0,0:0:0:0:
278,120,170475,1,0,0:0:0:0:
232,250,170830,1,0,0:0:0:0:
229,145,171540,1,0,0:0:0:0:
268,252,171895,1,0,0:0:0:0:
334,186,172251,1,0,0:0:0:0:
185,277,172606,1,0,0:0:0:0:
39,131,175446,2,0,B|417:333|354:131|399:143|442:155|345:305|266:340|110:305|0:292|246:360|406:338|460:246|452:92|388:46|276:82|196:69|111:79|30:74|2:94|-20:167|20:235|9:249|-8:96|40:42|91:37|104:31|151:37|128:27,8,1120
53,280,198523,2,0,B|206:132|375:165|325:299|423:167|428:47|180:84|45:77|13:189|70:72|193:61|302:46|351:42|490:68|488:159|468:262|463:276|416:343|338:345|291:330|220:334|213:335|166:338|110:332|86:336|-22:355|12:312,5,1120
109,113,213079,1,0,0:0:0:0:
162,228,213789,1,0,0:0:0:0:
282,123,214144,1,0,0:0:0:0:
147,163,214854,1,0,0:0:0:0:
280,212,215209,1,0,0:0:0:0:
144,232,215564,1,0,0:0:0:0:
205,91,215919,1,0,0:0:0:0:
152,233,217339,1,0,0:0:0:0:
254,192,217694,1,0,0:0:0:0:
68,155,218759,1,0,0:0:0:0:
195,131,220179,1,0,0:0:0:0:
69,158,221245,1,0,0:0:0:0:
278,180,222665,1,0,0:0:0:0:
69,151,223730,1,0,0:0:0:0:
285,188,224795,1,0,0:0:0:0:
117,188,226215,1,0,0:0:0:0:
261,144,227280,1,0,0:0:0:0:
143,240,228700,1,0,0:0:0:0:
179,174,230120,1,0,0:0:0:0:
178,176,231540,1,0,0:0:0:0:
176,176,232961,1,0,0:0:0:0:
175,176,234026,1,0,0:0:0:0:
173,178,235091,1,0,0:0:0:0:
174,180,236511,1,0,0:0:0:0:
174,180,237221,1,0,0:0:0:0:
157,218,238286,1,0,0:0:0:0:
365,191,239706,1,0,0:0:0:0:
71,197,241126,1,0,0:0:0:0:
186,69,242191,1,0,0:0:0:0:
183,71,243256,1,0,0:0:0:0:
183,71,244322,1,0,0:0:0:0:
183,71,244677,1,0,0:0:0:0:
183,71,245032,1,0,0:0:0:0:
183,71,245742,1,0,0:0:0:0:
187,69,246452,1,0,0:0:0:0:
187,69,247162,1,0,0:0:0:0:
187,69,247517,1,0,0:0:0:0:
187,69,248227,1,0,0:0:0:0:
182,67,248937,1,0,0:0:0:0:
174,66,249647,1,0,0:0:0:0:
151,61,250357,1,0,0:0:0:0:
135,54,250712,1,0,0:0:0:0:
91,51,251422,1,0,0:0:0:0:
57,46,251777,1,0,0:0:0:0:
42,100,252132,1,0,0:0:0:0:
105,196,252487,1,0,0:0:0:0:
247,109,252842,1,0,0:0:0:0:
99,152,253907,1,0,0:0:0:0:
64,197,254262,1,0,0:0:0:0:
169,214,254617,1,0,0:0:0:0:
247,138,254972,1,0,0:0:0:0:
86,94,255327,1,0,0:0:0:0:
81,146,255682,1,0,0:0:0:0:
263,188,256037,1,0,0:0:0:0:
92,144,256393,1,0,0:0:0:0:
160,185,256748,1,0,0:0:0:0:
181,176,257103,1,0,0:0:0:0:
80,222,257458,1,0,0:0:0:0:
235,162,257813,1,0,0:0:0:0:
282,287,258168,1,0,0:0:0:0:
188,217,258523,1,0,0:0:0:0:
419,163,258878,1,0,0:0:0:0:
320,299,259233,1,0,0:0:0:0:
164,259,259588,1,0,0:0:0:0:
213,211,261008,2,0,B|336:202|336:317|186:400|125:329|62:310|40:205|40:167|108:142|37:141|129:130|216:129|310:6|432:30|438:233|432:316|378:355|344:378|285:387|213:357|535:377|442:344|466:238|528:112|439:118|437:115|431:84|392:28,4,1120
49,130,272724,6,0,B|-8:328|-48:330|39:412|189:419|261:377|282:313|281:223|229:187|128:178|134:237|86:266|106:295|68:191|153:156|240:147|298:177|365:216|379:245|376:320|336:379|281:375|252:416|320:404|451:400|422:317|422:212|348:157|328:123|322:111|291:78|223:127|159:108|79:132|128:144|130:121|150:134,5,1120
99,75,287280,2,0,B|127:240|287:262|443:218|376:103|231:129|192:113|186:64|298:60|370:61|396:47|342:104,3,560
256,192,291895,12,0,293315,0:0:0:0:
161,185,294736,5,0,0:0:0:0:
245,110,295446,1,0,0:0:0:0:
267,232,295801,1,0,0:0:0:0:
371,138,296156,1,0,0:0:0:0:
359,251,296511,1,0,0:0:0:0:
117,164,297931,1,0,0:0:0:0:
294,136,298286,1,0,0:0:0:0:
290,278,298641,1,0,0:0:0:0:
87,156,298996,1,0,0:0:0:0:
309,124,299351,1,0,0:0:0:0:
190,265,299706,1,0,0:0:0:0:
205,87,300061,1,0,0:0:0:0:
210,219,300416,1,0,0:0:0:0:
206,109,300771,1,0,0:0:0:0:
215,219,301126,1,0,0:0:0:0:
210,172,301836,1,0,0:0:0:0:
210,172,302546,1,0,0:0:0:0:
210,172,303256,1,0,0:0:0:0:
304,276,304322,1,0,0:0:0:0:
290,108,304677,1,0,0:0:0:0:
300,222,305032,1,0,0:0:0:0:
293,226,305387,1,0,0:0:0:0:
224,121,305742,1,0,0:0:0:0:
207,206,306097,1,0,0:0:0:0:
189,124,306452,1,0,0:0:0:0:
208,170,306807,5,0,0:0:0:0:
200,180,307162,1,0,0:0:0:0:
108,125,307872,5,0,0:0:0:0:
251,194,308227,1,0,0:0:0:0:
241,72,308582,1,0,0:0:0:0:
342,215,308937,1,0,0:0:0:0:
114,210,309292,1,0,0:0:0:0:
239,102,309647,1,0,0:0:0:0:
223,246,310002,1,0,0:0:0:0:
148,129,311777,1,0,0:0:0:0:
169,287,312487,1,0,0:0:0:0:
296,121,312842,1,0,0:0:0:0:
324,257,313552,1,0,0:0:0:0:
80,191,314262,1,0,0:0:0:0:
312,225,314972,1,0,0:0:0:0:
139,225,315682,1,0,0:0:0:0:
258,160,316037,1,0,0:0:0:0:
169,163,316393,1,0,0:0:0:0:
314,161,317103,1,0,0:0:0:0:
81,201,317458,1,0,0:0:0:0:
388,161,318168,1,0,0:0:0:0:
90,177,318878,1,0,0:0:0:0:
409,151,319588,1,0,0:0:0:0:
137,178,319943,1,0,0:0:0:0:
378,160,320653,1,0,0:0:0:0:
150,178,321008,1,0,0:0:0:0:
147,187,321718,1,0,0:0:0:0:
169,182,322428,1,0,0:0:0:0:
386,172,322783,1,0,0:0:0:0:
189,174,323493,1,0,0:0:0:0:
381,155,323848,1,0,0:0:0:0:
189,174,324203,1,0,0:0:0:0:
365,151,324558,1,0,0:0:0:0:
187,180,324913,1,0,0:0:0:0:
324,173,325268,1,0,0:0:0:0:
170,176,325623,1,0,0:0:0:0:
365,160,325978,1,0,0:0:0:0:
217,53,326688,1,0,0:0:0:0:
48,70,327043,1,0,0:0:0:0:
245,74,327398,1,0,0:0:0:0:
234,76,327753,1,0,0:0:0:0:
52,72,328108,1,0,0:0:0:0:
404,224,328819,1,0,0:0:0:0:
228,229,329174,1,0,0:0:0:0:
414,217,329529,1,0,0:0:0:0:
461,216,329884,1,0,0:0:0:0:
296,233,330239,1,0,0:0:0:0:
448,233,330594,1,0,0:0:0:0:
313,243,330949,1,0,0:0:0:0:
48,152,331659,1,0,0:0:0:0:
74,162,332014,1,0,0:0:0:0:
226,177,332369,1,0,0:0:0:0:
26,161,332724,1,0,0:0:0:0:
55,177,333079,1,0,0:0:0:0:
194,192,333434,1,0,0:0:0:0:
337,321,334144,1,0,0:0:0:0:
151,331,334499,1,0,0:0:0:0:
375,331,334854,1,0,0:0:0:0:
418,326,335209,1,0,0:0:0:0:
162,317,335919,1,0,0:0:0:0:
152,71,336629,1,0,0:0:0:0:
149,72,337694,1,0,0:0:0:0:
149,70,339114,1,0,0:0:0:0:
149,69,340890,1,0,0:0:0:0:
150,70,342310,1,0,0:0:0:0:
150,70,343375,1,0,0:0:0:0:
151,71,344440,1,0,0:0:0:0:
256,192,345860,12,0,359351,0:0:0:0:
126,148,360061,5,0,0:0:0:0:
204,230,360416,1,0,0:0:0:0:
318,128,360771,1,0,0:0:0:0:
303,239,361126,1,0,0:0:0:0:
206,179,361481,1,0,0:0:0:0:
206,179,361836,1,0,0:0:0:0:
206,179,362191,1,0,0:0:0:0:
206,179,362546,1,0,0:0:0:0:
206,179,362901,1,0,0:0:0:0:
206,179,363256,1,0,0:0:0:0:
206,179,363611,1,0,0:0:0:0:
206,171,363966,1,0,0:0:0:0:
206,179,364322,1,0,0:0:0:0:
194,213,364677,1,0,0:0:0:0:
189,217,365032,1,0,0:0:0:0:
139,178,365387,1,0,0:0:0:0:
175,172,365742,1,0,0:0:0:0:
142,144,367162,1,0,0:0:0:0:
181,231,367872,1,0,0:0:0:0:
177,159,368582,1,0,0:0:0:0:
194,227,368937,1,0,0:0:0:0:
